osu file format v14

[General]
AudioFilename: USAO - Cyaegha.mp3
AudioLeadIn: 0
PreviewTime: 117485
Countdown: 0
SampleSet: Soft
StackLeniency: 0.2
Mode: 0
LetterboxInBreaks: 0
EpilepsyWarning: 1
WidescreenStoryboard: 1

[Editor]
Bookmarks: 2435,12035,21635,31235,40835,50435,60035,69635,79235,88835,98435,108035,117635,127235,136835
DistanceSpacing: 1.5
BeatDivisor: 4
GridSize: 4
TimelineZoom: 3.800001

[Metadata]
Title:Cyaegha
TitleUnicode:Cyaegha
Artist:USAO
ArtistUnicode:USAO
Creator:- AzRaeL -
Version:Avarice
Source:Arcaea
Tags:Electronic Instrumental Dubstep Hardcore Tribecore Cyäegha Absolute Reason 夜浪、旧支配者 Cthulhu Mythos TANO*C Lowiro Sound Collection Memories of Conflict IROCD-002 XTREME UOM Records USAO-017 CHUNITHM PARADISE SUPER STAR maimai でらっくす Splash Dora- doraemonelf [_Drop_] 0922_
BeatmapID:2724800
BeatmapSetID:1314759

[Difficulty]
HPDrainRate:5.5
CircleSize:4
OverallDifficulty:9
ApproachRate:9.6
SliderMultiplier:2
SliderTickRate:1

[Events]
//Background and Video events
0,0,"BG.jpg",0,0
//Break Periods
2,60235,69110
//Storyboard Layer 0 (Background)
Sprite,Background,Centre,"SB\Pixel.jpg",93,214 F,18,16834,17834,1,0 S,19,16834,17834,0,100 R,19,16834,17834,1.446645,-4.83654
Sprite,Background,Centre,"SB\Pixel.jpg",93,214 C,0,16834,,0,0,0 S,19,16834,17834,0,90 R,19,16834,17834,1.446645,-4.83654
Sprite,Background,Centre,"SB\Pixel.jpg",196,252 F,18,21635,22635,1,0 S,19,21635,22635,0,100 R,19,21635,22635,1.642759,-4.640426
Sprite,Background,Centre,"SB\Pixel.jpg",196,252 C,0,21635,,0,0,0 S,19,21635,22635,0,90 R,19,21635,22635,1.642759,-4.640426
Sprite,Background,Centre,"SB\Pixel.jpg",256,440 F,18,26434,27434,1,0 S,19,26434,27434,0,100 R,19,26434,27434,3.700115,9.9833
Sprite,Background,Centre,"SB\Pixel.jpg",256,440 C,0,26434,,0,0,0 S,19,26434,27434,0,90 R,19,26434,27434,3.700115,9.9833
Sprite,Background,Centre,"SB\Pixel.jpg",290,301 F,18,31235,32235,1,0 S,19,31235,32235,0,100 R,19,31235,32235,6.02889,12.31208
Sprite,Background,Centre,"SB\Pixel.jpg",290,301 C,0,31235,,0,0,0 S,19,31235,32235,0,90 R,19,31235,32235,6.02889,12.31208
Sprite,Background,Centre,"SB\Pixel.jpg",138,332 F,18,36034,37034,1,0 S,19,36034,37034,0,100 R,19,36034,37034,1.531454,7.81464
Sprite,Background,Centre,"SB\Pixel.jpg",138,332 C,0,36034,,0,0,0 S,19,36034,37034,0,90 R,19,36034,37034,1.531454,7.81464
Sprite,Background,Centre,"SB\Pixel.jpg",80,184 F,18,40834,41834,1,0 S,19,40834,41834,0,100 R,19,40834,41834,2.812339,9.095524
Sprite,Background,Centre,"SB\Pixel.jpg",80,184 C,0,40834,,0,0,0 S,19,40834,41834,0,90 R,19,40834,41834,2.812339,9.095524
Sprite,Background,Centre,"SB\Pixel.jpg",233,265 F,18,45634,46634,1,0 S,19,45634,46634,0,100 R,19,45634,46634,5.746311,12.0295
Sprite,Background,Centre,"SB\Pixel.jpg",233,265 C,0,45634,,0,0,0 S,19,45634,46634,0,90 R,19,45634,46634,5.746311,12.0295
Sprite,Background,Centre,"SB\Pixel.jpg",532,388 F,18,50435,51435,1,0 S,19,50435,51435,0,100 R,19,50435,51435,5.83205,-0.4511356
Sprite,Background,Centre,"SB\Pixel.jpg",532,388 C,0,50435,,0,0,0 S,19,50435,51435,0,90 R,19,50435,51435,5.83205,-0.4511356
Sprite,Background,Centre,"SB\Pixel.jpg",89,204 F,18,55235,56235,1,0 S,19,55235,56235,0,100 R,19,55235,56235,3.044773,9.327958
Sprite,Background,Centre,"SB\Pixel.jpg",89,204 C,0,55235,,0,0,0 S,19,55235,56235,0,90 R,19,55235,56235,3.044773,9.327958
Sprite,Background,Centre,"SB\Pixel.jpg",468,236 F,18,60034,61034,1,0 S,19,60034,61034,0,100 R,19,60034,61034,6.132342,12.41553
Sprite,Background,Centre,"SB\Pixel.jpg",468,236 C,0,60034,,0,0,0 S,19,60034,61034,0,90 R,19,60034,61034,6.132342,12.41553
Sprite,Background,Centre,"SB\Pixel.jpg",539,262 F,18,84035,85035,1,0 S,19,84035,85035,0,100 R,19,84035,85035,3.886865,-2.39632
Sprite,Background,Centre,"SB\Pixel.jpg",539,262 C,0,84035,,0,0,0 S,19,84035,85035,0,90 R,19,84035,85035,3.886865,-2.39632
Sprite,Background,Centre,"SB\Pixel.jpg",296,394 F,18,88834,89834,1,0 S,19,88834,89834,0,100 R,19,88834,89834,3.756426,10.03961
Sprite,Background,Centre,"SB\Pixel.jpg",296,394 C,0,88834,,0,0,0 S,19,88834,89834,0,90 R,19,88834,89834,3.756426,10.03961
Sprite,Background,Centre,"SB\Pixel.jpg",132,392 F,18,98434,99434,1,0 S,19,98434,99434,0,100 R,19,98434,99434,5.703828,-0.5793571
Sprite,Background,Centre,"SB\Pixel.jpg",132,392 C,0,98434,,0,0,0 S,19,98434,99434,0,90 R,19,98434,99434,5.703828,-0.5793571
Sprite,Background,Centre,"SB\Pixel.jpg",445,323 F,18,108334,109334,1,0 S,19,108334,109334,0,100 R,19,108334,109334,1.932762,-4.350423
Sprite,Background,Centre,"SB\Pixel.jpg",445,323 C,0,108334,,0,0,0 S,19,108334,109334,0,90 R,19,108334,109334,1.932762,-4.350423
Sprite,Background,Centre,"SB\Pixel.jpg",336,76 F,18,117635,118635,1,0 S,19,117635,118635,0,100 R,19,117635,118635,5.113471,11.39666
Sprite,Background,Centre,"SB\Pixel.jpg",336,76 C,0,117635,,0,0,0 S,19,117635,118635,0,90 R,19,117635,118635,5.113471,11.39666
Sprite,Background,Centre,"SB\Pixel.jpg",215,168 F,18,127535,128535,1,0 S,19,127535,128535,0,100 R,19,127535,128535,0.368227,-5.914958
Sprite,Background,Centre,"SB\Pixel.jpg",215,168 C,0,127535,,0,0,0 S,19,127535,128535,0,90 R,19,127535,128535,0.368227,-5.914958
Sprite,Background,Centre,"sb\glow.png",467,164 S,0,26135,,0.5 C,0,26135,,255,0,255 F,0,26135,26635,1,0
Sprite,Background,Centre,"sb\glow.png",443,158 S,0,26153,,0.5 C,0,26153,,255,0,255 F,0,26153,26653,1,0
Sprite,Background,Centre,"sb\glow.png",422,144 S,0,26172,,0.5 C,0,26172,,255,0,255 F,0,26172,26672,1,0
Sprite,Background,Centre,"sb\glow.png",405,130 S,0,26191,,0.5 C,0,26191,,255,0,255 F,0,26191,26691,1,0
Sprite,Background,Centre,"sb\glow.png",395,153 S,0,26210,,0.5 C,0,26210,,255,0,255 F,0,26210,26710,1,0
Sprite,Background,Centre,"sb\glow.png",390,177 S,0,26228,,0.5 C,0,26228,,255,0,255 F,0,26228,26728,1,0
Sprite,Background,Centre,"sb\glow.png",396,202 S,0,26247,,0.5 C,0,26247,,255,0,255 F,0,26247,26747,1,0
Sprite,Background,Centre,"sb\glow.png",411,222 S,0,26266,,0.5 C,0,26266,,255,0,255 F,0,26266,26766,1,0
Sprite,Background,Centre,"sb\glow.png",430,237 S,0,26285,,0.5 C,0,26285,,255,0,255 F,0,26285,26785,1,0
Sprite,Background,Centre,"sb\glow.png",447,255 S,0,26303,,0.5 C,0,26303,,255,0,255 F,0,26303,26803,1,0
Sprite,Background,Centre,"sb\glow.png",459,277 S,0,26322,,0.5 C,0,26322,,255,0,255 F,0,26322,26822,1,0
Sprite,Background,Centre,"sb\glow.png",464,302 S,0,26341,,0.5 C,0,26341,,255,0,255 F,0,26341,26841,1,0
Sprite,Background,Centre,"sb\glow.png",463,327 S,0,26360,,0.5 C,0,26360,,255,0,255 F,0,26360,26860,1,0
Sprite,Background,Centre,"sb\glow.png",384,370 S,0,26378,,0.5 C,0,26378,,255,0,255 F,0,26378,26878,1,0
Sprite,Background,Centre,"sb\glow.png",317,407 S,0,26397,,0.5 C,0,26397,,255,0,255 F,0,26397,26897,1,0
Sprite,Background,Centre,"sb\glow.png",272,431 S,0,26416,,0.5 C,0,26416,,255,0,255 F,0,26416,26916,1,0
Sprite,Background,Centre,"sb\glow.png",256,440 S,0,26435,,0.5 C,0,26435,,255,128,192 F,0,26435,26935,1,0
Sprite,Background,Centre,"sb\glow.png",250,416 S,0,26453,,0.5 C,0,26453,,255,128,192 F,0,26453,26953,1,0
Sprite,Background,Centre,"sb\glow.png",248,391 S,0,26472,,0.5 C,0,26472,,255,128,192 F,0,26472,26972,1,0
Sprite,Background,Centre,"sb\glow.png",252,366 S,0,26491,,0.5 C,0,26491,,255,128,192 F,0,26491,26991,1,0
Sprite,Background,Centre,"sb\glow.png",261,343 S,0,26510,,0.5 C,0,26510,,255,128,192 F,0,26510,27010,1,0
Sprite,Background,Centre,"sb\glow.png",274,322 S,0,26528,,0.5 C,0,26528,,255,128,192 F,0,26528,27028,1,0
Sprite,Background,Centre,"sb\glow.png",292,304 S,0,26547,,0.5 C,0,26547,,255,128,192 F,0,26547,27047,1,0
Sprite,Background,Centre,"sb\glow.png",312,289 S,0,26566,,0.5 C,0,26566,,255,128,192 F,0,26566,27066,1,0
Sprite,Background,Centre,"sb\glow.png",336,282 S,0,26585,,0.5 C,0,26585,,255,128,192 F,0,26585,27085,1,0
Sprite,Background,Centre,"sb\glow.png",360,286 S,0,26603,,0.5 C,0,26603,,255,128,192 F,0,26603,27103,1,0
Sprite,Background,Centre,"sb\glow.png",378,303 S,0,26622,,0.5 C,0,26622,,255,128,192 F,0,26622,27122,1,0
Sprite,Background,Centre,"sb\glow.png",383,327 S,0,26641,,0.5 C,0,26641,,255,128,192 F,0,26641,27141,1,0
Sprite,Background,Centre,"sb\glow.png",374,349 S,0,26660,,0.5 C,0,26660,,255,128,192 F,0,26660,27160,1,0
Sprite,Background,Centre,"sb\glow.png",353,362 S,0,26678,,0.5 C,0,26678,,255,128,192 F,0,26678,27178,1,0
Sprite,Background,Centre,"sb\glow.png",328,363 S,0,26697,,0.5 C,0,26697,,255,128,192 F,0,26697,27197,1,0
Sprite,Background,Centre,"sb\glow.png",304,355 S,0,26716,,0.5 C,0,26716,,255,128,192 F,0,26716,27216,1,0
Sprite,Background,Centre,"sb\glow.png",283,342 S,0,26735,,0.5 C,0,26735,,255,128,192 F,0,26735,27235,1,0
Sprite,Background,Centre,"sb\glow.png",265,325 S,0,26753,,0.5 C,0,26753,,255,128,192 F,0,26753,27253,1,0
Sprite,Background,Centre,"sb\glow.png",245,309 S,0,26772,,0.5 C,0,26772,,255,128,192 F,0,26772,27272,1,0
Sprite,Background,Centre,"sb\glow.png",223,297 S,0,26791,,0.5 C,0,26791,,255,128,192 F,0,26791,27291,1,0
Sprite,Background,Centre,"sb\glow.png",199,292 S,0,26810,,0.5 C,0,26810,,255,128,192 F,0,26810,27310,1,0
Sprite,Background,Centre,"sb\glow.png",175,296 S,0,26828,,0.5 C,0,26828,,255,128,192 F,0,26828,27328,1,0
Sprite,Background,Centre,"sb\glow.png",154,310 S,0,26847,,0.5 C,0,26847,,255,128,192 F,0,26847,27347,1,0
Sprite,Background,Centre,"sb\glow.png",174,309 S,0,26866,,0.5 C,0,26866,,255,128,192 F,0,26866,27366,1,0
Sprite,Background,Centre,"sb\glow.png",199,312 S,0,26885,,0.5 C,0,26885,,255,128,192 F,0,26885,27385,1,0
Sprite,Background,Centre,"sb\glow.png",112,231 S,0,35735,,0.5 C,0,35735,,255,0,255 F,0,35735,36235,1,0
Sprite,Background,Centre,"sb\glow.png",97,211 S,0,35753,,0.5 C,0,35753,,255,0,255 F,0,35753,36253,1,0
Sprite,Background,Centre,"sb\glow.png",88,188 S,0,35772,,0.5 C,0,35772,,255,0,255 F,0,35772,36272,1,0
Sprite,Background,Centre,"sb\glow.png",87,163 S,0,35791,,0.5 C,0,35791,,255,0,255 F,0,35791,36291,1,0
Sprite,Background,Centre,"sb\glow.png",96,140 S,0,35810,,0.5 C,0,35810,,255,0,255 F,0,35810,36310,1,0
Sprite,Background,Centre,"sb\glow.png",119,135 S,0,35828,,0.5 C,0,35828,,255,0,255 F,0,35828,36328,1,0
Sprite,Background,Centre,"sb\glow.png",143,139 S,0,35847,,0.5 C,0,35847,,255,0,255 F,0,35847,36347,1,0
Sprite,Background,Centre,"sb\glow.png",166,151 S,0,35866,,0.5 C,0,35866,,255,0,255 F,0,35866,36366,1,0
Sprite,Background,Centre,"sb\glow.png",184,167 S,0,35885,,0.5 C,0,35885,,255,0,255 F,0,35885,36385,1,0
Sprite,Background,Centre,"sb\glow.png",198,188 S,0,35903,,0.5 C,0,35903,,255,0,255 F,0,35903,36403,1,0
Sprite,Background,Centre,"sb\glow.png",206,212 S,0,35922,,0.5 C,0,35922,,255,0,255 F,0,35922,36422,1,0
Sprite,Background,Centre,"sb\glow.png",207,237 S,0,35941,,0.5 C,0,35941,,255,0,255 F,0,35941,36441,1,0
Sprite,Background,Centre,"sb\glow.png",203,261 S,0,35960,,0.5 C,0,35960,,255,0,255 F,0,35960,36460,1,0
Sprite,Background,Centre,"sb\glow.png",178,288 S,0,35978,,0.5 C,0,35978,,255,0,255 F,0,35978,36478,1,0
Sprite,Background,Centre,"sb\glow.png",157,311 S,0,35997,,0.5 C,0,35997,,255,0,255 F,0,35997,36497,1,0
Sprite,Background,Centre,"sb\glow.png",143,327 S,0,36016,,0.5 C,0,36016,,255,0,255 F,0,36016,36516,1,0
Sprite,Background,Centre,"sb\glow.png",138,332 S,0,36035,,0.5 C,0,36035,,255,128,192 F,0,36035,36535,1,0
Sprite,Background,Centre,"sb\glow.png",114,339 S,0,36053,,0.5 C,0,36053,,255,128,192 F,0,36053,36553,1,0
Sprite,Background,Centre,"sb\glow.png",93,352 S,0,36072,,0.5 C,0,36072,,255,128,192 F,0,36072,36572,1,0
Sprite,Background,Centre,"sb\glow.png",76,371 S,0,36091,,0.5 C,0,36091,,255,128,192 F,0,36091,36591,1,0
Sprite,Background,Centre,"sb\glow.png",64,392 S,0,36110,,0.5 C,0,36110,,255,128,192 F,0,36110,36610,1,0
Sprite,Background,Centre,"sb\glow.png",57,367 S,0,36128,,0.5 C,0,36128,,255,128,192 F,0,36128,36628,1,0
Sprite,Background,Centre,"sb\glow.png",56,343 S,0,36147,,0.5 C,0,36147,,255,128,192 F,0,36147,36647,1,0
Sprite,Background,Centre,"sb\glow.png",61,318 S,0,36166,,0.5 C,0,36166,,255,128,192 F,0,36166,36666,1,0
Sprite,Background,Centre,"sb\glow.png",71,295 S,0,36185,,0.5 C,0,36185,,255,128,192 F,0,36185,36685,1,0
Sprite,Background,Centre,"sb\glow.png",85,275 S,0,36203,,0.5 C,0,36203,,255,128,192 F,0,36203,36703,1,0
Sprite,Background,Centre,"sb\glow.png",104,258 S,0,36222,,0.5 C,0,36222,,255,128,192 F,0,36222,36722,1,0
Sprite,Background,Centre,"sb\glow.png",126,246 S,0,36241,,0.5 C,0,36241,,255,128,192 F,0,36241,36741,1,0
Sprite,Background,Centre,"sb\glow.png",150,239 S,0,36260,,0.5 C,0,36260,,255,128,192 F,0,36260,36760,1,0
Sprite,Background,Centre,"sb\glow.png",174,237 S,0,36278,,0.5 C,0,36278,,255,128,192 F,0,36278,36778,1,0
Sprite,Background,Centre,"sb\glow.png",199,241 S,0,36297,,0.5 C,0,36297,,255,128,192 F,0,36297,36797,1,0
Sprite,Background,Centre,"sb\glow.png",222,250 S,0,36316,,0.5 C,0,36316,,255,128,192 F,0,36316,36816,1,0
Sprite,Background,Centre,"sb\glow.png",243,264 S,0,36335,,0.5 C,0,36335,,255,128,192 F,0,36335,36835,1,0
Sprite,Background,Centre,"sb\glow.png",260,282 S,0,36353,,0.5 C,0,36353,,255,128,192 F,0,36353,36853,1,0
Sprite,Background,Centre,"sb\glow.png",273,304 S,0,36372,,0.5 C,0,36372,,255,128,192 F,0,36372,36872,1,0
Sprite,Background,Centre,"sb\glow.png",281,327 S,0,36391,,0.5 C,0,36391,,255,128,192 F,0,36391,36891,1,0
Sprite,Background,Centre,"sb\glow.png",283,352 S,0,36410,,0.5 C,0,36410,,255,128,192 F,0,36410,36910,1,0
Sprite,Background,Centre,"sb\glow.png",280,377 S,0,36428,,0.5 C,0,36428,,255,128,192 F,0,36428,36928,1,0
Sprite,Background,Centre,"sb\glow.png",271,400 S,0,36447,,0.5 C,0,36447,,255,128,192 F,0,36447,36947,1,0
Sprite,Background,Centre,"sb\glow.png",258,422 S,0,36466,,0.5 C,0,36466,,255,128,192 F,0,36466,36966,1,0
Sprite,Background,Centre,"sb\glow.png",240,439 S,0,36485,,0.5 C,0,36485,,255,128,192 F,0,36485,36985,1,0
Sprite,Background,Centre,"sb\glow.png",284,346 S,0,45334,,0.5 C,0,45334,,255,88,102 F,0,45334,45834,1,0
Sprite,Background,Centre,"sb\glow.png",303,361 S,0,45352,,0.5 C,0,45352,,255,88,102 F,0,45352,45852,1,0
Sprite,Background,Centre,"sb\glow.png",324,373 S,0,45371,,0.5 C,0,45371,,255,88,102 F,0,45371,45871,1,0
Sprite,Background,Centre,"sb\glow.png",348,381 S,0,45390,,0.5 C,0,45390,,255,88,102 F,0,45390,45890,1,0
Sprite,Background,Centre,"sb\glow.png",373,384 S,0,45409,,0.5 C,0,45409,,255,88,102 F,0,45409,45909,1,0
Sprite,Background,Centre,"sb\glow.png",397,382 S,0,45427,,0.5 C,0,45427,,255,88,102 F,0,45427,45927,1,0
Sprite,Background,Centre,"sb\glow.png",422,376 S,0,45446,,0.5 C,0,45446,,255,88,102 F,0,45446,45946,1,0
Sprite,Background,Centre,"sb\glow.png",444,366 S,0,45465,,0.5 C,0,45465,,255,88,102 F,0,45465,45965,1,0
Sprite,Background,Centre,"sb\glow.png",455,346 S,0,45484,,0.5 C,0,45484,,255,88,102 F,0,45484,45984,1,0
Sprite,Background,Centre,"sb\glow.png",457,321 S,0,45502,,0.5 C,0,45502,,255,88,102 F,0,45502,46002,1,0
Sprite,Background,Centre,"sb\glow.png",452,297 S,0,45521,,0.5 C,0,45521,,255,88,102 F,0,45521,46021,1,0
Sprite,Background,Centre,"sb\glow.png",441,274 S,0,45540,,0.5 C,0,45540,,255,88,102 F,0,45540,46040,1,0
Sprite,Background,Centre,"sb\glow.png",425,256 S,0,45559,,0.5 C,0,45559,,255,88,102 F,0,45559,46059,1,0
Sprite,Background,Centre,"sb\glow.png",354,259 S,0,45577,,0.5 C,0,45577,,255,88,102 F,0,45577,46077,1,0
Sprite,Background,Centre,"sb\glow.png",292,262 S,0,45596,,0.5 C,0,45596,,255,88,102 F,0,45596,46096,1,0
Sprite,Background,Centre,"sb\glow.png",249,264 S,0,45615,,0.5 C,0,45615,,255,88,102 F,0,45615,46115,1,0
Sprite,Background,Centre,"sb\glow.png",233,265 S,0,45634,,0.5 C,0,45634,,255,88,102 F,0,45634,46134,1,0
Sprite,Background,Centre,"sb\glow.png",211,274 S,0,45652,,0.5 C,0,45652,,255,0,255 F,0,45652,46152,1,0
Sprite,Background,Centre,"sb\glow.png",190,287 S,0,45671,,0.5 C,0,45671,,255,0,255 F,0,45671,46171,1,0
Sprite,Background,Centre,"sb\glow.png",171,304 S,0,45690,,0.5 C,0,45690,,255,0,255 F,0,45690,46190,1,0
Sprite,Background,Centre,"sb\glow.png",155,323 S,0,45709,,0.5 C,0,45709,,255,0,255 F,0,45709,46209,1,0
Sprite,Background,Centre,"sb\glow.png",142,344 S,0,45727,,0.5 C,0,45727,,255,0,255 F,0,45727,46227,1,0
Sprite,Background,Centre,"sb\glow.png",132,367 S,0,45746,,0.5 C,0,45746,,255,0,255 F,0,45746,46246,1,0
Sprite,Background,Centre,"sb\glow.png",128,392 S,0,45765,,0.5 C,0,45765,,255,0,255 F,0,45765,46265,1,0
Sprite,Background,Centre,"sb\glow.png",133,416 S,0,45784,,0.5 C,0,45784,,255,0,255 F,0,45784,46284,1,0
Sprite,Background,Centre,"sb\glow.png",148,435 S,0,45802,,0.5 C,0,45802,,255,0,255 F,0,45802,46302,1,0
Sprite,Background,Centre,"sb\glow.png",171,442 S,0,45821,,0.5 C,0,45821,,255,0,255 F,0,45821,46321,1,0
Sprite,Background,Centre,"sb\glow.png",194,435 S,0,45840,,0.5 C,0,45840,,255,0,255 F,0,45840,46340,1,0
Sprite,Background,Centre,"sb\glow.png",210,416 S,0,45859,,0.5 C,0,45859,,255,0,255 F,0,45859,46359,1,0
Sprite,Background,Centre,"sb\glow.png",212,391 S,0,45877,,0.5 C,0,45877,,255,0,255 F,0,45877,46377,1,0
Sprite,Background,Centre,"sb\glow.png",204,368 S,0,45896,,0.5 C,0,45896,,255,0,255 F,0,45896,46396,1,0
Sprite,Background,Centre,"sb\glow.png",188,349 S,0,45915,,0.5 C,0,45915,,255,0,255 F,0,45915,46415,1,0
Sprite,Background,Centre,"sb\glow.png",168,334 S,0,45934,,0.5 C,0,45934,,255,0,255 F,0,45934,46434,1,0
Sprite,Background,Centre,"sb\glow.png",146,322 S,0,45952,,0.5 C,0,45952,,255,0,255 F,0,45952,46452,1,0
Sprite,Background,Centre,"sb\glow.png",125,309 S,0,45971,,0.5 C,0,45971,,255,0,255 F,0,45971,46471,1,0
Sprite,Background,Centre,"sb\glow.png",106,293 S,0,45990,,0.5 C,0,45990,,255,0,255 F,0,45990,46490,1,0
Sprite,Background,Centre,"sb\glow.png",91,273 S,0,46009,,0.5 C,0,46009,,255,0,255 F,0,46009,46509,1,0
Sprite,Background,Centre,"sb\glow.png",82,250 S,0,46027,,0.5 C,0,46027,,255,0,255 F,0,46027,46527,1,0
Sprite,Background,Centre,"sb\glow.png",77,225 S,0,46046,,0.5 C,0,46046,,255,0,255 F,0,46046,46546,1,0
Sprite,Background,Centre,"sb\glow.png",88,239 S,0,46065,,0.5 C,0,46065,,255,0,255 F,0,46065,46565,1,0
Sprite,Background,Centre,"sb\glow.png",107,255 S,0,46084,,0.5 C,0,46084,,255,0,255 F,0,46084,46584,1,0
Sprite,Background,Centre,"sb\glow.png",80,412 S,0,54935,,0.5 C,0,54935,,255,128,192 F,0,54935,55435,1,0
Sprite,Background,Centre,"sb\glow.png",68,391 S,0,54953,,0.5 C,0,54953,,255,128,192 F,0,54953,55453,1,0
Sprite,Background,Centre,"sb\glow.png",66,366 S,0,54972,,0.5 C,0,54972,,255,128,192 F,0,54972,55472,1,0
Sprite,Background,Centre,"sb\glow.png",74,343 S,0,54991,,0.5 C,0,54991,,255,128,192 F,0,54991,55491,1,0
Sprite,Background,Centre,"sb\glow.png",92,325 S,0,55010,,0.5 C,0,55010,,255,128,192 F,0,55010,55510,1,0
Sprite,Background,Centre,"sb\glow.png",115,316 S,0,55028,,0.5 C,0,55028,,255,128,192 F,0,55028,55528,1,0
Sprite,Background,Centre,"sb\glow.png",140,318 S,0,55047,,0.5 C,0,55047,,255,128,192 F,0,55047,55547,1,0
Sprite,Background,Centre,"sb\glow.png",162,330 S,0,55066,,0.5 C,0,55066,,255,128,192 F,0,55066,55566,1,0
Sprite,Background,Centre,"sb\glow.png",176,351 S,0,55085,,0.5 C,0,55085,,255,128,192 F,0,55085,55585,1,0
Sprite,Background,Centre,"sb\glow.png",181,375 S,0,55103,,0.5 C,0,55103,,255,128,192 F,0,55103,55603,1,0
Sprite,Background,Centre,"sb\glow.png",175,397 S,0,55122,,0.5 C,0,55122,,255,128,192 F,0,55122,55622,1,0
Sprite,Background,Centre,"sb\glow.png",168,373 S,0,55141,,0.5 C,0,55141,,255,128,192 F,0,55141,55641,1,0
Sprite,Background,Centre,"sb\glow.png",154,352 S,0,55160,,0.5 C,0,55160,,255,128,192 F,0,55160,55660,1,0
Sprite,Background,Centre,"sb\glow.png",129,295 S,0,55178,,0.5 C,0,55178,,255,128,192 F,0,55178,55678,1,0
Sprite,Background,Centre,"sb\glow.png",108,247 S,0,55197,,0.5 C,0,55197,,255,128,192 F,0,55197,55697,1,0
Sprite,Background,Centre,"sb\glow.png",94,215 S,0,55216,,0.5 C,0,55216,,255,128,192 F,0,55216,55716,1,0
Sprite,Background,Centre,"sb\glow.png",89,204 S,0,55235,,0.5 C,0,55235,,255,0,128 F,0,55235,55735,1,0
Sprite,Background,Centre,"sb\glow.png",87,179 S,0,55253,,0.5 C,0,55253,,255,0,128 F,0,55253,55753,1,0
Sprite,Background,Centre,"sb\glow.png",92,155 S,0,55272,,0.5 C,0,55272,,255,0,128 F,0,55272,55772,1,0
Sprite,Background,Centre,"sb\glow.png",103,132 S,0,55291,,0.5 C,0,55291,,255,0,128 F,0,55291,55791,1,0
Sprite,Background,Centre,"sb\glow.png",119,114 S,0,55310,,0.5 C,0,55310,,255,0,128 F,0,55310,55810,1,0
Sprite,Background,Centre,"sb\glow.png",139,98 S,0,55328,,0.5 C,0,55328,,255,0,128 F,0,55328,55828,1,0
Sprite,Background,Centre,"sb\glow.png",162,100 S,0,55347,,0.5 C,0,55347,,255,0,128 F,0,55347,55847,1,0
Sprite,Background,Centre,"sb\glow.png",185,110 S,0,55366,,0.5 C,0,55366,,255,0,128 F,0,55366,55866,1,0
Sprite,Background,Centre,"sb\glow.png",204,127 S,0,55385,,0.5 C,0,55385,,255,0,128 F,0,55385,55885,1,0
Sprite,Background,Centre,"sb\glow.png",218,147 S,0,55403,,0.5 C,0,55403,,255,0,128 F,0,55403,55903,1,0
Sprite,Background,Centre,"sb\glow.png",228,170 S,0,55422,,0.5 C,0,55422,,255,0,128 F,0,55422,55922,1,0
Sprite,Background,Centre,"sb\glow.png",204,174 S,0,55441,,0.5 C,0,55441,,255,0,128 F,0,55441,55941,1,0
Sprite,Background,Centre,"sb\glow.png",182,185 S,0,55460,,0.5 C,0,55460,,255,0,128 F,0,55460,55960,1,0
Sprite,Background,Centre,"sb\glow.png",201,217 S,0,55478,,0.5 C,0,55478,,255,0,128 F,0,55478,55978,1,0
Sprite,Background,Centre,"sb\glow.png",217,243 S,0,55497,,0.5 C,0,55497,,255,0,128 F,0,55497,55997,1,0
Sprite,Background,Centre,"sb\glow.png",228,261 S,0,55516,,0.5 C,0,55516,,255,0,128 F,0,55516,56016,1,0
Sprite,Background,Centre,"sb\glow.png",232,267 S,0,55535,,0.5 C,0,55535,,255,0,128 F,0,55535,56035,1,0
Sprite,Background,Centre,"sb\glow.png",251,262 S,0,55553,,0.5 C,0,55553,,255,0,128 F,0,55553,56053,1,0
Sprite,Background,Centre,"sb\glow.png",271,261 S,0,55572,,0.5 C,0,55572,,255,0,128 F,0,55572,56072,1,0
Sprite,Background,Centre,"sb\glow.png",291,264 S,0,55591,,0.5 C,0,55591,,255,0,128 F,0,55591,56091,1,0
Sprite,Background,Centre,"sb\glow.png",308,262 S,0,55610,,0.5 C,0,55610,,255,0,128 F,0,55610,56110,1,0
Sprite,Background,Centre,"sb\glow.png",324,261 S,0,55628,,0.5 C,0,55628,,255,0,128 F,0,55628,56128,1,0
Sprite,Background,Centre,"sb\glow.png",343,265 S,0,55647,,0.5 C,0,55647,,255,0,128 F,0,55647,56147,1,0
Sprite,Background,Centre,"sb\glow.png",363,266 S,0,55666,,0.5 C,0,55666,,255,0,128 F,0,55666,56166,1,0
Sprite,Background,Centre,"sb\glow.png",383,263 S,0,55685,,0.5 C,0,55685,,255,0,128 F,0,55685,56185,1,0
Sprite,Background,Centre,"sb\glow.png",132,392 S,0,98434,,0.5 C,0,98434,,255,0,128 F,0,98434,98934,1,0
Sprite,Background,Centre,"sb\glow.png",114,377 S,0,98452,,0.5 C,0,98452,,255,0,128 F,0,98452,98952,1,0
Sprite,Background,Centre,"sb\glow.png",99,357 S,0,98471,,0.5 C,0,98471,,255,0,128 F,0,98471,98971,1,0
Sprite,Background,Centre,"sb\glow.png",90,334 S,0,98490,,0.5 C,0,98490,,255,0,128 F,0,98490,98990,1,0
Sprite,Background,Centre,"sb\glow.png",87,309 S,0,98509,,0.5 C,0,98509,,255,0,128 F,0,98509,99009,1,0
Sprite,Background,Centre,"sb\glow.png",91,285 S,0,98527,,0.5 C,0,98527,,255,0,128 F,0,98527,99027,1,0
Sprite,Background,Centre,"sb\glow.png",101,262 S,0,98546,,0.5 C,0,98546,,255,0,128 F,0,98546,99046,1,0
Sprite,Background,Centre,"sb\glow.png",116,242 S,0,98565,,0.5 C,0,98565,,255,0,128 F,0,98565,99065,1,0
Sprite,Background,Centre,"sb\glow.png",136,231 S,0,98584,,0.5 C,0,98584,,255,0,128 F,0,98584,99084,1,0
Sprite,Background,Centre,"sb\glow.png",157,243 S,0,98602,,0.5 C,0,98602,,255,0,128 F,0,98602,99102,1,0
Sprite,Background,Centre,"sb\glow.png",173,262 S,0,98621,,0.5 C,0,98621,,255,0,128 F,0,98621,99121,1,0
Sprite,Background,Centre,"sb\glow.png",181,285 S,0,98640,,0.5 C,0,98640,,255,0,128 F,0,98640,99140,1,0
Sprite,Background,Centre,"sb\glow.png",182,310 S,0,98659,,0.5 C,0,98659,,255,0,128 F,0,98659,99159,1,0
Sprite,Background,Centre,"sb\glow.png",208,335 S,0,98677,,0.5 C,0,98677,,255,0,128 F,0,98677,99177,1,0
Sprite,Background,Centre,"sb\glow.png",231,356 S,0,98696,,0.5 C,0,98696,,255,0,128 F,0,98696,99196,1,0
Sprite,Background,Centre,"sb\glow.png",246,371 S,0,98715,,0.5 C,0,98715,,255,0,128 F,0,98715,99215,1,0
Sprite,Background,Centre,"sb\glow.png",252,376 S,0,98734,,0.5 C,0,98734,,255,0,128 F,0,98734,99234,1,0
Sprite,Background,Centre,"sb\glow.png",271,376 S,0,98752,,0.5 C,0,98752,,255,0,128 F,0,98752,99252,1,0
Sprite,Background,Centre,"sb\glow.png",291,372 S,0,98771,,0.5 C,0,98771,,255,0,128 F,0,98771,99271,1,0
Sprite,Background,Centre,"sb\glow.png",309,365 S,0,98790,,0.5 C,0,98790,,255,0,128 F,0,98790,99290,1,0
Sprite,Background,Centre,"sb\glow.png",326,354 S,0,98809,,0.5 C,0,98809,,255,0,128 F,0,98809,99309,1,0
Sprite,Background,Centre,"sb\glow.png",342,342 S,0,98827,,0.5 C,0,98827,,255,0,128 F,0,98827,99327,1,0
Sprite,Background,Centre,"sb\glow.png",361,335 S,0,98846,,0.5 C,0,98846,,255,0,128 F,0,98846,99346,1,0
Sprite,Background,Centre,"sb\glow.png",380,331 S,0,98865,,0.5 C,0,98865,,255,0,128 F,0,98865,99365,1,0
Sprite,Background,Centre,"sb\glow.png",400,331 S,0,98884,,0.5 C,0,98884,,255,0,128 F,0,98884,99384,1,0
Sprite,Background,Centre,"sb\glow.png",417,338 S,0,98902,,0.5 C,0,98902,,255,0,128 F,0,98902,99402,1,0
Sprite,Background,Centre,"sb\glow.png",434,345 S,0,98921,,0.5 C,0,98921,,255,0,128 F,0,98921,99421,1,0
Sprite,Background,Centre,"sb\glow.png",449,351 S,0,98940,,0.5 C,0,98940,,255,0,128 F,0,98940,99440,1,0
Sprite,Background,Centre,"sb\glow.png",462,357 S,0,98959,,0.5 C,0,98959,,255,0,128 F,0,98959,99459,1,0
Sprite,Background,Centre,"sb\glow.png",473,362 S,0,98977,,0.5 C,0,98977,,255,0,128 F,0,98977,99477,1,0
Sprite,Background,Centre,"sb\glow.png",481,365 S,0,98996,,0.5 C,0,98996,,255,0,128 F,0,98996,99496,1,0
Sprite,Background,Centre,"sb\glow.png",486,367 S,0,99015,,0.5 C,0,99015,,255,0,128 F,0,99015,99515,1,0
Sprite,Background,Centre,"sb\glow.png",488,368 S,0,99034,,0.5 C,0,99034,,255,0,128 F,0,99034,99534,1,0
Sprite,Background,Centre,"sb\glow.png",488,368 S,0,99052,,0.5 C,0,99052,,255,0,128 F,0,99052,99552,1,0
Sprite,Background,Centre,"sb\glow.png",488,368 S,0,99071,,0.5 C,0,99071,,255,0,128 F,0,99071,99571,1,0
Sprite,Background,Centre,"sb\glow.png",488,368 S,0,99090,,0.5 C,0,99090,,255,0,128 F,0,99090,99590,1,0
Sprite,Background,Centre,"sb\glow.png",488,368 S,0,99109,,0.5 C,0,99109,,255,0,128 F,0,99109,99609,1,0
Sprite,Background,Centre,"sb\glow.png",488,368 S,0,99127,,0.5 C,0,99127,,255,0,128 F,0,99127,99627,1,0
Sprite,Background,Centre,"sb\glow.png",488,368 S,0,99146,,0.5 C,0,99146,,255,0,128 F,0,99146,99646,1,0
Sprite,Background,Centre,"sb\glow.png",488,368 S,0,99165,,0.5 C,0,99165,,255,0,128 F,0,99165,99665,1,0
Sprite,Background,Centre,"sb\glow.png",488,368 S,0,99184,,0.5 C,0,99184,,255,0,128 F,0,99184,99684,1,0
Sprite,Background,Centre,"sb\glow.png",447,352 S,0,99202,,0.5 C,0,99202,,255,0,128 F,0,99202,99702,1,0
Sprite,Background,Centre,"sb\glow.png",404,335 S,0,99221,,0.5 C,0,99221,,255,0,128 F,0,99221,99721,1,0
Sprite,Background,Centre,"sb\glow.png",366,320 S,0,99240,,0.5 C,0,99240,,255,0,128 F,0,99240,99740,1,0
Sprite,Background,Centre,"sb\glow.png",331,306 S,0,99259,,0.5 C,0,99259,,255,0,128 F,0,99259,99759,1,0
Sprite,Background,Centre,"sb\glow.png",303,295 S,0,99277,,0.5 C,0,99277,,255,0,128 F,0,99277,99777,1,0
Sprite,Background,Centre,"sb\glow.png",282,287 S,0,99296,,0.5 C,0,99296,,255,0,128 F,0,99296,99796,1,0
Sprite,Background,Centre,"sb\glow.png",269,282 S,0,99315,,0.5 C,0,99315,,255,0,128 F,0,99315,99815,1,0
Sprite,Background,Centre,"sb\glow.png",264,280 S,0,99334,,0.5 C,0,99334,,255,0,128 F,0,99334,99834,1,0
Sprite,Background,Centre,"sb\glow.png",265,266 S,0,99352,,0.5 C,0,99352,,255,0,128 F,0,99352,99852,1,0
Sprite,Background,Centre,"sb\glow.png",266,251 S,0,99371,,0.5 C,0,99371,,255,0,128 F,0,99371,99871,1,0
Sprite,Background,Centre,"sb\glow.png",268,236 S,0,99390,,0.5 C,0,99390,,255,0,128 F,0,99390,99890,1,0
Sprite,Background,Centre,"sb\glow.png",269,221 S,0,99409,,0.5 C,0,99409,,255,0,128 F,0,99409,99909,1,0
Sprite,Background,Centre,"sb\glow.png",293,195 S,0,99427,,0.5 C,0,99427,,255,0,128 F,0,99427,99927,1,0
Sprite,Background,Centre,"sb\glow.png",315,173 S,0,99446,,0.5 C,0,99446,,255,0,128 F,0,99446,99946,1,0
Sprite,Background,Centre,"sb\glow.png",330,158 S,0,99465,,0.5 C,0,99465,,255,0,128 F,0,99465,99965,1,0
Sprite,Background,Centre,"sb\glow.png",336,152 S,0,99484,,0.5 C,0,99484,,255,0,128 F,0,99484,99984,1,0
Sprite,Background,Centre,"sb\glow.png",335,138 S,0,99502,,0.5 C,0,99502,,255,0,128 F,0,99502,100002,1,0
Sprite,Background,Centre,"sb\glow.png",334,123 S,0,99521,,0.5 C,0,99521,,255,0,128 F,0,99521,100021,1,0
Sprite,Background,Centre,"sb\glow.png",332,108 S,0,99540,,0.5 C,0,99540,,255,0,128 F,0,99540,100040,1,0
Sprite,Background,Centre,"sb\glow.png",331,93 S,0,99559,,0.5 C,0,99559,,255,0,128 F,0,99559,100059,1,0
Sprite,Background,Centre,"sb\glow.png",356,179 S,0,99577,,0.5 C,0,99577,,255,0,128 F,0,99577,100077,1,0
Sprite,Background,Centre,"sb\glow.png",379,257 S,0,99596,,0.5 C,0,99596,,255,0,128 F,0,99596,100096,1,0
Sprite,Background,Centre,"sb\glow.png",395,311 S,0,99615,,0.5 C,0,99615,,255,0,128 F,0,99615,100115,1,0
Sprite,Background,Centre,"sb\glow.png",401,331 S,0,99634,,0.5 C,0,99634,,255,0,128 F,0,99634,100134,1,0
Sprite,Background,Centre,"sb\glow.png",426,322 S,0,99652,,0.5 C,0,99652,,255,88,102 F,0,99652,100152,1,0
Sprite,Background,Centre,"sb\glow.png",452,312 S,0,99671,,0.5 C,0,99671,,255,88,102 F,0,99671,100171,1,0
Sprite,Background,Centre,"sb\glow.png",475,303 S,0,99690,,0.5 C,0,99690,,255,88,102 F,0,99690,100190,1,0
Sprite,Background,Centre,"sb\glow.png",496,295 S,0,99709,,0.5 C,0,99709,,255,88,102 F,0,99709,100209,1,0
Sprite,Background,Centre,"sb\glow.png",513,289 S,0,99727,,0.5 C,0,99727,,255,88,102 F,0,99727,100227,1,0
Sprite,Background,Centre,"sb\glow.png",526,284 S,0,99746,,0.5 C,0,99746,,255,88,102 F,0,99746,100246,1,0
Sprite,Background,Centre,"sb\glow.png",534,281 S,0,99765,,0.5 C,0,99765,,255,88,102 F,0,99765,100265,1,0
Sprite,Background,Centre,"sb\glow.png",537,280 S,0,99784,,0.5 C,0,99784,,255,88,102 F,0,99784,100284,1,0
Sprite,Background,Centre,"sb\glow.png",523,279 S,0,99802,,0.5 C,0,99802,,255,88,102 F,0,99802,100302,1,0
Sprite,Background,Centre,"sb\glow.png",508,278 S,0,99821,,0.5 C,0,99821,,255,88,102 F,0,99821,100321,1,0
Sprite,Background,Centre,"sb\glow.png",493,276 S,0,99840,,0.5 C,0,99840,,255,88,102 F,0,99840,100340,1,0
Sprite,Background,Centre,"sb\glow.png",478,275 S,0,99859,,0.5 C,0,99859,,255,88,102 F,0,99859,100359,1,0
Sprite,Background,Centre,"sb\glow.png",426,230 S,0,99877,,0.5 C,0,99877,,255,88,102 F,0,99877,100377,1,0
Sprite,Background,Centre,"sb\glow.png",379,190 S,0,99896,,0.5 C,0,99896,,255,88,102 F,0,99896,100396,1,0
Sprite,Background,Centre,"sb\glow.png",348,162 S,0,99915,,0.5 C,0,99915,,255,88,102 F,0,99915,100415,1,0
Sprite,Background,Centre,"sb\glow.png",336,152 S,0,99934,,0.5 C,0,99934,,255,88,102 F,0,99934,100434,1,0
Sprite,Background,Centre,"sb\glow.png",371,158 S,0,99952,,0.5 C,0,99952,,255,88,102 F,0,99952,100452,1,0
Sprite,Background,Centre,"sb\glow.png",406,165 S,0,99971,,0.5 C,0,99971,,255,88,102 F,0,99971,100471,1,0
Sprite,Background,Centre,"sb\glow.png",439,171 S,0,99990,,0.5 C,0,99990,,255,88,102 F,0,99990,100490,1,0
Sprite,Background,Centre,"sb\glow.png",468,176 S,0,100009,,0.5 C,0,100009,,255,88,102 F,0,100009,100509,1,0
Sprite,Background,Centre,"sb\glow.png",492,180 S,0,100027,,0.5 C,0,100027,,255,88,102 F,0,100027,100527,1,0
Sprite,Background,Centre,"sb\glow.png",510,183 S,0,100046,,0.5 C,0,100046,,255,88,102 F,0,100046,100546,1,0
Sprite,Background,Centre,"sb\glow.png",521,185 S,0,100065,,0.5 C,0,100065,,255,88,102 F,0,100065,100565,1,0
Sprite,Background,Centre,"sb\glow.png",525,186 S,0,100084,,0.5 C,0,100084,,255,88,102 F,0,100084,100584,1,0
Sprite,Background,Centre,"sb\glow.png",511,185 S,0,100102,,0.5 C,0,100102,,255,88,102 F,0,100102,100602,1,0
Sprite,Background,Centre,"sb\glow.png",496,184 S,0,100121,,0.5 C,0,100121,,255,88,102 F,0,100121,100621,1,0
Sprite,Background,Centre,"sb\glow.png",481,182 S,0,100140,,0.5 C,0,100140,,255,88,102 F,0,100140,100640,1,0
Sprite,Background,Centre,"sb\glow.png",466,181 S,0,100159,,0.5 C,0,100159,,255,88,102 F,0,100159,100659,1,0
Sprite,Background,Centre,"sb\glow.png",393,208 S,0,100177,,0.5 C,0,100177,,255,88,102 F,0,100177,100677,1,0
Sprite,Background,Centre,"sb\glow.png",327,232 S,0,100196,,0.5 C,0,100196,,255,88,102 F,0,100196,100696,1,0
Sprite,Background,Centre,"sb\glow.png",283,248 S,0,100215,,0.5 C,0,100215,,255,88,102 F,0,100215,100715,1,0
Sprite,Background,Centre,"sb\glow.png",266,254 S,0,100234,,0.5 C,0,100234,,255,88,102 F,0,100234,100734,1,0
Sprite,Background,Centre,"sb\glow.png",250,245 S,0,100252,,0.5 C,0,100252,,255,88,102 F,0,100252,100752,1,0
Sprite,Background,Centre,"sb\glow.png",231,239 S,0,100271,,0.5 C,0,100271,,255,88,102 F,0,100271,100771,1,0
Sprite,Background,Centre,"sb\glow.png",211,236 S,0,100290,,0.5 C,0,100290,,255,88,102 F,0,100290,100790,1,0
Sprite,Background,Centre,"sb\glow.png",224,228 S,0,100309,,0.5 C,0,100309,,255,88,102 F,0,100309,100809,1,0
Sprite,Background,Centre,"sb\glow.png",243,223 S,0,100327,,0.5 C,0,100327,,255,88,102 F,0,100327,100827,1,0
Sprite,Background,Centre,"sb\glow.png",262,224 S,0,100346,,0.5 C,0,100346,,255,88,102 F,0,100346,100846,1,0
Sprite,Background,Centre,"sb\glow.png",281,231 S,0,100365,,0.5 C,0,100365,,255,88,102 F,0,100365,100865,1,0
Sprite,Background,Centre,"sb\glow.png",298,241 S,0,100384,,0.5 C,0,100384,,255,88,102 F,0,100384,100884,1,0
Sprite,Background,Centre,"sb\glow.png",317,247 S,0,100402,,0.5 C,0,100402,,255,88,102 F,0,100402,100902,1,0
Sprite,Background,Centre,"sb\glow.png",337,249 S,0,100421,,0.5 C,0,100421,,255,88,102 F,0,100421,100921,1,0
Sprite,Background,Centre,"sb\glow.png",357,247 S,0,100440,,0.5 C,0,100440,,255,88,102 F,0,100440,100940,1,0
Sprite,Background,Centre,"sb\glow.png",376,241 S,0,100459,,0.5 C,0,100459,,255,88,102 F,0,100459,100959,1,0
Sprite,Background,Centre,"sb\glow.png",370,183 S,0,100477,,0.5 C,0,100477,,255,88,102 F,0,100477,100977,1,0
Sprite,Background,Centre,"sb\glow.png",365,131 S,0,100496,,0.5 C,0,100496,,255,88,102 F,0,100496,100996,1,0
Sprite,Background,Centre,"sb\glow.png",361,96 S,0,100515,,0.5 C,0,100515,,255,88,102 F,0,100515,101015,1,0
Sprite,Background,Centre,"sb\glow.png",359,83 S,0,100534,,0.5 C,0,100534,,255,88,102 F,0,100534,101034,1,0
Sprite,Background,Centre,"sb\glow.png",346,96 S,0,100552,,0.5 C,0,100552,,255,88,102 F,0,100552,101052,1,0
Sprite,Background,Centre,"sb\glow.png",332,111 S,0,100571,,0.5 C,0,100571,,255,88,102 F,0,100571,101071,1,0
Sprite,Background,Centre,"sb\glow.png",333,130 S,0,100590,,0.5 C,0,100590,,255,88,102 F,0,100590,101090,1,0
Sprite,Background,Centre,"sb\glow.png",335,150 S,0,100609,,0.5 C,0,100609,,255,88,102 F,0,100609,101109,1,0
Sprite,Background,Centre,"sb\glow.png",290,217 S,0,100627,,0.5 C,0,100627,,255,88,102 F,0,100627,101127,1,0
Sprite,Background,Centre,"sb\glow.png",249,276 S,0,100646,,0.5 C,0,100646,,255,88,102 F,0,100646,101146,1,0
Sprite,Background,Centre,"sb\glow.png",221,317 S,0,100665,,0.5 C,0,100665,,255,88,102 F,0,100665,101165,1,0
Sprite,Background,Centre,"sb\glow.png",210,332 S,0,100684,,0.5 C,0,100684,,255,88,102 F,0,100684,101184,1,0
Sprite,Background,Centre,"sb\glow.png",211,346 S,0,100702,,0.5 C,0,100702,,255,88,102 F,0,100702,101202,1,0
Sprite,Background,Centre,"sb\glow.png",212,359 S,0,100721,,0.5 C,0,100721,,255,88,102 F,0,100721,101221,1,0
Sprite,Background,Centre,"sb\glow.png",213,368 S,0,100740,,0.5 C,0,100740,,255,88,102 F,0,100740,101240,1,0
Sprite,Background,Centre,"sb\glow.png",213,371 S,0,100759,,0.5 C,0,100759,,255,88,102 F,0,100759,101259,1,0
Sprite,Background,Centre,"sb\glow.png",214,386 S,0,100777,,0.5 C,0,100777,,255,88,102 F,0,100777,101277,1,0
Sprite,Background,Centre,"sb\glow.png",215,399 S,0,100796,,0.5 C,0,100796,,255,88,102 F,0,100796,101296,1,0
Sprite,Background,Centre,"sb\glow.png",216,408 S,0,100815,,0.5 C,0,100815,,255,88,102 F,0,100815,101315,1,0
Sprite,Background,Centre,"sb\glow.png",216,411 S,0,100834,,0.5 C,0,100834,,255,88,102 F,0,100834,101334,1,0
Sprite,Background,Centre,"sb\glow.png",250,396 S,0,100852,,0.5 C,0,100852,,255,0,255 F,0,100852,101352,1,0
Sprite,Background,Centre,"sb\glow.png",285,381 S,0,100871,,0.5 C,0,100871,,255,0,255 F,0,100871,101371,1,0
Sprite,Background,Centre,"sb\glow.png",317,367 S,0,100890,,0.5 C,0,100890,,255,0,255 F,0,100890,101390,1,0
Sprite,Background,Centre,"sb\glow.png",345,355 S,0,100909,,0.5 C,0,100909,,255,0,255 F,0,100909,101409,1,0
Sprite,Background,Centre,"sb\glow.png",369,345 S,0,100927,,0.5 C,0,100927,,255,0,255 F,0,100927,101427,1,0
Sprite,Background,Centre,"sb\glow.png",386,337 S,0,100946,,0.5 C,0,100946,,255,0,255 F,0,100946,101446,1,0
Sprite,Background,Centre,"sb\glow.png",397,333 S,0,100965,,0.5 C,0,100965,,255,0,255 F,0,100965,101465,1,0
Sprite,Background,Centre,"sb\glow.png",401,331 S,0,100984,,0.5 C,0,100984,,255,0,255 F,0,100984,101484,1,0
Sprite,Background,Centre,"sb\glow.png",382,333 S,0,101002,,0.5 C,0,101002,,255,0,255 F,0,101002,101502,1,0
Sprite,Background,Centre,"sb\glow.png",363,337 S,0,101021,,0.5 C,0,101021,,255,0,255 F,0,101021,101521,1,0
Sprite,Background,Centre,"sb\glow.png",345,344 S,0,101040,,0.5 C,0,101040,,255,0,255 F,0,101040,101540,1,0
Sprite,Background,Centre,"sb\glow.png",326,347 S,0,101059,,0.5 C,0,101059,,255,0,255 F,0,101059,101559,1,0
Sprite,Background,Centre,"sb\glow.png",284,378 S,0,101077,,0.5 C,0,101077,,255,0,255 F,0,101077,101577,1,0
Sprite,Background,Centre,"sb\glow.png",247,406 S,0,101096,,0.5 C,0,101096,,255,0,255 F,0,101096,101596,1,0
Sprite,Background,Centre,"sb\glow.png",221,425 S,0,101115,,0.5 C,0,101115,,255,0,255 F,0,101115,101615,1,0
Sprite,Background,Centre,"sb\glow.png",212,432 S,0,101134,,0.5 C,0,101134,,255,0,255 F,0,101134,101634,1,0
Sprite,Background,Centre,"sb\glow.png",208,396 S,0,101152,,0.5 C,0,101152,,255,0,255 F,0,101152,101652,1,0
Sprite,Background,Centre,"sb\glow.png",203,359 S,0,101171,,0.5 C,0,101171,,255,0,255 F,0,101171,101671,1,0
Sprite,Background,Centre,"sb\glow.png",199,325 S,0,101190,,0.5 C,0,101190,,255,0,255 F,0,101190,101690,1,0
Sprite,Background,Centre,"sb\glow.png",196,296 S,0,101209,,0.5 C,0,101209,,255,0,255 F,0,101209,101709,1,0
Sprite,Background,Centre,"sb\glow.png",193,271 S,0,101227,,0.5 C,0,101227,,255,0,255 F,0,101227,101727,1,0
Sprite,Background,Centre,"sb\glow.png",191,253 S,0,101246,,0.5 C,0,101246,,255,0,255 F,0,101246,101746,1,0
Sprite,Background,Centre,"sb\glow.png",189,241 S,0,101265,,0.5 C,0,101265,,255,0,255 F,0,101265,101765,1,0
Sprite,Background,Centre,"sb\glow.png",189,237 S,0,101284,,0.5 C,0,101284,,255,0,255 F,0,101284,101784,1,0
Sprite,Background,Centre,"sb\glow.png",208,239 S,0,101302,,0.5 C,0,101302,,255,0,255 F,0,101302,101802,1,0
Sprite,Background,Centre,"sb\glow.png",226,244 S,0,101321,,0.5 C,0,101321,,255,0,255 F,0,101321,101821,1,0
Sprite,Background,Centre,"sb\glow.png",245,250 S,0,101340,,0.5 C,0,101340,,255,0,255 F,0,101340,101840,1,0
Sprite,Background,Centre,"sb\glow.png",264,253 S,0,101359,,0.5 C,0,101359,,255,0,255 F,0,101359,101859,1,0
Sprite,Background,Centre,"sb\glow.png",321,283 S,0,101377,,0.5 C,0,101377,,255,0,255 F,0,101377,101877,1,0
Sprite,Background,Centre,"sb\glow.png",372,310 S,0,101396,,0.5 C,0,101396,,255,0,255 F,0,101396,101896,1,0
Sprite,Background,Centre,"sb\glow.png",407,329 S,0,101415,,0.5 C,0,101415,,255,0,255 F,0,101415,101915,1,0
Sprite,Background,Centre,"sb\glow.png",420,336 S,0,101434,,0.5 C,0,101434,,255,0,255 F,0,101434,101934,1,0
Sprite,Background,Centre,"sb\glow.png",420,336 S,0,101452,,0.5 C,0,101452,,255,0,255 F,0,101452,101952,1,0
Sprite,Background,Centre,"sb\glow.png",420,336 S,0,101471,,0.5 C,0,101471,,255,0,255 F,0,101471,101971,1,0
Sprite,Background,Centre,"sb\glow.png",420,336 S,0,101490,,0.5 C,0,101490,,255,0,255 F,0,101490,101990,1,0
Sprite,Background,Centre,"sb\glow.png",420,336 S,0,101509,,0.5 C,0,101509,,255,0,255 F,0,101509,102009,1,0
Sprite,Background,Centre,"sb\glow.png",420,336 S,0,101527,,0.5 C,0,101527,,255,0,255 F,0,101527,102027,1,0
Sprite,Background,Centre,"sb\glow.png",420,336 S,0,101546,,0.5 C,0,101546,,255,0,255 F,0,101546,102046,1,0
Sprite,Background,Centre,"sb\glow.png",420,336 S,0,101565,,0.5 C,0,101565,,255,0,255 F,0,101565,102065,1,0
Sprite,Background,Centre,"sb\glow.png",420,336 S,0,101584,,0.5 C,0,101584,,255,0,255 F,0,101584,102084,1,0
Sprite,Background,Centre,"sb\glow.png",421,303 S,0,101602,,0.5 C,0,101602,,255,0,255 F,0,101602,102102,1,0
Sprite,Background,Centre,"sb\glow.png",422,270 S,0,101621,,0.5 C,0,101621,,255,0,255 F,0,101621,102121,1,0
Sprite,Background,Centre,"sb\glow.png",423,239 S,0,101640,,0.5 C,0,101640,,255,0,255 F,0,101640,102140,1,0
Sprite,Background,Centre,"sb\glow.png",424,212 S,0,101659,,0.5 C,0,101659,,255,0,255 F,0,101659,102159,1,0
Sprite,Background,Centre,"sb\glow.png",425,190 S,0,101677,,0.5 C,0,101677,,255,0,255 F,0,101677,102177,1,0
Sprite,Background,Centre,"sb\glow.png",426,173 S,0,101696,,0.5 C,0,101696,,255,0,255 F,0,101696,102196,1,0
Sprite,Background,Centre,"sb\glow.png",426,163 S,0,101715,,0.5 C,0,101715,,255,0,255 F,0,101715,102215,1,0
Sprite,Background,Centre,"sb\glow.png",426,159 S,0,101734,,0.5 C,0,101734,,255,0,255 F,0,101734,102234,1,0
Sprite,Background,Centre,"sb\glow.png",410,148 S,0,101752,,0.5 C,0,101752,,255,0,255 F,0,101752,102252,1,0
Sprite,Background,Centre,"sb\glow.png",394,137 S,0,101771,,0.5 C,0,101771,,255,0,255 F,0,101771,102271,1,0
Sprite,Background,Centre,"sb\glow.png",388,142 S,0,101790,,0.5 C,0,101790,,255,0,255 F,0,101790,102290,1,0
Sprite,Background,Centre,"sb\glow.png",391,161 S,0,101809,,0.5 C,0,101809,,255,0,255 F,0,101809,102309,1,0
Sprite,Background,Centre,"sb\glow.png",394,180 S,0,101827,,0.5 C,0,101827,,255,0,255 F,0,101827,102327,1,0
Sprite,Background,Centre,"sb\glow.png",397,200 S,0,101846,,0.5 C,0,101846,,255,0,255 F,0,101846,102346,1,0
Sprite,Background,Centre,"sb\glow.png",400,220 S,0,101865,,0.5 C,0,101865,,255,0,255 F,0,101865,102365,1,0
Sprite,Background,Centre,"sb\glow.png",404,240 S,0,101884,,0.5 C,0,101884,,255,0,255 F,0,101884,102384,1,0
Sprite,Background,Centre,"sb\glow.png",412,275 S,0,101902,,0.5 C,0,101902,,255,0,255 F,0,101902,102402,1,0
Sprite,Background,Centre,"sb\glow.png",419,311 S,0,101921,,0.5 C,0,101921,,255,0,255 F,0,101921,102421,1,0
Sprite,Background,Centre,"sb\glow.png",427,343 S,0,101940,,0.5 C,0,101940,,255,0,255 F,0,101940,102440,1,0
Sprite,Background,Centre,"sb\glow.png",433,372 S,0,101959,,0.5 C,0,101959,,255,0,255 F,0,101959,102459,1,0
Sprite,Background,Centre,"sb\glow.png",439,395 S,0,101977,,0.5 C,0,101977,,255,0,255 F,0,101977,102477,1,0
Sprite,Background,Centre,"sb\glow.png",443,413 S,0,101996,,0.5 C,0,101996,,255,0,255 F,0,101996,102496,1,0
Sprite,Background,Centre,"sb\glow.png",445,424 S,0,102015,,0.5 C,0,102015,,255,0,255 F,0,102015,102515,1,0
Sprite,Background,Centre,"sb\glow.png",446,428 S,0,102034,,0.5 C,0,102034,,255,0,255 F,0,102034,102534,1,0
Sprite,Background,Centre,"sb\glow.png",459,423 S,0,102052,,0.5 C,0,102052,,255,128,192 F,0,102052,102552,1,0
Sprite,Background,Centre,"sb\glow.png",472,416 S,0,102071,,0.5 C,0,102071,,255,128,192 F,0,102071,102571,1,0
Sprite,Background,Centre,"sb\glow.png",484,407 S,0,102090,,0.5 C,0,102090,,255,128,192 F,0,102090,102590,1,0
Sprite,Background,Centre,"sb\glow.png",494,395 S,0,102109,,0.5 C,0,102109,,255,128,192 F,0,102109,102609,1,0
Sprite,Background,Centre,"sb\glow.png",500,361 S,0,102127,,0.5 C,0,102127,,255,128,192 F,0,102127,102627,1,0
Sprite,Background,Centre,"sb\glow.png",505,330 S,0,102146,,0.5 C,0,102146,,255,128,192 F,0,102146,102646,1,0
Sprite,Background,Centre,"sb\glow.png",508,309 S,0,102165,,0.5 C,0,102165,,255,128,192 F,0,102165,102665,1,0
Sprite,Background,Centre,"sb\glow.png",509,301 S,0,102184,,0.5 C,0,102184,,255,128,192 F,0,102184,102684,1,0
Sprite,Background,Centre,"sb\glow.png",523,304 S,0,102202,,0.5 C,0,102202,,255,128,192 F,0,102202,102702,1,0
Sprite,Background,Centre,"sb\glow.png",537,309 S,0,102221,,0.5 C,0,102221,,255,128,192 F,0,102221,102721,1,0
Sprite,Background,Centre,"sb\glow.png",550,317 S,0,102240,,0.5 C,0,102240,,255,128,192 F,0,102240,102740,1,0
Sprite,Background,Centre,"sb\glow.png",560,326 S,0,102259,,0.5 C,0,102259,,255,128,192 F,0,102259,102759,1,0
Sprite,Background,Centre,"sb\glow.png",458,327 S,0,102277,,0.5 C,0,102277,,255,128,192 F,0,102277,102777,1,0
Sprite,Background,Centre,"sb\glow.png",365,326 S,0,102296,,0.5 C,0,102296,,255,128,192 F,0,102296,102796,1,0
Sprite,Background,Centre,"sb\glow.png",302,326 S,0,102315,,0.5 C,0,102315,,255,128,192 F,0,102315,102815,1,0
Sprite,Background,Centre,"sb\glow.png",278,326 S,0,102334,,0.5 C,0,102334,,255,128,192 F,0,102334,102834,1,0
Sprite,Background,Centre,"sb\glow.png",289,317 S,0,102352,,0.5 C,0,102352,,255,128,192 F,0,102352,102852,1,0
Sprite,Background,Centre,"sb\glow.png",301,309 S,0,102371,,0.5 C,0,102371,,255,128,192 F,0,102371,102871,1,0
Sprite,Background,Centre,"sb\glow.png",315,303 S,0,102390,,0.5 C,0,102390,,255,128,192 F,0,102390,102890,1,0
Sprite,Background,Centre,"sb\glow.png",330,300 S,0,102409,,0.5 C,0,102409,,255,128,192 F,0,102409,102909,1,0
Sprite,Background,Centre,"sb\glow.png",363,313 S,0,102427,,0.5 C,0,102427,,255,128,192 F,0,102427,102927,1,0
Sprite,Background,Centre,"sb\glow.png",392,325 S,0,102446,,0.5 C,0,102446,,255,128,192 F,0,102446,102946,1,0
Sprite,Background,Centre,"sb\glow.png",412,333 S,0,102465,,0.5 C,0,102465,,255,128,192 F,0,102465,102965,1,0
Sprite,Background,Centre,"sb\glow.png",420,336 S,0,102484,,0.5 C,0,102484,,255,128,192 F,0,102484,102984,1,0
Sprite,Background,Centre,"sb\glow.png",424,322 S,0,102502,,0.5 C,0,102502,,255,128,192 F,0,102502,103002,1,0
Sprite,Background,Centre,"sb\glow.png",426,307 S,0,102521,,0.5 C,0,102521,,255,128,192 F,0,102521,103021,1,0
Sprite,Background,Centre,"sb\glow.png",425,293 S,0,102540,,0.5 C,0,102540,,255,128,192 F,0,102540,103040,1,0
Sprite,Background,Centre,"sb\glow.png",423,278 S,0,102559,,0.5 C,0,102559,,255,128,192 F,0,102559,103059,1,0
Sprite,Background,Centre,"sb\glow.png",374,224 S,0,102577,,0.5 C,0,102577,,255,128,192 F,0,102577,103077,1,0
Sprite,Background,Centre,"sb\glow.png",329,177 S,0,102596,,0.5 C,0,102596,,255,128,192 F,0,102596,103096,1,0
Sprite,Background,Centre,"sb\glow.png",298,144 S,0,102615,,0.5 C,0,102615,,255,128,192 F,0,102615,103115,1,0
Sprite,Background,Centre,"sb\glow.png",287,132 S,0,102634,,0.5 C,0,102634,,255,128,192 F,0,102634,103134,1,0
Sprite,Background,Centre,"sb\glow.png",289,146 S,0,102652,,0.5 C,0,102652,,255,128,192 F,0,102652,103152,1,0
Sprite,Background,Centre,"sb\glow.png",290,161 S,0,102671,,0.5 C,0,102671,,255,128,192 F,0,102671,103171,1,0
Sprite,Background,Centre,"sb\glow.png",292,176 S,0,102690,,0.5 C,0,102690,,255,128,192 F,0,102690,103190,1,0
Sprite,Background,Centre,"sb\glow.png",294,191 S,0,102709,,0.5 C,0,102709,,255,128,192 F,0,102709,103209,1,0
Sprite,Background,Centre,"sb\glow.png",297,205 S,0,102727,,0.5 C,0,102727,,255,128,192 F,0,102727,103227,1,0
Sprite,Background,Centre,"sb\glow.png",307,216 S,0,102746,,0.5 C,0,102746,,255,128,192 F,0,102746,103246,1,0
Sprite,Background,Centre,"sb\glow.png",317,226 S,0,102765,,0.5 C,0,102765,,255,128,192 F,0,102765,103265,1,0
Sprite,Background,Centre,"sb\glow.png",324,239 S,0,102784,,0.5 C,0,102784,,255,128,192 F,0,102784,103284,1,0
Sprite,Background,Centre,"sb\glow.png",325,254 S,0,102802,,0.5 C,0,102802,,255,128,192 F,0,102802,103302,1,0
Sprite,Background,Centre,"sb\glow.png",327,269 S,0,102821,,0.5 C,0,102821,,255,128,192 F,0,102821,103321,1,0
Sprite,Background,Centre,"sb\glow.png",328,284 S,0,102840,,0.5 C,0,102840,,255,128,192 F,0,102840,103340,1,0
Sprite,Background,Centre,"sb\glow.png",330,299 S,0,102859,,0.5 C,0,102859,,255,128,192 F,0,102859,103359,1,0
Sprite,Background,Centre,"sb\glow.png",391,268 S,0,102877,,0.5 C,0,102877,,255,128,192 F,0,102877,103377,1,0
Sprite,Background,Centre,"sb\glow.png",447,239 S,0,102896,,0.5 C,0,102896,,255,128,192 F,0,102896,103396,1,0
Sprite,Background,Centre,"sb\glow.png",485,219 S,0,102915,,0.5 C,0,102915,,255,128,192 F,0,102915,103415,1,0
Sprite,Background,Centre,"sb\glow.png",499,212 S,0,102934,,0.5 C,0,102934,,255,128,192 F,0,102934,103434,1,0
Sprite,Background,Centre,"sb\glow.png",502,198 S,0,102952,,0.5 C,0,102952,,255,128,192 F,0,102952,103452,1,0
Sprite,Background,Centre,"sb\glow.png",503,183 S,0,102971,,0.5 C,0,102971,,255,128,192 F,0,102971,103471,1,0
Sprite,Background,Centre,"sb\glow.png",500,168 S,0,102990,,0.5 C,0,102990,,255,128,192 F,0,102990,103490,1,0
Sprite,Background,Centre,"sb\glow.png",494,155 S,0,103009,,0.5 C,0,103009,,255,128,192 F,0,103009,103509,1,0
Sprite,Background,Centre,"sb\glow.png",484,144 S,0,103027,,0.5 C,0,103027,,255,128,192 F,0,103027,103527,1,0
Sprite,Background,Centre,"sb\glow.png",470,139 S,0,103046,,0.5 C,0,103046,,255,128,192 F,0,103046,103546,1,0
Sprite,Background,Centre,"sb\glow.png",456,136 S,0,103065,,0.5 C,0,103065,,255,128,192 F,0,103065,103565,1,0
Sprite,Background,Centre,"sb\glow.png",441,136 S,0,103084,,0.5 C,0,103084,,255,128,192 F,0,103084,103584,1,0
Sprite,Background,Centre,"sb\glow.png",426,138 S,0,103102,,0.5 C,0,103102,,255,128,192 F,0,103102,103602,1,0
Sprite,Background,Centre,"sb\glow.png",411,143 S,0,103121,,0.5 C,0,103121,,255,128,192 F,0,103121,103621,1,0
Sprite,Background,Centre,"sb\glow.png",398,149 S,0,103140,,0.5 C,0,103140,,255,128,192 F,0,103140,103640,1,0
Sprite,Background,Centre,"sb\glow.png",386,158 S,0,103159,,0.5 C,0,103159,,255,128,192 F,0,103159,103659,1,0
Sprite,Background,Centre,"sb\glow.png",329,201 S,0,103177,,0.5 C,0,103177,,255,128,192 F,0,103177,103677,1,0
Sprite,Background,Centre,"sb\glow.png",279,240 S,0,103196,,0.5 C,0,103196,,255,128,192 F,0,103196,103696,1,0
Sprite,Background,Centre,"sb\glow.png",245,267 S,0,103215,,0.5 C,0,103215,,255,128,192 F,0,103215,103715,1,0
Sprite,Background,Centre,"sb\glow.png",232,277 S,0,103234,,0.5 C,0,103234,,255,128,192 F,0,103234,103734,1,0
Sprite,Background,Centre,"sb\glow.png",211,287 S,0,103252,,0.5 C,0,103252,,255,0,128 F,0,103252,103752,1,0
Sprite,Background,Centre,"sb\glow.png",188,298 S,0,103271,,0.5 C,0,103271,,255,0,128 F,0,103271,103771,1,0
Sprite,Background,Centre,"sb\glow.png",164,296 S,0,103290,,0.5 C,0,103290,,255,0,128 F,0,103290,103790,1,0
Sprite,Background,Centre,"sb\glow.png",139,294 S,0,103309,,0.5 C,0,103309,,255,0,128 F,0,103309,103809,1,0
Sprite,Background,Centre,"sb\glow.png",132,259 S,0,103327,,0.5 C,0,103327,,255,0,128 F,0,103327,103827,1,0
Sprite,Background,Centre,"sb\glow.png",127,227 S,0,103346,,0.5 C,0,103346,,255,0,128 F,0,103346,103846,1,0
Sprite,Background,Centre,"sb\glow.png",124,206 S,0,103365,,0.5 C,0,103365,,255,0,128 F,0,103365,103865,1,0
Sprite,Background,Centre,"sb\glow.png",123,198 S,0,103384,,0.5 C,0,103384,,255,0,128 F,0,103384,103884,1,0
Sprite,Background,Centre,"sb\glow.png",144,188 S,0,103402,,0.5 C,0,103402,,255,0,128 F,0,103402,103902,1,0
Sprite,Background,Centre,"sb\glow.png",167,177 S,0,103421,,0.5 C,0,103421,,255,0,128 F,0,103421,103921,1,0
Sprite,Background,Centre,"sb\glow.png",191,178 S,0,103440,,0.5 C,0,103440,,255,0,128 F,0,103440,103940,1,0
Sprite,Background,Centre,"sb\glow.png",216,181 S,0,103459,,0.5 C,0,103459,,255,0,128 F,0,103459,103959,1,0
Sprite,Background,Centre,"sb\glow.png",270,231 S,0,103477,,0.5 C,0,103477,,255,0,128 F,0,103477,103977,1,0
Sprite,Background,Centre,"sb\glow.png",317,276 S,0,103496,,0.5 C,0,103496,,255,0,128 F,0,103496,103996,1,0
Sprite,Background,Centre,"sb\glow.png",350,306 S,0,103515,,0.5 C,0,103515,,255,0,128 F,0,103515,104015,1,0
Sprite,Background,Centre,"sb\glow.png",362,318 S,0,103534,,0.5 C,0,103534,,255,0,128 F,0,103534,104034,1,0
Sprite,Background,Centre,"sb\glow.png",360,337 S,0,103552,,0.5 C,0,103552,,255,0,128 F,0,103552,104052,1,0
Sprite,Background,Centre,"sb\glow.png",359,357 S,0,103571,,0.5 C,0,103571,,255,0,128 F,0,103571,104071,1,0
Sprite,Background,Centre,"sb\glow.png",357,377 S,0,103590,,0.5 C,0,103590,,255,0,128 F,0,103590,104090,1,0
Sprite,Background,Centre,"sb\glow.png",355,397 S,0,103609,,0.5 C,0,103609,,255,0,128 F,0,103609,104109,1,0
Sprite,Background,Centre,"sb\glow.png",353,417 S,0,103627,,0.5 C,0,103627,,255,0,128 F,0,103627,104127,1,0
Sprite,Background,Centre,"sb\glow.png",351,424 S,0,103646,,0.5 C,0,103646,,255,0,128 F,0,103646,104146,1,0
Sprite,Background,Centre,"sb\glow.png",345,407 S,0,103665,,0.5 C,0,103665,,255,0,128 F,0,103665,104165,1,0
Sprite,Background,Centre,"sb\glow.png",335,390 S,0,103684,,0.5 C,0,103684,,255,0,128 F,0,103684,104184,1,0
Sprite,Background,Centre,"sb\glow.png",329,357 S,0,103702,,0.5 C,0,103702,,255,0,128 F,0,103702,104202,1,0
Sprite,Background,Centre,"sb\glow.png",323,324 S,0,103721,,0.5 C,0,103721,,255,0,128 F,0,103721,104221,1,0
Sprite,Background,Centre,"sb\glow.png",318,293 S,0,103740,,0.5 C,0,103740,,255,0,128 F,0,103740,104240,1,0
Sprite,Background,Centre,"sb\glow.png",314,267 S,0,103759,,0.5 C,0,103759,,255,0,128 F,0,103759,104259,1,0
Sprite,Background,Centre,"sb\glow.png",310,244 S,0,103777,,0.5 C,0,103777,,255,0,128 F,0,103777,104277,1,0
Sprite,Background,Centre,"sb\glow.png",307,228 S,0,103796,,0.5 C,0,103796,,255,0,128 F,0,103796,104296,1,0
Sprite,Background,Centre,"sb\glow.png",306,218 S,0,103815,,0.5 C,0,103815,,255,0,128 F,0,103815,104315,1,0
Sprite,Background,Centre,"sb\glow.png",305,214 S,0,103834,,0.5 C,0,103834,,255,0,128 F,0,103834,104334,1,0
Sprite,Background,Centre,"sb\glow.png",305,214 S,0,103852,,0.5 C,0,103852,,255,0,128 F,0,103852,104352,1,0
Sprite,Background,Centre,"sb\glow.png",305,214 S,0,103871,,0.5 C,0,103871,,255,0,128 F,0,103871,104371,1,0
Sprite,Background,Centre,"sb\glow.png",305,214 S,0,103890,,0.5 C,0,103890,,255,0,128 F,0,103890,104390,1,0
Sprite,Background,Centre,"sb\glow.png",305,214 S,0,103909,,0.5 C,0,103909,,255,0,128 F,0,103909,104409,1,0
Sprite,Background,Centre,"sb\glow.png",305,214 S,0,103927,,0.5 C,0,103927,,255,0,128 F,0,103927,104427,1,0
Sprite,Background,Centre,"sb\glow.png",305,214 S,0,103946,,0.5 C,0,103946,,255,0,128 F,0,103946,104446,1,0
Sprite,Background,Centre,"sb\glow.png",305,214 S,0,103965,,0.5 C,0,103965,,255,0,128 F,0,103965,104465,1,0
Sprite,Background,Centre,"sb\glow.png",305,214 S,0,103984,,0.5 C,0,103984,,255,0,128 F,0,103984,104484,1,0
Sprite,Background,Centre,"sb\glow.png",347,224 S,0,104002,,0.5 C,0,104002,,255,0,128 F,0,104002,104502,1,0
Sprite,Background,Centre,"sb\glow.png",390,234 S,0,104021,,0.5 C,0,104021,,255,0,128 F,0,104021,104521,1,0
Sprite,Background,Centre,"sb\glow.png",430,244 S,0,104040,,0.5 C,0,104040,,255,0,128 F,0,104040,104540,1,0
Sprite,Background,Centre,"sb\glow.png",465,252 S,0,104059,,0.5 C,0,104059,,255,0,128 F,0,104059,104559,1,0
Sprite,Background,Centre,"sb\glow.png",493,259 S,0,104077,,0.5 C,0,104077,,255,0,128 F,0,104077,104577,1,0
Sprite,Background,Centre,"sb\glow.png",515,264 S,0,104096,,0.5 C,0,104096,,255,0,128 F,0,104096,104596,1,0
Sprite,Background,Centre,"sb\glow.png",528,267 S,0,104115,,0.5 C,0,104115,,255,0,128 F,0,104115,104615,1,0
Sprite,Background,Centre,"sb\glow.png",533,268 S,0,104134,,0.5 C,0,104134,,255,0,128 F,0,104134,104634,1,0
Sprite,Background,Centre,"sb\glow.png",514,266 S,0,104152,,0.5 C,0,104152,,255,0,128 F,0,104152,104652,1,0
Sprite,Background,Centre,"sb\glow.png",494,263 S,0,104171,,0.5 C,0,104171,,255,0,128 F,0,104171,104671,1,0
Sprite,Background,Centre,"sb\glow.png",475,261 S,0,104190,,0.5 C,0,104190,,255,0,128 F,0,104190,104690,1,0
Sprite,Background,Centre,"sb\glow.png",455,258 S,0,104209,,0.5 C,0,104209,,255,0,128 F,0,104209,104709,1,0
Sprite,Background,Centre,"sb\glow.png",436,254 S,0,104227,,0.5 C,0,104227,,255,0,128 F,0,104227,104727,1,0
Sprite,Background,Centre,"sb\glow.png",420,242 S,0,104246,,0.5 C,0,104246,,255,0,128 F,0,104246,104746,1,0
Sprite,Background,Centre,"sb\glow.png",405,229 S,0,104265,,0.5 C,0,104265,,255,0,128 F,0,104265,104765,1,0
Sprite,Background,Centre,"sb\glow.png",386,224 S,0,104284,,0.5 C,0,104284,,255,0,128 F,0,104284,104784,1,0
Sprite,Background,Centre,"sb\glow.png",366,222 S,0,104302,,0.5 C,0,104302,,255,0,128 F,0,104302,104802,1,0
Sprite,Background,Centre,"sb\glow.png",346,219 S,0,104321,,0.5 C,0,104321,,255,0,128 F,0,104321,104821,1,0
Sprite,Background,Centre,"sb\glow.png",326,217 S,0,104340,,0.5 C,0,104340,,255,0,128 F,0,104340,104840,1,0
Sprite,Background,Centre,"sb\glow.png",307,214 S,0,104359,,0.5 C,0,104359,,255,0,128 F,0,104359,104859,1,0
Sprite,Background,Centre,"sb\glow.png",240,208 S,0,104377,,0.5 C,0,104377,,255,0,128 F,0,104377,104877,1,0
Sprite,Background,Centre,"sb\glow.png",179,203 S,0,104396,,0.5 C,0,104396,,255,0,128 F,0,104396,104896,1,0
Sprite,Background,Centre,"sb\glow.png",138,199 S,0,104415,,0.5 C,0,104415,,255,0,128 F,0,104415,104915,1,0
Sprite,Background,Centre,"sb\glow.png",123,198 S,0,104434,,0.5 C,0,104434,,255,0,128 F,0,104434,104934,1,0
Sprite,Background,Centre,"sb\glow.png",111,184 S,0,104452,,0.5 C,0,104452,,255,88,102 F,0,104452,104952,1,0
Sprite,Background,Centre,"sb\glow.png",101,166 S,0,104471,,0.5 C,0,104471,,255,88,102 F,0,104471,104971,1,0
Sprite,Background,Centre,"sb\glow.png",95,147 S,0,104490,,0.5 C,0,104490,,255,88,102 F,0,104490,104990,1,0
Sprite,Background,Centre,"sb\glow.png",93,128 S,0,104509,,0.5 C,0,104509,,255,88,102 F,0,104509,105009,1,0
Sprite,Background,Centre,"sb\glow.png",97,108 S,0,104527,,0.5 C,0,104527,,255,88,102 F,0,104527,105027,1,0
Sprite,Background,Centre,"sb\glow.png",107,91 S,0,104546,,0.5 C,0,104546,,255,88,102 F,0,104546,105046,1,0
Sprite,Background,Centre,"sb\glow.png",122,78 S,0,104565,,0.5 C,0,104565,,255,88,102 F,0,104565,105065,1,0
Sprite,Background,Centre,"sb\glow.png",141,73 S,0,104584,,0.5 C,0,104584,,255,88,102 F,0,104584,105084,1,0
Sprite,Background,Centre,"sb\glow.png",160,76 S,0,104602,,0.5 C,0,104602,,255,88,102 F,0,104602,105102,1,0
Sprite,Background,Centre,"sb\glow.png",176,88 S,0,104621,,0.5 C,0,104621,,255,88,102 F,0,104621,105121,1,0
Sprite,Background,Centre,"sb\glow.png",185,105 S,0,104640,,0.5 C,0,104640,,255,88,102 F,0,104640,105140,1,0
Sprite,Background,Centre,"sb\glow.png",187,125 S,0,104659,,0.5 C,0,104659,,255,88,102 F,0,104659,105159,1,0
Sprite,Background,Centre,"sb\glow.png",183,182 S,0,104677,,0.5 C,0,104677,,255,88,102 F,0,104677,105177,1,0
Sprite,Background,Centre,"sb\glow.png",179,232 S,0,104696,,0.5 C,0,104696,,255,88,102 F,0,104696,105196,1,0
Sprite,Background,Centre,"sb\glow.png",176,266 S,0,104715,,0.5 C,0,104715,,255,88,102 F,0,104715,105215,1,0
Sprite,Background,Centre,"sb\glow.png",175,279 S,0,104734,,0.5 C,0,104734,,255,88,102 F,0,104734,105234,1,0
Sprite,Background,Centre,"sb\glow.png",162,285 S,0,104752,,0.5 C,0,104752,,255,88,102 F,0,104752,105252,1,0
Sprite,Background,Centre,"sb\glow.png",148,290 S,0,104771,,0.5 C,0,104771,,255,88,102 F,0,104771,105271,1,0
Sprite,Background,Centre,"sb\glow.png",134,293 S,0,104790,,0.5 C,0,104790,,255,88,102 F,0,104790,105290,1,0
Sprite,Background,Centre,"sb\glow.png",119,294 S,0,104809,,0.5 C,0,104809,,255,88,102 F,0,104809,105309,1,0
Sprite,Background,Centre,"sb\glow.png",184,230 S,0,104827,,0.5 C,0,104827,,255,88,102 F,0,104827,105327,1,0
Sprite,Background,Centre,"sb\glow.png",244,172 S,0,104846,,0.5 C,0,104846,,255,88,102 F,0,104846,105346,1,0
Sprite,Background,Centre,"sb\glow.png",285,133 S,0,104865,,0.5 C,0,104865,,255,88,102 F,0,104865,105365,1,0
Sprite,Background,Centre,"sb\glow.png",300,118 S,0,104884,,0.5 C,0,104884,,255,88,102 F,0,104884,105384,1,0
Sprite,Background,Centre,"sb\glow.png",314,119 S,0,104902,,0.5 C,0,104902,,255,88,102 F,0,104902,105402,1,0
Sprite,Background,Centre,"sb\glow.png",329,121 S,0,104921,,0.5 C,0,104921,,255,88,102 F,0,104921,105421,1,0
Sprite,Background,Centre,"sb\glow.png",343,126 S,0,104940,,0.5 C,0,104940,,255,88,102 F,0,104940,105440,1,0
Sprite,Background,Centre,"sb\glow.png",356,132 S,0,104959,,0.5 C,0,104959,,255,88,102 F,0,104959,105459,1,0
Sprite,Background,Centre,"sb\glow.png",352,218 S,0,104977,,0.5 C,0,104977,,255,88,102 F,0,104977,105477,1,0
Sprite,Background,Centre,"sb\glow.png",347,295 S,0,104996,,0.5 C,0,104996,,255,88,102 F,0,104996,105496,1,0
Sprite,Background,Centre,"sb\glow.png",344,348 S,0,105015,,0.5 C,0,105015,,255,88,102 F,0,105015,105515,1,0
Sprite,Background,Centre,"sb\glow.png",343,368 S,0,105034,,0.5 C,0,105034,,255,88,102 F,0,105034,105534,1,0
Sprite,Background,Centre,"sb\glow.png",332,359 S,0,105052,,0.5 C,0,105052,,255,88,102 F,0,105052,105552,1,0
Sprite,Background,Centre,"sb\glow.png",321,349 S,0,105071,,0.5 C,0,105071,,255,88,102 F,0,105071,105571,1,0
Sprite,Background,Centre,"sb\glow.png",309,339 S,0,105090,,0.5 C,0,105090,,255,88,102 F,0,105090,105590,1,0
Sprite,Background,Centre,"sb\glow.png",298,330 S,0,105109,,0.5 C,0,105109,,255,88,102 F,0,105109,105609,1,0
Sprite,Background,Centre,"sb\glow.png",292,318 S,0,105127,,0.5 C,0,105127,,255,88,102 F,0,105127,105627,1,0
Sprite,Background,Centre,"sb\glow.png",294,303 S,0,105146,,0.5 C,0,105146,,255,88,102 F,0,105146,105646,1,0
Sprite,Background,Centre,"sb\glow.png",295,288 S,0,105165,,0.5 C,0,105165,,255,88,102 F,0,105165,105665,1,0
Sprite,Background,Centre,"sb\glow.png",297,273 S,0,105184,,0.5 C,0,105184,,255,88,102 F,0,105184,105684,1,0
Sprite,Background,Centre,"sb\glow.png",299,258 S,0,105202,,0.5 C,0,105202,,255,88,102 F,0,105202,105702,1,0
Sprite,Background,Centre,"sb\glow.png",301,244 S,0,105221,,0.5 C,0,105221,,255,88,102 F,0,105221,105721,1,0
Sprite,Background,Centre,"sb\glow.png",303,229 S,0,105240,,0.5 C,0,105240,,255,88,102 F,0,105240,105740,1,0
Sprite,Background,Centre,"sb\glow.png",305,214 S,0,105259,,0.5 C,0,105259,,255,88,102 F,0,105259,105759,1,0
Sprite,Background,Centre,"sb\glow.png",350,160 S,0,105277,,0.5 C,0,105277,,255,88,102 F,0,105277,105777,1,0
Sprite,Background,Centre,"sb\glow.png",390,113 S,0,105296,,0.5 C,0,105296,,255,88,102 F,0,105296,105796,1,0
Sprite,Background,Centre,"sb\glow.png",418,80 S,0,105315,,0.5 C,0,105315,,255,88,102 F,0,105315,105815,1,0
Sprite,Background,Centre,"sb\glow.png",428,68 S,0,105334,,0.5 C,0,105334,,255,88,102 F,0,105334,105834,1,0
Sprite,Background,Centre,"sb\glow.png",436,79 S,0,105352,,0.5 C,0,105352,,255,88,102 F,0,105352,105852,1,0
Sprite,Background,Centre,"sb\glow.png",444,92 S,0,105371,,0.5 C,0,105371,,255,88,102 F,0,105371,105871,1,0
Sprite,Background,Centre,"sb\glow.png",449,106 S,0,105390,,0.5 C,0,105390,,255,88,102 F,0,105390,105890,1,0
Sprite,Background,Centre,"sb\glow.png",452,121 S,0,105409,,0.5 C,0,105409,,255,88,102 F,0,105409,105909,1,0
Sprite,Background,Centre,"sb\glow.png",453,136 S,0,105427,,0.5 C,0,105427,,255,88,102 F,0,105427,105927,1,0
Sprite,Background,Centre,"sb\glow.png",451,151 S,0,105446,,0.5 C,0,105446,,255,88,102 F,0,105446,105946,1,0
Sprite,Background,Centre,"sb\glow.png",447,165 S,0,105465,,0.5 C,0,105465,,255,88,102 F,0,105465,105965,1,0
Sprite,Background,Centre,"sb\glow.png",440,179 S,0,105484,,0.5 C,0,105484,,255,88,102 F,0,105484,105984,1,0
Sprite,Background,Centre,"sb\glow.png",422,217 S,0,105502,,0.5 C,0,105502,,255,88,102 F,0,105502,106002,1,0
Sprite,Background,Centre,"sb\glow.png",406,251 S,0,105521,,0.5 C,0,105521,,255,88,102 F,0,105521,106021,1,0
Sprite,Background,Centre,"sb\glow.png",395,274 S,0,105540,,0.5 C,0,105540,,255,88,102 F,0,105540,106040,1,0
Sprite,Background,Centre,"sb\glow.png",391,283 S,0,105559,,0.5 C,0,105559,,255,88,102 F,0,105559,106059,1,0
Sprite,Background,Centre,"sb\glow.png",391,283 S,0,105577,,0.5 C,0,105577,,255,0,255 F,0,105577,106077,1,0
Sprite,Background,Centre,"sb\glow.png",391,283 S,0,105596,,0.5 C,0,105596,,255,0,255 F,0,105596,106096,1,0
Sprite,Background,Centre,"sb\glow.png",391,283 S,0,105615,,0.5 C,0,105615,,255,0,255 F,0,105615,106115,1,0
Sprite,Background,Centre,"sb\glow.png",391,283 S,0,105634,,0.5 C,0,105634,,255,0,255 F,0,105634,106134,1,0
Sprite,Background,Centre,"sb\glow.png",403,275 S,0,105652,,0.5 C,0,105652,,255,0,255 F,0,105652,106152,1,0
Sprite,Background,Centre,"sb\glow.png",416,268 S,0,105671,,0.5 C,0,105671,,255,0,255 F,0,105671,106171,1,0
Sprite,Background,Centre,"sb\glow.png",430,263 S,0,105690,,0.5 C,0,105690,,255,0,255 F,0,105690,106190,1,0
Sprite,Background,Centre,"sb\glow.png",444,260 S,0,105709,,0.5 C,0,105709,,255,0,255 F,0,105709,106209,1,0
Sprite,Background,Centre,"sb\glow.png",459,260 S,0,105727,,0.5 C,0,105727,,255,0,255 F,0,105727,106227,1,0
Sprite,Background,Centre,"sb\glow.png",474,262 S,0,105746,,0.5 C,0,105746,,255,0,255 F,0,105746,106246,1,0
Sprite,Background,Centre,"sb\glow.png",488,267 S,0,105765,,0.5 C,0,105765,,255,0,255 F,0,105765,106265,1,0
Sprite,Background,Centre,"sb\glow.png",502,273 S,0,105784,,0.5 C,0,105784,,255,0,255 F,0,105784,106284,1,0
Sprite,Background,Centre,"sb\glow.png",514,282 S,0,105802,,0.5 C,0,105802,,255,0,255 F,0,105802,106302,1,0
Sprite,Background,Centre,"sb\glow.png",525,292 S,0,105821,,0.5 C,0,105821,,255,0,255 F,0,105821,106321,1,0
Sprite,Background,Centre,"sb\glow.png",533,304 S,0,105840,,0.5 C,0,105840,,255,0,255 F,0,105840,106340,1,0
Sprite,Background,Centre,"sb\glow.png",540,318 S,0,105859,,0.5 C,0,105859,,255,0,255 F,0,105859,106359,1,0
Sprite,Background,Centre,"sb\glow.png",508,332 S,0,105877,,0.5 C,0,105877,,255,0,255 F,0,105877,106377,1,0
Sprite,Background,Centre,"sb\glow.png",479,344 S,0,105896,,0.5 C,0,105896,,255,0,255 F,0,105896,106396,1,0
Sprite,Background,Centre,"sb\glow.png",459,353 S,0,105915,,0.5 C,0,105915,,255,0,255 F,0,105915,106415,1,0
Sprite,Background,Centre,"sb\glow.png",452,356 S,0,105934,,0.5 C,0,105934,,255,0,255 F,0,105934,106434,1,0
Sprite,Background,Centre,"sb\glow.png",452,356 S,0,105952,,0.5 C,0,105952,,255,0,255 F,0,105952,106452,1,0
Sprite,Background,Centre,"sb\glow.png",452,356 S,0,105971,,0.5 C,0,105971,,255,0,255 F,0,105971,106471,1,0
Sprite,Background,Centre,"sb\glow.png",452,356 S,0,105990,,0.5 C,0,105990,,255,0,255 F,0,105990,106490,1,0
Sprite,Background,Centre,"sb\glow.png",452,356 S,0,106009,,0.5 C,0,106009,,255,0,255 F,0,106009,106509,1,0
Sprite,Background,Centre,"sb\glow.png",452,356 S,0,106027,,0.5 C,0,106027,,255,0,255 F,0,106027,106527,1,0
Sprite,Background,Centre,"sb\glow.png",452,356 S,0,106046,,0.5 C,0,106046,,255,0,255 F,0,106046,106546,1,0
Sprite,Background,Centre,"sb\glow.png",452,356 S,0,106065,,0.5 C,0,106065,,255,0,255 F,0,106065,106565,1,0
Sprite,Background,Centre,"sb\glow.png",452,356 S,0,106084,,0.5 C,0,106084,,255,0,255 F,0,106084,106584,1,0
Sprite,Background,Centre,"sb\glow.png",434,315 S,0,106102,,0.5 C,0,106102,,255,0,255 F,0,106102,106602,1,0
Sprite,Background,Centre,"sb\glow.png",417,272 S,0,106121,,0.5 C,0,106121,,255,0,255 F,0,106121,106621,1,0
Sprite,Background,Centre,"sb\glow.png",400,234 S,0,106140,,0.5 C,0,106140,,255,0,255 F,0,106140,106640,1,0
Sprite,Background,Centre,"sb\glow.png",386,199 S,0,106159,,0.5 C,0,106159,,255,0,255 F,0,106159,106659,1,0
Sprite,Background,Centre,"sb\glow.png",374,171 S,0,106177,,0.5 C,0,106177,,255,0,255 F,0,106177,106677,1,0
Sprite,Background,Centre,"sb\glow.png",365,150 S,0,106196,,0.5 C,0,106196,,255,0,255 F,0,106196,106696,1,0
Sprite,Background,Centre,"sb\glow.png",359,137 S,0,106215,,0.5 C,0,106215,,255,0,255 F,0,106215,106715,1,0
Sprite,Background,Centre,"sb\glow.png",357,132 S,0,106234,,0.5 C,0,106234,,255,0,255 F,0,106234,106734,1,0
Sprite,Background,Centre,"sb\glow.png",345,124 S,0,106252,,0.5 C,0,106252,,255,0,255 F,0,106252,106752,1,0
Sprite,Background,Centre,"sb\glow.png",332,117 S,0,106271,,0.5 C,0,106271,,255,0,255 F,0,106271,106771,1,0
Sprite,Background,Centre,"sb\glow.png",318,112 S,0,106290,,0.5 C,0,106290,,255,0,255 F,0,106290,106790,1,0
Sprite,Background,Centre,"sb\glow.png",304,109 S,0,106309,,0.5 C,0,106309,,255,0,255 F,0,106309,106809,1,0
Sprite,Background,Centre,"sb\glow.png",289,109 S,0,106327,,0.5 C,0,106327,,255,0,255 F,0,106327,106827,1,0
Sprite,Background,Centre,"sb\glow.png",274,111 S,0,106346,,0.5 C,0,106346,,255,0,255 F,0,106346,106846,1,0
Sprite,Background,Centre,"sb\glow.png",260,116 S,0,106365,,0.5 C,0,106365,,255,0,255 F,0,106365,106865,1,0
Sprite,Background,Centre,"sb\glow.png",246,122 S,0,106384,,0.5 C,0,106384,,255,0,255 F,0,106384,106884,1,0
Sprite,Background,Centre,"sb\glow.png",234,131 S,0,106402,,0.5 C,0,106402,,255,0,255 F,0,106402,106902,1,0
Sprite,Background,Centre,"sb\glow.png",223,141 S,0,106421,,0.5 C,0,106421,,255,0,255 F,0,106421,106921,1,0
Sprite,Background,Centre,"sb\glow.png",215,153 S,0,106440,,0.5 C,0,106440,,255,0,255 F,0,106440,106940,1,0
Sprite,Background,Centre,"sb\glow.png",208,167 S,0,106459,,0.5 C,0,106459,,255,0,255 F,0,106459,106959,1,0
Sprite,Background,Centre,"sb\glow.png",240,181 S,0,106477,,0.5 C,0,106477,,255,0,255 F,0,106477,106977,1,0
Sprite,Background,Centre,"sb\glow.png",269,193 S,0,106496,,0.5 C,0,106496,,255,0,255 F,0,106496,106996,1,0
Sprite,Background,Centre,"sb\glow.png",289,202 S,0,106515,,0.5 C,0,106515,,255,0,255 F,0,106515,107015,1,0
Sprite,Background,Centre,"sb\glow.png",296,205 S,0,106534,,0.5 C,0,106534,,255,0,255 F,0,106534,107034,1,0
Sprite,Background,Centre,"sb\glow.png",296,205 S,0,106552,,0.5 C,0,106552,,255,0,255 F,0,106552,107052,1,0
Sprite,Background,Centre,"sb\glow.png",296,205 S,0,106571,,0.5 C,0,106571,,255,0,255 F,0,106571,107071,1,0
Sprite,Background,Centre,"sb\glow.png",296,205 S,0,106590,,0.5 C,0,106590,,255,0,255 F,0,106590,107090,1,0
Sprite,Background,Centre,"sb\glow.png",296,205 S,0,106609,,0.5 C,0,106609,,255,0,255 F,0,106609,107109,1,0
Sprite,Background,Centre,"sb\glow.png",296,205 S,0,106627,,0.5 C,0,106627,,255,0,255 F,0,106627,107127,1,0
Sprite,Background,Centre,"sb\glow.png",296,205 S,0,106646,,0.5 C,0,106646,,255,0,255 F,0,106646,107146,1,0
Sprite,Background,Centre,"sb\glow.png",296,205 S,0,106665,,0.5 C,0,106665,,255,0,255 F,0,106665,107165,1,0
Sprite,Background,Centre,"sb\glow.png",296,205 S,0,106684,,0.5 C,0,106684,,255,0,255 F,0,106684,107184,1,0
Sprite,Background,Centre,"sb\glow.png",295,216 S,0,106702,,0.5 C,0,106702,,255,0,255 F,0,106702,107202,1,0
Sprite,Background,Centre,"sb\glow.png",295,226 S,0,106721,,0.5 C,0,106721,,255,0,255 F,0,106721,107221,1,0
Sprite,Background,Centre,"sb\glow.png",294,232 S,0,106740,,0.5 C,0,106740,,255,0,255 F,0,106740,107240,1,0
Sprite,Background,Centre,"sb\glow.png",294,235 S,0,106759,,0.5 C,0,106759,,255,0,255 F,0,106759,107259,1,0
Sprite,Background,Centre,"sb\glow.png",294,246 S,0,106777,,0.5 C,0,106777,,255,0,255 F,0,106777,107277,1,0
Sprite,Background,Centre,"sb\glow.png",293,256 S,0,106796,,0.5 C,0,106796,,255,0,255 F,0,106796,107296,1,0
Sprite,Background,Centre,"sb\glow.png",293,262 S,0,106815,,0.5 C,0,106815,,255,0,255 F,0,106815,107315,1,0
Sprite,Background,Centre,"sb\glow.png",293,265 S,0,106834,,0.5 C,0,106834,,255,0,255 F,0,106834,107334,1,0
Sprite,Background,Centre,"sb\glow.png",305,240 S,0,106852,,0.5 C,0,106852,,255,128,192 F,0,106852,107352,1,0
Sprite,Background,Centre,"sb\glow.png",317,215 S,0,106871,,0.5 C,0,106871,,255,128,192 F,0,106871,107371,1,0
Sprite,Background,Centre,"sb\glow.png",328,192 S,0,106890,,0.5 C,0,106890,,255,128,192 F,0,106890,107390,1,0
Sprite,Background,Centre,"sb\glow.png",338,172 S,0,106909,,0.5 C,0,106909,,255,128,192 F,0,106909,107409,1,0
Sprite,Background,Centre,"sb\glow.png",346,155 S,0,106927,,0.5 C,0,106927,,255,128,192 F,0,106927,107427,1,0
Sprite,Background,Centre,"sb\glow.png",352,143 S,0,106946,,0.5 C,0,106946,,255,128,192 F,0,106946,107446,1,0
Sprite,Background,Centre,"sb\glow.png",356,135 S,0,106965,,0.5 C,0,106965,,255,128,192 F,0,106965,107465,1,0
Sprite,Background,Centre,"sb\glow.png",357,132 S,0,106984,,0.5 C,0,106984,,255,128,192 F,0,106984,107484,1,0
Sprite,Background,Centre,"sb\glow.png",332,169 S,0,107002,,0.5 C,0,107002,,255,128,192 F,0,107002,107502,1,0
Sprite,Background,Centre,"sb\glow.png",307,206 S,0,107021,,0.5 C,0,107021,,255,128,192 F,0,107021,107521,1,0
Sprite,Background,Centre,"sb\glow.png",284,240 S,0,107040,,0.5 C,0,107040,,255,128,192 F,0,107040,107540,1,0
Sprite,Background,Centre,"sb\glow.png",263,271 S,0,107059,,0.5 C,0,107059,,255,128,192 F,0,107059,107559,1,0
Sprite,Background,Centre,"sb\glow.png",246,295 S,0,107077,,0.5 C,0,107077,,255,128,192 F,0,107077,107577,1,0
Sprite,Background,Centre,"sb\glow.png",234,314 S,0,107096,,0.5 C,0,107096,,255,128,192 F,0,107096,107596,1,0
Sprite,Background,Centre,"sb\glow.png",226,326 S,0,107115,,0.5 C,0,107115,,255,128,192 F,0,107115,107615,1,0
Sprite,Background,Centre,"sb\glow.png",223,330 S,0,107134,,0.5 C,0,107134,,255,128,192 F,0,107134,107634,1,0
Sprite,Background,Centre,"sb\glow.png",220,300 S,0,107152,,0.5 C,0,107152,,255,0,128 F,0,107152,107652,1,0
Sprite,Background,Centre,"sb\glow.png",217,269 S,0,107171,,0.5 C,0,107171,,255,0,128 F,0,107171,107671,1,0
Sprite,Background,Centre,"sb\glow.png",214,241 S,0,107190,,0.5 C,0,107190,,255,0,128 F,0,107190,107690,1,0
Sprite,Background,Centre,"sb\glow.png",212,216 S,0,107209,,0.5 C,0,107209,,255,0,128 F,0,107209,107709,1,0
Sprite,Background,Centre,"sb\glow.png",210,195 S,0,107227,,0.5 C,0,107227,,255,0,128 F,0,107227,107727,1,0
Sprite,Background,Centre,"sb\glow.png",208,180 S,0,107246,,0.5 C,0,107246,,255,0,128 F,0,107246,107746,1,0
Sprite,Background,Centre,"sb\glow.png",207,170 S,0,107265,,0.5 C,0,107265,,255,0,128 F,0,107265,107765,1,0
Sprite,Background,Centre,"sb\glow.png",207,167 S,0,107284,,0.5 C,0,107284,,255,0,128 F,0,107284,107784,1,0
Sprite,Background,Centre,"sb\glow.png",235,198 S,0,107302,,0.5 C,0,107302,,255,0,128 F,0,107302,107802,1,0
Sprite,Background,Centre,"sb\glow.png",263,229 S,0,107321,,0.5 C,0,107321,,255,0,128 F,0,107321,107821,1,0
Sprite,Background,Centre,"sb\glow.png",288,258 S,0,107340,,0.5 C,0,107340,,255,0,128 F,0,107340,107840,1,0
Sprite,Background,Centre,"sb\glow.png",311,284 S,0,107359,,0.5 C,0,107359,,255,0,128 F,0,107359,107859,1,0
Sprite,Background,Centre,"sb\glow.png",330,305 S,0,107377,,0.5 C,0,107377,,255,0,128 F,0,107377,107877,1,0
Sprite,Background,Centre,"sb\glow.png",344,321 S,0,107396,,0.5 C,0,107396,,255,0,128 F,0,107396,107896,1,0
Sprite,Background,Centre,"sb\glow.png",353,330 S,0,107415,,0.5 C,0,107415,,255,0,128 F,0,107415,107915,1,0
Sprite,Background,Centre,"sb\glow.png",356,334 S,0,107434,,0.5 C,0,107434,,255,0,128 F,0,107434,107934,1,0
Sprite,Background,Centre,"sb\glow.png",372,305 S,0,107452,,0.5 C,0,107452,,255,88,102 F,0,107452,107952,1,0
Sprite,Background,Centre,"sb\glow.png",387,276 S,0,107471,,0.5 C,0,107471,,255,88,102 F,0,107471,107971,1,0
Sprite,Background,Centre,"sb\glow.png",402,249 S,0,107490,,0.5 C,0,107490,,255,88,102 F,0,107490,107990,1,0
Sprite,Background,Centre,"sb\glow.png",415,226 S,0,107509,,0.5 C,0,107509,,255,88,102 F,0,107509,108009,1,0
Sprite,Background,Centre,"sb\glow.png",425,206 S,0,107527,,0.5 C,0,107527,,255,88,102 F,0,107527,108027,1,0
Sprite,Background,Centre,"sb\glow.png",433,191 S,0,107546,,0.5 C,0,107546,,255,88,102 F,0,107546,108046,1,0
Sprite,Background,Centre,"sb\glow.png",438,182 S,0,107565,,0.5 C,0,107565,,255,88,102 F,0,107565,108065,1,0
Sprite,Background,Centre,"sb\glow.png",440,179 S,0,107584,,0.5 C,0,107584,,255,88,102 F,0,107584,108084,1,0
Sprite,Background,Centre,"sb\glow.png",412,220 S,0,107602,,0.5 C,0,107602,,255,88,102 F,0,107602,108102,1,0
Sprite,Background,Centre,"sb\glow.png",383,261 S,0,107621,,0.5 C,0,107621,,255,88,102 F,0,107621,108121,1,0
Sprite,Background,Centre,"sb\glow.png",356,299 S,0,107640,,0.5 C,0,107640,,255,88,102 F,0,107640,108140,1,0
Sprite,Background,Centre,"sb\glow.png",332,333 S,0,107659,,0.5 C,0,107659,,255,88,102 F,0,107659,108159,1,0
Sprite,Background,Centre,"sb\glow.png",313,361 S,0,107677,,0.5 C,0,107677,,255,88,102 F,0,107677,108177,1,0
Sprite,Background,Centre,"sb\glow.png",298,381 S,0,107696,,0.5 C,0,107696,,255,88,102 F,0,107696,108196,1,0
Sprite,Background,Centre,"sb\glow.png",289,394 S,0,107715,,0.5 C,0,107715,,255,88,102 F,0,107715,108215,1,0
Sprite,Background,Centre,"sb\glow.png",286,399 S,0,107734,,0.5 C,0,107734,,255,88,102 F,0,107734,108234,1,0
Sprite,Background,Centre,"sb\glow.png",256,365 S,0,107752,,0.5 C,0,107752,,255,0,255 F,0,107752,108252,1,0
Sprite,Background,Centre,"sb\glow.png",226,330 S,0,107771,,0.5 C,0,107771,,255,0,255 F,0,107771,108271,1,0
Sprite,Background,Centre,"sb\glow.png",197,298 S,0,107790,,0.5 C,0,107790,,255,0,255 F,0,107790,108290,1,0
Sprite,Background,Centre,"sb\glow.png",173,270 S,0,107809,,0.5 C,0,107809,,255,0,255 F,0,107809,108309,1,0
Sprite,Background,Centre,"sb\glow.png",152,246 S,0,107827,,0.5 C,0,107827,,255,0,255 F,0,107827,108327,1,0
Sprite,Background,Centre,"sb\glow.png",137,229 S,0,107846,,0.5 C,0,107846,,255,0,255 F,0,107846,108346,1,0
Sprite,Background,Centre,"sb\glow.png",127,218 S,0,107865,,0.5 C,0,107865,,255,0,255 F,0,107865,108365,1,0
Sprite,Background,Centre,"sb\glow.png",124,214 S,0,107884,,0.5 C,0,107884,,255,0,255 F,0,107884,108384,1,0
Sprite,Background,Centre,"sb\glow.png",183,234 S,0,107902,,0.5 C,0,107902,,255,0,255 F,0,107902,108402,1,0
Sprite,Background,Centre,"sb\glow.png",244,255 S,0,107921,,0.5 C,0,107921,,255,0,255 F,0,107921,108421,1,0
Sprite,Background,Centre,"sb\glow.png",300,274 S,0,107940,,0.5 C,0,107940,,255,0,255 F,0,107940,108440,1,0
Sprite,Background,Centre,"sb\glow.png",349,290 S,0,107959,,0.5 C,0,107959,,255,0,255 F,0,107959,108459,1,0
Sprite,Background,Centre,"sb\glow.png",389,304 S,0,107977,,0.5 C,0,107977,,255,0,255 F,0,107977,108477,1,0
Sprite,Background,Centre,"sb\glow.png",419,314 S,0,107996,,0.5 C,0,107996,,255,0,255 F,0,107996,108496,1,0
Sprite,Background,Centre,"sb\glow.png",438,321 S,0,108015,,0.5 C,0,108015,,255,0,255 F,0,108015,108515,1,0
Sprite,Background,Centre,"sb\glow.png",445,323 S,0,108034,,0.5 C,0,108034,,255,0,255 F,0,108034,108534,1,0
Sprite,Background,Centre,"sb\glow.png",438,324 S,0,108052,,0.5 C,0,108052,,255,128,192 F,0,108052,108552,1,0
Sprite,Background,Centre,"sb\glow.png",430,325 S,0,108071,,0.5 C,0,108071,,255,128,192 F,0,108071,108571,1,0
Sprite,Background,Centre,"sb\glow.png",423,326 S,0,108090,,0.5 C,0,108090,,255,128,192 F,0,108090,108590,1,0
Sprite,Background,Centre,"sb\glow.png",416,326 S,0,108109,,0.5 C,0,108109,,255,128,192 F,0,108109,108609,1,0
Sprite,Background,Centre,"sb\glow.png",408,327 S,0,108127,,0.5 C,0,108127,,255,128,192 F,0,108127,108627,1,0
Sprite,Background,Centre,"sb\glow.png",401,328 S,0,108146,,0.5 C,0,108146,,255,128,192 F,0,108146,108646,1,0
Sprite,Background,Centre,"sb\glow.png",393,329 S,0,108165,,0.5 C,0,108165,,255,128,192 F,0,108165,108665,1,0
Sprite,Background,Centre,"sb\glow.png",386,330 S,0,108184,,0.5 C,0,108184,,255,128,192 F,0,108184,108684,1,0
Sprite,Background,Centre,"sb\glow.png",378,331 S,0,108202,,0.5 C,0,108202,,255,128,192 F,0,108202,108702,1,0
Sprite,Background,Centre,"sb\glow.png",371,332 S,0,108221,,0.5 C,0,108221,,255,128,192 F,0,108221,108721,1,0
Sprite,Background,Centre,"sb\glow.png",363,332 S,0,108240,,0.5 C,0,108240,,255,128,192 F,0,108240,108740,1,0
Sprite,Background,Centre,"sb\glow.png",356,333 S,0,108259,,0.5 C,0,108259,,255,128,192 F,0,108259,108759,1,0
Sprite,Background,Centre,"sb\glow.png",388,330 S,0,108277,,0.5 C,0,108277,,255,128,192 F,0,108277,108777,1,0
Sprite,Background,Centre,"sb\glow.png",417,326 S,0,108296,,0.5 C,0,108296,,255,128,192 F,0,108296,108796,1,0
Sprite,Background,Centre,"sb\glow.png",437,324 S,0,108315,,0.5 C,0,108315,,255,128,192 F,0,108315,108815,1,0
Sprite,Background,Centre,"sb\glow.png",445,323 S,0,108334,,0.5 C,0,108334,,255,128,192 F,0,108334,108834,1,0
Sprite,Background,Centre,"sb\glow.png",422,323 S,0,108352,,0.5 C,0,108352,,255,0,128 F,0,108352,108852,1,0
Sprite,Background,Centre,"sb\glow.png",398,315 S,0,108371,,0.5 C,0,108371,,255,0,128 F,0,108371,108871,1,0
Sprite,Background,Centre,"sb\glow.png",380,298 S,0,108390,,0.5 C,0,108390,,255,0,128 F,0,108390,108890,1,0
Sprite,Background,Centre,"sb\glow.png",369,276 S,0,108409,,0.5 C,0,108409,,255,0,128 F,0,108409,108909,1,0
Sprite,Background,Centre,"sb\glow.png",368,251 S,0,108427,,0.5 C,0,108427,,255,0,128 F,0,108427,108927,1,0
Sprite,Background,Centre,"sb\glow.png",375,228 S,0,108446,,0.5 C,0,108446,,255,0,128 F,0,108446,108946,1,0
Sprite,Background,Centre,"sb\glow.png",391,209 S,0,108465,,0.5 C,0,108465,,255,0,128 F,0,108465,108965,1,0
Sprite,Background,Centre,"sb\glow.png",413,198 S,0,108484,,0.5 C,0,108484,,255,0,128 F,0,108484,108984,1,0
Sprite,Background,Centre,"sb\glow.png",437,194 S,0,108502,,0.5 C,0,108502,,255,0,128 F,0,108502,109002,1,0
Sprite,Background,Centre,"sb\glow.png",461,201 S,0,108521,,0.5 C,0,108521,,255,0,128 F,0,108521,109021,1,0
Sprite,Background,Centre,"sb\glow.png",480,216 S,0,108540,,0.5 C,0,108540,,255,0,128 F,0,108540,109040,1,0
Sprite,Background,Centre,"sb\glow.png",493,238 S,0,108559,,0.5 C,0,108559,,255,0,128 F,0,108559,109059,1,0
Sprite,Background,Centre,"sb\glow.png",514,291 S,0,108577,,0.5 C,0,108577,,255,0,128 F,0,108577,109077,1,0
Sprite,Background,Centre,"sb\glow.png",532,339 S,0,108596,,0.5 C,0,108596,,255,0,128 F,0,108596,109096,1,0
Sprite,Background,Centre,"sb\glow.png",544,371 S,0,108615,,0.5 C,0,108615,,255,0,128 F,0,108615,109115,1,0
Sprite,Background,Centre,"sb\glow.png",549,383 S,0,108634,,0.5 C,0,108634,,255,0,128 F,0,108634,109134,1,0
Sprite,Background,Centre,"sb\glow.png",547,369 S,0,108652,,0.5 C,0,108652,,255,0,128 F,0,108652,109152,1,0
Sprite,Background,Centre,"sb\glow.png",546,354 S,0,108671,,0.5 C,0,108671,,255,0,128 F,0,108671,109171,1,0
Sprite,Background,Centre,"sb\glow.png",544,339 S,0,108690,,0.5 C,0,108690,,255,0,128 F,0,108690,109190,1,0
Sprite,Background,Centre,"sb\glow.png",542,324 S,0,108709,,0.5 C,0,108709,,255,0,128 F,0,108709,109209,1,0
Sprite,Background,Centre,"sb\glow.png",527,271 S,0,108727,,0.5 C,0,108727,,255,0,128 F,0,108727,109227,1,0
Sprite,Background,Centre,"sb\glow.png",513,223 S,0,108746,,0.5 C,0,108746,,255,0,128 F,0,108746,109246,1,0
Sprite,Background,Centre,"sb\glow.png",504,191 S,0,108765,,0.5 C,0,108765,,255,0,128 F,0,108765,109265,1,0
Sprite,Background,Centre,"sb\glow.png",500,179 S,0,108784,,0.5 C,0,108784,,255,0,128 F,0,108784,109284,1,0
Sprite,Background,Centre,"sb\glow.png",498,193 S,0,108802,,0.5 C,0,108802,,255,0,128 F,0,108802,109302,1,0
Sprite,Background,Centre,"sb\glow.png",497,208 S,0,108821,,0.5 C,0,108821,,255,0,128 F,0,108821,109321,1,0
Sprite,Background,Centre,"sb\glow.png",495,223 S,0,108840,,0.5 C,0,108840,,255,0,128 F,0,108840,109340,1,0
Sprite,Background,Centre,"sb\glow.png",493,237 S,0,108859,,0.5 C,0,108859,,255,0,128 F,0,108859,109359,1,0
Sprite,Background,Centre,"sb\glow.png",474,304 S,0,108877,,0.5 C,0,108877,,255,0,128 F,0,108877,109377,1,0
Sprite,Background,Centre,"sb\glow.png",456,363 S,0,108896,,0.5 C,0,108896,,255,0,128 F,0,108896,109396,1,0
Sprite,Background,Centre,"sb\glow.png",444,404 S,0,108915,,0.5 C,0,108915,,255,0,128 F,0,108915,109415,1,0
Sprite,Background,Centre,"sb\glow.png",440,419 S,0,108934,,0.5 C,0,108934,,255,0,128 F,0,108934,109434,1,0
Sprite,Background,Centre,"sb\glow.png",421,422 S,0,108952,,0.5 C,0,108952,,255,0,128 F,0,108952,109452,1,0
Sprite,Background,Centre,"sb\glow.png",401,423 S,0,108971,,0.5 C,0,108971,,255,0,128 F,0,108971,109471,1,0
Sprite,Background,Centre,"sb\glow.png",382,419 S,0,108990,,0.5 C,0,108990,,255,0,128 F,0,108990,109490,1,0
Sprite,Background,Centre,"sb\glow.png",363,412 S,0,109009,,0.5 C,0,109009,,255,0,128 F,0,109009,109509,1,0
Sprite,Background,Centre,"sb\glow.png",346,402 S,0,109027,,0.5 C,0,109027,,255,0,128 F,0,109027,109527,1,0
Sprite,Background,Centre,"sb\glow.png",331,389 S,0,109046,,0.5 C,0,109046,,255,0,128 F,0,109046,109546,1,0
Sprite,Background,Centre,"sb\glow.png",316,375 S,0,109065,,0.5 C,0,109065,,255,0,128 F,0,109065,109565,1,0
Sprite,Background,Centre,"sb\glow.png",299,364 S,0,109084,,0.5 C,0,109084,,255,0,128 F,0,109084,109584,1,0
Sprite,Background,Centre,"sb\glow.png",281,357 S,0,109102,,0.5 C,0,109102,,255,0,128 F,0,109102,109602,1,0
Sprite,Background,Centre,"sb\glow.png",261,354 S,0,109121,,0.5 C,0,109121,,255,0,128 F,0,109121,109621,1,0
Sprite,Background,Centre,"sb\glow.png",241,354 S,0,109140,,0.5 C,0,109140,,255,0,128 F,0,109140,109640,1,0
Sprite,Background,Centre,"sb\glow.png",222,357 S,0,109159,,0.5 C,0,109159,,255,0,128 F,0,109159,109659,1,0
Sprite,Background,Centre,"sb\glow.png",194,380 S,0,109177,,0.5 C,0,109177,,255,0,128 F,0,109177,109677,1,0
Sprite,Background,Centre,"sb\glow.png",170,400 S,0,109196,,0.5 C,0,109196,,255,0,128 F,0,109196,109696,1,0
Sprite,Background,Centre,"sb\glow.png",153,414 S,0,109215,,0.5 C,0,109215,,255,0,128 F,0,109215,109715,1,0
Sprite,Background,Centre,"sb\glow.png",147,419 S,0,109234,,0.5 C,0,109234,,255,0,128 F,0,109234,109734,1,0
Sprite,Background,Centre,"sb\glow.png",133,431 S,0,109252,,0.5 C,0,109252,,255,88,102 F,0,109252,109752,1,0
Sprite,Background,Centre,"sb\glow.png",114,438 S,0,109271,,0.5 C,0,109271,,255,88,102 F,0,109271,109771,1,0
Sprite,Background,Centre,"sb\glow.png",95,438 S,0,109290,,0.5 C,0,109290,,255,88,102 F,0,109290,109790,1,0
Sprite,Background,Centre,"sb\glow.png",76,430 S,0,109309,,0.5 C,0,109309,,255,88,102 F,0,109309,109809,1,0
Sprite,Background,Centre,"sb\glow.png",62,417 S,0,109327,,0.5 C,0,109327,,255,88,102 F,0,109327,109827,1,0
Sprite,Background,Centre,"sb\glow.png",54,399 S,0,109346,,0.5 C,0,109346,,255,88,102 F,0,109346,109846,1,0
Sprite,Background,Centre,"sb\glow.png",52,379 S,0,109365,,0.5 C,0,109365,,255,88,102 F,0,109365,109865,1,0
Sprite,Background,Centre,"sb\glow.png",59,361 S,0,109384,,0.5 C,0,109384,,255,88,102 F,0,109384,109884,1,0
Sprite,Background,Centre,"sb\glow.png",71,346 S,0,109402,,0.5 C,0,109402,,255,88,102 F,0,109402,109902,1,0
Sprite,Background,Centre,"sb\glow.png",88,336 S,0,109421,,0.5 C,0,109421,,255,88,102 F,0,109421,109921,1,0
Sprite,Background,Centre,"sb\glow.png",108,334 S,0,109440,,0.5 C,0,109440,,255,88,102 F,0,109440,109940,1,0
Sprite,Background,Centre,"sb\glow.png",127,338 S,0,109459,,0.5 C,0,109459,,255,88,102 F,0,109459,109959,1,0
Sprite,Background,Centre,"sb\glow.png",191,311 S,0,109477,,0.5 C,0,109477,,255,88,102 F,0,109477,109977,1,0
Sprite,Background,Centre,"sb\glow.png",247,287 S,0,109496,,0.5 C,0,109496,,255,88,102 F,0,109496,109996,1,0
Sprite,Background,Centre,"sb\glow.png",286,270 S,0,109515,,0.5 C,0,109515,,255,88,102 F,0,109515,110015,1,0
Sprite,Background,Centre,"sb\glow.png",300,264 S,0,109534,,0.5 C,0,109534,,255,88,102 F,0,109534,110034,1,0
Sprite,Background,Centre,"sb\glow.png",301,250 S,0,109552,,0.5 C,0,109552,,255,88,102 F,0,109552,110052,1,0
Sprite,Background,Centre,"sb\glow.png",303,235 S,0,109571,,0.5 C,0,109571,,255,88,102 F,0,109571,110071,1,0
Sprite,Background,Centre,"sb\glow.png",304,220 S,0,109590,,0.5 C,0,109590,,255,88,102 F,0,109590,110090,1,0
Sprite,Background,Centre,"sb\glow.png",306,205 S,0,109609,,0.5 C,0,109609,,255,88,102 F,0,109609,110109,1,0
Sprite,Background,Centre,"sb\glow.png",281,150 S,0,109627,,0.5 C,0,109627,,255,88,102 F,0,109627,110127,1,0
Sprite,Background,Centre,"sb\glow.png",258,102 S,0,109646,,0.5 C,0,109646,,255,88,102 F,0,109646,110146,1,0
Sprite,Background,Centre,"sb\glow.png",243,69 S,0,109665,,0.5 C,0,109665,,255,88,102 F,0,109665,110165,1,0
Sprite,Background,Centre,"sb\glow.png",237,56 S,0,109684,,0.5 C,0,109684,,255,88,102 F,0,109684,110184,1,0
Sprite,Background,Centre,"sb\glow.png",238,70 S,0,109702,,0.5 C,0,109702,,255,88,102 F,0,109702,110202,1,0
Sprite,Background,Centre,"sb\glow.png",240,85 S,0,109721,,0.5 C,0,109721,,255,88,102 F,0,109721,110221,1,0
Sprite,Background,Centre,"sb\glow.png",241,100 S,0,109740,,0.5 C,0,109740,,255,88,102 F,0,109740,110240,1,0
Sprite,Background,Centre,"sb\glow.png",243,114 S,0,109759,,0.5 C,0,109759,,255,88,102 F,0,109759,110259,1,0
Sprite,Background,Centre,"sb\glow.png",206,155 S,0,109777,,0.5 C,0,109777,,255,88,102 F,0,109777,110277,1,0
Sprite,Background,Centre,"sb\glow.png",173,190 S,0,109796,,0.5 C,0,109796,,255,88,102 F,0,109796,110296,1,0
Sprite,Background,Centre,"sb\glow.png",151,215 S,0,109815,,0.5 C,0,109815,,255,88,102 F,0,109815,110315,1,0
Sprite,Background,Centre,"sb\glow.png",142,224 S,0,109834,,0.5 C,0,109834,,255,88,102 F,0,109834,110334,1,0
Sprite,Background,Centre,"sb\glow.png",156,222 S,0,109852,,0.5 C,0,109852,,255,88,102 F,0,109852,110352,1,0
Sprite,Background,Centre,"sb\glow.png",171,220 S,0,109871,,0.5 C,0,109871,,255,88,102 F,0,109871,110371,1,0
Sprite,Background,Centre,"sb\glow.png",186,218 S,0,109890,,0.5 C,0,109890,,255,88,102 F,0,109890,110390,1,0
Sprite,Background,Centre,"sb\glow.png",199,212 S,0,109909,,0.5 C,0,109909,,255,88,102 F,0,109909,110409,1,0
Sprite,Background,Centre,"sb\glow.png",210,205 S,0,109927,,0.5 C,0,109927,,255,88,102 F,0,109927,110427,1,0
Sprite,Background,Centre,"sb\glow.png",223,212 S,0,109946,,0.5 C,0,109946,,255,88,102 F,0,109946,110446,1,0
Sprite,Background,Centre,"sb\glow.png",236,219 S,0,109965,,0.5 C,0,109965,,255,88,102 F,0,109965,110465,1,0
Sprite,Background,Centre,"sb\glow.png",248,218 S,0,109984,,0.5 C,0,109984,,255,88,102 F,0,109984,110484,1,0
Sprite,Background,Centre,"sb\glow.png",260,210 S,0,110002,,0.5 C,0,110002,,255,88,102 F,0,110002,110502,1,0
Sprite,Background,Centre,"sb\glow.png",275,207 S,0,110021,,0.5 C,0,110021,,255,88,102 F,0,110021,110521,1,0
Sprite,Background,Centre,"sb\glow.png",290,206 S,0,110040,,0.5 C,0,110040,,255,88,102 F,0,110040,110540,1,0
Sprite,Background,Centre,"sb\glow.png",303,204 S,0,110059,,0.5 C,0,110059,,255,88,102 F,0,110059,110559,1,0
Sprite,Background,Centre,"sb\glow.png",359,176 S,0,110077,,0.5 C,0,110077,,255,88,102 F,0,110077,110577,1,0
Sprite,Background,Centre,"sb\glow.png",409,150 S,0,110096,,0.5 C,0,110096,,255,88,102 F,0,110096,110596,1,0
Sprite,Background,Centre,"sb\glow.png",443,133 S,0,110115,,0.5 C,0,110115,,255,88,102 F,0,110115,110615,1,0
Sprite,Background,Centre,"sb\glow.png",456,126 S,0,110134,,0.5 C,0,110134,,255,88,102 F,0,110134,110634,1,0
Sprite,Background,Centre,"sb\glow.png",442,124 S,0,110152,,0.5 C,0,110152,,255,88,102 F,0,110152,110652,1,0
Sprite,Background,Centre,"sb\glow.png",427,122 S,0,110171,,0.5 C,0,110171,,255,88,102 F,0,110171,110671,1,0
Sprite,Background,Centre,"sb\glow.png",412,121 S,0,110190,,0.5 C,0,110190,,255,88,102 F,0,110190,110690,1,0
Sprite,Background,Centre,"sb\glow.png",397,119 S,0,110209,,0.5 C,0,110209,,255,88,102 F,0,110209,110709,1,0
Sprite,Background,Centre,"sb\glow.png",382,117 S,0,110227,,0.5 C,0,110227,,255,88,102 F,0,110227,110727,1,0
Sprite,Background,Centre,"sb\glow.png",367,115 S,0,110246,,0.5 C,0,110246,,255,88,102 F,0,110246,110746,1,0
Sprite,Background,Centre,"sb\glow.png",353,114 S,0,110265,,0.5 C,0,110265,,255,88,102 F,0,110265,110765,1,0
Sprite,Background,Centre,"sb\glow.png",338,112 S,0,110284,,0.5 C,0,110284,,255,88,102 F,0,110284,110784,1,0
Sprite,Background,Centre,"sb\glow.png",364,161 S,0,110302,,0.5 C,0,110302,,255,88,102 F,0,110302,110802,1,0
Sprite,Background,Centre,"sb\glow.png",391,212 S,0,110321,,0.5 C,0,110321,,255,88,102 F,0,110321,110821,1,0
Sprite,Background,Centre,"sb\glow.png",417,258 S,0,110340,,0.5 C,0,110340,,255,88,102 F,0,110340,110840,1,0
Sprite,Background,Centre,"sb\glow.png",439,299 S,0,110359,,0.5 C,0,110359,,255,88,102 F,0,110359,110859,1,0
Sprite,Background,Centre,"sb\glow.png",458,333 S,0,110377,,0.5 C,0,110377,,255,88,102 F,0,110377,110877,1,0
Sprite,Background,Centre,"sb\glow.png",471,358 S,0,110396,,0.5 C,0,110396,,255,88,102 F,0,110396,110896,1,0
Sprite,Background,Centre,"sb\glow.png",480,374 S,0,110415,,0.5 C,0,110415,,255,88,102 F,0,110415,110915,1,0
Sprite,Background,Centre,"sb\glow.png",483,380 S,0,110434,,0.5 C,0,110434,,255,88,102 F,0,110434,110934,1,0
Sprite,Background,Centre,"sb\glow.png",499,341 S,0,110452,,0.5 C,0,110452,,255,0,255 F,0,110452,110952,1,0
Sprite,Background,Centre,"sb\glow.png",516,301 S,0,110471,,0.5 C,0,110471,,255,0,255 F,0,110471,110971,1,0
Sprite,Background,Centre,"sb\glow.png",532,264 S,0,110490,,0.5 C,0,110490,,255,0,255 F,0,110490,110990,1,0
Sprite,Background,Centre,"sb\glow.png",545,232 S,0,110509,,0.5 C,0,110509,,255,0,255 F,0,110509,111009,1,0
Sprite,Background,Centre,"sb\glow.png",556,205 S,0,110527,,0.5 C,0,110527,,255,0,255 F,0,110527,111027,1,0
Sprite,Background,Centre,"sb\glow.png",565,185 S,0,110546,,0.5 C,0,110546,,255,0,255 F,0,110546,111046,1,0
Sprite,Background,Centre,"sb\glow.png",570,173 S,0,110565,,0.5 C,0,110565,,255,0,255 F,0,110565,111065,1,0
Sprite,Background,Centre,"sb\glow.png",572,168 S,0,110584,,0.5 C,0,110584,,255,0,255 F,0,110584,111084,1,0
Sprite,Background,Centre,"sb\glow.png",554,174 S,0,110602,,0.5 C,0,110602,,255,0,255 F,0,110602,111102,1,0
Sprite,Background,Centre,"sb\glow.png",537,183 S,0,110621,,0.5 C,0,110621,,255,0,255 F,0,110621,111121,1,0
Sprite,Background,Centre,"sb\glow.png",522,196 S,0,110640,,0.5 C,0,110640,,255,0,255 F,0,110640,111140,1,0
Sprite,Background,Centre,"sb\glow.png",510,212 S,0,110659,,0.5 C,0,110659,,255,0,255 F,0,110659,111159,1,0
Sprite,Background,Centre,"sb\glow.png",495,283 S,0,110677,,0.5 C,0,110677,,255,0,255 F,0,110677,111177,1,0
Sprite,Background,Centre,"sb\glow.png",483,345 S,0,110696,,0.5 C,0,110696,,255,0,255 F,0,110696,111196,1,0
Sprite,Background,Centre,"sb\glow.png",474,388 S,0,110715,,0.5 C,0,110715,,255,0,255 F,0,110715,111215,1,0
Sprite,Background,Centre,"sb\glow.png",471,404 S,0,110734,,0.5 C,0,110734,,255,0,255 F,0,110734,111234,1,0
Sprite,Background,Centre,"sb\glow.png",456,363 S,0,110752,,0.5 C,0,110752,,255,0,255 F,0,110752,111252,1,0
Sprite,Background,Centre,"sb\glow.png",440,320 S,0,110771,,0.5 C,0,110771,,255,0,255 F,0,110771,111271,1,0
Sprite,Background,Centre,"sb\glow.png",426,282 S,0,110790,,0.5 C,0,110790,,255,0,255 F,0,110790,111290,1,0
Sprite,Background,Centre,"sb\glow.png",414,247 S,0,110809,,0.5 C,0,110809,,255,0,255 F,0,110809,111309,1,0
Sprite,Background,Centre,"sb\glow.png",403,219 S,0,110827,,0.5 C,0,110827,,255,0,255 F,0,110827,111327,1,0
Sprite,Background,Centre,"sb\glow.png",396,198 S,0,110846,,0.5 C,0,110846,,255,0,255 F,0,110846,111346,1,0
Sprite,Background,Centre,"sb\glow.png",391,185 S,0,110865,,0.5 C,0,110865,,255,0,255 F,0,110865,111365,1,0
Sprite,Background,Centre,"sb\glow.png",389,180 S,0,110884,,0.5 C,0,110884,,255,0,255 F,0,110884,111384,1,0
Sprite,Background,Centre,"sb\glow.png",402,194 S,0,110902,,0.5 C,0,110902,,255,0,255 F,0,110902,111402,1,0
Sprite,Background,Centre,"sb\glow.png",412,211 S,0,110921,,0.5 C,0,110921,,255,0,255 F,0,110921,111421,1,0
Sprite,Background,Centre,"sb\glow.png",419,230 S,0,110940,,0.5 C,0,110940,,255,0,255 F,0,110940,111440,1,0
Sprite,Background,Centre,"sb\glow.png",421,249 S,0,110959,,0.5 C,0,110959,,255,0,255 F,0,110959,111459,1,0
Sprite,Background,Centre,"sb\glow.png",336,272 S,0,110977,,0.5 C,0,110977,,255,0,255 F,0,110977,111477,1,0
Sprite,Background,Centre,"sb\glow.png",259,292 S,0,110996,,0.5 C,0,110996,,255,0,255 F,0,110996,111496,1,0
Sprite,Background,Centre,"sb\glow.png",207,305 S,0,111015,,0.5 C,0,111015,,255,0,255 F,0,111015,111515,1,0
Sprite,Background,Centre,"sb\glow.png",187,310 S,0,111034,,0.5 C,0,111034,,255,0,255 F,0,111034,111534,1,0
Sprite,Background,Centre,"sb\glow.png",199,303 S,0,111052,,0.5 C,0,111052,,255,128,192 F,0,111052,111552,1,0
Sprite,Background,Centre,"sb\glow.png",212,295 S,0,111071,,0.5 C,0,111071,,255,128,192 F,0,111071,111571,1,0
Sprite,Background,Centre,"sb\glow.png",225,287 S,0,111090,,0.5 C,0,111090,,255,128,192 F,0,111090,111590,1,0
Sprite,Background,Centre,"sb\glow.png",238,279 S,0,111109,,0.5 C,0,111109,,255,128,192 F,0,111109,111609,1,0
Sprite,Background,Centre,"sb\glow.png",305,269 S,0,111127,,0.5 C,0,111127,,255,128,192 F,0,111127,111627,1,0
Sprite,Background,Centre,"sb\glow.png",365,260 S,0,111146,,0.5 C,0,111146,,255,128,192 F,0,111146,111646,1,0
Sprite,Background,Centre,"sb\glow.png",406,253 S,0,111165,,0.5 C,0,111165,,255,128,192 F,0,111165,111665,1,0
Sprite,Background,Centre,"sb\glow.png",421,251 S,0,111184,,0.5 C,0,111184,,255,128,192 F,0,111184,111684,1,0
Sprite,Background,Centre,"sb\glow.png",415,264 S,0,111202,,0.5 C,0,111202,,255,128,192 F,0,111202,111702,1,0
Sprite,Background,Centre,"sb\glow.png",409,277 S,0,111221,,0.5 C,0,111221,,255,128,192 F,0,111221,111721,1,0
Sprite,Background,Centre,"sb\glow.png",402,291 S,0,111240,,0.5 C,0,111240,,255,128,192 F,0,111240,111740,1,0
Sprite,Background,Centre,"sb\glow.png",396,305 S,0,111259,,0.5 C,0,111259,,255,128,192 F,0,111259,111759,1,0
Sprite,Background,Centre,"sb\glow.png",349,351 S,0,111277,,0.5 C,0,111277,,255,128,192 F,0,111277,111777,1,0
Sprite,Background,Centre,"sb\glow.png",307,393 S,0,111296,,0.5 C,0,111296,,255,128,192 F,0,111296,111796,1,0
Sprite,Background,Centre,"sb\glow.png",278,421 S,0,111315,,0.5 C,0,111315,,255,128,192 F,0,111315,111815,1,0
Sprite,Background,Centre,"sb\glow.png",267,432 S,0,111334,,0.5 C,0,111334,,255,128,192 F,0,111334,111834,1,0
Sprite,Background,Centre,"sb\glow.png",264,418 S,0,111352,,0.5 C,0,111352,,255,128,192 F,0,111352,111852,1,0
Sprite,Background,Centre,"sb\glow.png",261,403 S,0,111371,,0.5 C,0,111371,,255,128,192 F,0,111371,111871,1,0
Sprite,Background,Centre,"sb\glow.png",258,389 S,0,111390,,0.5 C,0,111390,,255,128,192 F,0,111390,111890,1,0
Sprite,Background,Centre,"sb\glow.png",255,374 S,0,111409,,0.5 C,0,111409,,255,128,192 F,0,111409,111909,1,0
Sprite,Background,Centre,"sb\glow.png",265,309 S,0,111427,,0.5 C,0,111427,,255,128,192 F,0,111427,111927,1,0
Sprite,Background,Centre,"sb\glow.png",275,250 S,0,111446,,0.5 C,0,111446,,255,128,192 F,0,111446,111946,1,0
Sprite,Background,Centre,"sb\glow.png",282,210 S,0,111465,,0.5 C,0,111465,,255,128,192 F,0,111465,111965,1,0
Sprite,Background,Centre,"sb\glow.png",284,195 S,0,111484,,0.5 C,0,111484,,255,128,192 F,0,111484,111984,1,0
Sprite,Background,Centre,"sb\glow.png",295,204 S,0,111502,,0.5 C,0,111502,,255,128,192 F,0,111502,112002,1,0
Sprite,Background,Centre,"sb\glow.png",306,214 S,0,111521,,0.5 C,0,111521,,255,128,192 F,0,111521,112021,1,0
Sprite,Background,Centre,"sb\glow.png",317,224 S,0,111540,,0.5 C,0,111540,,255,128,192 F,0,111540,112040,1,0
Sprite,Background,Centre,"sb\glow.png",328,234 S,0,111559,,0.5 C,0,111559,,255,128,192 F,0,111559,112059,1,0
Sprite,Background,Centre,"sb\glow.png",380,296 S,0,111577,,0.5 C,0,111577,,255,128,192 F,0,111577,112077,1,0
Sprite,Background,Centre,"sb\glow.png",427,352 S,0,111596,,0.5 C,0,111596,,255,128,192 F,0,111596,112096,1,0
Sprite,Background,Centre,"sb\glow.png",459,390 S,0,111615,,0.5 C,0,111615,,255,128,192 F,0,111615,112115,1,0
Sprite,Background,Centre,"sb\glow.png",471,404 S,0,111634,,0.5 C,0,111634,,255,128,192 F,0,111634,112134,1,0
Sprite,Background,Centre,"sb\glow.png",457,402 S,0,111652,,0.5 C,0,111652,,255,0,128 F,0,111652,112152,1,0
Sprite,Background,Centre,"sb\glow.png",442,401 S,0,111671,,0.5 C,0,111671,,255,0,128 F,0,111671,112171,1,0
Sprite,Background,Centre,"sb\glow.png",427,399 S,0,111690,,0.5 C,0,111690,,255,0,128 F,0,111690,112190,1,0
Sprite,Background,Centre,"sb\glow.png",412,397 S,0,111709,,0.5 C,0,111709,,255,0,128 F,0,111709,112209,1,0
Sprite,Background,Centre,"sb\glow.png",397,395 S,0,111727,,0.5 C,0,111727,,255,0,128 F,0,111727,112227,1,0
Sprite,Background,Centre,"sb\glow.png",382,394 S,0,111746,,0.5 C,0,111746,,255,0,128 F,0,111746,112246,1,0
Sprite,Background,Centre,"sb\glow.png",367,392 S,0,111765,,0.5 C,0,111765,,255,0,128 F,0,111765,112265,1,0
Sprite,Background,Centre,"sb\glow.png",353,390 S,0,111784,,0.5 C,0,111784,,255,0,128 F,0,111784,112284,1,0
Sprite,Background,Centre,"sb\glow.png",321,375 S,0,111802,,0.5 C,0,111802,,255,0,128 F,0,111802,112302,1,0
Sprite,Background,Centre,"sb\glow.png",290,360 S,0,111821,,0.5 C,0,111821,,255,0,128 F,0,111821,112321,1,0
Sprite,Background,Centre,"sb\glow.png",262,346 S,0,111840,,0.5 C,0,111840,,255,0,128 F,0,111840,112340,1,0
Sprite,Background,Centre,"sb\glow.png",236,334 S,0,111859,,0.5 C,0,111859,,255,0,128 F,0,111859,112359,1,0
Sprite,Background,Centre,"sb\glow.png",216,324 S,0,111877,,0.5 C,0,111877,,255,0,128 F,0,111877,112377,1,0
Sprite,Background,Centre,"sb\glow.png",200,316 S,0,111896,,0.5 C,0,111896,,255,0,128 F,0,111896,112396,1,0
Sprite,Background,Centre,"sb\glow.png",191,312 S,0,111915,,0.5 C,0,111915,,255,0,128 F,0,111915,112415,1,0
Sprite,Background,Centre,"sb\glow.png",187,310 S,0,111934,,0.5 C,0,111934,,255,0,128 F,0,111934,112434,1,0
Sprite,Background,Centre,"sb\glow.png",173,311 S,0,111952,,0.5 C,0,111952,,255,0,128 F,0,111952,112452,1,0
Sprite,Background,Centre,"sb\glow.png",158,313 S,0,111971,,0.5 C,0,111971,,255,0,128 F,0,111971,112471,1,0
Sprite,Background,Centre,"sb\glow.png",143,314 S,0,111990,,0.5 C,0,111990,,255,0,128 F,0,111990,112490,1,0
Sprite,Background,Centre,"sb\glow.png",128,316 S,0,112009,,0.5 C,0,112009,,255,0,128 F,0,112009,112509,1,0
Sprite,Background,Centre,"sb\glow.png",129,351 S,0,112027,,0.5 C,0,112027,,255,0,128 F,0,112027,112527,1,0
Sprite,Background,Centre,"sb\glow.png",131,383 S,0,112046,,0.5 C,0,112046,,255,0,128 F,0,112046,112546,1,0
Sprite,Background,Centre,"sb\glow.png",132,405 S,0,112065,,0.5 C,0,112065,,255,0,128 F,0,112065,112565,1,0
Sprite,Background,Centre,"sb\glow.png",132,413 S,0,112084,,0.5 C,0,112084,,255,0,128 F,0,112084,112584,1,0
Sprite,Background,Centre,"sb\glow.png",146,411 S,0,112102,,0.5 C,0,112102,,255,0,128 F,0,112102,112602,1,0
Sprite,Background,Centre,"sb\glow.png",161,410 S,0,112121,,0.5 C,0,112121,,255,0,128 F,0,112121,112621,1,0
Sprite,Background,Centre,"sb\glow.png",176,408 S,0,112140,,0.5 C,0,112140,,255,0,128 F,0,112140,112640,1,0
Sprite,Background,Centre,"sb\glow.png",190,406 S,0,112159,,0.5 C,0,112159,,255,0,128 F,0,112159,112659,1,0
Sprite,Background,Centre,"sb\glow.png",223,326 S,0,112177,,0.5 C,0,112177,,255,0,128 F,0,112177,112677,1,0
Sprite,Background,Centre,"sb\glow.png",251,253 S,0,112196,,0.5 C,0,112196,,255,0,128 F,0,112196,112696,1,0
Sprite,Background,Centre,"sb\glow.png",271,204 S,0,112215,,0.5 C,0,112215,,255,0,128 F,0,112215,112715,1,0
Sprite,Background,Centre,"sb\glow.png",278,185 S,0,112234,,0.5 C,0,112234,,255,0,128 F,0,112234,112734,1,0
Sprite,Background,Centre,"sb\glow.png",277,199 S,0,112252,,0.5 C,0,112252,,255,0,128 F,0,112252,112752,1,0
Sprite,Background,Centre,"sb\glow.png",275,214 S,0,112271,,0.5 C,0,112271,,255,0,128 F,0,112271,112771,1,0
Sprite,Background,Centre,"sb\glow.png",273,229 S,0,112290,,0.5 C,0,112290,,255,0,128 F,0,112290,112790,1,0
Sprite,Background,Centre,"sb\glow.png",272,244 S,0,112309,,0.5 C,0,112309,,255,0,128 F,0,112309,112809,1,0
Sprite,Background,Centre,"sb\glow.png",270,259 S,0,112327,,0.5 C,0,112327,,255,0,128 F,0,112327,112827,1,0
Sprite,Background,Centre,"sb\glow.png",276,272 S,0,112346,,0.5 C,0,112346,,255,0,128 F,0,112346,112846,1,0
Sprite,Background,Centre,"sb\glow.png",284,285 S,0,112365,,0.5 C,0,112365,,255,0,128 F,0,112365,112865,1,0
Sprite,Background,Centre,"sb\glow.png",285,299 S,0,112384,,0.5 C,0,112384,,255,0,128 F,0,112384,112884,1,0
Sprite,Background,Centre,"sb\glow.png",283,314 S,0,112402,,0.5 C,0,112402,,255,0,128 F,0,112402,112902,1,0
Sprite,Background,Centre,"sb\glow.png",281,329 S,0,112421,,0.5 C,0,112421,,255,0,128 F,0,112421,112921,1,0
Sprite,Background,Centre,"sb\glow.png",280,344 S,0,112440,,0.5 C,0,112440,,255,0,128 F,0,112440,112940,1,0
Sprite,Background,Centre,"sb\glow.png",278,359 S,0,112459,,0.5 C,0,112459,,255,0,128 F,0,112459,112959,1,0
Sprite,Background,Centre,"sb\glow.png",365,329 S,0,112477,,0.5 C,0,112477,,255,0,128 F,0,112477,112977,1,0
Sprite,Background,Centre,"sb\glow.png",444,300 S,0,112496,,0.5 C,0,112496,,255,0,128 F,0,112496,112996,1,0
Sprite,Background,Centre,"sb\glow.png",498,281 S,0,112515,,0.5 C,0,112515,,255,0,128 F,0,112515,113015,1,0
Sprite,Background,Centre,"sb\glow.png",518,274 S,0,112534,,0.5 C,0,112534,,255,0,128 F,0,112534,113034,1,0
Sprite,Background,Centre,"sb\glow.png",506,260 S,0,112552,,0.5 C,0,112552,,255,0,128 F,0,112552,113052,1,0
Sprite,Background,Centre,"sb\glow.png",491,246 S,0,112571,,0.5 C,0,112571,,255,0,128 F,0,112571,113071,1,0
Sprite,Background,Centre,"sb\glow.png",474,235 S,0,112590,,0.5 C,0,112590,,255,0,128 F,0,112590,113090,1,0
Sprite,Background,Centre,"sb\glow.png",456,228 S,0,112609,,0.5 C,0,112609,,255,0,128 F,0,112609,113109,1,0
Sprite,Background,Centre,"sb\glow.png",436,224 S,0,112627,,0.5 C,0,112627,,255,0,128 F,0,112627,113127,1,0
Sprite,Background,Centre,"sb\glow.png",416,225 S,0,112646,,0.5 C,0,112646,,255,0,128 F,0,112646,113146,1,0
Sprite,Background,Centre,"sb\glow.png",397,229 S,0,112665,,0.5 C,0,112665,,255,0,128 F,0,112665,113165,1,0
Sprite,Background,Centre,"sb\glow.png",378,235 S,0,112684,,0.5 C,0,112684,,255,0,128 F,0,112684,113184,1,0
Sprite,Background,Centre,"sb\glow.png",376,239 S,0,112702,,0.5 C,0,112702,,255,0,128 F,0,112702,113202,1,0
Sprite,Background,Centre,"sb\glow.png",395,240 S,0,112721,,0.5 C,0,112721,,255,0,128 F,0,112721,113221,1,0
Sprite,Background,Centre,"sb\glow.png",414,246 S,0,112740,,0.5 C,0,112740,,255,0,128 F,0,112740,113240,1,0
Sprite,Background,Centre,"sb\glow.png",432,256 S,0,112759,,0.5 C,0,112759,,255,0,128 F,0,112759,113259,1,0
Sprite,Background,Centre,"sb\glow.png",479,301 S,0,112777,,0.5 C,0,112777,,255,0,128 F,0,112777,113277,1,0
Sprite,Background,Centre,"sb\glow.png",521,341 S,0,112796,,0.5 C,0,112796,,255,0,128 F,0,112796,113296,1,0
Sprite,Background,Centre,"sb\glow.png",550,368 S,0,112815,,0.5 C,0,112815,,255,0,128 F,0,112815,113315,1,0
Sprite,Background,Centre,"sb\glow.png",561,378 S,0,112834,,0.5 C,0,112834,,255,0,128 F,0,112834,113334,1,0
Sprite,Background,Centre,"sb\glow.png",554,376 S,0,112852,,0.5 C,0,112852,,255,88,102 F,0,112852,113352,1,0
Sprite,Background,Centre,"sb\glow.png",547,374 S,0,112871,,0.5 C,0,112871,,255,88,102 F,0,112871,113371,1,0
Sprite,Background,Centre,"sb\glow.png",540,372 S,0,112890,,0.5 C,0,112890,,255,88,102 F,0,112890,113390,1,0
Sprite,Background,Centre,"sb\glow.png",532,371 S,0,112909,,0.5 C,0,112909,,255,88,102 F,0,112909,113409,1,0
Sprite,Background,Centre,"sb\glow.png",525,371 S,0,112927,,0.5 C,0,112927,,255,88,102 F,0,112927,113427,1,0
Sprite,Background,Centre,"sb\glow.png",517,371 S,0,112946,,0.5 C,0,112946,,255,88,102 F,0,112946,113446,1,0
Sprite,Background,Centre,"sb\glow.png",510,372 S,0,112965,,0.5 C,0,112965,,255,88,102 F,0,112965,113465,1,0
Sprite,Background,Centre,"sb\glow.png",503,374 S,0,112984,,0.5 C,0,112984,,255,88,102 F,0,112984,113484,1,0
Sprite,Background,Centre,"sb\glow.png",495,376 S,0,113002,,0.5 C,0,113002,,255,88,102 F,0,113002,113502,1,0
Sprite,Background,Centre,"sb\glow.png",489,377 S,0,113021,,0.5 C,0,113021,,255,88,102 F,0,113021,113521,1,0
Sprite,Background,Centre,"sb\glow.png",484,371 S,0,113040,,0.5 C,0,113040,,255,88,102 F,0,113040,113540,1,0
Sprite,Background,Centre,"sb\glow.png",479,366 S,0,113059,,0.5 C,0,113059,,255,88,102 F,0,113059,113559,1,0
Sprite,Background,Centre,"sb\glow.png",474,360 S,0,113077,,0.5 C,0,113077,,255,88,102 F,0,113077,113577,1,0
Sprite,Background,Centre,"sb\glow.png",468,356 S,0,113096,,0.5 C,0,113096,,255,88,102 F,0,113096,113596,1,0
Sprite,Background,Centre,"sb\glow.png",461,352 S,0,113115,,0.5 C,0,113115,,255,88,102 F,0,113115,113615,1,0
Sprite,Background,Centre,"sb\glow.png",454,349 S,0,113134,,0.5 C,0,113134,,255,88,102 F,0,113134,113634,1,0
Sprite,Background,Centre,"sb\glow.png",447,347 S,0,113152,,0.5 C,0,113152,,255,88,102 F,0,113152,113652,1,0
Sprite,Background,Centre,"sb\glow.png",441,350 S,0,113171,,0.5 C,0,113171,,255,88,102 F,0,113171,113671,1,0
Sprite,Background,Centre,"sb\glow.png",436,355 S,0,113190,,0.5 C,0,113190,,255,88,102 F,0,113190,113690,1,0
Sprite,Background,Centre,"sb\glow.png",430,359 S,0,113209,,0.5 C,0,113209,,255,88,102 F,0,113209,113709,1,0
Sprite,Background,Centre,"sb\glow.png",424,363 S,0,113227,,0.5 C,0,113227,,255,88,102 F,0,113227,113727,1,0
Sprite,Background,Centre,"sb\glow.png",417,367 S,0,113246,,0.5 C,0,113246,,255,88,102 F,0,113246,113746,1,0
Sprite,Background,Centre,"sb\glow.png",411,371 S,0,113265,,0.5 C,0,113265,,255,88,102 F,0,113265,113765,1,0
Sprite,Background,Centre,"sb\glow.png",404,373 S,0,113284,,0.5 C,0,113284,,255,88,102 F,0,113284,113784,1,0
Sprite,Background,Centre,"sb\glow.png",396,375 S,0,113302,,0.5 C,0,113302,,255,88,102 F,0,113302,113802,1,0
Sprite,Background,Centre,"sb\glow.png",389,377 S,0,113321,,0.5 C,0,113321,,255,88,102 F,0,113321,113821,1,0
Sprite,Background,Centre,"sb\glow.png",382,378 S,0,113340,,0.5 C,0,113340,,255,88,102 F,0,113340,113840,1,0
Sprite,Background,Centre,"sb\glow.png",374,378 S,0,113359,,0.5 C,0,113359,,255,88,102 F,0,113359,113859,1,0
Sprite,Background,Centre,"sb\glow.png",363,377 S,0,113377,,0.5 C,0,113377,,255,88,102 F,0,113377,113877,1,0
Sprite,Background,Centre,"sb\glow.png",353,375 S,0,113396,,0.5 C,0,113396,,255,88,102 F,0,113396,113896,1,0
Sprite,Background,Centre,"sb\glow.png",347,374 S,0,113415,,0.5 C,0,113415,,255,88,102 F,0,113415,113915,1,0
Sprite,Background,Centre,"sb\glow.png",344,374 S,0,113434,,0.5 C,0,113434,,255,88,102 F,0,113434,113934,1,0
Sprite,Background,Centre,"sb\glow.png",344,374 S,0,113452,,0.5 C,0,113452,,255,88,102 F,0,113452,113952,1,0
Sprite,Background,Centre,"sb\glow.png",344,374 S,0,113471,,0.5 C,0,113471,,255,88,102 F,0,113471,113971,1,0
Sprite,Background,Centre,"sb\glow.png",344,374 S,0,113490,,0.5 C,0,113490,,255,88,102 F,0,113490,113990,1,0
Sprite,Background,Centre,"sb\glow.png",344,374 S,0,113509,,0.5 C,0,113509,,255,88,102 F,0,113509,114009,1,0
Sprite,Background,Centre,"sb\glow.png",344,374 S,0,113527,,0.5 C,0,113527,,255,88,102 F,0,113527,114027,1,0
Sprite,Background,Centre,"sb\glow.png",344,374 S,0,113546,,0.5 C,0,113546,,255,88,102 F,0,113546,114046,1,0
Sprite,Background,Centre,"sb\glow.png",344,374 S,0,113565,,0.5 C,0,113565,,255,88,102 F,0,113565,114065,1,0
Sprite,Background,Centre,"sb\glow.png",344,374 S,0,113584,,0.5 C,0,113584,,255,88,102 F,0,113584,114084,1,0
Sprite,Background,Centre,"sb\glow.png",343,334 S,0,113602,,0.5 C,0,113602,,255,88,102 F,0,113602,114102,1,0
Sprite,Background,Centre,"sb\glow.png",342,293 S,0,113621,,0.5 C,0,113621,,255,88,102 F,0,113621,114121,1,0
Sprite,Background,Centre,"sb\glow.png",341,255 S,0,113640,,0.5 C,0,113640,,255,88,102 F,0,113640,114140,1,0
Sprite,Background,Centre,"sb\glow.png",340,221 S,0,113659,,0.5 C,0,113659,,255,88,102 F,0,113659,114159,1,0
Sprite,Background,Centre,"sb\glow.png",339,194 S,0,113677,,0.5 C,0,113677,,255,88,102 F,0,113677,114177,1,0
Sprite,Background,Centre,"sb\glow.png",338,173 S,0,113696,,0.5 C,0,113696,,255,88,102 F,0,113696,114196,1,0
Sprite,Background,Centre,"sb\glow.png",338,161 S,0,113715,,0.5 C,0,113715,,255,88,102 F,0,113715,114215,1,0
Sprite,Background,Centre,"sb\glow.png",338,156 S,0,113734,,0.5 C,0,113734,,255,88,102 F,0,113734,114234,1,0
Sprite,Background,Centre,"sb\glow.png",347,164 S,0,113752,,0.5 C,0,113752,,255,88,102 F,0,113752,114252,1,0
Sprite,Background,Centre,"sb\glow.png",357,172 S,0,113771,,0.5 C,0,113771,,255,88,102 F,0,113771,114271,1,0
Sprite,Background,Centre,"sb\glow.png",366,180 S,0,113790,,0.5 C,0,113790,,255,88,102 F,0,113790,114290,1,0
Sprite,Background,Centre,"sb\glow.png",376,188 S,0,113809,,0.5 C,0,113809,,255,88,102 F,0,113809,114309,1,0
Sprite,Background,Centre,"sb\glow.png",385,196 S,0,113827,,0.5 C,0,113827,,255,88,102 F,0,113827,114327,1,0
Sprite,Background,Centre,"sb\glow.png",384,208 S,0,113846,,0.5 C,0,113846,,255,88,102 F,0,113846,114346,1,0
Sprite,Background,Centre,"sb\glow.png",382,220 S,0,113865,,0.5 C,0,113865,,255,88,102 F,0,113865,114365,1,0
Sprite,Background,Centre,"sb\glow.png",381,232 S,0,113884,,0.5 C,0,113884,,255,88,102 F,0,113884,114384,1,0
Sprite,Background,Centre,"sb\glow.png",379,245 S,0,113902,,0.5 C,0,113902,,255,88,102 F,0,113902,114402,1,0
Sprite,Background,Centre,"sb\glow.png",377,257 S,0,113921,,0.5 C,0,113921,,255,88,102 F,0,113921,114421,1,0
Sprite,Background,Centre,"sb\glow.png",375,270 S,0,113940,,0.5 C,0,113940,,255,88,102 F,0,113940,114440,1,0
Sprite,Background,Centre,"sb\glow.png",373,282 S,0,113959,,0.5 C,0,113959,,255,88,102 F,0,113959,114459,1,0
Sprite,Background,Centre,"sb\glow.png",333,334 S,0,113977,,0.5 C,0,113977,,255,88,102 F,0,113977,114477,1,0
Sprite,Background,Centre,"sb\glow.png",297,380 S,0,113996,,0.5 C,0,113996,,255,88,102 F,0,113996,114496,1,0
Sprite,Background,Centre,"sb\glow.png",272,412 S,0,114015,,0.5 C,0,114015,,255,88,102 F,0,114015,114515,1,0
Sprite,Background,Centre,"sb\glow.png",263,424 S,0,114034,,0.5 C,0,114034,,255,88,102 F,0,114034,114534,1,0
Sprite,Background,Centre,"sb\glow.png",258,413 S,0,114052,,0.5 C,0,114052,,255,88,102 F,0,114052,114552,1,0
Sprite,Background,Centre,"sb\glow.png",253,402 S,0,114071,,0.5 C,0,114071,,255,88,102 F,0,114071,114571,1,0
Sprite,Background,Centre,"sb\glow.png",250,390 S,0,114090,,0.5 C,0,114090,,255,88,102 F,0,114090,114590,1,0
Sprite,Background,Centre,"sb\glow.png",249,377 S,0,114109,,0.5 C,0,114109,,255,88,102 F,0,114109,114609,1,0
Sprite,Background,Centre,"sb\glow.png",250,365 S,0,114127,,0.5 C,0,114127,,255,88,102 F,0,114127,114627,1,0
Sprite,Background,Centre,"sb\glow.png",251,353 S,0,114146,,0.5 C,0,114146,,255,88,102 F,0,114146,114646,1,0
Sprite,Background,Centre,"sb\glow.png",255,341 S,0,114165,,0.5 C,0,114165,,255,88,102 F,0,114165,114665,1,0
Sprite,Background,Centre,"sb\glow.png",260,329 S,0,114184,,0.5 C,0,114184,,255,88,102 F,0,114184,114684,1,0
Sprite,Background,Centre,"sb\glow.png",293,333 S,0,114202,,0.5 C,0,114202,,255,88,102 F,0,114202,114702,1,0
Sprite,Background,Centre,"sb\glow.png",326,338 S,0,114221,,0.5 C,0,114221,,255,88,102 F,0,114221,114721,1,0
Sprite,Background,Centre,"sb\glow.png",357,342 S,0,114240,,0.5 C,0,114240,,255,88,102 F,0,114240,114740,1,0
Sprite,Background,Centre,"sb\glow.png",384,346 S,0,114259,,0.5 C,0,114259,,255,88,102 F,0,114259,114759,1,0
Sprite,Background,Centre,"sb\glow.png",406,349 S,0,114277,,0.5 C,0,114277,,255,88,102 F,0,114277,114777,1,0
Sprite,Background,Centre,"sb\glow.png",423,351 S,0,114296,,0.5 C,0,114296,,255,88,102 F,0,114296,114796,1,0
Sprite,Background,Centre,"sb\glow.png",433,352 S,0,114315,,0.5 C,0,114315,,255,88,102 F,0,114315,114815,1,0
Sprite,Background,Centre,"sb\glow.png",437,353 S,0,114334,,0.5 C,0,114334,,255,88,102 F,0,114334,114834,1,0
Sprite,Background,Centre,"sb\glow.png",409,331 S,0,114352,,0.5 C,0,114352,,255,88,102 F,0,114352,114852,1,0
Sprite,Background,Centre,"sb\glow.png",380,309 S,0,114371,,0.5 C,0,114371,,255,88,102 F,0,114371,114871,1,0
Sprite,Background,Centre,"sb\glow.png",353,289 S,0,114390,,0.5 C,0,114390,,255,88,102 F,0,114390,114890,1,0
Sprite,Background,Centre,"sb\glow.png",330,271 S,0,114409,,0.5 C,0,114409,,255,88,102 F,0,114409,114909,1,0
Sprite,Background,Centre,"sb\glow.png",311,256 S,0,114427,,0.5 C,0,114427,,255,88,102 F,0,114427,114927,1,0
Sprite,Background,Centre,"sb\glow.png",296,245 S,0,114446,,0.5 C,0,114446,,255,88,102 F,0,114446,114946,1,0
Sprite,Background,Centre,"sb\glow.png",287,238 S,0,114465,,0.5 C,0,114465,,255,88,102 F,0,114465,114965,1,0
Sprite,Background,Centre,"sb\glow.png",284,236 S,0,114484,,0.5 C,0,114484,,255,88,102 F,0,114484,114984,1,0
Sprite,Background,Centre,"sb\glow.png",330,232 S,0,114502,,0.5 C,0,114502,,255,88,102 F,0,114502,115002,1,0
Sprite,Background,Centre,"sb\glow.png",376,229 S,0,114521,,0.5 C,0,114521,,255,88,102 F,0,114521,115021,1,0
Sprite,Background,Centre,"sb\glow.png",419,225 S,0,114540,,0.5 C,0,114540,,255,88,102 F,0,114540,115040,1,0
Sprite,Background,Centre,"sb\glow.png",457,222 S,0,114559,,0.5 C,0,114559,,255,88,102 F,0,114559,115059,1,0
Sprite,Background,Centre,"sb\glow.png",488,219 S,0,114577,,0.5 C,0,114577,,255,88,102 F,0,114577,115077,1,0
Sprite,Background,Centre,"sb\glow.png",511,218 S,0,114596,,0.5 C,0,114596,,255,88,102 F,0,114596,115096,1,0
Sprite,Background,Centre,"sb\glow.png",526,216 S,0,114615,,0.5 C,0,114615,,255,88,102 F,0,114615,115115,1,0
Sprite,Background,Centre,"sb\glow.png",531,216 S,0,114634,,0.5 C,0,114634,,255,88,102 F,0,114634,115134,1,0
Sprite,Background,Centre,"sb\glow.png",533,197 S,0,114652,,0.5 C,0,114652,,255,0,255 F,0,114652,115152,1,0
Sprite,Background,Centre,"sb\glow.png",527,178 S,0,114671,,0.5 C,0,114671,,255,0,255 F,0,114671,115171,1,0
Sprite,Background,Centre,"sb\glow.png",516,162 S,0,114690,,0.5 C,0,114690,,255,0,255 F,0,114690,115190,1,0
Sprite,Background,Centre,"sb\glow.png",499,152 S,0,114709,,0.5 C,0,114709,,255,0,255 F,0,114709,115209,1,0
Sprite,Background,Centre,"sb\glow.png",480,149 S,0,114727,,0.5 C,0,114727,,255,0,255 F,0,114727,115227,1,0
Sprite,Background,Centre,"sb\glow.png",461,153 S,0,114746,,0.5 C,0,114746,,255,0,255 F,0,114746,115246,1,0
Sprite,Background,Centre,"sb\glow.png",444,163 S,0,114765,,0.5 C,0,114765,,255,0,255 F,0,114765,115265,1,0
Sprite,Background,Centre,"sb\glow.png",433,179 S,0,114784,,0.5 C,0,114784,,255,0,255 F,0,114784,115284,1,0
Sprite,Background,Centre,"sb\glow.png",428,198 S,0,114802,,0.5 C,0,114802,,255,0,255 F,0,114802,115302,1,0
Sprite,Background,Centre,"sb\glow.png",431,218 S,0,114821,,0.5 C,0,114821,,255,0,255 F,0,114821,115321,1,0
Sprite,Background,Centre,"sb\glow.png",441,235 S,0,114840,,0.5 C,0,114840,,255,0,255 F,0,114840,115340,1,0
Sprite,Background,Centre,"sb\glow.png",456,247 S,0,114859,,0.5 C,0,114859,,255,0,255 F,0,114859,115359,1,0
Sprite,Background,Centre,"sb\glow.png",490,236 S,0,114877,,0.5 C,0,114877,,255,0,255 F,0,114877,115377,1,0
Sprite,Background,Centre,"sb\glow.png",520,226 S,0,114896,,0.5 C,0,114896,,255,0,255 F,0,114896,115396,1,0
Sprite,Background,Centre,"sb\glow.png",540,219 S,0,114915,,0.5 C,0,114915,,255,0,255 F,0,114915,115415,1,0
Sprite,Background,Centre,"sb\glow.png",548,216 S,0,114934,,0.5 C,0,114934,,255,0,255 F,0,114934,115434,1,0
Sprite,Background,Centre,"sb\glow.png",549,192 S,0,114952,,0.5 C,0,114952,,255,0,255 F,0,114952,115452,1,0
Sprite,Background,Centre,"sb\glow.png",542,169 S,0,114971,,0.5 C,0,114971,,255,0,255 F,0,114971,115471,1,0
Sprite,Background,Centre,"sb\glow.png",526,149 S,0,114990,,0.5 C,0,114990,,255,0,255 F,0,114990,115490,1,0
Sprite,Background,Centre,"sb\glow.png",505,137 S,0,115009,,0.5 C,0,115009,,255,0,255 F,0,115009,115509,1,0
Sprite,Background,Centre,"sb\glow.png",481,132 S,0,115027,,0.5 C,0,115027,,255,0,255 F,0,115027,115527,1,0
Sprite,Background,Centre,"sb\glow.png",457,137 S,0,115046,,0.5 C,0,115046,,255,0,255 F,0,115046,115546,1,0
Sprite,Background,Centre,"sb\glow.png",435,149 S,0,115065,,0.5 C,0,115065,,255,0,255 F,0,115065,115565,1,0
Sprite,Background,Centre,"sb\glow.png",420,169 S,0,115084,,0.5 C,0,115084,,255,0,255 F,0,115084,115584,1,0
Sprite,Background,Centre,"sb\glow.png",413,192 S,0,115102,,0.5 C,0,115102,,255,0,255 F,0,115102,115602,1,0
Sprite,Background,Centre,"sb\glow.png",414,217 S,0,115121,,0.5 C,0,115121,,255,0,255 F,0,115121,115621,1,0
Sprite,Background,Centre,"sb\glow.png",424,239 S,0,115140,,0.5 C,0,115140,,255,0,255 F,0,115140,115640,1,0
Sprite,Background,Centre,"sb\glow.png",442,257 S,0,115159,,0.5 C,0,115159,,255,0,255 F,0,115159,115659,1,0
Sprite,Background,Centre,"sb\glow.png",471,276 S,0,115177,,0.5 C,0,115177,,255,0,255 F,0,115177,115677,1,0
Sprite,Background,Centre,"sb\glow.png",498,293 S,0,115196,,0.5 C,0,115196,,255,0,255 F,0,115196,115696,1,0
Sprite,Background,Centre,"sb\glow.png",515,305 S,0,115215,,0.5 C,0,115215,,255,0,255 F,0,115215,115715,1,0
Sprite,Background,Centre,"sb\glow.png",522,309 S,0,115234,,0.5 C,0,115234,,255,0,255 F,0,115234,115734,1,0
Sprite,Background,Centre,"sb\glow.png",476,316 S,0,115252,,0.5 C,0,115252,,255,128,192 F,0,115252,115752,1,0
Sprite,Background,Centre,"sb\glow.png",429,323 S,0,115271,,0.5 C,0,115271,,255,128,192 F,0,115271,115771,1,0
Sprite,Background,Centre,"sb\glow.png",385,329 S,0,115290,,0.5 C,0,115290,,255,128,192 F,0,115290,115790,1,0
Sprite,Background,Centre,"sb\glow.png",347,335 S,0,115309,,0.5 C,0,115309,,255,128,192 F,0,115309,115809,1,0
Sprite,Background,Centre,"sb\glow.png",316,340 S,0,115327,,0.5 C,0,115327,,255,128,192 F,0,115327,115827,1,0
Sprite,Background,Centre,"sb\glow.png",292,343 S,0,115346,,0.5 C,0,115346,,255,128,192 F,0,115346,115846,1,0
Sprite,Background,Centre,"sb\glow.png",277,345 S,0,115365,,0.5 C,0,115365,,255,128,192 F,0,115365,115865,1,0
Sprite,Background,Centre,"sb\glow.png",272,346 S,0,115384,,0.5 C,0,115384,,255,128,192 F,0,115384,115884,1,0
Sprite,Background,Centre,"sb\glow.png",289,302 S,0,115402,,0.5 C,0,115402,,255,128,192 F,0,115402,115902,1,0
Sprite,Background,Centre,"sb\glow.png",306,258 S,0,115421,,0.5 C,0,115421,,255,128,192 F,0,115421,115921,1,0
Sprite,Background,Centre,"sb\glow.png",322,217 S,0,115440,,0.5 C,0,115440,,255,128,192 F,0,115440,115940,1,0
Sprite,Background,Centre,"sb\glow.png",336,181 S,0,115459,,0.5 C,0,115459,,255,128,192 F,0,115459,115959,1,0
Sprite,Background,Centre,"sb\glow.png",348,151 S,0,115477,,0.5 C,0,115477,,255,128,192 F,0,115477,115977,1,0
Sprite,Background,Centre,"sb\glow.png",357,129 S,0,115496,,0.5 C,0,115496,,255,128,192 F,0,115496,115996,1,0
Sprite,Background,Centre,"sb\glow.png",362,115 S,0,115515,,0.5 C,0,115515,,255,128,192 F,0,115515,116015,1,0
Sprite,Background,Centre,"sb\glow.png",364,110 S,0,115534,,0.5 C,0,115534,,255,128,192 F,0,115534,116034,1,0
Sprite,Background,Centre,"sb\glow.png",377,155 S,0,115552,,0.5 C,0,115552,,255,128,192 F,0,115552,116052,1,0
Sprite,Background,Centre,"sb\glow.png",391,201 S,0,115571,,0.5 C,0,115571,,255,128,192 F,0,115571,116071,1,0
Sprite,Background,Centre,"sb\glow.png",404,243 S,0,115590,,0.5 C,0,115590,,255,128,192 F,0,115590,116090,1,0
Sprite,Background,Centre,"sb\glow.png",415,280 S,0,115609,,0.5 C,0,115609,,255,128,192 F,0,115609,116109,1,0
Sprite,Background,Centre,"sb\glow.png",424,311 S,0,115627,,0.5 C,0,115627,,255,128,192 F,0,115627,116127,1,0
Sprite,Background,Centre,"sb\glow.png",431,334 S,0,115646,,0.5 C,0,115646,,255,128,192 F,0,115646,116146,1,0
Sprite,Background,Centre,"sb\glow.png",435,348 S,0,115665,,0.5 C,0,115665,,255,128,192 F,0,115665,116165,1,0
Sprite,Background,Centre,"sb\glow.png",437,353 S,0,115684,,0.5 C,0,115684,,255,128,192 F,0,115684,116184,1,0
Sprite,Background,Centre,"sb\glow.png",408,316 S,0,115702,,0.5 C,0,115702,,255,128,192 F,0,115702,116202,1,0
Sprite,Background,Centre,"sb\glow.png",378,279 S,0,115721,,0.5 C,0,115721,,255,128,192 F,0,115721,116221,1,0
Sprite,Background,Centre,"sb\glow.png",351,244 S,0,115740,,0.5 C,0,115740,,255,128,192 F,0,115740,116240,1,0
Sprite,Background,Centre,"sb\glow.png",326,214 S,0,115759,,0.5 C,0,115759,,255,128,192 F,0,115759,116259,1,0
Sprite,Background,Centre,"sb\glow.png",307,189 S,0,115777,,0.5 C,0,115777,,255,128,192 F,0,115777,116277,1,0
Sprite,Background,Centre,"sb\glow.png",292,170 S,0,115796,,0.5 C,0,115796,,255,128,192 F,0,115796,116296,1,0
Sprite,Background,Centre,"sb\glow.png",282,158 S,0,115815,,0.5 C,0,115815,,255,128,192 F,0,115815,116315,1,0
Sprite,Background,Centre,"sb\glow.png",279,154 S,0,115834,,0.5 C,0,115834,,255,128,192 F,0,115834,116334,1,0
Sprite,Background,Centre,"sb\glow.png",278,189 S,0,115852,,0.5 C,0,115852,,255,0,128 F,0,115852,116352,1,0
Sprite,Background,Centre,"sb\glow.png",276,226 S,0,115871,,0.5 C,0,115871,,255,0,128 F,0,115871,116371,1,0
Sprite,Background,Centre,"sb\glow.png",275,259 S,0,115890,,0.5 C,0,115890,,255,0,128 F,0,115890,116390,1,0
Sprite,Background,Centre,"sb\glow.png",274,288 S,0,115909,,0.5 C,0,115909,,255,0,128 F,0,115909,116409,1,0
Sprite,Background,Centre,"sb\glow.png",273,313 S,0,115927,,0.5 C,0,115927,,255,0,128 F,0,115927,116427,1,0
Sprite,Background,Centre,"sb\glow.png",273,331 S,0,115946,,0.5 C,0,115946,,255,0,128 F,0,115946,116446,1,0
Sprite,Background,Centre,"sb\glow.png",272,342 S,0,115965,,0.5 C,0,115965,,255,0,128 F,0,115965,116465,1,0
Sprite,Background,Centre,"sb\glow.png",272,346 S,0,115984,,0.5 C,0,115984,,255,0,128 F,0,115984,116484,1,0
Sprite,Background,Centre,"sb\glow.png",305,294 S,0,116002,,0.5 C,0,116002,,255,0,128 F,0,116002,116502,1,0
Sprite,Background,Centre,"sb\glow.png",338,242 S,0,116021,,0.5 C,0,116021,,255,0,128 F,0,116021,116521,1,0
Sprite,Background,Centre,"sb\glow.png",369,193 S,0,116040,,0.5 C,0,116040,,255,0,128 F,0,116040,116540,1,0
Sprite,Background,Centre,"sb\glow.png",396,150 S,0,116059,,0.5 C,0,116059,,255,0,128 F,0,116059,116559,1,0
Sprite,Background,Centre,"sb\glow.png",418,115 S,0,116077,,0.5 C,0,116077,,255,0,128 F,0,116077,116577,1,0
Sprite,Background,Centre,"sb\glow.png",435,88 S,0,116096,,0.5 C,0,116096,,255,0,128 F,0,116096,116596,1,0
Sprite,Background,Centre,"sb\glow.png",445,72 S,0,116115,,0.5 C,0,116115,,255,0,128 F,0,116115,116615,1,0
Sprite,Background,Centre,"sb\glow.png",449,66 S,0,116134,,0.5 C,0,116134,,255,0,128 F,0,116134,116634,1,0
Sprite,Background,Centre,"sb\glow.png",462,111 S,0,116152,,0.5 C,0,116152,,255,0,128 F,0,116152,116652,1,0
Sprite,Background,Centre,"sb\glow.png",476,157 S,0,116171,,0.5 C,0,116171,,255,0,128 F,0,116171,116671,1,0
Sprite,Background,Centre,"sb\glow.png",489,199 S,0,116190,,0.5 C,0,116190,,255,0,128 F,0,116190,116690,1,0
Sprite,Background,Centre,"sb\glow.png",500,236 S,0,116209,,0.5 C,0,116209,,255,0,128 F,0,116209,116709,1,0
Sprite,Background,Centre,"sb\glow.png",509,267 S,0,116227,,0.5 C,0,116227,,255,0,128 F,0,116227,116727,1,0
Sprite,Background,Centre,"sb\glow.png",516,290 S,0,116246,,0.5 C,0,116246,,255,0,128 F,0,116246,116746,1,0
Sprite,Background,Centre,"sb\glow.png",520,304 S,0,116265,,0.5 C,0,116265,,255,0,128 F,0,116265,116765,1,0
Sprite,Background,Centre,"sb\glow.png",522,309 S,0,116284,,0.5 C,0,116284,,255,0,128 F,0,116284,116784,1,0
Sprite,Background,Centre,"sb\glow.png",454,298 S,0,116302,,0.5 C,0,116302,,255,0,128 F,0,116302,116802,1,0
Sprite,Background,Centre,"sb\glow.png",385,286 S,0,116321,,0.5 C,0,116321,,255,0,128 F,0,116321,116821,1,0
Sprite,Background,Centre,"sb\glow.png",322,276 S,0,116340,,0.5 C,0,116340,,255,0,128 F,0,116340,116840,1,0
Sprite,Background,Centre,"sb\glow.png",266,266 S,0,116359,,0.5 C,0,116359,,255,0,128 F,0,116359,116859,1,0
Sprite,Background,Centre,"sb\glow.png",220,259 S,0,116377,,0.5 C,0,116377,,255,0,128 F,0,116377,116877,1,0
Sprite,Background,Centre,"sb\glow.png",185,253 S,0,116396,,0.5 C,0,116396,,255,0,128 F,0,116396,116896,1,0
Sprite,Background,Centre,"sb\glow.png",164,249 S,0,116415,,0.5 C,0,116415,,255,0,128 F,0,116415,116915,1,0
Sprite,Background,Centre,"sb\glow.png",156,248 S,0,116434,,0.5 C,0,116434,,255,0,128 F,0,116434,116934,1,0
Sprite,Background,Centre,"sb\glow.png",150,225 S,0,116452,,0.5 C,0,116452,,255,88,102 F,0,116452,116952,1,0
Sprite,Background,Centre,"sb\glow.png",148,200 S,0,116471,,0.5 C,0,116471,,255,88,102 F,0,116471,116971,1,0
Sprite,Background,Centre,"sb\glow.png",152,176 S,0,116490,,0.5 C,0,116490,,255,88,102 F,0,116490,116990,1,0
Sprite,Background,Centre,"sb\glow.png",162,153 S,0,116509,,0.5 C,0,116509,,255,88,102 F,0,116509,117009,1,0
Sprite,Background,Centre,"sb\glow.png",176,133 S,0,116527,,0.5 C,0,116527,,255,88,102 F,0,116527,117027,1,0
Sprite,Background,Centre,"sb\glow.png",190,120 S,0,116546,,0.5 C,0,116546,,255,88,102 F,0,116546,117046,1,0
Sprite,Background,Centre,"sb\glow.png",185,142 S,0,116565,,0.5 C,0,116565,,255,88,102 F,0,116565,117065,1,0
Sprite,Background,Centre,"sb\glow.png",185,167 S,0,116584,,0.5 C,0,116584,,255,88,102 F,0,116584,117084,1,0
Sprite,Background,Centre,"sb\glow.png",264,197 S,0,116602,,0.5 C,0,116602,,255,88,102 F,0,116602,117102,1,0
Sprite,Background,Centre,"sb\glow.png",336,222 S,0,116621,,0.5 C,0,116621,,255,88,102 F,0,116621,117121,1,0
Sprite,Background,Centre,"sb\glow.png",385,239 S,0,116640,,0.5 C,0,116640,,255,88,102 F,0,116640,117140,1,0
Sprite,Background,Centre,"sb\glow.png",403,246 S,0,116659,,0.5 C,0,116659,,255,88,102 F,0,116659,117159,1,0
Sprite,Background,Centre,"sb\glow.png",409,223 S,0,116677,,0.5 C,0,116677,,255,88,102 F,0,116677,117177,1,0
Sprite,Background,Centre,"sb\glow.png",411,198 S,0,116696,,0.5 C,0,116696,,255,88,102 F,0,116696,117196,1,0
Sprite,Background,Centre,"sb\glow.png",407,174 S,0,116715,,0.5 C,0,116715,,255,88,102 F,0,116715,117215,1,0
Sprite,Background,Centre,"sb\glow.png",397,151 S,0,116734,,0.5 C,0,116734,,255,88,102 F,0,116734,117234,1,0
Sprite,Background,Centre,"sb\glow.png",383,131 S,0,116752,,0.5 C,0,116752,,255,88,102 F,0,116752,117252,1,0
Sprite,Background,Centre,"sb\glow.png",369,118 S,0,116771,,0.5 C,0,116771,,255,88,102 F,0,116771,117271,1,0
Sprite,Background,Centre,"sb\glow.png",374,140 S,0,116790,,0.5 C,0,116790,,255,88,102 F,0,116790,117290,1,0
Sprite,Background,Centre,"sb\glow.png",374,165 S,0,116809,,0.5 C,0,116809,,255,88,102 F,0,116809,117309,1,0
Sprite,Background,Centre,"sb\glow.png",337,232 S,0,116827,,0.5 C,0,116827,,255,88,102 F,0,116827,117327,1,0
Sprite,Background,Centre,"sb\glow.png",303,291 S,0,116846,,0.5 C,0,116846,,255,88,102 F,0,116846,117346,1,0
Sprite,Background,Centre,"sb\glow.png",281,331 S,0,116865,,0.5 C,0,116865,,255,88,102 F,0,116865,117365,1,0
Sprite,Background,Centre,"sb\glow.png",272,346 S,0,116884,,0.5 C,0,116884,,255,88,102 F,0,116884,117384,1,0
Sprite,Background,Centre,"sb\glow.png",270,322 S,0,116902,,0.5 C,0,116902,,255,88,102 F,0,116902,117402,1,0
Sprite,Background,Centre,"sb\glow.png",274,299 S,0,116921,,0.5 C,0,116921,,255,88,102 F,0,116921,117421,1,0
Sprite,Background,Centre,"sb\glow.png",281,277 S,0,116940,,0.5 C,0,116940,,255,88,102 F,0,116940,117440,1,0
Sprite,Background,Centre,"sb\glow.png",280,252 S,0,116959,,0.5 C,0,116959,,255,88,102 F,0,116959,117459,1,0
Sprite,Background,Centre,"sb\glow.png",280,216 S,0,116977,,0.5 C,0,116977,,255,88,102 F,0,116977,117477,1,0
Sprite,Background,Centre,"sb\glow.png",279,184 S,0,116996,,0.5 C,0,116996,,255,88,102 F,0,116996,117496,1,0
Sprite,Background,Centre,"sb\glow.png",279,162 S,0,117015,,0.5 C,0,117015,,255,88,102 F,0,117015,117515,1,0
Sprite,Background,Centre,"sb\glow.png",279,154 S,0,117034,,0.5 C,0,117034,,255,88,102 F,0,117034,117534,1,0
Sprite,Background,Centre,"sb\glow.png",279,154 S,0,117052,,0.5 C,0,117052,,255,88,102 F,0,117052,117552,1,0
Sprite,Background,Centre,"sb\glow.png",279,154 S,0,117071,,0.5 C,0,117071,,255,88,102 F,0,117071,117571,1,0
Sprite,Background,Centre,"sb\glow.png",279,154 S,0,117090,,0.5 C,0,117090,,255,88,102 F,0,117090,117590,1,0
Sprite,Background,Centre,"sb\glow.png",279,154 S,0,117109,,0.5 C,0,117109,,255,88,102 F,0,117109,117609,1,0
Sprite,Background,Centre,"sb\glow.png",279,154 S,0,117127,,0.5 C,0,117127,,255,88,102 F,0,117127,117627,1,0
Sprite,Background,Centre,"sb\glow.png",279,154 S,0,117146,,0.5 C,0,117146,,255,88,102 F,0,117146,117646,1,0
Sprite,Background,Centre,"sb\glow.png",279,154 S,0,117165,,0.5 C,0,117165,,255,88,102 F,0,117165,117665,1,0
Sprite,Background,Centre,"sb\glow.png",279,154 S,0,117184,,0.5 C,0,117184,,255,88,102 F,0,117184,117684,1,0
Sprite,Background,Centre,"sb\glow.png",279,154 S,0,117202,,0.5 C,0,117202,,255,88,102 F,0,117202,117702,1,0
Sprite,Background,Centre,"sb\glow.png",279,154 S,0,117221,,0.5 C,0,117221,,255,88,102 F,0,117221,117721,1,0
Sprite,Background,Centre,"sb\glow.png",279,154 S,0,117240,,0.5 C,0,117240,,255,88,102 F,0,117240,117740,1,0
Sprite,Background,Centre,"sb\glow.png",279,154 S,0,117259,,0.5 C,0,117259,,255,88,102 F,0,117259,117759,1,0
Sprite,Background,Centre,"sb\glow.png",279,154 S,0,117277,,0.5 C,0,117277,,255,88,102 F,0,117277,117777,1,0
Sprite,Background,Centre,"sb\glow.png",279,154 S,0,117296,,0.5 C,0,117296,,255,88,102 F,0,117296,117796,1,0
Sprite,Background,Centre,"sb\glow.png",279,154 S,0,117315,,0.5 C,0,117315,,255,88,102 F,0,117315,117815,1,0
Sprite,Background,Centre,"sb\glow.png",279,154 S,0,117334,,0.5 C,0,117334,,255,88,102 F,0,117334,117834,1,0
Sprite,Background,Centre,"sb\glow.png",263,165 S,0,117352,,0.5 C,0,117352,,255,0,255 F,0,117352,117852,1,0
Sprite,Background,Centre,"sb\glow.png",245,173 S,0,117371,,0.5 C,0,117371,,255,0,255 F,0,117371,117871,1,0
Sprite,Background,Centre,"sb\glow.png",226,177 S,0,117390,,0.5 C,0,117390,,255,0,255 F,0,117390,117890,1,0
Sprite,Background,Centre,"sb\glow.png",206,178 S,0,117409,,0.5 C,0,117409,,255,0,255 F,0,117409,117909,1,0
Sprite,Background,Centre,"sb\glow.png",186,176 S,0,117427,,0.5 C,0,117427,,255,0,255 F,0,117427,117927,1,0
Sprite,Background,Centre,"sb\glow.png",167,169 S,0,117446,,0.5 C,0,117446,,255,0,255 F,0,117446,117946,1,0
Sprite,Background,Centre,"sb\glow.png",150,158 S,0,117465,,0.5 C,0,117465,,255,0,255 F,0,117465,117965,1,0
Sprite,Background,Centre,"sb\glow.png",137,144 S,0,117484,,0.5 C,0,117484,,255,0,255 F,0,117484,117984,1,0
Sprite,Background,Centre,"sb\glow.png",128,126 S,0,117502,,0.5 C,0,117502,,255,0,255 F,0,117502,118002,1,0
Sprite,Background,Centre,"sb\glow.png",127,116 S,0,117521,,0.5 C,0,117521,,255,0,255 F,0,117521,118021,1,0
Sprite,Background,Centre,"sb\glow.png",138,131 S,0,117540,,0.5 C,0,117540,,255,0,255 F,0,117540,118040,1,0
Sprite,Background,Centre,"sb\glow.png",154,142 S,0,117559,,0.5 C,0,117559,,255,0,255 F,0,117559,118059,1,0
Sprite,Background,Centre,"sb\glow.png",221,119 S,0,117577,,0.5 C,0,117577,,255,0,255 F,0,117577,118077,1,0
Sprite,Background,Centre,"sb\glow.png",280,97 S,0,117596,,0.5 C,0,117596,,255,0,255 F,0,117596,118096,1,0
Sprite,Background,Centre,"sb\glow.png",321,82 S,0,117615,,0.5 C,0,117615,,255,0,255 F,0,117615,118115,1,0
Sprite,Background,Centre,"sb\glow.png",336,76 S,0,117634,,0.5 C,0,117634,,255,0,255 F,0,117634,118134,1,0
Sprite,Background,Centre,"sb\glow.png",350,89 S,0,117652,,0.5 C,0,117652,,255,128,192 F,0,117652,118152,1,0
Sprite,Background,Centre,"sb\glow.png",364,103 S,0,117671,,0.5 C,0,117671,,255,128,192 F,0,117671,118171,1,0
Sprite,Background,Centre,"sb\glow.png",379,116 S,0,117690,,0.5 C,0,117690,,255,128,192 F,0,117690,118190,1,0
Sprite,Background,Centre,"sb\glow.png",378,135 S,0,117709,,0.5 C,0,117709,,255,128,192 F,0,117709,118209,1,0
Sprite,Background,Centre,"sb\glow.png",375,155 S,0,117727,,0.5 C,0,117727,,255,128,192 F,0,117727,118227,1,0
Sprite,Background,Centre,"sb\glow.png",372,175 S,0,117746,,0.5 C,0,117746,,255,128,192 F,0,117746,118246,1,0
Sprite,Background,Centre,"sb\glow.png",369,195 S,0,117765,,0.5 C,0,117765,,255,128,192 F,0,117765,118265,1,0
Sprite,Background,Centre,"sb\glow.png",366,214 S,0,117784,,0.5 C,0,117784,,255,128,192 F,0,117784,118284,1,0
Sprite,Background,Centre,"sb\glow.png",323,221 S,0,117802,,0.5 C,0,117802,,255,128,192 F,0,117802,118302,1,0
Sprite,Background,Centre,"sb\glow.png",279,226 S,0,117821,,0.5 C,0,117821,,255,128,192 F,0,117821,118321,1,0
Sprite,Background,Centre,"sb\glow.png",239,231 S,0,117840,,0.5 C,0,117840,,255,128,192 F,0,117840,118340,1,0
Sprite,Background,Centre,"sb\glow.png",203,235 S,0,117859,,0.5 C,0,117859,,255,128,192 F,0,117859,118359,1,0
Sprite,Background,Centre,"sb\glow.png",174,239 S,0,117877,,0.5 C,0,117877,,255,128,192 F,0,117877,118377,1,0
Sprite,Background,Centre,"sb\glow.png",152,242 S,0,117896,,0.5 C,0,117896,,255,128,192 F,0,117896,118396,1,0
Sprite,Background,Centre,"sb\glow.png",138,243 S,0,117915,,0.5 C,0,117915,,255,128,192 F,0,117915,118415,1,0
Sprite,Background,Centre,"sb\glow.png",133,244 S,0,117934,,0.5 C,0,117934,,255,128,192 F,0,117934,118434,1,0
Sprite,Background,Centre,"sb\glow.png",148,214 S,0,117952,,0.5 C,0,117952,,255,128,192 F,0,117952,118452,1,0
Sprite,Background,Centre,"sb\glow.png",164,184 S,0,117971,,0.5 C,0,117971,,255,128,192 F,0,117971,118471,1,0
Sprite,Background,Centre,"sb\glow.png",178,155 S,0,117990,,0.5 C,0,117990,,255,128,192 F,0,117990,118490,1,0
Sprite,Background,Centre,"sb\glow.png",190,131 S,0,118009,,0.5 C,0,118009,,255,128,192 F,0,118009,118509,1,0
Sprite,Background,Centre,"sb\glow.png",201,110 S,0,118027,,0.5 C,0,118027,,255,128,192 F,0,118027,118527,1,0
Sprite,Background,Centre,"sb\glow.png",208,95 S,0,118046,,0.5 C,0,118046,,255,128,192 F,0,118046,118546,1,0
Sprite,Background,Centre,"sb\glow.png",213,85 S,0,118065,,0.5 C,0,118065,,255,128,192 F,0,118065,118565,1,0
Sprite,Background,Centre,"sb\glow.png",215,82 S,0,118084,,0.5 C,0,118084,,255,128,192 F,0,118084,118584,1,0
Sprite,Background,Centre,"sb\glow.png",226,113 S,0,118102,,0.5 C,0,118102,,255,128,192 F,0,118102,118602,1,0
Sprite,Background,Centre,"sb\glow.png",236,145 S,0,118121,,0.5 C,0,118121,,255,128,192 F,0,118121,118621,1,0
Sprite,Background,Centre,"sb\glow.png",246,174 S,0,118140,,0.5 C,0,118140,,255,128,192 F,0,118140,118640,1,0
Sprite,Background,Centre,"sb\glow.png",255,200 S,0,118159,,0.5 C,0,118159,,255,128,192 F,0,118159,118659,1,0
Sprite,Background,Centre,"sb\glow.png",262,221 S,0,118177,,0.5 C,0,118177,,255,128,192 F,0,118177,118677,1,0
Sprite,Background,Centre,"sb\glow.png",267,237 S,0,118196,,0.5 C,0,118196,,255,128,192 F,0,118196,118696,1,0
Sprite,Background,Centre,"sb\glow.png",271,246 S,0,118215,,0.5 C,0,118215,,255,128,192 F,0,118215,118715,1,0
Sprite,Background,Centre,"sb\glow.png",272,250 S,0,118234,,0.5 C,0,118234,,255,128,192 F,0,118234,118734,1,0
Sprite,Background,Centre,"sb\glow.png",253,246 S,0,118252,,0.5 C,0,118252,,255,128,192 F,0,118252,118752,1,0
Sprite,Background,Centre,"sb\glow.png",235,239 S,0,118271,,0.5 C,0,118271,,255,128,192 F,0,118271,118771,1,0
Sprite,Background,Centre,"sb\glow.png",218,228 S,0,118290,,0.5 C,0,118290,,255,128,192 F,0,118290,118790,1,0
Sprite,Background,Centre,"sb\glow.png",205,214 S,0,118309,,0.5 C,0,118309,,255,128,192 F,0,118309,118809,1,0
Sprite,Background,Centre,"sb\glow.png",185,215 S,0,118327,,0.5 C,0,118327,,255,128,192 F,0,118327,118827,1,0
Sprite,Background,Centre,"sb\glow.png",166,220 S,0,118346,,0.5 C,0,118346,,255,128,192 F,0,118346,118846,1,0
Sprite,Background,Centre,"sb\glow.png",149,230 S,0,118365,,0.5 C,0,118365,,255,128,192 F,0,118365,118865,1,0
Sprite,Background,Centre,"sb\glow.png",134,244 S,0,118384,,0.5 C,0,118384,,255,128,192 F,0,118384,118884,1,0
Sprite,Background,Centre,"sb\glow.png",160,228 S,0,118402,,0.5 C,0,118402,,255,128,192 F,0,118402,118902,1,0
Sprite,Background,Centre,"sb\glow.png",188,211 S,0,118421,,0.5 C,0,118421,,255,128,192 F,0,118421,118921,1,0
Sprite,Background,Centre,"sb\glow.png",213,195 S,0,118440,,0.5 C,0,118440,,255,128,192 F,0,118440,118940,1,0
Sprite,Background,Centre,"sb\glow.png",235,181 S,0,118459,,0.5 C,0,118459,,255,128,192 F,0,118459,118959,1,0
Sprite,Background,Centre,"sb\glow.png",254,170 S,0,118477,,0.5 C,0,118477,,255,128,192 F,0,118477,118977,1,0
Sprite,Background,Centre,"sb\glow.png",267,161 S,0,118496,,0.5 C,0,118496,,255,128,192 F,0,118496,118996,1,0
Sprite,Background,Centre,"sb\glow.png",276,156 S,0,118515,,0.5 C,0,118515,,255,128,192 F,0,118515,119015,1,0
Sprite,Background,Centre,"sb\glow.png",279,154 S,0,118534,,0.5 C,0,118534,,255,128,192 F,0,118534,119034,1,0
Sprite,Background,Centre,"sb\glow.png",292,141 S,0,118552,,0.5 C,0,118552,,255,128,192 F,0,118552,119052,1,0
Sprite,Background,Centre,"sb\glow.png",309,130 S,0,118571,,0.5 C,0,118571,,255,128,192 F,0,118571,119071,1,0
Sprite,Background,Centre,"sb\glow.png",328,122 S,0,118590,,0.5 C,0,118590,,255,128,192 F,0,118590,119090,1,0
Sprite,Background,Centre,"sb\glow.png",347,120 S,0,118609,,0.5 C,0,118609,,255,128,192 F,0,118609,119109,1,0
Sprite,Background,Centre,"sb\glow.png",367,122 S,0,118627,,0.5 C,0,118627,,255,128,192 F,0,118627,119127,1,0
Sprite,Background,Centre,"sb\glow.png",385,130 S,0,118646,,0.5 C,0,118646,,255,128,192 F,0,118646,119146,1,0
Sprite,Background,Centre,"sb\glow.png",399,144 S,0,118665,,0.5 C,0,118665,,255,128,192 F,0,118665,119165,1,0
Sprite,Background,Centre,"sb\glow.png",405,163 S,0,118684,,0.5 C,0,118684,,255,128,192 F,0,118684,119184,1,0
Sprite,Background,Centre,"sb\glow.png",403,183 S,0,118702,,0.5 C,0,118702,,255,128,192 F,0,118702,119202,1,0
Sprite,Background,Centre,"sb\glow.png",392,199 S,0,118721,,0.5 C,0,118721,,255,128,192 F,0,118721,119221,1,0
Sprite,Background,Centre,"sb\glow.png",375,210 S,0,118740,,0.5 C,0,118740,,255,128,192 F,0,118740,119240,1,0
Sprite,Background,Centre,"sb\glow.png",356,214 S,0,118759,,0.5 C,0,118759,,255,128,192 F,0,118759,119259,1,0
Sprite,Background,Centre,"sb\glow.png",325,227 S,0,118777,,0.5 C,0,118777,,255,128,192 F,0,118777,119277,1,0
Sprite,Background,Centre,"sb\glow.png",297,239 S,0,118796,,0.5 C,0,118796,,255,128,192 F,0,118796,119296,1,0
Sprite,Background,Centre,"sb\glow.png",279,247 S,0,118815,,0.5 C,0,118815,,255,128,192 F,0,118815,119315,1,0
Sprite,Background,Centre,"sb\glow.png",272,250 S,0,118834,,0.5 C,0,118834,,255,128,192 F,0,118834,119334,1,0
Sprite,Background,Centre,"sb\glow.png",270,269 S,0,118852,,0.5 C,0,118852,,255,0,128 F,0,118852,119352,1,0
Sprite,Background,Centre,"sb\glow.png",268,289 S,0,118871,,0.5 C,0,118871,,255,0,128 F,0,118871,119371,1,0
Sprite,Background,Centre,"sb\glow.png",266,309 S,0,118890,,0.5 C,0,118890,,255,0,128 F,0,118890,119390,1,0
Sprite,Background,Centre,"sb\glow.png",264,328 S,0,118909,,0.5 C,0,118909,,255,0,128 F,0,118909,119409,1,0
Sprite,Background,Centre,"sb\glow.png",262,348 S,0,118927,,0.5 C,0,118927,,255,0,128 F,0,118927,119427,1,0
Sprite,Background,Centre,"sb\glow.png",264,360 S,0,118946,,0.5 C,0,118946,,255,0,128 F,0,118946,119446,1,0
Sprite,Background,Centre,"sb\glow.png",278,348 S,0,118965,,0.5 C,0,118965,,255,0,128 F,0,118965,119465,1,0
Sprite,Background,Centre,"sb\glow.png",293,334 S,0,118984,,0.5 C,0,118984,,255,0,128 F,0,118984,119484,1,0
Sprite,Background,Centre,"sb\glow.png",332,314 S,0,119002,,0.5 C,0,119002,,255,0,128 F,0,119002,119502,1,0
Sprite,Background,Centre,"sb\glow.png",371,294 S,0,119021,,0.5 C,0,119021,,255,0,128 F,0,119021,119521,1,0
Sprite,Background,Centre,"sb\glow.png",407,275 S,0,119040,,0.5 C,0,119040,,255,0,128 F,0,119040,119540,1,0
Sprite,Background,Centre,"sb\glow.png",438,259 S,0,119059,,0.5 C,0,119059,,255,0,128 F,0,119059,119559,1,0
Sprite,Background,Centre,"sb\glow.png",464,246 S,0,119077,,0.5 C,0,119077,,255,0,128 F,0,119077,119577,1,0
Sprite,Background,Centre,"sb\glow.png",483,236 S,0,119096,,0.5 C,0,119096,,255,0,128 F,0,119096,119596,1,0
Sprite,Background,Centre,"sb\glow.png",496,229 S,0,119115,,0.5 C,0,119115,,255,0,128 F,0,119115,119615,1,0
Sprite,Background,Centre,"sb\glow.png",500,227 S,0,119134,,0.5 C,0,119134,,255,0,128 F,0,119134,119634,1,0
Sprite,Background,Centre,"sb\glow.png",473,225 S,0,119152,,0.5 C,0,119152,,255,0,128 F,0,119152,119652,1,0
Sprite,Background,Centre,"sb\glow.png",446,222 S,0,119171,,0.5 C,0,119171,,255,0,128 F,0,119171,119671,1,0
Sprite,Background,Centre,"sb\glow.png",420,220 S,0,119190,,0.5 C,0,119190,,255,0,128 F,0,119190,119690,1,0
Sprite,Background,Centre,"sb\glow.png",398,218 S,0,119209,,0.5 C,0,119209,,255,0,128 F,0,119209,119709,1,0
Sprite,Background,Centre,"sb\glow.png",379,216 S,0,119227,,0.5 C,0,119227,,255,0,128 F,0,119227,119727,1,0
Sprite,Background,Centre,"sb\glow.png",366,215 S,0,119246,,0.5 C,0,119246,,255,0,128 F,0,119246,119746,1,0
Sprite,Background,Centre,"sb\glow.png",357,214 S,0,119265,,0.5 C,0,119265,,255,0,128 F,0,119265,119765,1,0
Sprite,Background,Centre,"sb\glow.png",354,214 S,0,119284,,0.5 C,0,119284,,255,0,128 F,0,119284,119784,1,0
Sprite,Background,Centre,"sb\glow.png",387,241 S,0,119302,,0.5 C,0,119302,,255,0,128 F,0,119302,119802,1,0
Sprite,Background,Centre,"sb\glow.png",421,269 S,0,119321,,0.5 C,0,119321,,255,0,128 F,0,119321,119821,1,0
Sprite,Background,Centre,"sb\glow.png",452,295 S,0,119340,,0.5 C,0,119340,,255,0,128 F,0,119340,119840,1,0
Sprite,Background,Centre,"sb\glow.png",480,318 S,0,119359,,0.5 C,0,119359,,255,0,128 F,0,119359,119859,1,0
Sprite,Background,Centre,"sb\glow.png",503,336 S,0,119377,,0.5 C,0,119377,,255,0,128 F,0,119377,119877,1,0
Sprite,Background,Centre,"sb\glow.png",520,350 S,0,119396,,0.5 C,0,119396,,255,0,128 F,0,119396,119896,1,0
Sprite,Background,Centre,"sb\glow.png",530,359 S,0,119415,,0.5 C,0,119415,,255,0,128 F,0,119415,119915,1,0
Sprite,Background,Centre,"sb\glow.png",534,362 S,0,119434,,0.5 C,0,119434,,255,0,128 F,0,119434,119934,1,0
Sprite,Background,Centre,"sb\glow.png",516,367 S,0,119452,,0.5 C,0,119452,,255,0,128 F,0,119452,119952,1,0
Sprite,Background,Centre,"sb\glow.png",496,370 S,0,119471,,0.5 C,0,119471,,255,0,128 F,0,119471,119971,1,0
Sprite,Background,Centre,"sb\glow.png",476,369 S,0,119490,,0.5 C,0,119490,,255,0,128 F,0,119490,119990,1,0
Sprite,Background,Centre,"sb\glow.png",457,365 S,0,119509,,0.5 C,0,119509,,255,0,128 F,0,119509,120009,1,0
Sprite,Background,Centre,"sb\glow.png",438,357 S,0,119527,,0.5 C,0,119527,,255,0,128 F,0,119527,120027,1,0
Sprite,Background,Centre,"sb\glow.png",421,347 S,0,119546,,0.5 C,0,119546,,255,0,128 F,0,119546,120046,1,0
Sprite,Background,Centre,"sb\glow.png",406,334 S,0,119565,,0.5 C,0,119565,,255,0,128 F,0,119565,120065,1,0
Sprite,Background,Centre,"sb\glow.png",393,319 S,0,119584,,0.5 C,0,119584,,255,0,128 F,0,119584,120084,1,0
Sprite,Background,Centre,"sb\glow.png",386,307 S,0,119602,,0.5 C,0,119602,,255,0,128 F,0,119602,120102,1,0
Sprite,Background,Centre,"sb\glow.png",404,310 S,0,119621,,0.5 C,0,119621,,255,0,128 F,0,119621,120121,1,0
Sprite,Background,Centre,"sb\glow.png",424,310 S,0,119640,,0.5 C,0,119640,,255,0,128 F,0,119640,120140,1,0
Sprite,Background,Centre,"sb\glow.png",444,307 S,0,119659,,0.5 C,0,119659,,255,0,128 F,0,119659,120159,1,0
Sprite,Background,Centre,"sb\glow.png",465,278 S,0,119677,,0.5 C,0,119677,,255,0,128 F,0,119677,120177,1,0
Sprite,Background,Centre,"sb\glow.png",483,251 S,0,119696,,0.5 C,0,119696,,255,0,128 F,0,119696,120196,1,0
Sprite,Background,Centre,"sb\glow.png",495,234 S,0,119715,,0.5 C,0,119715,,255,0,128 F,0,119715,120215,1,0
Sprite,Background,Centre,"sb\glow.png",500,227 S,0,119734,,0.5 C,0,119734,,255,0,128 F,0,119734,120234,1,0
Sprite,Background,Centre,"sb\glow.png",515,238 S,0,119752,,0.5 C,0,119752,,255,0,128 F,0,119752,120252,1,0
Sprite,Background,Centre,"sb\glow.png",531,250 S,0,119771,,0.5 C,0,119771,,255,0,128 F,0,119771,120271,1,0
Sprite,Background,Centre,"sb\glow.png",547,262 S,0,119790,,0.5 C,0,119790,,255,0,128 F,0,119790,120290,1,0
Sprite,Background,Centre,"sb\glow.png",545,282 S,0,119809,,0.5 C,0,119809,,255,0,128 F,0,119809,120309,1,0
Sprite,Background,Centre,"sb\glow.png",542,302 S,0,119827,,0.5 C,0,119827,,255,0,128 F,0,119827,120327,1,0
Sprite,Background,Centre,"sb\glow.png",540,321 S,0,119846,,0.5 C,0,119846,,255,0,128 F,0,119846,120346,1,0
Sprite,Background,Centre,"sb\glow.png",537,341 S,0,119865,,0.5 C,0,119865,,255,0,128 F,0,119865,120365,1,0
Sprite,Background,Centre,"sb\glow.png",534,361 S,0,119884,,0.5 C,0,119884,,255,0,128 F,0,119884,120384,1,0
Sprite,Background,Centre,"sb\glow.png",491,367 S,0,119902,,0.5 C,0,119902,,255,0,128 F,0,119902,120402,1,0
Sprite,Background,Centre,"sb\glow.png",447,373 S,0,119921,,0.5 C,0,119921,,255,0,128 F,0,119921,120421,1,0
Sprite,Background,Centre,"sb\glow.png",406,378 S,0,119940,,0.5 C,0,119940,,255,0,128 F,0,119940,120440,1,0
Sprite,Background,Centre,"sb\glow.png",370,382 S,0,119959,,0.5 C,0,119959,,255,0,128 F,0,119959,120459,1,0
Sprite,Background,Centre,"sb\glow.png",341,386 S,0,119977,,0.5 C,0,119977,,255,0,128 F,0,119977,120477,1,0
Sprite,Background,Centre,"sb\glow.png",319,389 S,0,119996,,0.5 C,0,119996,,255,0,128 F,0,119996,120496,1,0
Sprite,Background,Centre,"sb\glow.png",305,390 S,0,120015,,0.5 C,0,120015,,255,0,128 F,0,120015,120515,1,0
Sprite,Background,Centre,"sb\glow.png",300,391 S,0,120034,,0.5 C,0,120034,,255,0,128 F,0,120034,120534,1,0
Sprite,Background,Centre,"sb\glow.png",297,372 S,0,120052,,0.5 C,0,120052,,255,88,102 F,0,120052,120552,1,0
Sprite,Background,Centre,"sb\glow.png",295,352 S,0,120071,,0.5 C,0,120071,,255,88,102 F,0,120071,120571,1,0
Sprite,Background,Centre,"sb\glow.png",288,334 S,0,120090,,0.5 C,0,120090,,255,88,102 F,0,120090,120590,1,0
Sprite,Background,Centre,"sb\glow.png",276,319 S,0,120109,,0.5 C,0,120109,,255,88,102 F,0,120109,120609,1,0
Sprite,Background,Centre,"sb\glow.png",282,301 S,0,120127,,0.5 C,0,120127,,255,88,102 F,0,120127,120627,1,0
Sprite,Background,Centre,"sb\glow.png",286,283 S,0,120146,,0.5 C,0,120146,,255,88,102 F,0,120146,120646,1,0
Sprite,Background,Centre,"sb\glow.png",284,263 S,0,120165,,0.5 C,0,120165,,255,88,102 F,0,120165,120665,1,0
Sprite,Background,Centre,"sb\glow.png",281,243 S,0,120184,,0.5 C,0,120184,,255,88,102 F,0,120184,120684,1,0
Sprite,Background,Centre,"sb\glow.png",295,230 S,0,120202,,0.5 C,0,120202,,255,88,102 F,0,120202,120702,1,0
Sprite,Background,Centre,"sb\glow.png",309,218 S,0,120221,,0.5 C,0,120221,,255,88,102 F,0,120221,120721,1,0
Sprite,Background,Centre,"sb\glow.png",322,208 S,0,120240,,0.5 C,0,120240,,255,88,102 F,0,120240,120740,1,0
Sprite,Background,Centre,"sb\glow.png",333,198 S,0,120259,,0.5 C,0,120259,,255,88,102 F,0,120259,120759,1,0
Sprite,Background,Centre,"sb\glow.png",342,190 S,0,120277,,0.5 C,0,120277,,255,88,102 F,0,120277,120777,1,0
Sprite,Background,Centre,"sb\glow.png",349,184 S,0,120296,,0.5 C,0,120296,,255,88,102 F,0,120296,120796,1,0
Sprite,Background,Centre,"sb\glow.png",353,180 S,0,120315,,0.5 C,0,120315,,255,88,102 F,0,120315,120815,1,0
Sprite,Background,Centre,"sb\glow.png",355,179 S,0,120334,,0.5 C,0,120334,,255,88,102 F,0,120334,120834,1,0
Sprite,Background,Centre,"sb\glow.png",325,197 S,0,120352,,0.5 C,0,120352,,255,88,102 F,0,120352,120852,1,0
Sprite,Background,Centre,"sb\glow.png",293,214 S,0,120371,,0.5 C,0,120371,,255,88,102 F,0,120371,120871,1,0
Sprite,Background,Centre,"sb\glow.png",265,231 S,0,120390,,0.5 C,0,120390,,255,88,102 F,0,120390,120890,1,0
Sprite,Background,Centre,"sb\glow.png",240,245 S,0,120409,,0.5 C,0,120409,,255,88,102 F,0,120409,120909,1,0
Sprite,Background,Centre,"sb\glow.png",219,257 S,0,120427,,0.5 C,0,120427,,255,88,102 F,0,120427,120927,1,0
Sprite,Background,Centre,"sb\glow.png",203,266 S,0,120446,,0.5 C,0,120446,,255,88,102 F,0,120446,120946,1,0
Sprite,Background,Centre,"sb\glow.png",194,272 S,0,120465,,0.5 C,0,120465,,255,88,102 F,0,120465,120965,1,0
Sprite,Background,Centre,"sb\glow.png",190,274 S,0,120484,,0.5 C,0,120484,,255,88,102 F,0,120484,120984,1,0
Sprite,Background,Centre,"sb\glow.png",226,280 S,0,120502,,0.5 C,0,120502,,255,88,102 F,0,120502,121002,1,0
Sprite,Background,Centre,"sb\glow.png",262,286 S,0,120521,,0.5 C,0,120521,,255,88,102 F,0,120521,121021,1,0
Sprite,Background,Centre,"sb\glow.png",296,291 S,0,120540,,0.5 C,0,120540,,255,88,102 F,0,120540,121040,1,0
Sprite,Background,Centre,"sb\glow.png",325,296 S,0,120559,,0.5 C,0,120559,,255,88,102 F,0,120559,121059,1,0
Sprite,Background,Centre,"sb\glow.png",349,300 S,0,120577,,0.5 C,0,120577,,255,88,102 F,0,120577,121077,1,0
Sprite,Background,Centre,"sb\glow.png",368,303 S,0,120596,,0.5 C,0,120596,,255,88,102 F,0,120596,121096,1,0
Sprite,Background,Centre,"sb\glow.png",379,304 S,0,120615,,0.5 C,0,120615,,255,88,102 F,0,120615,121115,1,0
Sprite,Background,Centre,"sb\glow.png",383,305 S,0,120634,,0.5 C,0,120634,,255,88,102 F,0,120634,121134,1,0
Sprite,Background,Centre,"sb\glow.png",383,305 S,0,120652,,0.5 C,0,120652,,255,88,102 F,0,120652,121152,1,0
Sprite,Background,Centre,"sb\glow.png",383,305 S,0,120671,,0.5 C,0,120671,,255,88,102 F,0,120671,121171,1,0
Sprite,Background,Centre,"sb\glow.png",383,305 S,0,120690,,0.5 C,0,120690,,255,88,102 F,0,120690,121190,1,0
Sprite,Background,Centre,"sb\glow.png",383,305 S,0,120709,,0.5 C,0,120709,,255,88,102 F,0,120709,121209,1,0
Sprite,Background,Centre,"sb\glow.png",383,305 S,0,120727,,0.5 C,0,120727,,255,88,102 F,0,120727,121227,1,0
Sprite,Background,Centre,"sb\glow.png",383,305 S,0,120746,,0.5 C,0,120746,,255,88,102 F,0,120746,121246,1,0
Sprite,Background,Centre,"sb\glow.png",383,305 S,0,120765,,0.5 C,0,120765,,255,88,102 F,0,120765,121265,1,0
Sprite,Background,Centre,"sb\glow.png",383,305 S,0,120784,,0.5 C,0,120784,,255,88,102 F,0,120784,121284,1,0
Sprite,Background,Centre,"sb\glow.png",344,273 S,0,120802,,0.5 C,0,120802,,255,88,102 F,0,120802,121302,1,0
Sprite,Background,Centre,"sb\glow.png",305,241 S,0,120821,,0.5 C,0,120821,,255,88,102 F,0,120821,121321,1,0
Sprite,Background,Centre,"sb\glow.png",268,211 S,0,120840,,0.5 C,0,120840,,255,88,102 F,0,120840,121340,1,0
Sprite,Background,Centre,"sb\glow.png",236,185 S,0,120859,,0.5 C,0,120859,,255,88,102 F,0,120859,121359,1,0
Sprite,Background,Centre,"sb\glow.png",210,163 S,0,120877,,0.5 C,0,120877,,255,88,102 F,0,120877,121377,1,0
Sprite,Background,Centre,"sb\glow.png",190,147 S,0,120896,,0.5 C,0,120896,,255,88,102 F,0,120896,121396,1,0
Sprite,Background,Centre,"sb\glow.png",177,137 S,0,120915,,0.5 C,0,120915,,255,88,102 F,0,120915,121415,1,0
Sprite,Background,Centre,"sb\glow.png",173,133 S,0,120934,,0.5 C,0,120934,,255,88,102 F,0,120934,121434,1,0
Sprite,Background,Centre,"sb\glow.png",192,133 S,0,120952,,0.5 C,0,120952,,255,88,102 F,0,120952,121452,1,0
Sprite,Background,Centre,"sb\glow.png",212,132 S,0,120971,,0.5 C,0,120971,,255,88,102 F,0,120971,121471,1,0
Sprite,Background,Centre,"sb\glow.png",232,129 S,0,120990,,0.5 C,0,120990,,255,88,102 F,0,120990,121490,1,0
Sprite,Background,Centre,"sb\glow.png",251,125 S,0,121009,,0.5 C,0,121009,,255,88,102 F,0,121009,121509,1,0
Sprite,Background,Centre,"sb\glow.png",270,119 S,0,121027,,0.5 C,0,121027,,255,88,102 F,0,121027,121527,1,0
Sprite,Background,Centre,"sb\glow.png",284,114 S,0,121046,,0.5 C,0,121046,,255,88,102 F,0,121046,121546,1,0
Sprite,Background,Centre,"sb\glow.png",273,129 S,0,121065,,0.5 C,0,121065,,255,88,102 F,0,121065,121565,1,0
Sprite,Background,Centre,"sb\glow.png",265,147 S,0,121084,,0.5 C,0,121084,,255,88,102 F,0,121084,121584,1,0
Sprite,Background,Centre,"sb\glow.png",247,186 S,0,121102,,0.5 C,0,121102,,255,88,102 F,0,121102,121602,1,0
Sprite,Background,Centre,"sb\glow.png",228,224 S,0,121121,,0.5 C,0,121121,,255,88,102 F,0,121121,121621,1,0
Sprite,Background,Centre,"sb\glow.png",211,259 S,0,121140,,0.5 C,0,121140,,255,88,102 F,0,121140,121640,1,0
Sprite,Background,Centre,"sb\glow.png",196,289 S,0,121159,,0.5 C,0,121159,,255,88,102 F,0,121159,121659,1,0
Sprite,Background,Centre,"sb\glow.png",183,315 S,0,121177,,0.5 C,0,121177,,255,88,102 F,0,121177,121677,1,0
Sprite,Background,Centre,"sb\glow.png",174,334 S,0,121196,,0.5 C,0,121196,,255,88,102 F,0,121196,121696,1,0
Sprite,Background,Centre,"sb\glow.png",168,346 S,0,121215,,0.5 C,0,121215,,255,88,102 F,0,121215,121715,1,0
Sprite,Background,Centre,"sb\glow.png",166,350 S,0,121234,,0.5 C,0,121234,,255,88,102 F,0,121234,121734,1,0
Sprite,Background,Centre,"sb\glow.png",179,363 S,0,121252,,0.5 C,0,121252,,255,0,255 F,0,121252,121752,1,0
Sprite,Background,Centre,"sb\glow.png",197,372 S,0,121271,,0.5 C,0,121271,,255,0,255 F,0,121271,121771,1,0
Sprite,Background,Centre,"sb\glow.png",216,374 S,0,121290,,0.5 C,0,121290,,255,0,255 F,0,121290,121790,1,0
Sprite,Background,Centre,"sb\glow.png",235,368 S,0,121309,,0.5 C,0,121309,,255,0,255 F,0,121309,121809,1,0
Sprite,Background,Centre,"sb\glow.png",250,356 S,0,121327,,0.5 C,0,121327,,255,0,255 F,0,121327,121827,1,0
Sprite,Background,Centre,"sb\glow.png",260,338 S,0,121346,,0.5 C,0,121346,,255,0,255 F,0,121346,121846,1,0
Sprite,Background,Centre,"sb\glow.png",263,319 S,0,121365,,0.5 C,0,121365,,255,0,255 F,0,121365,121865,1,0
Sprite,Background,Centre,"sb\glow.png",258,300 S,0,121384,,0.5 C,0,121384,,255,0,255 F,0,121384,121884,1,0
Sprite,Background,Centre,"sb\glow.png",246,284 S,0,121402,,0.5 C,0,121402,,255,0,255 F,0,121402,121902,1,0
Sprite,Background,Centre,"sb\glow.png",230,274 S,0,121421,,0.5 C,0,121421,,255,0,255 F,0,121421,121921,1,0
Sprite,Background,Centre,"sb\glow.png",210,270 S,0,121440,,0.5 C,0,121440,,255,0,255 F,0,121440,121940,1,0
Sprite,Background,Centre,"sb\glow.png",191,274 S,0,121459,,0.5 C,0,121459,,255,0,255 F,0,121459,121959,1,0
Sprite,Background,Centre,"sb\glow.png",150,251 S,0,121477,,0.5 C,0,121477,,255,0,255 F,0,121477,121977,1,0
Sprite,Background,Centre,"sb\glow.png",113,230 S,0,121496,,0.5 C,0,121496,,255,0,255 F,0,121496,121996,1,0
Sprite,Background,Centre,"sb\glow.png",88,215 S,0,121515,,0.5 C,0,121515,,255,0,255 F,0,121515,122015,1,0
Sprite,Background,Centre,"sb\glow.png",79,210 S,0,121534,,0.5 C,0,121534,,255,0,255 F,0,121534,122034,1,0
Sprite,Background,Centre,"sb\glow.png",77,191 S,0,121552,,0.5 C,0,121552,,255,0,255 F,0,121552,122052,1,0
Sprite,Background,Centre,"sb\glow.png",79,171 S,0,121571,,0.5 C,0,121571,,255,0,255 F,0,121571,122071,1,0
Sprite,Background,Centre,"sb\glow.png",77,189 S,0,121590,,0.5 C,0,121590,,255,0,255 F,0,121590,122090,1,0
Sprite,Background,Centre,"sb\glow.png",79,209 S,0,121609,,0.5 C,0,121609,,255,0,255 F,0,121609,122109,1,0
Sprite,Background,Centre,"sb\glow.png",77,191 S,0,121627,,0.5 C,0,121627,,255,0,255 F,0,121627,122127,1,0
Sprite,Background,Centre,"sb\glow.png",79,171 S,0,121646,,0.5 C,0,121646,,255,0,255 F,0,121646,122146,1,0
Sprite,Background,Centre,"sb\glow.png",77,189 S,0,121665,,0.5 C,0,121665,,255,0,255 F,0,121665,122165,1,0
Sprite,Background,Centre,"sb\glow.png",79,209 S,0,121684,,0.5 C,0,121684,,255,0,255 F,0,121684,122184,1,0
Sprite,Background,Centre,"sb\glow.png",77,191 S,0,121702,,0.5 C,0,121702,,255,0,255 F,0,121702,122202,1,0
Sprite,Background,Centre,"sb\glow.png",79,171 S,0,121721,,0.5 C,0,121721,,255,0,255 F,0,121721,122221,1,0
Sprite,Background,Centre,"sb\glow.png",77,189 S,0,121740,,0.5 C,0,121740,,255,0,255 F,0,121740,122240,1,0
Sprite,Background,Centre,"sb\glow.png",79,209 S,0,121759,,0.5 C,0,121759,,255,0,255 F,0,121759,122259,1,0
Sprite,Background,Centre,"sb\glow.png",113,202 S,0,121777,,0.5 C,0,121777,,255,0,255 F,0,121777,122277,1,0
Sprite,Background,Centre,"sb\glow.png",143,195 S,0,121796,,0.5 C,0,121796,,255,0,255 F,0,121796,122296,1,0
Sprite,Background,Centre,"sb\glow.png",164,190 S,0,121815,,0.5 C,0,121815,,255,0,255 F,0,121815,122315,1,0
Sprite,Background,Centre,"sb\glow.png",172,188 S,0,121834,,0.5 C,0,121834,,255,0,255 F,0,121834,122334,1,0
Sprite,Background,Centre,"sb\glow.png",190,183 S,0,121852,,0.5 C,0,121852,,255,0,255 F,0,121852,122352,1,0
Sprite,Background,Centre,"sb\glow.png",210,180 S,0,121871,,0.5 C,0,121871,,255,0,255 F,0,121871,122371,1,0
Sprite,Background,Centre,"sb\glow.png",230,180 S,0,121890,,0.5 C,0,121890,,255,0,255 F,0,121890,122390,1,0
Sprite,Background,Centre,"sb\glow.png",249,184 S,0,121909,,0.5 C,0,121909,,255,0,255 F,0,121909,122409,1,0
Sprite,Background,Centre,"sb\glow.png",268,192 S,0,121927,,0.5 C,0,121927,,255,0,255 F,0,121927,122427,1,0
Sprite,Background,Centre,"sb\glow.png",285,201 S,0,121946,,0.5 C,0,121946,,255,0,255 F,0,121946,122446,1,0
Sprite,Background,Centre,"sb\glow.png",303,211 S,0,121965,,0.5 C,0,121965,,255,0,255 F,0,121965,122465,1,0
Sprite,Background,Centre,"sb\glow.png",322,218 S,0,121984,,0.5 C,0,121984,,255,0,255 F,0,121984,122484,1,0
Sprite,Background,Centre,"sb\glow.png",341,223 S,0,122002,,0.5 C,0,122002,,255,0,255 F,0,122002,122502,1,0
Sprite,Background,Centre,"sb\glow.png",361,224 S,0,122021,,0.5 C,0,122021,,255,0,255 F,0,122021,122521,1,0
Sprite,Background,Centre,"sb\glow.png",381,221 S,0,122040,,0.5 C,0,122040,,255,0,255 F,0,122040,122540,1,0
Sprite,Background,Centre,"sb\glow.png",400,216 S,0,122059,,0.5 C,0,122059,,255,0,255 F,0,122059,122559,1,0
Sprite,Background,Centre,"sb\glow.png",412,166 S,0,122077,,0.5 C,0,122077,,255,0,255 F,0,122077,122577,1,0
Sprite,Background,Centre,"sb\glow.png",422,122 S,0,122096,,0.5 C,0,122096,,255,0,255 F,0,122096,122596,1,0
Sprite,Background,Centre,"sb\glow.png",429,91 S,0,122115,,0.5 C,0,122115,,255,0,255 F,0,122115,122615,1,0
Sprite,Background,Centre,"sb\glow.png",432,80 S,0,122134,,0.5 C,0,122134,,255,0,255 F,0,122134,122634,1,0
Sprite,Background,Centre,"sb\glow.png",417,91 S,0,122152,,0.5 C,0,122152,,255,0,255 F,0,122152,122652,1,0
Sprite,Background,Centre,"sb\glow.png",401,103 S,0,122171,,0.5 C,0,122171,,255,0,255 F,0,122171,122671,1,0
Sprite,Background,Centre,"sb\glow.png",385,115 S,0,122190,,0.5 C,0,122190,,255,0,255 F,0,122190,122690,1,0
Sprite,Background,Centre,"sb\glow.png",387,135 S,0,122209,,0.5 C,0,122209,,255,0,255 F,0,122209,122709,1,0
Sprite,Background,Centre,"sb\glow.png",390,154 S,0,122227,,0.5 C,0,122227,,255,0,255 F,0,122227,122727,1,0
Sprite,Background,Centre,"sb\glow.png",394,174 S,0,122246,,0.5 C,0,122246,,255,0,255 F,0,122246,122746,1,0
Sprite,Background,Centre,"sb\glow.png",397,194 S,0,122265,,0.5 C,0,122265,,255,0,255 F,0,122265,122765,1,0
Sprite,Background,Centre,"sb\glow.png",400,214 S,0,122284,,0.5 C,0,122284,,255,0,255 F,0,122284,122784,1,0
Sprite,Background,Centre,"sb\glow.png",413,248 S,0,122302,,0.5 C,0,122302,,255,0,255 F,0,122302,122802,1,0
Sprite,Background,Centre,"sb\glow.png",427,283 S,0,122321,,0.5 C,0,122321,,255,0,255 F,0,122321,122821,1,0
Sprite,Background,Centre,"sb\glow.png",439,314 S,0,122340,,0.5 C,0,122340,,255,0,255 F,0,122340,122840,1,0
Sprite,Background,Centre,"sb\glow.png",450,342 S,0,122359,,0.5 C,0,122359,,255,0,255 F,0,122359,122859,1,0
Sprite,Background,Centre,"sb\glow.png",459,365 S,0,122377,,0.5 C,0,122377,,255,0,255 F,0,122377,122877,1,0
Sprite,Background,Centre,"sb\glow.png",465,382 S,0,122396,,0.5 C,0,122396,,255,0,255 F,0,122396,122896,1,0
Sprite,Background,Centre,"sb\glow.png",469,393 S,0,122415,,0.5 C,0,122415,,255,0,255 F,0,122415,122915,1,0
Sprite,Background,Centre,"sb\glow.png",471,397 S,0,122434,,0.5 C,0,122434,,255,0,255 F,0,122434,122934,1,0
Sprite,Background,Centre,"sb\glow.png",473,378 S,0,122452,,0.5 C,0,122452,,255,128,192 F,0,122452,122952,1,0
Sprite,Background,Centre,"sb\glow.png",475,358 S,0,122471,,0.5 C,0,122471,,255,128,192 F,0,122471,122971,1,0
Sprite,Background,Centre,"sb\glow.png",462,349 S,0,122490,,0.5 C,0,122490,,255,128,192 F,0,122490,122990,1,0
Sprite,Background,Centre,"sb\glow.png",444,340 S,0,122509,,0.5 C,0,122509,,255,128,192 F,0,122509,123009,1,0
Sprite,Background,Centre,"sb\glow.png",429,326 S,0,122527,,0.5 C,0,122527,,255,128,192 F,0,122527,123027,1,0
Sprite,Background,Centre,"sb\glow.png",417,311 S,0,122546,,0.5 C,0,122546,,255,128,192 F,0,122546,123046,1,0
Sprite,Background,Centre,"sb\glow.png",410,328 S,0,122565,,0.5 C,0,122565,,255,128,192 F,0,122565,123065,1,0
Sprite,Background,Centre,"sb\glow.png",398,344 S,0,122584,,0.5 C,0,122584,,255,128,192 F,0,122584,123084,1,0
Sprite,Background,Centre,"sb\glow.png",384,358 S,0,122602,,0.5 C,0,122602,,255,128,192 F,0,122602,123102,1,0
Sprite,Background,Centre,"sb\glow.png",372,370 S,0,122621,,0.5 C,0,122621,,255,128,192 F,0,122621,123121,1,0
Sprite,Background,Centre,"sb\glow.png",379,388 S,0,122640,,0.5 C,0,122640,,255,128,192 F,0,122640,123140,1,0
Sprite,Background,Centre,"sb\glow.png",386,407 S,0,122659,,0.5 C,0,122659,,255,128,192 F,0,122659,123159,1,0
Sprite,Background,Centre,"sb\glow.png",427,354 S,0,122677,,0.5 C,0,122677,,255,128,192 F,0,122677,123177,1,0
Sprite,Background,Centre,"sb\glow.png",464,306 S,0,122696,,0.5 C,0,122696,,255,128,192 F,0,122696,123196,1,0
Sprite,Background,Centre,"sb\glow.png",489,272 S,0,122715,,0.5 C,0,122715,,255,128,192 F,0,122715,123215,1,0
Sprite,Background,Centre,"sb\glow.png",498,260 S,0,122734,,0.5 C,0,122734,,255,128,192 F,0,122734,123234,1,0
Sprite,Background,Centre,"sb\glow.png",508,244 S,0,122752,,0.5 C,0,122752,,255,128,192 F,0,122752,123252,1,0
Sprite,Background,Centre,"sb\glow.png",515,225 S,0,122771,,0.5 C,0,122771,,255,128,192 F,0,122771,123271,1,0
Sprite,Background,Centre,"sb\glow.png",518,205 S,0,122790,,0.5 C,0,122790,,255,128,192 F,0,122790,123290,1,0
Sprite,Background,Centre,"sb\glow.png",517,185 S,0,122809,,0.5 C,0,122809,,255,128,192 F,0,122809,123309,1,0
Sprite,Background,Centre,"sb\glow.png",513,166 S,0,122827,,0.5 C,0,122827,,255,128,192 F,0,122827,123327,1,0
Sprite,Background,Centre,"sb\glow.png",507,159 S,0,122846,,0.5 C,0,122846,,255,128,192 F,0,122846,123346,1,0
Sprite,Background,Centre,"sb\glow.png",501,176 S,0,122865,,0.5 C,0,122865,,255,128,192 F,0,122865,123365,1,0
Sprite,Background,Centre,"sb\glow.png",492,194 S,0,122884,,0.5 C,0,122884,,255,128,192 F,0,122884,123384,1,0
Sprite,Background,Centre,"sb\glow.png",460,211 S,0,122902,,0.5 C,0,122902,,255,128,192 F,0,122902,123402,1,0
Sprite,Background,Centre,"sb\glow.png",429,227 S,0,122921,,0.5 C,0,122921,,255,128,192 F,0,122921,123421,1,0
Sprite,Background,Centre,"sb\glow.png",400,242 S,0,122940,,0.5 C,0,122940,,255,128,192 F,0,122940,123440,1,0
Sprite,Background,Centre,"sb\glow.png",375,256 S,0,122959,,0.5 C,0,122959,,255,128,192 F,0,122959,123459,1,0
Sprite,Background,Centre,"sb\glow.png",354,267 S,0,122977,,0.5 C,0,122977,,255,128,192 F,0,122977,123477,1,0
Sprite,Background,Centre,"sb\glow.png",338,275 S,0,122996,,0.5 C,0,122996,,255,128,192 F,0,122996,123496,1,0
Sprite,Background,Centre,"sb\glow.png",329,280 S,0,123015,,0.5 C,0,123015,,255,128,192 F,0,123015,123515,1,0
Sprite,Background,Centre,"sb\glow.png",325,282 S,0,123034,,0.5 C,0,123034,,255,128,192 F,0,123034,123534,1,0
Sprite,Background,Centre,"sb\glow.png",341,256 S,0,123052,,0.5 C,0,123052,,255,128,192 F,0,123052,123552,1,0
Sprite,Background,Centre,"sb\glow.png",358,229 S,0,123071,,0.5 C,0,123071,,255,128,192 F,0,123071,123571,1,0
Sprite,Background,Centre,"sb\glow.png",373,204 S,0,123090,,0.5 C,0,123090,,255,128,192 F,0,123090,123590,1,0
Sprite,Background,Centre,"sb\glow.png",387,182 S,0,123109,,0.5 C,0,123109,,255,128,192 F,0,123109,123609,1,0
Sprite,Background,Centre,"sb\glow.png",398,164 S,0,123127,,0.5 C,0,123127,,255,128,192 F,0,123127,123627,1,0
Sprite,Background,Centre,"sb\glow.png",406,150 S,0,123146,,0.5 C,0,123146,,255,128,192 F,0,123146,123646,1,0
Sprite,Background,Centre,"sb\glow.png",411,142 S,0,123165,,0.5 C,0,123165,,255,128,192 F,0,123165,123665,1,0
Sprite,Background,Centre,"sb\glow.png",413,139 S,0,123184,,0.5 C,0,123184,,255,128,192 F,0,123184,123684,1,0
Sprite,Background,Centre,"sb\glow.png",373,147 S,0,123202,,0.5 C,0,123202,,255,128,192 F,0,123202,123702,1,0
Sprite,Background,Centre,"sb\glow.png",332,155 S,0,123221,,0.5 C,0,123221,,255,128,192 F,0,123221,123721,1,0
Sprite,Background,Centre,"sb\glow.png",295,163 S,0,123240,,0.5 C,0,123240,,255,128,192 F,0,123240,123740,1,0
Sprite,Background,Centre,"sb\glow.png",262,169 S,0,123259,,0.5 C,0,123259,,255,128,192 F,0,123259,123759,1,0
Sprite,Background,Centre,"sb\glow.png",235,175 S,0,123277,,0.5 C,0,123277,,255,128,192 F,0,123277,123777,1,0
Sprite,Background,Centre,"sb\glow.png",214,179 S,0,123296,,0.5 C,0,123296,,255,128,192 F,0,123296,123796,1,0
Sprite,Background,Centre,"sb\glow.png",202,181 S,0,123315,,0.5 C,0,123315,,255,128,192 F,0,123315,123815,1,0
Sprite,Background,Centre,"sb\glow.png",197,182 S,0,123334,,0.5 C,0,123334,,255,128,192 F,0,123334,123834,1,0
Sprite,Background,Centre,"sb\glow.png",216,178 S,0,123352,,0.5 C,0,123352,,255,128,192 F,0,123352,123852,1,0
Sprite,Background,Centre,"sb\glow.png",235,173 S,0,123371,,0.5 C,0,123371,,255,128,192 F,0,123371,123871,1,0
Sprite,Background,Centre,"sb\glow.png",253,165 S,0,123390,,0.5 C,0,123390,,255,128,192 F,0,123390,123890,1,0
Sprite,Background,Centre,"sb\glow.png",271,155 S,0,123409,,0.5 C,0,123409,,255,128,192 F,0,123409,123909,1,0
Sprite,Background,Centre,"sb\glow.png",287,143 S,0,123427,,0.5 C,0,123427,,255,128,192 F,0,123427,123927,1,0
Sprite,Background,Centre,"sb\glow.png",302,130 S,0,123446,,0.5 C,0,123446,,255,128,192 F,0,123446,123946,1,0
Sprite,Background,Centre,"sb\glow.png",315,115 S,0,123465,,0.5 C,0,123465,,255,128,192 F,0,123465,123965,1,0
Sprite,Background,Centre,"sb\glow.png",323,107 S,0,123484,,0.5 C,0,123484,,255,128,192 F,0,123484,123984,1,0
Sprite,Background,Centre,"sb\glow.png",319,125 S,0,123502,,0.5 C,0,123502,,255,128,192 F,0,123502,124002,1,0
Sprite,Background,Centre,"sb\glow.png",318,145 S,0,123521,,0.5 C,0,123521,,255,128,192 F,0,123521,124021,1,0
Sprite,Background,Centre,"sb\glow.png",321,164 S,0,123540,,0.5 C,0,123540,,255,128,192 F,0,123540,124040,1,0
Sprite,Background,Centre,"sb\glow.png",328,183 S,0,123559,,0.5 C,0,123559,,255,128,192 F,0,123559,124059,1,0
Sprite,Background,Centre,"sb\glow.png",327,220 S,0,123577,,0.5 C,0,123577,,255,128,192 F,0,123577,124077,1,0
Sprite,Background,Centre,"sb\glow.png",326,252 S,0,123596,,0.5 C,0,123596,,255,128,192 F,0,123596,124096,1,0
Sprite,Background,Centre,"sb\glow.png",325,274 S,0,123615,,0.5 C,0,123615,,255,128,192 F,0,123615,124115,1,0
Sprite,Background,Centre,"sb\glow.png",325,282 S,0,123634,,0.5 C,0,123634,,255,128,192 F,0,123634,124134,1,0
Sprite,Background,Centre,"sb\glow.png",325,301 S,0,123652,,0.5 C,0,123652,,255,0,128 F,0,123652,124152,1,0
Sprite,Background,Centre,"sb\glow.png",322,321 S,0,123671,,0.5 C,0,123671,,255,0,128 F,0,123671,124171,1,0
Sprite,Background,Centre,"sb\glow.png",314,339 S,0,123690,,0.5 C,0,123690,,255,0,128 F,0,123690,124190,1,0
Sprite,Background,Centre,"sb\glow.png",303,355 S,0,123709,,0.5 C,0,123709,,255,0,128 F,0,123709,124209,1,0
Sprite,Background,Centre,"sb\glow.png",306,374 S,0,123727,,0.5 C,0,123727,,255,0,128 F,0,123727,124227,1,0
Sprite,Background,Centre,"sb\glow.png",314,393 S,0,123746,,0.5 C,0,123746,,255,0,128 F,0,123746,124246,1,0
Sprite,Background,Centre,"sb\glow.png",325,409 S,0,123765,,0.5 C,0,123765,,255,0,128 F,0,123765,124265,1,0
Sprite,Background,Centre,"sb\glow.png",340,423 S,0,123784,,0.5 C,0,123784,,255,0,128 F,0,123784,124284,1,0
Sprite,Background,Centre,"sb\glow.png",320,399 S,0,123802,,0.5 C,0,123802,,255,0,128 F,0,123802,124302,1,0
Sprite,Background,Centre,"sb\glow.png",299,375 S,0,123821,,0.5 C,0,123821,,255,0,128 F,0,123821,124321,1,0
Sprite,Background,Centre,"sb\glow.png",280,352 S,0,123840,,0.5 C,0,123840,,255,0,128 F,0,123840,124340,1,0
Sprite,Background,Centre,"sb\glow.png",263,332 S,0,123859,,0.5 C,0,123859,,255,0,128 F,0,123859,124359,1,0
Sprite,Background,Centre,"sb\glow.png",249,316 S,0,123877,,0.5 C,0,123877,,255,0,128 F,0,123877,124377,1,0
Sprite,Background,Centre,"sb\glow.png",239,303 S,0,123896,,0.5 C,0,123896,,255,0,128 F,0,123896,124396,1,0
Sprite,Background,Centre,"sb\glow.png",232,296 S,0,123915,,0.5 C,0,123915,,255,0,128 F,0,123915,124415,1,0
Sprite,Background,Centre,"sb\glow.png",230,293 S,0,123934,,0.5 C,0,123934,,255,0,128 F,0,123934,124434,1,0
Sprite,Background,Centre,"sb\glow.png",211,294 S,0,123952,,0.5 C,0,123952,,255,0,128 F,0,123952,124452,1,0
Sprite,Background,Centre,"sb\glow.png",191,294 S,0,123971,,0.5 C,0,123971,,255,0,128 F,0,123971,124471,1,0
Sprite,Background,Centre,"sb\glow.png",171,291 S,0,123990,,0.5 C,0,123990,,255,0,128 F,0,123990,124490,1,0
Sprite,Background,Centre,"sb\glow.png",152,286 S,0,124009,,0.5 C,0,124009,,255,0,128 F,0,124009,124509,1,0
Sprite,Background,Centre,"sb\glow.png",133,281 S,0,124027,,0.5 C,0,124027,,255,0,128 F,0,124027,124527,1,0
Sprite,Background,Centre,"sb\glow.png",126,281 S,0,124046,,0.5 C,0,124046,,255,0,128 F,0,124046,124546,1,0
Sprite,Background,Centre,"sb\glow.png",137,296 S,0,124065,,0.5 C,0,124065,,255,0,128 F,0,124065,124565,1,0
Sprite,Background,Centre,"sb\glow.png",145,314 S,0,124084,,0.5 C,0,124084,,255,0,128 F,0,124084,124584,1,0
Sprite,Background,Centre,"sb\glow.png",194,323 S,0,124102,,0.5 C,0,124102,,255,0,128 F,0,124102,124602,1,0
Sprite,Background,Centre,"sb\glow.png",244,331 S,0,124121,,0.5 C,0,124121,,255,0,128 F,0,124121,124621,1,0
Sprite,Background,Centre,"sb\glow.png",290,338 S,0,124140,,0.5 C,0,124140,,255,0,128 F,0,124140,124640,1,0
Sprite,Background,Centre,"sb\glow.png",331,344 S,0,124159,,0.5 C,0,124159,,255,0,128 F,0,124159,124659,1,0
Sprite,Background,Centre,"sb\glow.png",364,350 S,0,124177,,0.5 C,0,124177,,255,0,128 F,0,124177,124677,1,0
Sprite,Background,Centre,"sb\glow.png",389,354 S,0,124196,,0.5 C,0,124196,,255,0,128 F,0,124196,124696,1,0
Sprite,Background,Centre,"sb\glow.png",404,356 S,0,124215,,0.5 C,0,124215,,255,0,128 F,0,124215,124715,1,0
Sprite,Background,Centre,"sb\glow.png",410,357 S,0,124234,,0.5 C,0,124234,,255,0,128 F,0,124234,124734,1,0
Sprite,Background,Centre,"sb\glow.png",429,360 S,0,124252,,0.5 C,0,124252,,255,0,128 F,0,124252,124752,1,0
Sprite,Background,Centre,"sb\glow.png",449,359 S,0,124271,,0.5 C,0,124271,,255,0,128 F,0,124271,124771,1,0
Sprite,Background,Centre,"sb\glow.png",468,354 S,0,124290,,0.5 C,0,124290,,255,0,128 F,0,124290,124790,1,0
Sprite,Background,Centre,"sb\glow.png",486,346 S,0,124309,,0.5 C,0,124309,,255,0,128 F,0,124309,124809,1,0
Sprite,Background,Centre,"sb\glow.png",502,334 S,0,124327,,0.5 C,0,124327,,255,0,128 F,0,124327,124827,1,0
Sprite,Background,Centre,"sb\glow.png",517,320 S,0,124346,,0.5 C,0,124346,,255,0,128 F,0,124346,124846,1,0
Sprite,Background,Centre,"sb\glow.png",521,304 S,0,124365,,0.5 C,0,124365,,255,0,128 F,0,124365,124865,1,0
Sprite,Background,Centre,"sb\glow.png",510,288 S,0,124384,,0.5 C,0,124384,,255,0,128 F,0,124384,124884,1,0
Sprite,Background,Centre,"sb\glow.png",495,275 S,0,124402,,0.5 C,0,124402,,255,0,128 F,0,124402,124902,1,0
Sprite,Background,Centre,"sb\glow.png",477,266 S,0,124421,,0.5 C,0,124421,,255,0,128 F,0,124421,124921,1,0
Sprite,Background,Centre,"sb\glow.png",457,262 S,0,124440,,0.5 C,0,124440,,255,0,128 F,0,124440,124940,1,0
Sprite,Background,Centre,"sb\glow.png",437,263 S,0,124459,,0.5 C,0,124459,,255,0,128 F,0,124459,124959,1,0
Sprite,Background,Centre,"sb\glow.png",396,270 S,0,124477,,0.5 C,0,124477,,255,0,128 F,0,124477,124977,1,0
Sprite,Background,Centre,"sb\glow.png",359,276 S,0,124496,,0.5 C,0,124496,,255,0,128 F,0,124496,124996,1,0
Sprite,Background,Centre,"sb\glow.png",334,280 S,0,124515,,0.5 C,0,124515,,255,0,128 F,0,124515,125015,1,0
Sprite,Background,Centre,"sb\glow.png",325,282 S,0,124534,,0.5 C,0,124534,,255,0,128 F,0,124534,125034,1,0
Sprite,Background,Centre,"sb\glow.png",328,308 S,0,124552,,0.5 C,0,124552,,255,0,128 F,0,124552,125052,1,0
Sprite,Background,Centre,"sb\glow.png",331,335 S,0,124571,,0.5 C,0,124571,,255,0,128 F,0,124571,125071,1,0
Sprite,Background,Centre,"sb\glow.png",333,359 S,0,124590,,0.5 C,0,124590,,255,0,128 F,0,124590,125090,1,0
Sprite,Background,Centre,"sb\glow.png",335,381 S,0,124609,,0.5 C,0,124609,,255,0,128 F,0,124609,125109,1,0
Sprite,Background,Centre,"sb\glow.png",337,398 S,0,124627,,0.5 C,0,124627,,255,0,128 F,0,124627,125127,1,0
Sprite,Background,Centre,"sb\glow.png",339,412 S,0,124646,,0.5 C,0,124646,,255,0,128 F,0,124646,125146,1,0
Sprite,Background,Centre,"sb\glow.png",340,420 S,0,124665,,0.5 C,0,124665,,255,0,128 F,0,124665,125165,1,0
Sprite,Background,Centre,"sb\glow.png",340,423 S,0,124684,,0.5 C,0,124684,,255,0,128 F,0,124684,125184,1,0
Sprite,Background,Centre,"sb\glow.png",346,378 S,0,124702,,0.5 C,0,124702,,255,0,128 F,0,124702,125202,1,0
Sprite,Background,Centre,"sb\glow.png",353,332 S,0,124721,,0.5 C,0,124721,,255,0,128 F,0,124721,125221,1,0
Sprite,Background,Centre,"sb\glow.png",359,290 S,0,124740,,0.5 C,0,124740,,255,0,128 F,0,124740,125240,1,0
Sprite,Background,Centre,"sb\glow.png",364,253 S,0,124759,,0.5 C,0,124759,,255,0,128 F,0,124759,125259,1,0
Sprite,Background,Centre,"sb\glow.png",368,222 S,0,124777,,0.5 C,0,124777,,255,0,128 F,0,124777,125277,1,0
Sprite,Background,Centre,"sb\glow.png",371,199 S,0,124796,,0.5 C,0,124796,,255,0,128 F,0,124796,125296,1,0
Sprite,Background,Centre,"sb\glow.png",373,185 S,0,124815,,0.5 C,0,124815,,255,0,128 F,0,124815,125315,1,0
Sprite,Background,Centre,"sb\glow.png",374,180 S,0,124834,,0.5 C,0,124834,,255,0,128 F,0,124834,125334,1,0
Sprite,Background,Centre,"sb\glow.png",355,182 S,0,124852,,0.5 C,0,124852,,255,88,102 F,0,124852,125352,1,0
Sprite,Background,Centre,"sb\glow.png",335,185 S,0,124871,,0.5 C,0,124871,,255,88,102 F,0,124871,125371,1,0
Sprite,Background,Centre,"sb\glow.png",315,187 S,0,124890,,0.5 C,0,124890,,255,88,102 F,0,124890,125390,1,0
Sprite,Background,Centre,"sb\glow.png",296,189 S,0,124909,,0.5 C,0,124909,,255,88,102 F,0,124909,125409,1,0
Sprite,Background,Centre,"sb\glow.png",276,192 S,0,124927,,0.5 C,0,124927,,255,88,102 F,0,124927,125427,1,0
Sprite,Background,Centre,"sb\glow.png",263,207 S,0,124946,,0.5 C,0,124946,,255,88,102 F,0,124946,125446,1,0
Sprite,Background,Centre,"sb\glow.png",251,223 S,0,124965,,0.5 C,0,124965,,255,88,102 F,0,124965,125465,1,0
Sprite,Background,Centre,"sb\glow.png",232,226 S,0,124984,,0.5 C,0,124984,,255,88,102 F,0,124984,125484,1,0
Sprite,Background,Centre,"sb\glow.png",212,228 S,0,125002,,0.5 C,0,125002,,255,88,102 F,0,125002,125502,1,0
Sprite,Background,Centre,"sb\glow.png",192,231 S,0,125021,,0.5 C,0,125021,,255,88,102 F,0,125021,125521,1,0
Sprite,Background,Centre,"sb\glow.png",172,233 S,0,125040,,0.5 C,0,125040,,255,88,102 F,0,125040,125540,1,0
Sprite,Background,Centre,"sb\glow.png",152,235 S,0,125059,,0.5 C,0,125059,,255,88,102 F,0,125059,125559,1,0
Sprite,Background,Centre,"sb\glow.png",143,242 S,0,125077,,0.5 C,0,125077,,255,88,102 F,0,125077,125577,1,0
Sprite,Background,Centre,"sb\glow.png",135,247 S,0,125096,,0.5 C,0,125096,,255,88,102 F,0,125096,125596,1,0
Sprite,Background,Centre,"sb\glow.png",130,251 S,0,125115,,0.5 C,0,125115,,255,88,102 F,0,125115,125615,1,0
Sprite,Background,Centre,"sb\glow.png",128,252 S,0,125134,,0.5 C,0,125134,,255,88,102 F,0,125134,125634,1,0
Sprite,Background,Centre,"sb\glow.png",147,250 S,0,125152,,0.5 C,0,125152,,255,88,102 F,0,125152,125652,1,0
Sprite,Background,Centre,"sb\glow.png",167,248 S,0,125171,,0.5 C,0,125171,,255,88,102 F,0,125171,125671,1,0
Sprite,Background,Centre,"sb\glow.png",187,246 S,0,125190,,0.5 C,0,125190,,255,88,102 F,0,125190,125690,1,0
Sprite,Background,Centre,"sb\glow.png",206,243 S,0,125209,,0.5 C,0,125209,,255,88,102 F,0,125209,125709,1,0
Sprite,Background,Centre,"sb\glow.png",226,241 S,0,125227,,0.5 C,0,125227,,255,88,102 F,0,125227,125727,1,0
Sprite,Background,Centre,"sb\glow.png",246,239 S,0,125246,,0.5 C,0,125246,,255,88,102 F,0,125246,125746,1,0
Sprite,Background,Centre,"sb\glow.png",266,237 S,0,125265,,0.5 C,0,125265,,255,88,102 F,0,125265,125765,1,0
Sprite,Background,Centre,"sb\glow.png",286,235 S,0,125284,,0.5 C,0,125284,,255,88,102 F,0,125284,125784,1,0
Sprite,Background,Centre,"sb\glow.png",321,239 S,0,125302,,0.5 C,0,125302,,255,88,102 F,0,125302,125802,1,0
Sprite,Background,Centre,"sb\glow.png",355,244 S,0,125321,,0.5 C,0,125321,,255,88,102 F,0,125321,125821,1,0
Sprite,Background,Centre,"sb\glow.png",387,248 S,0,125340,,0.5 C,0,125340,,255,88,102 F,0,125340,125840,1,0
Sprite,Background,Centre,"sb\glow.png",415,252 S,0,125359,,0.5 C,0,125359,,255,88,102 F,0,125359,125859,1,0
Sprite,Background,Centre,"sb\glow.png",438,256 S,0,125377,,0.5 C,0,125377,,255,88,102 F,0,125377,125877,1,0
Sprite,Background,Centre,"sb\glow.png",455,258 S,0,125396,,0.5 C,0,125396,,255,88,102 F,0,125396,125896,1,0
Sprite,Background,Centre,"sb\glow.png",466,259 S,0,125415,,0.5 C,0,125415,,255,88,102 F,0,125415,125915,1,0
Sprite,Background,Centre,"sb\glow.png",470,260 S,0,125434,,0.5 C,0,125434,,255,88,102 F,0,125434,125934,1,0
Sprite,Background,Centre,"sb\glow.png",480,276 S,0,125452,,0.5 C,0,125452,,255,88,102 F,0,125452,125952,1,0
Sprite,Background,Centre,"sb\glow.png",486,295 S,0,125471,,0.5 C,0,125471,,255,88,102 F,0,125471,125971,1,0
Sprite,Background,Centre,"sb\glow.png",489,315 S,0,125490,,0.5 C,0,125490,,255,88,102 F,0,125490,125990,1,0
Sprite,Background,Centre,"sb\glow.png",488,334 S,0,125509,,0.5 C,0,125509,,255,88,102 F,0,125509,126009,1,0
Sprite,Background,Centre,"sb\glow.png",483,354 S,0,125527,,0.5 C,0,125527,,255,88,102 F,0,125527,126027,1,0
Sprite,Background,Centre,"sb\glow.png",474,371 S,0,125546,,0.5 C,0,125546,,255,88,102 F,0,125546,126046,1,0
Sprite,Background,Centre,"sb\glow.png",462,387 S,0,125565,,0.5 C,0,125565,,255,88,102 F,0,125565,126065,1,0
Sprite,Background,Centre,"sb\glow.png",446,399 S,0,125584,,0.5 C,0,125584,,255,88,102 F,0,125584,126084,1,0
Sprite,Background,Centre,"sb\glow.png",429,409 S,0,125602,,0.5 C,0,125602,,255,88,102 F,0,125602,126102,1,0
Sprite,Background,Centre,"sb\glow.png",409,414 S,0,125621,,0.5 C,0,125621,,255,88,102 F,0,125621,126121,1,0
Sprite,Background,Centre,"sb\glow.png",390,416 S,0,125640,,0.5 C,0,125640,,255,88,102 F,0,125640,126140,1,0
Sprite,Background,Centre,"sb\glow.png",370,413 S,0,125659,,0.5 C,0,125659,,255,88,102 F,0,125659,126159,1,0
Sprite,Background,Centre,"sb\glow.png",368,412 S,0,125677,,0.5 C,0,125677,,255,88,102 F,0,125677,126177,1,0
Sprite,Background,Centre,"sb\glow.png",368,412 S,0,125696,,0.5 C,0,125696,,255,88,102 F,0,125696,126196,1,0
Sprite,Background,Centre,"sb\glow.png",368,412 S,0,125715,,0.5 C,0,125715,,255,88,102 F,0,125715,126215,1,0
Sprite,Background,Centre,"sb\glow.png",368,412 S,0,125734,,0.5 C,0,125734,,255,88,102 F,0,125734,126234,1,0
Sprite,Background,Centre,"sb\glow.png",356,397 S,0,125752,,0.5 C,0,125752,,255,88,102 F,0,125752,126252,1,0
Sprite,Background,Centre,"sb\glow.png",347,380 S,0,125771,,0.5 C,0,125771,,255,88,102 F,0,125771,126271,1,0
Sprite,Background,Centre,"sb\glow.png",341,361 S,0,125790,,0.5 C,0,125790,,255,88,102 F,0,125790,126290,1,0
Sprite,Background,Centre,"sb\glow.png",339,341 S,0,125809,,0.5 C,0,125809,,255,88,102 F,0,125809,126309,1,0
Sprite,Background,Centre,"sb\glow.png",342,321 S,0,125827,,0.5 C,0,125827,,255,88,102 F,0,125827,126327,1,0
Sprite,Background,Centre,"sb\glow.png",348,303 S,0,125846,,0.5 C,0,125846,,255,88,102 F,0,125846,126346,1,0
Sprite,Background,Centre,"sb\glow.png",359,286 S,0,125865,,0.5 C,0,125865,,255,88,102 F,0,125865,126365,1,0
Sprite,Background,Centre,"sb\glow.png",373,271 S,0,125884,,0.5 C,0,125884,,255,88,102 F,0,125884,126384,1,0
Sprite,Background,Centre,"sb\glow.png",398,246 S,0,125902,,0.5 C,0,125902,,255,88,102 F,0,125902,126402,1,0
Sprite,Background,Centre,"sb\glow.png",424,222 S,0,125921,,0.5 C,0,125921,,255,88,102 F,0,125921,126421,1,0
Sprite,Background,Centre,"sb\glow.png",447,199 S,0,125940,,0.5 C,0,125940,,255,88,102 F,0,125940,126440,1,0
Sprite,Background,Centre,"sb\glow.png",468,179 S,0,125959,,0.5 C,0,125959,,255,88,102 F,0,125959,126459,1,0
Sprite,Background,Centre,"sb\glow.png",485,163 S,0,125977,,0.5 C,0,125977,,255,88,102 F,0,125977,126477,1,0
Sprite,Background,Centre,"sb\glow.png",497,150 S,0,125996,,0.5 C,0,125996,,255,88,102 F,0,125996,126496,1,0
Sprite,Background,Centre,"sb\glow.png",505,143 S,0,126015,,0.5 C,0,126015,,255,88,102 F,0,126015,126515,1,0
Sprite,Background,Centre,"sb\glow.png",508,140 S,0,126034,,0.5 C,0,126034,,255,88,102 F,0,126034,126534,1,0
Sprite,Background,Centre,"sb\glow.png",508,140 S,0,126052,,0.5 C,0,126052,,255,0,255 F,0,126052,126552,1,0
Sprite,Background,Centre,"sb\glow.png",508,140 S,0,126071,,0.5 C,0,126071,,255,0,255 F,0,126071,126571,1,0
Sprite,Background,Centre,"sb\glow.png",508,140 S,0,126090,,0.5 C,0,126090,,255,0,255 F,0,126090,126590,1,0
Sprite,Background,Centre,"sb\glow.png",508,140 S,0,126109,,0.5 C,0,126109,,255,0,255 F,0,126109,126609,1,0
Sprite,Background,Centre,"sb\glow.png",508,140 S,0,126127,,0.5 C,0,126127,,255,0,255 F,0,126127,126627,1,0
Sprite,Background,Centre,"sb\glow.png",508,140 S,0,126146,,0.5 C,0,126146,,255,0,255 F,0,126146,126646,1,0
Sprite,Background,Centre,"sb\glow.png",508,140 S,0,126165,,0.5 C,0,126165,,255,0,255 F,0,126165,126665,1,0
Sprite,Background,Centre,"sb\glow.png",508,140 S,0,126184,,0.5 C,0,126184,,255,0,255 F,0,126184,126684,1,0
Sprite,Background,Centre,"sb\glow.png",454,145 S,0,126202,,0.5 C,0,126202,,255,0,255 F,0,126202,126702,1,0
Sprite,Background,Centre,"sb\glow.png",399,150 S,0,126221,,0.5 C,0,126221,,255,0,255 F,0,126221,126721,1,0
Sprite,Background,Centre,"sb\glow.png",348,155 S,0,126240,,0.5 C,0,126240,,255,0,255 F,0,126240,126740,1,0
Sprite,Background,Centre,"sb\glow.png",303,160 S,0,126259,,0.5 C,0,126259,,255,0,255 F,0,126259,126759,1,0
Sprite,Background,Centre,"sb\glow.png",266,163 S,0,126277,,0.5 C,0,126277,,255,0,255 F,0,126277,126777,1,0
Sprite,Background,Centre,"sb\glow.png",238,166 S,0,126296,,0.5 C,0,126296,,255,0,255 F,0,126296,126796,1,0
Sprite,Background,Centre,"sb\glow.png",221,167 S,0,126315,,0.5 C,0,126315,,255,0,255 F,0,126315,126815,1,0
Sprite,Background,Centre,"sb\glow.png",215,168 S,0,126334,,0.5 C,0,126334,,255,0,255 F,0,126334,126834,1,0
Sprite,Background,Centre,"sb\glow.png",217,149 S,0,126352,,0.5 C,0,126352,,255,0,255 F,0,126352,126852,1,0
Sprite,Background,Centre,"sb\glow.png",222,130 S,0,126371,,0.5 C,0,126371,,255,0,255 F,0,126371,126871,1,0
Sprite,Background,Centre,"sb\glow.png",229,111 S,0,126390,,0.5 C,0,126390,,255,0,255 F,0,126390,126890,1,0
Sprite,Background,Centre,"sb\glow.png",240,94 S,0,126409,,0.5 C,0,126409,,255,0,255 F,0,126409,126909,1,0
Sprite,Background,Centre,"sb\glow.png",254,80 S,0,126427,,0.5 C,0,126427,,255,0,255 F,0,126427,126927,1,0
Sprite,Background,Centre,"sb\glow.png",271,70 S,0,126446,,0.5 C,0,126446,,255,0,255 F,0,126446,126946,1,0
Sprite,Background,Centre,"sb\glow.png",290,63 S,0,126465,,0.5 C,0,126465,,255,0,255 F,0,126465,126965,1,0
Sprite,Background,Centre,"sb\glow.png",309,60 S,0,126484,,0.5 C,0,126484,,255,0,255 F,0,126484,126984,1,0
Sprite,Background,Centre,"sb\glow.png",318,62 S,0,126502,,0.5 C,0,126502,,255,0,255 F,0,126502,127002,1,0
Sprite,Background,Centre,"sb\glow.png",305,75 S,0,126521,,0.5 C,0,126521,,255,0,255 F,0,126521,127021,1,0
Sprite,Background,Centre,"sb\glow.png",294,92 S,0,126540,,0.5 C,0,126540,,255,0,255 F,0,126540,127040,1,0
Sprite,Background,Centre,"sb\glow.png",287,111 S,0,126559,,0.5 C,0,126559,,255,0,255 F,0,126559,127059,1,0
Sprite,Background,Centre,"sb\glow.png",300,178 S,0,126577,,0.5 C,0,126577,,255,0,255 F,0,126577,127077,1,0
Sprite,Background,Centre,"sb\glow.png",312,239 S,0,126596,,0.5 C,0,126596,,255,0,255 F,0,126596,127096,1,0
Sprite,Background,Centre,"sb\glow.png",321,280 S,0,126615,,0.5 C,0,126615,,255,0,255 F,0,126615,127115,1,0
Sprite,Background,Centre,"sb\glow.png",324,295 S,0,126634,,0.5 C,0,126634,,255,0,255 F,0,126634,127134,1,0
Sprite,Background,Centre,"sb\glow.png",307,302 S,0,126652,,0.5 C,0,126652,,255,0,255 F,0,126652,127152,1,0
Sprite,Background,Centre,"sb\glow.png",287,308 S,0,126671,,0.5 C,0,126671,,255,0,255 F,0,126671,127171,1,0
Sprite,Background,Centre,"sb\glow.png",268,311 S,0,126690,,0.5 C,0,126690,,255,0,255 F,0,126690,127190,1,0
Sprite,Background,Centre,"sb\glow.png",248,310 S,0,126709,,0.5 C,0,126709,,255,0,255 F,0,126709,127209,1,0
Sprite,Background,Centre,"sb\glow.png",229,305 S,0,126727,,0.5 C,0,126727,,255,0,255 F,0,126727,127227,1,0
Sprite,Background,Centre,"sb\glow.png",211,296 S,0,126746,,0.5 C,0,126746,,255,0,255 F,0,126746,127246,1,0
Sprite,Background,Centre,"sb\glow.png",196,283 S,0,126765,,0.5 C,0,126765,,255,0,255 F,0,126765,127265,1,0
Sprite,Background,Centre,"sb\glow.png",183,267 S,0,126784,,0.5 C,0,126784,,255,0,255 F,0,126784,127284,1,0
Sprite,Background,Centre,"sb\glow.png",181,258 S,0,126802,,0.5 C,0,126802,,255,0,255 F,0,126802,127302,1,0
Sprite,Background,Centre,"sb\glow.png",199,263 S,0,126821,,0.5 C,0,126821,,255,0,255 F,0,126821,127321,1,0
Sprite,Background,Centre,"sb\glow.png",219,264 S,0,126840,,0.5 C,0,126840,,255,0,255 F,0,126840,127340,1,0
Sprite,Background,Centre,"sb\glow.png",238,262 S,0,126859,,0.5 C,0,126859,,255,0,255 F,0,126859,127359,1,0
Sprite,Background,Centre,"sb\glow.png",290,217 S,0,126877,,0.5 C,0,126877,,255,0,255 F,0,126877,127377,1,0
Sprite,Background,Centre,"sb\glow.png",335,176 S,0,126896,,0.5 C,0,126896,,255,0,255 F,0,126896,127396,1,0
Sprite,Background,Centre,"sb\glow.png",366,148 S,0,126915,,0.5 C,0,126915,,255,0,255 F,0,126915,127415,1,0
Sprite,Background,Centre,"sb\glow.png",378,138 S,0,126934,,0.5 C,0,126934,,255,0,255 F,0,126934,127434,1,0
Sprite,Background,Centre,"sb\glow.png",393,149 S,0,126952,,0.5 C,0,126952,,255,0,255 F,0,126952,127452,1,0
Sprite,Background,Centre,"sb\glow.png",408,163 S,0,126971,,0.5 C,0,126971,,255,0,255 F,0,126971,127471,1,0
Sprite,Background,Centre,"sb\glow.png",420,179 S,0,126990,,0.5 C,0,126990,,255,0,255 F,0,126990,127490,1,0
Sprite,Background,Centre,"sb\glow.png",429,196 S,0,127009,,0.5 C,0,127009,,255,0,255 F,0,127009,127509,1,0
Sprite,Background,Centre,"sb\glow.png",434,216 S,0,127027,,0.5 C,0,127027,,255,0,255 F,0,127027,127527,1,0
Sprite,Background,Centre,"sb\glow.png",434,236 S,0,127046,,0.5 C,0,127046,,255,0,255 F,0,127046,127546,1,0
Sprite,Background,Centre,"sb\glow.png",430,255 S,0,127065,,0.5 C,0,127065,,255,0,255 F,0,127065,127565,1,0
Sprite,Background,Centre,"sb\glow.png",423,274 S,0,127084,,0.5 C,0,127084,,255,0,255 F,0,127084,127584,1,0
Sprite,Background,Centre,"sb\glow.png",417,279 S,0,127102,,0.5 C,0,127102,,255,0,255 F,0,127102,127602,1,0
Sprite,Background,Centre,"sb\glow.png",412,260 S,0,127121,,0.5 C,0,127121,,255,0,255 F,0,127121,127621,1,0
Sprite,Background,Centre,"sb\glow.png",403,243 S,0,127140,,0.5 C,0,127140,,255,0,255 F,0,127140,127640,1,0
Sprite,Background,Centre,"sb\glow.png",391,227 S,0,127159,,0.5 C,0,127159,,255,0,255 F,0,127159,127659,1,0
Sprite,Background,Centre,"sb\glow.png",326,205 S,0,127177,,0.5 C,0,127177,,255,0,255 F,0,127177,127677,1,0
Sprite,Background,Centre,"sb\glow.png",269,186 S,0,127196,,0.5 C,0,127196,,255,0,255 F,0,127196,127696,1,0
Sprite,Background,Centre,"sb\glow.png",230,173 S,0,127215,,0.5 C,0,127215,,255,0,255 F,0,127215,127715,1,0
Sprite,Background,Centre,"sb\glow.png",215,168 S,0,127234,,0.5 C,0,127234,,255,0,255 F,0,127234,127734,1,0
Sprite,Background,Centre,"sb\glow.png",216,161 S,0,127252,,0.5 C,0,127252,,255,128,192 F,0,127252,127752,1,0
Sprite,Background,Centre,"sb\glow.png",216,153 S,0,127271,,0.5 C,0,127271,,255,128,192 F,0,127271,127771,1,0
Sprite,Background,Centre,"sb\glow.png",217,146 S,0,127290,,0.5 C,0,127290,,255,128,192 F,0,127290,127790,1,0
Sprite,Background,Centre,"sb\glow.png",217,139 S,0,127309,,0.5 C,0,127309,,255,128,192 F,0,127309,127809,1,0
Sprite,Background,Centre,"sb\glow.png",218,131 S,0,127327,,0.5 C,0,127327,,255,128,192 F,0,127327,127827,1,0
Sprite,Background,Centre,"sb\glow.png",219,124 S,0,127346,,0.5 C,0,127346,,255,128,192 F,0,127346,127846,1,0
Sprite,Background,Centre,"sb\glow.png",219,116 S,0,127365,,0.5 C,0,127365,,255,128,192 F,0,127365,127865,1,0
Sprite,Background,Centre,"sb\glow.png",220,109 S,0,127384,,0.5 C,0,127384,,255,128,192 F,0,127384,127884,1,0
Sprite,Background,Centre,"sb\glow.png",221,101 S,0,127402,,0.5 C,0,127402,,255,128,192 F,0,127402,127902,1,0
Sprite,Background,Centre,"sb\glow.png",221,94 S,0,127421,,0.5 C,0,127421,,255,128,192 F,0,127421,127921,1,0
Sprite,Background,Centre,"sb\glow.png",222,86 S,0,127440,,0.5 C,0,127440,,255,128,192 F,0,127440,127940,1,0
Sprite,Background,Centre,"sb\glow.png",222,79 S,0,127459,,0.5 C,0,127459,,255,128,192 F,0,127459,127959,1,0
Sprite,Background,Centre,"sb\glow.png",220,111 S,0,127477,,0.5 C,0,127477,,255,128,192 F,0,127477,127977,1,0
Sprite,Background,Centre,"sb\glow.png",217,140 S,0,127496,,0.5 C,0,127496,,255,128,192 F,0,127496,127996,1,0
Sprite,Background,Centre,"sb\glow.png",216,160 S,0,127515,,0.5 C,0,127515,,255,128,192 F,0,127515,128015,1,0
Sprite,Background,Centre,"sb\glow.png",215,168 S,0,127534,,0.5 C,0,127534,,255,128,192 F,0,127534,128034,1,0
Sprite,Background,Centre,"sb\glow.png",214,149 S,0,127552,,0.5 C,0,127552,,255,0,128 F,0,127552,128052,1,0
Sprite,Background,Centre,"sb\glow.png",206,131 S,0,127571,,0.5 C,0,127571,,255,0,128 F,0,127571,128071,1,0
Sprite,Background,Centre,"sb\glow.png",193,117 S,0,127590,,0.5 C,0,127590,,255,0,128 F,0,127590,128090,1,0
Sprite,Background,Centre,"sb\glow.png",175,108 S,0,127609,,0.5 C,0,127609,,255,0,128 F,0,127609,128109,1,0
Sprite,Background,Centre,"sb\glow.png",155,106 S,0,127627,,0.5 C,0,127627,,255,0,128 F,0,127627,128127,1,0
Sprite,Background,Centre,"sb\glow.png",137,111 S,0,127646,,0.5 C,0,127646,,255,0,128 F,0,127646,128146,1,0
Sprite,Background,Centre,"sb\glow.png",121,123 S,0,127665,,0.5 C,0,127665,,255,0,128 F,0,127665,128165,1,0
Sprite,Background,Centre,"sb\glow.png",110,139 S,0,127684,,0.5 C,0,127684,,255,0,128 F,0,127684,128184,1,0
Sprite,Background,Centre,"sb\glow.png",105,158 S,0,127702,,0.5 C,0,127702,,255,0,128 F,0,127702,128202,1,0
Sprite,Background,Centre,"sb\glow.png",108,178 S,0,127721,,0.5 C,0,127721,,255,0,128 F,0,127721,128221,1,0
Sprite,Background,Centre,"sb\glow.png",117,195 S,0,127740,,0.5 C,0,127740,,255,0,128 F,0,127740,128240,1,0
Sprite,Background,Centre,"sb\glow.png",132,208 S,0,127759,,0.5 C,0,127759,,255,0,128 F,0,127759,128259,1,0
Sprite,Background,Centre,"sb\glow.png",161,229 S,0,127777,,0.5 C,0,127777,,255,0,128 F,0,127777,128277,1,0
Sprite,Background,Centre,"sb\glow.png",186,247 S,0,127796,,0.5 C,0,127796,,255,0,128 F,0,127796,128296,1,0
Sprite,Background,Centre,"sb\glow.png",203,259 S,0,127815,,0.5 C,0,127815,,255,0,128 F,0,127815,128315,1,0
Sprite,Background,Centre,"sb\glow.png",210,264 S,0,127834,,0.5 C,0,127834,,255,0,128 F,0,127834,128334,1,0
Sprite,Background,Centre,"sb\glow.png",191,289 S,0,127852,,0.5 C,0,127852,,255,0,128 F,0,127852,128352,1,0
Sprite,Background,Centre,"sb\glow.png",172,314 S,0,127871,,0.5 C,0,127871,,255,0,128 F,0,127871,128371,1,0
Sprite,Background,Centre,"sb\glow.png",155,337 S,0,127890,,0.5 C,0,127890,,255,0,128 F,0,127890,128390,1,0
Sprite,Background,Centre,"sb\glow.png",139,358 S,0,127909,,0.5 C,0,127909,,255,0,128 F,0,127909,128409,1,0
Sprite,Background,Centre,"sb\glow.png",127,375 S,0,127927,,0.5 C,0,127927,,255,0,128 F,0,127927,128427,1,0
Sprite,Background,Centre,"sb\glow.png",117,387 S,0,127946,,0.5 C,0,127946,,255,0,128 F,0,127946,128446,1,0
Sprite,Background,Centre,"sb\glow.png",111,395 S,0,127965,,0.5 C,0,127965,,255,0,128 F,0,127965,128465,1,0
Sprite,Background,Centre,"sb\glow.png",109,398 S,0,127984,,0.5 C,0,127984,,255,0,128 F,0,127984,128484,1,0
Sprite,Background,Centre,"sb\glow.png",136,389 S,0,128002,,0.5 C,0,128002,,255,0,128 F,0,128002,128502,1,0
Sprite,Background,Centre,"sb\glow.png",163,379 S,0,128021,,0.5 C,0,128021,,255,0,128 F,0,128021,128521,1,0
Sprite,Background,Centre,"sb\glow.png",188,370 S,0,128040,,0.5 C,0,128040,,255,0,128 F,0,128040,128540,1,0
Sprite,Background,Centre,"sb\glow.png",210,362 S,0,128059,,0.5 C,0,128059,,255,0,128 F,0,128059,128559,1,0
Sprite,Background,Centre,"sb\glow.png",229,356 S,0,128077,,0.5 C,0,128077,,255,0,128 F,0,128077,128577,1,0
Sprite,Background,Centre,"sb\glow.png",242,351 S,0,128096,,0.5 C,0,128096,,255,0,128 F,0,128096,128596,1,0
Sprite,Background,Centre,"sb\glow.png",251,348 S,0,128115,,0.5 C,0,128115,,255,0,128 F,0,128115,128615,1,0
Sprite,Background,Centre,"sb\glow.png",254,347 S,0,128134,,0.5 C,0,128134,,255,0,128 F,0,128134,128634,1,0
Sprite,Background,Centre,"sb\glow.png",235,350 S,0,128152,,0.5 C,0,128152,,255,0,128 F,0,128152,128652,1,0
Sprite,Background,Centre,"sb\glow.png",216,354 S,0,128171,,0.5 C,0,128171,,255,0,128 F,0,128171,128671,1,0
Sprite,Background,Centre,"sb\glow.png",196,358 S,0,128190,,0.5 C,0,128190,,255,0,128 F,0,128190,128690,1,0
Sprite,Background,Centre,"sb\glow.png",181,370 S,0,128209,,0.5 C,0,128209,,255,0,128 F,0,128209,128709,1,0
Sprite,Background,Centre,"sb\glow.png",168,385 S,0,128227,,0.5 C,0,128227,,255,0,128 F,0,128227,128727,1,0
Sprite,Background,Centre,"sb\glow.png",149,390 S,0,128246,,0.5 C,0,128246,,255,0,128 F,0,128246,128746,1,0
Sprite,Background,Centre,"sb\glow.png",130,394 S,0,128265,,0.5 C,0,128265,,255,0,128 F,0,128265,128765,1,0
Sprite,Background,Centre,"sb\glow.png",110,397 S,0,128284,,0.5 C,0,128284,,255,0,128 F,0,128284,128784,1,0
Sprite,Background,Centre,"sb\glow.png",147,403 S,0,128302,,0.5 C,0,128302,,255,0,128 F,0,128302,128802,1,0
Sprite,Background,Centre,"sb\glow.png",185,407 S,0,128321,,0.5 C,0,128321,,255,0,128 F,0,128321,128821,1,0
Sprite,Background,Centre,"sb\glow.png",221,412 S,0,128340,,0.5 C,0,128340,,255,0,128 F,0,128340,128840,1,0
Sprite,Background,Centre,"sb\glow.png",252,416 S,0,128359,,0.5 C,0,128359,,255,0,128 F,0,128359,128859,1,0
Sprite,Background,Centre,"sb\glow.png",277,419 S,0,128377,,0.5 C,0,128377,,255,0,128 F,0,128377,128877,1,0
Sprite,Background,Centre,"sb\glow.png",297,422 S,0,128396,,0.5 C,0,128396,,255,0,128 F,0,128396,128896,1,0
Sprite,Background,Centre,"sb\glow.png",309,423 S,0,128415,,0.5 C,0,128415,,255,0,128 F,0,128415,128915,1,0
Sprite,Background,Centre,"sb\glow.png",313,424 S,0,128434,,0.5 C,0,128434,,255,0,128 F,0,128434,128934,1,0
Sprite,Background,Centre,"sb\glow.png",326,411 S,0,128452,,0.5 C,0,128452,,255,88,102 F,0,128452,128952,1,0
Sprite,Background,Centre,"sb\glow.png",341,396 S,0,128471,,0.5 C,0,128471,,255,88,102 F,0,128471,128971,1,0
Sprite,Background,Centre,"sb\glow.png",355,382 S,0,128490,,0.5 C,0,128490,,255,88,102 F,0,128490,128990,1,0
Sprite,Background,Centre,"sb\glow.png",354,364 S,0,128509,,0.5 C,0,128509,,255,88,102 F,0,128509,129009,1,0
Sprite,Background,Centre,"sb\glow.png",350,344 S,0,128527,,0.5 C,0,128527,,255,88,102 F,0,128527,129027,1,0
Sprite,Background,Centre,"sb\glow.png",347,324 S,0,128546,,0.5 C,0,128546,,255,88,102 F,0,128546,129046,1,0
Sprite,Background,Centre,"sb\glow.png",343,305 S,0,128565,,0.5 C,0,128565,,255,88,102 F,0,128565,129065,1,0
Sprite,Background,Centre,"sb\glow.png",339,285 S,0,128584,,0.5 C,0,128584,,255,88,102 F,0,128584,129084,1,0
Sprite,Background,Centre,"sb\glow.png",336,266 S,0,128602,,0.5 C,0,128602,,255,88,102 F,0,128602,129102,1,0
Sprite,Background,Centre,"sb\glow.png",333,249 S,0,128621,,0.5 C,0,128621,,255,88,102 F,0,128621,129121,1,0
Sprite,Background,Centre,"sb\glow.png",330,232 S,0,128640,,0.5 C,0,128640,,255,88,102 F,0,128640,129140,1,0
Sprite,Background,Centre,"sb\glow.png",328,218 S,0,128659,,0.5 C,0,128659,,255,88,102 F,0,128659,129159,1,0
Sprite,Background,Centre,"sb\glow.png",326,206 S,0,128677,,0.5 C,0,128677,,255,88,102 F,0,128677,129177,1,0
Sprite,Background,Centre,"sb\glow.png",324,197 S,0,128696,,0.5 C,0,128696,,255,88,102 F,0,128696,129196,1,0
Sprite,Background,Centre,"sb\glow.png",323,191 S,0,128715,,0.5 C,0,128715,,255,88,102 F,0,128715,129215,1,0
Sprite,Background,Centre,"sb\glow.png",323,189 S,0,128734,,0.5 C,0,128734,,255,88,102 F,0,128734,129234,1,0
Sprite,Background,Centre,"sb\glow.png",302,203 S,0,128752,,0.5 C,0,128752,,255,88,102 F,0,128752,129252,1,0
Sprite,Background,Centre,"sb\glow.png",281,217 S,0,128771,,0.5 C,0,128771,,255,88,102 F,0,128771,129271,1,0
Sprite,Background,Centre,"sb\glow.png",261,230 S,0,128790,,0.5 C,0,128790,,255,88,102 F,0,128790,129290,1,0
Sprite,Background,Centre,"sb\glow.png",244,241 S,0,128809,,0.5 C,0,128809,,255,88,102 F,0,128809,129309,1,0
Sprite,Background,Centre,"sb\glow.png",230,251 S,0,128827,,0.5 C,0,128827,,255,88,102 F,0,128827,129327,1,0
Sprite,Background,Centre,"sb\glow.png",219,258 S,0,128846,,0.5 C,0,128846,,255,88,102 F,0,128846,129346,1,0
Sprite,Background,Centre,"sb\glow.png",212,262 S,0,128865,,0.5 C,0,128865,,255,88,102 F,0,128865,129365,1,0
Sprite,Background,Centre,"sb\glow.png",210,264 S,0,128884,,0.5 C,0,128884,,255,88,102 F,0,128884,129384,1,0
Sprite,Background,Centre,"sb\glow.png",260,251 S,0,128902,,0.5 C,0,128902,,255,88,102 F,0,128902,129402,1,0
Sprite,Background,Centre,"sb\glow.png",310,239 S,0,128921,,0.5 C,0,128921,,255,88,102 F,0,128921,129421,1,0
Sprite,Background,Centre,"sb\glow.png",357,227 S,0,128940,,0.5 C,0,128940,,255,88,102 F,0,128940,129440,1,0
Sprite,Background,Centre,"sb\glow.png",398,216 S,0,128959,,0.5 C,0,128959,,255,88,102 F,0,128959,129459,1,0
Sprite,Background,Centre,"sb\glow.png",432,208 S,0,128977,,0.5 C,0,128977,,255,88,102 F,0,128977,129477,1,0
Sprite,Background,Centre,"sb\glow.png",457,201 S,0,128996,,0.5 C,0,128996,,255,88,102 F,0,128996,129496,1,0
Sprite,Background,Centre,"sb\glow.png",473,197 S,0,129015,,0.5 C,0,129015,,255,88,102 F,0,129015,129515,1,0
Sprite,Background,Centre,"sb\glow.png",479,196 S,0,129034,,0.5 C,0,129034,,255,88,102 F,0,129034,129534,1,0
Sprite,Background,Centre,"sb\glow.png",486,179 S,0,129052,,0.5 C,0,129052,,255,88,102 F,0,129052,129552,1,0
Sprite,Background,Centre,"sb\glow.png",491,159 S,0,129071,,0.5 C,0,129071,,255,88,102 F,0,129071,129571,1,0
Sprite,Background,Centre,"sb\glow.png",491,139 S,0,129090,,0.5 C,0,129090,,255,88,102 F,0,129090,129590,1,0
Sprite,Background,Centre,"sb\glow.png",488,120 S,0,129109,,0.5 C,0,129109,,255,88,102 F,0,129109,129609,1,0
Sprite,Background,Centre,"sb\glow.png",482,101 S,0,129127,,0.5 C,0,129127,,255,88,102 F,0,129127,129627,1,0
Sprite,Background,Centre,"sb\glow.png",467,104 S,0,129146,,0.5 C,0,129146,,255,88,102 F,0,129146,129646,1,0
Sprite,Background,Centre,"sb\glow.png",449,111 S,0,129165,,0.5 C,0,129165,,255,88,102 F,0,129165,129665,1,0
Sprite,Background,Centre,"sb\glow.png",429,116 S,0,129184,,0.5 C,0,129184,,255,88,102 F,0,129184,129684,1,0
Sprite,Background,Centre,"sb\glow.png",409,118 S,0,129202,,0.5 C,0,129202,,255,88,102 F,0,129202,129702,1,0
Sprite,Background,Centre,"sb\glow.png",390,118 S,0,129221,,0.5 C,0,129221,,255,88,102 F,0,129221,129721,1,0
Sprite,Background,Centre,"sb\glow.png",402,133 S,0,129240,,0.5 C,0,129240,,255,88,102 F,0,129240,129740,1,0
Sprite,Background,Centre,"sb\glow.png",411,150 S,0,129259,,0.5 C,0,129259,,255,88,102 F,0,129259,129759,1,0
Sprite,Background,Centre,"sb\glow.png",385,199 S,0,129277,,0.5 C,0,129277,,255,88,102 F,0,129277,129777,1,0
Sprite,Background,Centre,"sb\glow.png",361,242 S,0,129296,,0.5 C,0,129296,,255,88,102 F,0,129296,129796,1,0
Sprite,Background,Centre,"sb\glow.png",344,272 S,0,129315,,0.5 C,0,129315,,255,88,102 F,0,129315,129815,1,0
Sprite,Background,Centre,"sb\glow.png",338,283 S,0,129334,,0.5 C,0,129334,,255,88,102 F,0,129334,129834,1,0
Sprite,Background,Centre,"sb\glow.png",353,271 S,0,129352,,0.5 C,0,129352,,255,88,102 F,0,129352,129852,1,0
Sprite,Background,Centre,"sb\glow.png",371,263 S,0,129371,,0.5 C,0,129371,,255,88,102 F,0,129371,129871,1,0
Sprite,Background,Centre,"sb\glow.png",390,260 S,0,129390,,0.5 C,0,129390,,255,88,102 F,0,129390,129890,1,0
Sprite,Background,Centre,"sb\glow.png",410,262 S,0,129409,,0.5 C,0,129409,,255,88,102 F,0,129409,129909,1,0
Sprite,Background,Centre,"sb\glow.png",425,275 S,0,129427,,0.5 C,0,129427,,255,88,102 F,0,129427,129927,1,0
Sprite,Background,Centre,"sb\glow.png",442,285 S,0,129446,,0.5 C,0,129446,,255,88,102 F,0,129446,129946,1,0
Sprite,Background,Centre,"sb\glow.png",461,291 S,0,129465,,0.5 C,0,129465,,255,88,102 F,0,129465,129965,1,0
Sprite,Background,Centre,"sb\glow.png",481,293 S,0,129484,,0.5 C,0,129484,,255,88,102 F,0,129484,129984,1,0
Sprite,Background,Centre,"sb\glow.png",506,338 S,0,129502,,0.5 C,0,129502,,255,88,102 F,0,129502,130002,1,0
Sprite,Background,Centre,"sb\glow.png",528,378 S,0,129521,,0.5 C,0,129521,,255,88,102 F,0,129521,130021,1,0
Sprite,Background,Centre,"sb\glow.png",542,406 S,0,129540,,0.5 C,0,129540,,255,88,102 F,0,129540,130040,1,0
Sprite,Background,Centre,"sb\glow.png",548,416 S,0,129559,,0.5 C,0,129559,,255,88,102 F,0,129559,130059,1,0
Sprite,Background,Centre,"sb\glow.png",551,425 S,0,129577,,0.5 C,0,129577,,255,88,102 F,0,129577,130077,1,0
Sprite,Background,Centre,"sb\glow.png",553,433 S,0,129596,,0.5 C,0,129596,,255,88,102 F,0,129596,130096,1,0
Sprite,Background,Centre,"sb\glow.png",554,438 S,0,129615,,0.5 C,0,129615,,255,88,102 F,0,129615,130115,1,0
Sprite,Background,Centre,"sb\glow.png",555,440 S,0,129634,,0.5 C,0,129634,,255,88,102 F,0,129634,130134,1,0
Sprite,Background,Centre,"sb\glow.png",558,421 S,0,129652,,0.5 C,0,129652,,255,0,255 F,0,129652,130152,1,0
Sprite,Background,Centre,"sb\glow.png",561,401 S,0,129671,,0.5 C,0,129671,,255,0,255 F,0,129671,130171,1,0
Sprite,Background,Centre,"sb\glow.png",563,382 S,0,129690,,0.5 C,0,129690,,255,0,255 F,0,129690,130190,1,0
Sprite,Background,Centre,"sb\glow.png",566,362 S,0,129709,,0.5 C,0,129709,,255,0,255 F,0,129709,130209,1,0
Sprite,Background,Centre,"sb\glow.png",569,342 S,0,129727,,0.5 C,0,129727,,255,0,255 F,0,129727,130227,1,0
Sprite,Background,Centre,"sb\glow.png",568,335 S,0,129746,,0.5 C,0,129746,,255,0,255 F,0,129746,130246,1,0
Sprite,Background,Centre,"sb\glow.png",559,351 S,0,129765,,0.5 C,0,129765,,255,0,255 F,0,129765,130265,1,0
Sprite,Background,Centre,"sb\glow.png",545,365 S,0,129784,,0.5 C,0,129784,,255,0,255 F,0,129784,130284,1,0
Sprite,Background,Centre,"sb\glow.png",517,374 S,0,129802,,0.5 C,0,129802,,255,0,255 F,0,129802,130302,1,0
Sprite,Background,Centre,"sb\glow.png",490,383 S,0,129821,,0.5 C,0,129821,,255,0,255 F,0,129821,130321,1,0
Sprite,Background,Centre,"sb\glow.png",465,391 S,0,129840,,0.5 C,0,129840,,255,0,255 F,0,129840,130340,1,0
Sprite,Background,Centre,"sb\glow.png",443,398 S,0,129859,,0.5 C,0,129859,,255,0,255 F,0,129859,130359,1,0
Sprite,Background,Centre,"sb\glow.png",424,404 S,0,129877,,0.5 C,0,129877,,255,0,255 F,0,129877,130377,1,0
Sprite,Background,Centre,"sb\glow.png",411,408 S,0,129896,,0.5 C,0,129896,,255,0,255 F,0,129896,130396,1,0
Sprite,Background,Centre,"sb\glow.png",402,411 S,0,129915,,0.5 C,0,129915,,255,0,255 F,0,129915,130415,1,0
Sprite,Background,Centre,"sb\glow.png",399,412 S,0,129934,,0.5 C,0,129934,,255,0,255 F,0,129934,130434,1,0
Sprite,Background,Centre,"sb\glow.png",414,372 S,0,129952,,0.5 C,0,129952,,255,0,255 F,0,129952,130452,1,0
Sprite,Background,Centre,"sb\glow.png",429,331 S,0,129971,,0.5 C,0,129971,,255,0,255 F,0,129971,130471,1,0
Sprite,Background,Centre,"sb\glow.png",443,294 S,0,129990,,0.5 C,0,129990,,255,0,255 F,0,129990,130490,1,0
Sprite,Background,Centre,"sb\glow.png",455,261 S,0,130009,,0.5 C,0,130009,,255,0,255 F,0,130009,130509,1,0
Sprite,Background,Centre,"sb\glow.png",465,234 S,0,130027,,0.5 C,0,130027,,255,0,255 F,0,130027,130527,1,0
Sprite,Background,Centre,"sb\glow.png",473,213 S,0,130046,,0.5 C,0,130046,,255,0,255 F,0,130046,130546,1,0
Sprite,Background,Centre,"sb\glow.png",477,201 S,0,130065,,0.5 C,0,130065,,255,0,255 F,0,130065,130565,1,0
Sprite,Background,Centre,"sb\glow.png",479,196 S,0,130084,,0.5 C,0,130084,,255,0,255 F,0,130084,130584,1,0
Sprite,Background,Centre,"sb\glow.png",440,217 S,0,130102,,0.5 C,0,130102,,255,0,255 F,0,130102,130602,1,0
Sprite,Background,Centre,"sb\glow.png",400,239 S,0,130121,,0.5 C,0,130121,,255,0,255 F,0,130121,130621,1,0
Sprite,Background,Centre,"sb\glow.png",363,259 S,0,130140,,0.5 C,0,130140,,255,0,255 F,0,130140,130640,1,0
Sprite,Background,Centre,"sb\glow.png",330,276 S,0,130159,,0.5 C,0,130159,,255,0,255 F,0,130159,130659,1,0
Sprite,Background,Centre,"sb\glow.png",303,291 S,0,130177,,0.5 C,0,130177,,255,0,255 F,0,130177,130677,1,0
Sprite,Background,Centre,"sb\glow.png",283,302 S,0,130196,,0.5 C,0,130196,,255,0,255 F,0,130196,130696,1,0
Sprite,Background,Centre,"sb\glow.png",271,309 S,0,130215,,0.5 C,0,130215,,255,0,255 F,0,130215,130715,1,0
Sprite,Background,Centre,"sb\glow.png",266,311 S,0,130234,,0.5 C,0,130234,,255,0,255 F,0,130234,130734,1,0
Sprite,Background,Centre,"sb\glow.png",285,309 S,0,130252,,0.5 C,0,130252,,255,0,255 F,0,130252,130752,1,0
Sprite,Background,Centre,"sb\glow.png",305,308 S,0,130271,,0.5 C,0,130271,,255,0,255 F,0,130271,130771,1,0
Sprite,Background,Centre,"sb\glow.png",325,306 S,0,130290,,0.5 C,0,130290,,255,0,255 F,0,130290,130790,1,0
Sprite,Background,Centre,"sb\glow.png",342,299 S,0,130309,,0.5 C,0,130309,,255,0,255 F,0,130309,130809,1,0
Sprite,Background,Centre,"sb\glow.png",358,289 S,0,130327,,0.5 C,0,130327,,255,0,255 F,0,130327,130827,1,0
Sprite,Background,Centre,"sb\glow.png",373,301 S,0,130346,,0.5 C,0,130346,,255,0,255 F,0,130346,130846,1,0
Sprite,Background,Centre,"sb\glow.png",389,313 S,0,130365,,0.5 C,0,130365,,255,0,255 F,0,130365,130865,1,0
Sprite,Background,Centre,"sb\glow.png",404,306 S,0,130384,,0.5 C,0,130384,,255,0,255 F,0,130384,130884,1,0
Sprite,Background,Centre,"sb\glow.png",421,298 S,0,130402,,0.5 C,0,130402,,255,0,255 F,0,130402,130902,1,0
Sprite,Background,Centre,"sb\glow.png",441,296 S,0,130421,,0.5 C,0,130421,,255,0,255 F,0,130421,130921,1,0
Sprite,Background,Centre,"sb\glow.png",461,294 S,0,130440,,0.5 C,0,130440,,255,0,255 F,0,130440,130940,1,0
Sprite,Background,Centre,"sb\glow.png",481,292 S,0,130459,,0.5 C,0,130459,,255,0,255 F,0,130459,130959,1,0
Sprite,Background,Centre,"sb\glow.png",414,261 S,0,130477,,0.5 C,0,130477,,255,0,255 F,0,130477,130977,1,0
Sprite,Background,Centre,"sb\glow.png",353,234 S,0,130496,,0.5 C,0,130496,,255,0,255 F,0,130496,130996,1,0
Sprite,Background,Centre,"sb\glow.png",312,215 S,0,130515,,0.5 C,0,130515,,255,0,255 F,0,130515,131015,1,0
Sprite,Background,Centre,"sb\glow.png",296,208 S,0,130534,,0.5 C,0,130534,,255,0,255 F,0,130534,131034,1,0
Sprite,Background,Centre,"sb\glow.png",288,191 S,0,130552,,0.5 C,0,130552,,255,0,255 F,0,130552,131052,1,0
Sprite,Background,Centre,"sb\glow.png",282,172 S,0,130571,,0.5 C,0,130571,,255,0,255 F,0,130571,131071,1,0
Sprite,Background,Centre,"sb\glow.png",281,152 S,0,130590,,0.5 C,0,130590,,255,0,255 F,0,130590,131090,1,0
Sprite,Background,Centre,"sb\glow.png",285,132 S,0,130609,,0.5 C,0,130609,,255,0,255 F,0,130609,131109,1,0
Sprite,Background,Centre,"sb\glow.png",296,118 S,0,130627,,0.5 C,0,130627,,255,0,255 F,0,130627,131127,1,0
Sprite,Background,Centre,"sb\glow.png",315,114 S,0,130646,,0.5 C,0,130646,,255,0,255 F,0,130646,131146,1,0
Sprite,Background,Centre,"sb\glow.png",335,117 S,0,130665,,0.5 C,0,130665,,255,0,255 F,0,130665,131165,1,0
Sprite,Background,Centre,"sb\glow.png",353,126 S,0,130684,,0.5 C,0,130684,,255,0,255 F,0,130684,131184,1,0
Sprite,Background,Centre,"sb\glow.png",391,150 S,0,130702,,0.5 C,0,130702,,255,0,255 F,0,130702,131202,1,0
Sprite,Background,Centre,"sb\glow.png",424,172 S,0,130721,,0.5 C,0,130721,,255,0,255 F,0,130721,131221,1,0
Sprite,Background,Centre,"sb\glow.png",446,186 S,0,130740,,0.5 C,0,130740,,255,0,255 F,0,130740,131240,1,0
Sprite,Background,Centre,"sb\glow.png",455,192 S,0,130759,,0.5 C,0,130759,,255,0,255 F,0,130759,131259,1,0
Sprite,Background,Centre,"sb\glow.png",464,193 S,0,130777,,0.5 C,0,130777,,255,0,255 F,0,130777,131277,1,0
Sprite,Background,Centre,"sb\glow.png",472,195 S,0,130796,,0.5 C,0,130796,,255,0,255 F,0,130796,131296,1,0
Sprite,Background,Centre,"sb\glow.png",477,196 S,0,130815,,0.5 C,0,130815,,255,0,255 F,0,130815,131315,1,0
Sprite,Background,Centre,"sb\glow.png",479,196 S,0,130834,,0.5 C,0,130834,,255,0,255 F,0,130834,131334,1,0
Sprite,Background,Centre,"sb\glow.png",498,195 S,0,130852,,0.5 C,0,130852,,255,128,192 F,0,130852,131352,1,0
Sprite,Background,Centre,"sb\glow.png",516,187 S,0,130871,,0.5 C,0,130871,,255,128,192 F,0,130871,131371,1,0
Sprite,Background,Centre,"sb\glow.png",530,174 S,0,130890,,0.5 C,0,130890,,255,128,192 F,0,130890,131390,1,0
Sprite,Background,Centre,"sb\glow.png",539,156 S,0,130909,,0.5 C,0,130909,,255,128,192 F,0,130909,131409,1,0
Sprite,Background,Centre,"sb\glow.png",541,137 S,0,130927,,0.5 C,0,130927,,255,128,192 F,0,130927,131427,1,0
Sprite,Background,Centre,"sb\glow.png",535,118 S,0,130946,,0.5 C,0,130946,,255,128,192 F,0,130946,131446,1,0
Sprite,Background,Centre,"sb\glow.png",523,102 S,0,130965,,0.5 C,0,130965,,255,128,192 F,0,130965,131465,1,0
Sprite,Background,Centre,"sb\glow.png",506,92 S,0,130984,,0.5 C,0,130984,,255,128,192 F,0,130984,131484,1,0
Sprite,Background,Centre,"sb\glow.png",487,88 S,0,131002,,0.5 C,0,131002,,255,128,192 F,0,131002,131502,1,0
Sprite,Background,Centre,"sb\glow.png",467,92 S,0,131021,,0.5 C,0,131021,,255,128,192 F,0,131021,131521,1,0
Sprite,Background,Centre,"sb\glow.png",451,103 S,0,131040,,0.5 C,0,131040,,255,128,192 F,0,131040,131540,1,0
Sprite,Background,Centre,"sb\glow.png",439,119 S,0,131059,,0.5 C,0,131059,,255,128,192 F,0,131059,131559,1,0
Sprite,Background,Centre,"sb\glow.png",395,186 S,0,131077,,0.5 C,0,131077,,255,128,192 F,0,131077,131577,1,0
Sprite,Background,Centre,"sb\glow.png",356,246 S,0,131096,,0.5 C,0,131096,,255,128,192 F,0,131096,131596,1,0
Sprite,Background,Centre,"sb\glow.png",329,287 S,0,131115,,0.5 C,0,131115,,255,128,192 F,0,131115,131615,1,0
Sprite,Background,Centre,"sb\glow.png",319,302 S,0,131134,,0.5 C,0,131134,,255,128,192 F,0,131134,131634,1,0
Sprite,Background,Centre,"sb\glow.png",321,321 S,0,131152,,0.5 C,0,131152,,255,128,192 F,0,131152,131652,1,0
Sprite,Background,Centre,"sb\glow.png",322,341 S,0,131171,,0.5 C,0,131171,,255,128,192 F,0,131171,131671,1,0
Sprite,Background,Centre,"sb\glow.png",321,323 S,0,131190,,0.5 C,0,131190,,255,128,192 F,0,131190,131690,1,0
Sprite,Background,Centre,"sb\glow.png",319,303 S,0,131209,,0.5 C,0,131209,,255,128,192 F,0,131209,131709,1,0
Sprite,Background,Centre,"sb\glow.png",321,321 S,0,131227,,0.5 C,0,131227,,255,128,192 F,0,131227,131727,1,0
Sprite,Background,Centre,"sb\glow.png",322,341 S,0,131246,,0.5 C,0,131246,,255,128,192 F,0,131246,131746,1,0
Sprite,Background,Centre,"sb\glow.png",321,323 S,0,131265,,0.5 C,0,131265,,255,128,192 F,0,131265,131765,1,0
Sprite,Background,Centre,"sb\glow.png",319,303 S,0,131284,,0.5 C,0,131284,,255,128,192 F,0,131284,131784,1,0
Sprite,Background,Centre,"sb\glow.png",321,321 S,0,131302,,0.5 C,0,131302,,255,128,192 F,0,131302,131802,1,0
Sprite,Background,Centre,"sb\glow.png",322,341 S,0,131321,,0.5 C,0,131321,,255,128,192 F,0,131321,131821,1,0
Sprite,Background,Centre,"sb\glow.png",321,323 S,0,131340,,0.5 C,0,131340,,255,128,192 F,0,131340,131840,1,0
Sprite,Background,Centre,"sb\glow.png",319,303 S,0,131359,,0.5 C,0,131359,,255,128,192 F,0,131359,131859,1,0
Sprite,Background,Centre,"sb\glow.png",311,268 S,0,131377,,0.5 C,0,131377,,255,128,192 F,0,131377,131877,1,0
Sprite,Background,Centre,"sb\glow.png",303,237 S,0,131396,,0.5 C,0,131396,,255,128,192 F,0,131396,131896,1,0
Sprite,Background,Centre,"sb\glow.png",298,216 S,0,131415,,0.5 C,0,131415,,255,128,192 F,0,131415,131915,1,0
Sprite,Background,Centre,"sb\glow.png",296,208 S,0,131434,,0.5 C,0,131434,,255,128,192 F,0,131434,131934,1,0
Sprite,Background,Centre,"sb\glow.png",315,206 S,0,131452,,0.5 C,0,131452,,255,128,192 F,0,131452,131952,1,0
Sprite,Background,Centre,"sb\glow.png",335,207 S,0,131471,,0.5 C,0,131471,,255,128,192 F,0,131471,131971,1,0
Sprite,Background,Centre,"sb\glow.png",354,212 S,0,131490,,0.5 C,0,131490,,255,128,192 F,0,131490,131990,1,0
Sprite,Background,Centre,"sb\glow.png",372,221 S,0,131509,,0.5 C,0,131509,,255,128,192 F,0,131509,132009,1,0
Sprite,Background,Centre,"sb\glow.png",387,234 S,0,131527,,0.5 C,0,131527,,255,128,192 F,0,131527,132027,1,0
Sprite,Background,Centre,"sb\glow.png",400,249 S,0,131546,,0.5 C,0,131546,,255,128,192 F,0,131546,132046,1,0
Sprite,Background,Centre,"sb\glow.png",413,264 S,0,131565,,0.5 C,0,131565,,255,128,192 F,0,131565,132065,1,0
Sprite,Background,Centre,"sb\glow.png",428,277 S,0,131584,,0.5 C,0,131584,,255,128,192 F,0,131584,132084,1,0
Sprite,Background,Centre,"sb\glow.png",446,287 S,0,131602,,0.5 C,0,131602,,255,128,192 F,0,131602,132102,1,0
Sprite,Background,Centre,"sb\glow.png",465,292 S,0,131621,,0.5 C,0,131621,,255,128,192 F,0,131621,132121,1,0
Sprite,Background,Centre,"sb\glow.png",485,294 S,0,131640,,0.5 C,0,131640,,255,128,192 F,0,131640,132140,1,0
Sprite,Background,Centre,"sb\glow.png",505,292 S,0,131659,,0.5 C,0,131659,,255,128,192 F,0,131659,132159,1,0
Sprite,Background,Centre,"sb\glow.png",505,291 S,0,131677,,0.5 C,0,131677,,255,128,192 F,0,131677,132177,1,0
Sprite,Background,Centre,"sb\glow.png",505,291 S,0,131696,,0.5 C,0,131696,,255,128,192 F,0,131696,132196,1,0
Sprite,Background,Centre,"sb\glow.png",505,291 S,0,131715,,0.5 C,0,131715,,255,128,192 F,0,131715,132215,1,0
Sprite,Background,Centre,"sb\glow.png",505,291 S,0,131734,,0.5 C,0,131734,,255,128,192 F,0,131734,132234,1,0
Sprite,Background,Centre,"sb\glow.png",453,288 S,0,131752,,0.5 C,0,131752,,255,128,192 F,0,131752,132252,1,0
Sprite,Background,Centre,"sb\glow.png",401,285 S,0,131771,,0.5 C,0,131771,,255,128,192 F,0,131771,132271,1,0
Sprite,Background,Centre,"sb\glow.png",352,282 S,0,131790,,0.5 C,0,131790,,255,128,192 F,0,131790,132290,1,0
Sprite,Background,Centre,"sb\glow.png",310,279 S,0,131809,,0.5 C,0,131809,,255,128,192 F,0,131809,132309,1,0
Sprite,Background,Centre,"sb\glow.png",275,277 S,0,131827,,0.5 C,0,131827,,255,128,192 F,0,131827,132327,1,0
Sprite,Background,Centre,"sb\glow.png",248,275 S,0,131846,,0.5 C,0,131846,,255,128,192 F,0,131846,132346,1,0
Sprite,Background,Centre,"sb\glow.png",232,274 S,0,131865,,0.5 C,0,131865,,255,128,192 F,0,131865,132365,1,0
Sprite,Background,Centre,"sb\glow.png",226,274 S,0,131884,,0.5 C,0,131884,,255,128,192 F,0,131884,132384,1,0
Sprite,Background,Centre,"sb\glow.png",219,261 S,0,131902,,0.5 C,0,131902,,255,128,192 F,0,131902,132402,1,0
Sprite,Background,Centre,"sb\glow.png",212,250 S,0,131921,,0.5 C,0,131921,,255,128,192 F,0,131921,132421,1,0
Sprite,Background,Centre,"sb\glow.png",208,242 S,0,131940,,0.5 C,0,131940,,255,128,192 F,0,131940,132440,1,0
Sprite,Background,Centre,"sb\glow.png",206,239 S,0,131959,,0.5 C,0,131959,,255,128,192 F,0,131959,132459,1,0
Sprite,Background,Centre,"sb\glow.png",204,225 S,0,131977,,0.5 C,0,131977,,255,128,192 F,0,131977,132477,1,0
Sprite,Background,Centre,"sb\glow.png",203,212 S,0,131996,,0.5 C,0,131996,,255,128,192 F,0,131996,132496,1,0
Sprite,Background,Centre,"sb\glow.png",201,203 S,0,132015,,0.5 C,0,132015,,255,128,192 F,0,132015,132515,1,0
Sprite,Background,Centre,"sb\glow.png",201,200 S,0,132034,,0.5 C,0,132034,,255,128,192 F,0,132034,132534,1,0
Sprite,Background,Centre,"sb\glow.png",233,233 S,0,132052,,0.5 C,0,132052,,255,0,128 F,0,132052,132552,1,0
Sprite,Background,Centre,"sb\glow.png",266,267 S,0,132071,,0.5 C,0,132071,,255,0,128 F,0,132071,132571,1,0
Sprite,Background,Centre,"sb\glow.png",297,298 S,0,132090,,0.5 C,0,132090,,255,0,128 F,0,132090,132590,1,0
Sprite,Background,Centre,"sb\glow.png",323,326 S,0,132109,,0.5 C,0,132109,,255,0,128 F,0,132109,132609,1,0
Sprite,Background,Centre,"sb\glow.png",345,349 S,0,132127,,0.5 C,0,132127,,255,0,128 F,0,132127,132627,1,0
Sprite,Background,Centre,"sb\glow.png",362,366 S,0,132146,,0.5 C,0,132146,,255,0,128 F,0,132146,132646,1,0
Sprite,Background,Centre,"sb\glow.png",372,376 S,0,132165,,0.5 C,0,132165,,255,0,128 F,0,132165,132665,1,0
Sprite,Background,Centre,"sb\glow.png",376,380 S,0,132184,,0.5 C,0,132184,,255,0,128 F,0,132184,132684,1,0
Sprite,Background,Centre,"sb\glow.png",371,334 S,0,132202,,0.5 C,0,132202,,255,0,128 F,0,132202,132702,1,0
Sprite,Background,Centre,"sb\glow.png",366,287 S,0,132221,,0.5 C,0,132221,,255,0,128 F,0,132221,132721,1,0
Sprite,Background,Centre,"sb\glow.png",362,244 S,0,132240,,0.5 C,0,132240,,255,0,128 F,0,132240,132740,1,0
Sprite,Background,Centre,"sb\glow.png",358,206 S,0,132259,,0.5 C,0,132259,,255,0,128 F,0,132259,132759,1,0
Sprite,Background,Centre,"sb\glow.png",355,174 S,0,132277,,0.5 C,0,132277,,255,0,128 F,0,132277,132777,1,0
Sprite,Background,Centre,"sb\glow.png",352,151 S,0,132296,,0.5 C,0,132296,,255,0,128 F,0,132296,132796,1,0
Sprite,Background,Centre,"sb\glow.png",351,136 S,0,132315,,0.5 C,0,132315,,255,0,128 F,0,132315,132815,1,0
Sprite,Background,Centre,"sb\glow.png",350,131 S,0,132334,,0.5 C,0,132334,,255,0,128 F,0,132334,132834,1,0
Sprite,Background,Centre,"sb\glow.png",320,174 S,0,132352,,0.5 C,0,132352,,255,0,128 F,0,132352,132852,1,0
Sprite,Background,Centre,"sb\glow.png",290,217 S,0,132371,,0.5 C,0,132371,,255,0,128 F,0,132371,132871,1,0
Sprite,Background,Centre,"sb\glow.png",261,257 S,0,132390,,0.5 C,0,132390,,255,0,128 F,0,132390,132890,1,0
Sprite,Background,Centre,"sb\glow.png",237,293 S,0,132409,,0.5 C,0,132409,,255,0,128 F,0,132409,132909,1,0
Sprite,Background,Centre,"sb\glow.png",216,322 S,0,132427,,0.5 C,0,132427,,255,0,128 F,0,132427,132927,1,0
Sprite,Background,Centre,"sb\glow.png",201,343 S,0,132446,,0.5 C,0,132446,,255,0,128 F,0,132446,132946,1,0
Sprite,Background,Centre,"sb\glow.png",191,357 S,0,132465,,0.5 C,0,132465,,255,0,128 F,0,132465,132965,1,0
Sprite,Background,Centre,"sb\glow.png",188,362 S,0,132484,,0.5 C,0,132484,,255,0,128 F,0,132484,132984,1,0
Sprite,Background,Centre,"sb\glow.png",188,362 S,0,132502,,0.5 C,0,132502,,255,0,128 F,0,132502,133002,1,0
Sprite,Background,Centre,"sb\glow.png",188,362 S,0,132521,,0.5 C,0,132521,,255,0,128 F,0,132521,133021,1,0
Sprite,Background,Centre,"sb\glow.png",188,362 S,0,132540,,0.5 C,0,132540,,255,0,128 F,0,132540,133040,1,0
Sprite,Background,Centre,"sb\glow.png",188,362 S,0,132559,,0.5 C,0,132559,,255,0,128 F,0,132559,133059,1,0
Sprite,Background,Centre,"sb\glow.png",188,362 S,0,132577,,0.5 C,0,132577,,255,0,128 F,0,132577,133077,1,0
Sprite,Background,Centre,"sb\glow.png",188,362 S,0,132596,,0.5 C,0,132596,,255,0,128 F,0,132596,133096,1,0
Sprite,Background,Centre,"sb\glow.png",188,362 S,0,132615,,0.5 C,0,132615,,255,0,128 F,0,132615,133115,1,0
Sprite,Background,Centre,"sb\glow.png",188,362 S,0,132634,,0.5 C,0,132634,,255,0,128 F,0,132634,133134,1,0
Sprite,Background,Centre,"sb\glow.png",233,351 S,0,132652,,0.5 C,0,132652,,255,88,102 F,0,132652,133152,1,0
Sprite,Background,Centre,"sb\glow.png",278,340 S,0,132671,,0.5 C,0,132671,,255,88,102 F,0,132671,133171,1,0
Sprite,Background,Centre,"sb\glow.png",320,330 S,0,132690,,0.5 C,0,132690,,255,88,102 F,0,132690,133190,1,0
Sprite,Background,Centre,"sb\glow.png",357,321 S,0,132709,,0.5 C,0,132709,,255,88,102 F,0,132709,133209,1,0
Sprite,Background,Centre,"sb\glow.png",388,313 S,0,132727,,0.5 C,0,132727,,255,88,102 F,0,132727,133227,1,0
Sprite,Background,Centre,"sb\glow.png",411,308 S,0,132746,,0.5 C,0,132746,,255,88,102 F,0,132746,133246,1,0
Sprite,Background,Centre,"sb\glow.png",425,304 S,0,132765,,0.5 C,0,132765,,255,88,102 F,0,132765,133265,1,0
Sprite,Background,Centre,"sb\glow.png",430,303 S,0,132784,,0.5 C,0,132784,,255,88,102 F,0,132784,133284,1,0
Sprite,Background,Centre,"sb\glow.png",388,284 S,0,132802,,0.5 C,0,132802,,255,88,102 F,0,132802,133302,1,0
Sprite,Background,Centre,"sb\glow.png",345,265 S,0,132821,,0.5 C,0,132821,,255,88,102 F,0,132821,133321,1,0
Sprite,Background,Centre,"sb\glow.png",305,247 S,0,132840,,0.5 C,0,132840,,255,88,102 F,0,132840,133340,1,0
Sprite,Background,Centre,"sb\glow.png",270,231 S,0,132859,,0.5 C,0,132859,,255,88,102 F,0,132859,133359,1,0
Sprite,Background,Centre,"sb\glow.png",241,218 S,0,132877,,0.5 C,0,132877,,255,88,102 F,0,132877,133377,1,0
Sprite,Background,Centre,"sb\glow.png",219,208 S,0,132896,,0.5 C,0,132896,,255,88,102 F,0,132896,133396,1,0
Sprite,Background,Centre,"sb\glow.png",206,202 S,0,132915,,0.5 C,0,132915,,255,88,102 F,0,132915,133415,1,0
Sprite,Background,Centre,"sb\glow.png",201,200 S,0,132934,,0.5 C,0,132934,,255,88,102 F,0,132934,133434,1,0
Sprite,Background,Centre,"sb\glow.png",236,203 S,0,132952,,0.5 C,0,132952,,255,88,102 F,0,132952,133452,1,0
Sprite,Background,Centre,"sb\glow.png",272,207 S,0,132971,,0.5 C,0,132971,,255,88,102 F,0,132971,133471,1,0
Sprite,Background,Centre,"sb\glow.png",305,210 S,0,132990,,0.5 C,0,132990,,255,88,102 F,0,132990,133490,1,0
Sprite,Background,Centre,"sb\glow.png",334,213 S,0,133009,,0.5 C,0,133009,,255,88,102 F,0,133009,133509,1,0
Sprite,Background,Centre,"sb\glow.png",358,215 S,0,133027,,0.5 C,0,133027,,255,88,102 F,0,133027,133527,1,0
Sprite,Background,Centre,"sb\glow.png",376,217 S,0,133046,,0.5 C,0,133046,,255,88,102 F,0,133046,133546,1,0
Sprite,Background,Centre,"sb\glow.png",387,218 S,0,133065,,0.5 C,0,133065,,255,88,102 F,0,133065,133565,1,0
Sprite,Background,Centre,"sb\glow.png",391,218 S,0,133084,,0.5 C,0,133084,,255,88,102 F,0,133084,133584,1,0
Sprite,Background,Centre,"sb\glow.png",346,229 S,0,133102,,0.5 C,0,133102,,255,88,102 F,0,133102,133602,1,0
Sprite,Background,Centre,"sb\glow.png",301,240 S,0,133121,,0.5 C,0,133121,,255,88,102 F,0,133121,133621,1,0
Sprite,Background,Centre,"sb\glow.png",259,250 S,0,133140,,0.5 C,0,133140,,255,88,102 F,0,133140,133640,1,0
Sprite,Background,Centre,"sb\glow.png",222,259 S,0,133159,,0.5 C,0,133159,,255,88,102 F,0,133159,133659,1,0
Sprite,Background,Centre,"sb\glow.png",191,267 S,0,133177,,0.5 C,0,133177,,255,88,102 F,0,133177,133677,1,0
Sprite,Background,Centre,"sb\glow.png",168,272 S,0,133196,,0.5 C,0,133196,,255,88,102 F,0,133196,133696,1,0
Sprite,Background,Centre,"sb\glow.png",154,276 S,0,133215,,0.5 C,0,133215,,255,88,102 F,0,133215,133715,1,0
Sprite,Background,Centre,"sb\glow.png",149,277 S,0,133234,,0.5 C,0,133234,,255,88,102 F,0,133234,133734,1,0
Sprite,Background,Centre,"sb\glow.png",186,250 S,0,133252,,0.5 C,0,133252,,255,0,255 F,0,133252,133752,1,0
Sprite,Background,Centre,"sb\glow.png",224,223 S,0,133271,,0.5 C,0,133271,,255,0,255 F,0,133271,133771,1,0
Sprite,Background,Centre,"sb\glow.png",259,197 S,0,133290,,0.5 C,0,133290,,255,0,255 F,0,133290,133790,1,0
Sprite,Background,Centre,"sb\glow.png",290,175 S,0,133309,,0.5 C,0,133309,,255,0,255 F,0,133309,133809,1,0
Sprite,Background,Centre,"sb\glow.png",315,156 S,0,133327,,0.5 C,0,133327,,255,0,255 F,0,133327,133827,1,0
Sprite,Background,Centre,"sb\glow.png",334,143 S,0,133346,,0.5 C,0,133346,,255,0,255 F,0,133346,133846,1,0
Sprite,Background,Centre,"sb\glow.png",346,134 S,0,133365,,0.5 C,0,133365,,255,0,255 F,0,133365,133865,1,0
Sprite,Background,Centre,"sb\glow.png",350,131 S,0,133384,,0.5 C,0,133384,,255,0,255 F,0,133384,133884,1,0
Sprite,Background,Centre,"sb\glow.png",365,163 S,0,133402,,0.5 C,0,133402,,255,0,255 F,0,133402,133902,1,0
Sprite,Background,Centre,"sb\glow.png",380,195 S,0,133421,,0.5 C,0,133421,,255,0,255 F,0,133421,133921,1,0
Sprite,Background,Centre,"sb\glow.png",394,225 S,0,133440,,0.5 C,0,133440,,255,0,255 F,0,133440,133940,1,0
Sprite,Background,Centre,"sb\glow.png",406,251 S,0,133459,,0.5 C,0,133459,,255,0,255 F,0,133459,133959,1,0
Sprite,Background,Centre,"sb\glow.png",416,273 S,0,133477,,0.5 C,0,133477,,255,0,255 F,0,133477,133977,1,0
Sprite,Background,Centre,"sb\glow.png",424,289 S,0,133496,,0.5 C,0,133496,,255,0,255 F,0,133496,133996,1,0
Sprite,Background,Centre,"sb\glow.png",428,299 S,0,133515,,0.5 C,0,133515,,255,0,255 F,0,133515,134015,1,0
Sprite,Background,Centre,"sb\glow.png",430,303 S,0,133534,,0.5 C,0,133534,,255,0,255 F,0,133534,134034,1,0
Sprite,Background,Centre,"sb\glow.png",388,284 S,0,133552,,0.5 C,0,133552,,255,0,255 F,0,133552,134052,1,0
Sprite,Background,Centre,"sb\glow.png",345,265 S,0,133571,,0.5 C,0,133571,,255,0,255 F,0,133571,134071,1,0
Sprite,Background,Centre,"sb\glow.png",305,247 S,0,133590,,0.5 C,0,133590,,255,0,255 F,0,133590,134090,1,0
Sprite,Background,Centre,"sb\glow.png",270,231 S,0,133609,,0.5 C,0,133609,,255,0,255 F,0,133609,134109,1,0
Sprite,Background,Centre,"sb\glow.png",241,218 S,0,133627,,0.5 C,0,133627,,255,0,255 F,0,133627,134127,1,0
Sprite,Background,Centre,"sb\glow.png",219,208 S,0,133646,,0.5 C,0,133646,,255,0,255 F,0,133646,134146,1,0
Sprite,Background,Centre,"sb\glow.png",206,202 S,0,133665,,0.5 C,0,133665,,255,0,255 F,0,133665,134165,1,0
Sprite,Background,Centre,"sb\glow.png",201,200 S,0,133684,,0.5 C,0,133684,,255,0,255 F,0,133684,134184,1,0
Sprite,Background,Centre,"sb\glow.png",201,200 S,0,133702,,0.5 C,0,133702,,255,0,255 F,0,133702,134202,1,0
Sprite,Background,Centre,"sb\glow.png",201,200 S,0,133721,,0.5 C,0,133721,,255,0,255 F,0,133721,134221,1,0
Sprite,Background,Centre,"sb\glow.png",201,200 S,0,133740,,0.5 C,0,133740,,255,0,255 F,0,133740,134240,1,0
Sprite,Background,Centre,"sb\glow.png",201,200 S,0,133759,,0.5 C,0,133759,,255,0,255 F,0,133759,134259,1,0
Sprite,Background,Centre,"sb\glow.png",201,200 S,0,133777,,0.5 C,0,133777,,255,0,255 F,0,133777,134277,1,0
Sprite,Background,Centre,"sb\glow.png",201,200 S,0,133796,,0.5 C,0,133796,,255,0,255 F,0,133796,134296,1,0
Sprite,Background,Centre,"sb\glow.png",201,200 S,0,133815,,0.5 C,0,133815,,255,0,255 F,0,133815,134315,1,0
Sprite,Background,Centre,"sb\glow.png",201,200 S,0,133834,,0.5 C,0,133834,,255,0,255 F,0,133834,134334,1,0
Sprite,Background,Centre,"sb\glow.png",216,212 S,0,133852,,0.5 C,0,133852,,255,128,192 F,0,133852,134352,1,0
Sprite,Background,Centre,"sb\glow.png",228,227 S,0,133871,,0.5 C,0,133871,,255,128,192 F,0,133871,134371,1,0
Sprite,Background,Centre,"sb\glow.png",237,245 S,0,133890,,0.5 C,0,133890,,255,128,192 F,0,133890,134390,1,0
Sprite,Background,Centre,"sb\glow.png",242,264 S,0,133909,,0.5 C,0,133909,,255,128,192 F,0,133909,134409,1,0
Sprite,Background,Centre,"sb\glow.png",243,284 S,0,133927,,0.5 C,0,133927,,255,128,192 F,0,133927,134427,1,0
Sprite,Background,Centre,"sb\glow.png",239,304 S,0,133946,,0.5 C,0,133946,,255,128,192 F,0,133946,134446,1,0
Sprite,Background,Centre,"sb\glow.png",231,322 S,0,133965,,0.5 C,0,133965,,255,128,192 F,0,133965,134465,1,0
Sprite,Background,Centre,"sb\glow.png",220,338 S,0,133984,,0.5 C,0,133984,,255,128,192 F,0,133984,134484,1,0
Sprite,Background,Centre,"sb\glow.png",187,350 S,0,134002,,0.5 C,0,134002,,255,128,192 F,0,134002,134502,1,0
Sprite,Background,Centre,"sb\glow.png",157,359 S,0,134021,,0.5 C,0,134021,,255,128,192 F,0,134021,134521,1,0
Sprite,Background,Centre,"sb\glow.png",138,366 S,0,134040,,0.5 C,0,134040,,255,128,192 F,0,134040,134540,1,0
Sprite,Background,Centre,"sb\glow.png",130,368 S,0,134059,,0.5 C,0,134059,,255,128,192 F,0,134059,134559,1,0
Sprite,Background,Centre,"sb\glow.png",130,368 S,0,134077,,0.5 C,0,134077,,255,128,192 F,0,134077,134577,1,0
Sprite,Background,Centre,"sb\glow.png",130,368 S,0,134096,,0.5 C,0,134096,,255,128,192 F,0,134096,134596,1,0
Sprite,Background,Centre,"sb\glow.png",130,368 S,0,134115,,0.5 C,0,134115,,255,128,192 F,0,134115,134615,1,0
Sprite,Background,Centre,"sb\glow.png",130,368 S,0,134134,,0.5 C,0,134134,,255,128,192 F,0,134134,134634,1,0
Sprite,Background,Centre,"sb\glow.png",148,362 S,0,134152,,0.5 C,0,134152,,255,128,192 F,0,134152,134652,1,0
Sprite,Background,Centre,"sb\glow.png",167,359 S,0,134171,,0.5 C,0,134171,,255,128,192 F,0,134171,134671,1,0
Sprite,Background,Centre,"sb\glow.png",187,360 S,0,134190,,0.5 C,0,134190,,255,128,192 F,0,134190,134690,1,0
Sprite,Background,Centre,"sb\glow.png",206,365 S,0,134209,,0.5 C,0,134209,,255,128,192 F,0,134209,134709,1,0
Sprite,Background,Centre,"sb\glow.png",224,374 S,0,134227,,0.5 C,0,134227,,255,128,192 F,0,134227,134727,1,0
Sprite,Background,Centre,"sb\glow.png",239,388 S,0,134246,,0.5 C,0,134246,,255,128,192 F,0,134246,134746,1,0
Sprite,Background,Centre,"sb\glow.png",251,404 S,0,134265,,0.5 C,0,134265,,255,128,192 F,0,134265,134765,1,0
Sprite,Background,Centre,"sb\glow.png",259,422 S,0,134284,,0.5 C,0,134284,,255,128,192 F,0,134284,134784,1,0
Sprite,Background,Centre,"sb\glow.png",239,396 S,0,134302,,0.5 C,0,134302,,255,128,192 F,0,134302,134802,1,0
Sprite,Background,Centre,"sb\glow.png",218,368 S,0,134321,,0.5 C,0,134321,,255,128,192 F,0,134321,134821,1,0
Sprite,Background,Centre,"sb\glow.png",199,343 S,0,134340,,0.5 C,0,134340,,255,128,192 F,0,134340,134840,1,0
Sprite,Background,Centre,"sb\glow.png",182,321 S,0,134359,,0.5 C,0,134359,,255,128,192 F,0,134359,134859,1,0
Sprite,Background,Centre,"sb\glow.png",168,302 S,0,134377,,0.5 C,0,134377,,255,128,192 F,0,134377,134877,1,0
Sprite,Background,Centre,"sb\glow.png",158,289 S,0,134396,,0.5 C,0,134396,,255,128,192 F,0,134396,134896,1,0
Sprite,Background,Centre,"sb\glow.png",151,280 S,0,134415,,0.5 C,0,134415,,255,128,192 F,0,134415,134915,1,0
Sprite,Background,Centre,"sb\glow.png",149,277 S,0,134434,,0.5 C,0,134434,,255,128,192 F,0,134434,134934,1,0
Sprite,Background,Centre,"sb\glow.png",151,247 S,0,134452,,0.5 C,0,134452,,255,0,128 F,0,134452,134952,1,0
Sprite,Background,Centre,"sb\glow.png",153,216 S,0,134471,,0.5 C,0,134471,,255,0,128 F,0,134471,134971,1,0
Sprite,Background,Centre,"sb\glow.png",155,187 S,0,134490,,0.5 C,0,134490,,255,0,128 F,0,134490,134990,1,0
Sprite,Background,Centre,"sb\glow.png",157,162 S,0,134509,,0.5 C,0,134509,,255,0,128 F,0,134509,135009,1,0
Sprite,Background,Centre,"sb\glow.png",158,142 S,0,134527,,0.5 C,0,134527,,255,0,128 F,0,134527,135027,1,0
Sprite,Background,Centre,"sb\glow.png",159,126 S,0,134546,,0.5 C,0,134546,,255,0,128 F,0,134546,135046,1,0
Sprite,Background,Centre,"sb\glow.png",160,116 S,0,134565,,0.5 C,0,134565,,255,0,128 F,0,134565,135065,1,0
Sprite,Background,Centre,"sb\glow.png",160,113 S,0,134584,,0.5 C,0,134584,,255,0,128 F,0,134584,135084,1,0
Sprite,Background,Centre,"sb\glow.png",203,132 S,0,134602,,0.5 C,0,134602,,255,0,128 F,0,134602,135102,1,0
Sprite,Background,Centre,"sb\glow.png",246,152 S,0,134621,,0.5 C,0,134621,,255,0,128 F,0,134621,135121,1,0
Sprite,Background,Centre,"sb\glow.png",286,170 S,0,134640,,0.5 C,0,134640,,255,0,128 F,0,134640,135140,1,0
Sprite,Background,Centre,"sb\glow.png",322,186 S,0,134659,,0.5 C,0,134659,,255,0,128 F,0,134659,135159,1,0
Sprite,Background,Centre,"sb\glow.png",351,200 S,0,134677,,0.5 C,0,134677,,255,0,128 F,0,134677,135177,1,0
Sprite,Background,Centre,"sb\glow.png",372,210 S,0,134696,,0.5 C,0,134696,,255,0,128 F,0,134696,135196,1,0
Sprite,Background,Centre,"sb\glow.png",386,216 S,0,134715,,0.5 C,0,134715,,255,0,128 F,0,134715,135215,1,0
Sprite,Background,Centre,"sb\glow.png",391,218 S,0,134734,,0.5 C,0,134734,,255,0,128 F,0,134734,135234,1,0
Sprite,Background,Centre,"sb\glow.png",356,215 S,0,134752,,0.5 C,0,134752,,255,0,128 F,0,134752,135252,1,0
Sprite,Background,Centre,"sb\glow.png",320,211 S,0,134771,,0.5 C,0,134771,,255,0,128 F,0,134771,135271,1,0
Sprite,Background,Centre,"sb\glow.png",287,208 S,0,134790,,0.5 C,0,134790,,255,0,128 F,0,134790,135290,1,0
Sprite,Background,Centre,"sb\glow.png",258,205 S,0,134809,,0.5 C,0,134809,,255,0,128 F,0,134809,135309,1,0
Sprite,Background,Centre,"sb\glow.png",234,203 S,0,134827,,0.5 C,0,134827,,255,0,128 F,0,134827,135327,1,0
Sprite,Background,Centre,"sb\glow.png",216,201 S,0,134846,,0.5 C,0,134846,,255,0,128 F,0,134846,135346,1,0
Sprite,Background,Centre,"sb\glow.png",205,200 S,0,134865,,0.5 C,0,134865,,255,0,128 F,0,134865,135365,1,0
Sprite,Background,Centre,"sb\glow.png",201,200 S,0,134884,,0.5 C,0,134884,,255,0,128 F,0,134884,135384,1,0
Sprite,Background,Centre,"sb\glow.png",229,187 S,0,134902,,0.5 C,0,134902,,255,0,128 F,0,134902,135402,1,0
Sprite,Background,Centre,"sb\glow.png",257,174 S,0,134921,,0.5 C,0,134921,,255,0,128 F,0,134921,135421,1,0
Sprite,Background,Centre,"sb\glow.png",282,162 S,0,134940,,0.5 C,0,134940,,255,0,128 F,0,134940,135440,1,0
Sprite,Background,Centre,"sb\glow.png",305,152 S,0,134959,,0.5 C,0,134959,,255,0,128 F,0,134959,135459,1,0
Sprite,Background,Centre,"sb\glow.png",324,143 S,0,134977,,0.5 C,0,134977,,255,0,128 F,0,134977,135477,1,0
Sprite,Background,Centre,"sb\glow.png",338,137 S,0,134996,,0.5 C,0,134996,,255,0,128 F,0,134996,135496,1,0
Sprite,Background,Centre,"sb\glow.png",347,132 S,0,135015,,0.5 C,0,135015,,255,0,128 F,0,135015,135515,1,0
Sprite,Background,Centre,"sb\glow.png",350,131 S,0,135034,,0.5 C,0,135034,,255,0,128 F,0,135034,135534,1,0
Sprite,Background,Centre,"sb\glow.png",355,177 S,0,135052,,0.5 C,0,135052,,255,88,102 F,0,135052,135552,1,0
Sprite,Background,Centre,"sb\glow.png",360,224 S,0,135071,,0.5 C,0,135071,,255,88,102 F,0,135071,135571,1,0
Sprite,Background,Centre,"sb\glow.png",364,267 S,0,135090,,0.5 C,0,135090,,255,88,102 F,0,135090,135590,1,0
Sprite,Background,Centre,"sb\glow.png",368,305 S,0,135109,,0.5 C,0,135109,,255,88,102 F,0,135109,135609,1,0
Sprite,Background,Centre,"sb\glow.png",371,337 S,0,135127,,0.5 C,0,135127,,255,88,102 F,0,135127,135627,1,0
Sprite,Background,Centre,"sb\glow.png",374,360 S,0,135146,,0.5 C,0,135146,,255,88,102 F,0,135146,135646,1,0
Sprite,Background,Centre,"sb\glow.png",375,375 S,0,135165,,0.5 C,0,135165,,255,88,102 F,0,135165,135665,1,0
Sprite,Background,Centre,"sb\glow.png",376,380 S,0,135184,,0.5 C,0,135184,,255,88,102 F,0,135184,135684,1,0
Sprite,Background,Centre,"sb\glow.png",336,331 S,0,135202,,0.5 C,0,135202,,255,88,102 F,0,135202,135702,1,0
Sprite,Background,Centre,"sb\glow.png",295,280 S,0,135221,,0.5 C,0,135221,,255,88,102 F,0,135221,135721,1,0
Sprite,Background,Centre,"sb\glow.png",258,234 S,0,135240,,0.5 C,0,135240,,255,88,102 F,0,135240,135740,1,0
Sprite,Background,Centre,"sb\glow.png",225,193 S,0,135259,,0.5 C,0,135259,,255,88,102 F,0,135259,135759,1,0
Sprite,Background,Centre,"sb\glow.png",198,160 S,0,135277,,0.5 C,0,135277,,255,88,102 F,0,135277,135777,1,0
Sprite,Background,Centre,"sb\glow.png",177,134 S,0,135296,,0.5 C,0,135296,,255,88,102 F,0,135296,135796,1,0
Sprite,Background,Centre,"sb\glow.png",165,119 S,0,135315,,0.5 C,0,135315,,255,88,102 F,0,135315,135815,1,0
Sprite,Background,Centre,"sb\glow.png",160,113 S,0,135334,,0.5 C,0,135334,,255,88,102 F,0,135334,135834,1,0
Sprite,Background,Centre,"sb\glow.png",154,160 S,0,135352,,0.5 C,0,135352,,255,88,102 F,0,135352,135852,1,0
Sprite,Background,Centre,"sb\glow.png",149,208 S,0,135371,,0.5 C,0,135371,,255,88,102 F,0,135371,135871,1,0
Sprite,Background,Centre,"sb\glow.png",144,252 S,0,135390,,0.5 C,0,135390,,255,88,102 F,0,135390,135890,1,0
Sprite,Background,Centre,"sb\glow.png",139,291 S,0,135409,,0.5 C,0,135409,,255,88,102 F,0,135409,135909,1,0
Sprite,Background,Centre,"sb\glow.png",135,324 S,0,135427,,0.5 C,0,135427,,255,88,102 F,0,135427,135927,1,0
Sprite,Background,Centre,"sb\glow.png",132,348 S,0,135446,,0.5 C,0,135446,,255,88,102 F,0,135446,135946,1,0
Sprite,Background,Centre,"sb\glow.png",131,363 S,0,135465,,0.5 C,0,135465,,255,88,102 F,0,135465,135965,1,0
Sprite,Background,Centre,"sb\glow.png",130,368 S,0,135484,,0.5 C,0,135484,,255,88,102 F,0,135484,135984,1,0
Sprite,Background,Centre,"sb\glow.png",178,340 S,0,135502,,0.5 C,0,135502,,255,88,102 F,0,135502,136002,1,0
Sprite,Background,Centre,"sb\glow.png",227,312 S,0,135521,,0.5 C,0,135521,,255,88,102 F,0,135521,136021,1,0
Sprite,Background,Centre,"sb\glow.png",273,286 S,0,135540,,0.5 C,0,135540,,255,88,102 F,0,135540,136040,1,0
Sprite,Background,Centre,"sb\glow.png",313,263 S,0,135559,,0.5 C,0,135559,,255,88,102 F,0,135559,136059,1,0
Sprite,Background,Centre,"sb\glow.png",345,244 S,0,135577,,0.5 C,0,135577,,255,88,102 F,0,135577,136077,1,0
Sprite,Background,Centre,"sb\glow.png",370,230 S,0,135596,,0.5 C,0,135596,,255,88,102 F,0,135596,136096,1,0
Sprite,Background,Centre,"sb\glow.png",385,221 S,0,135615,,0.5 C,0,135615,,255,88,102 F,0,135615,136115,1,0
Sprite,Background,Centre,"sb\glow.png",391,218 S,0,135634,,0.5 C,0,135634,,255,88,102 F,0,135634,136134,1,0
Sprite,Background,Centre,"sb\glow.png",407,200 S,0,135652,,0.5 C,0,135652,,255,0,255 F,0,135652,136152,1,0
Sprite,Background,Centre,"sb\glow.png",427,186 S,0,135671,,0.5 C,0,135671,,255,0,255 F,0,135671,136171,1,0
Sprite,Background,Centre,"sb\glow.png",450,178 S,0,135690,,0.5 C,0,135690,,255,0,255 F,0,135690,136190,1,0
Sprite,Background,Centre,"sb\glow.png",475,177 S,0,135709,,0.5 C,0,135709,,255,0,255 F,0,135709,136209,1,0
Sprite,Background,Centre,"sb\glow.png",500,182 S,0,135727,,0.5 C,0,135727,,255,0,255 F,0,135727,136227,1,0
Sprite,Background,Centre,"sb\glow.png",513,189 S,0,135746,,0.5 C,0,135746,,255,0,255 F,0,135746,136246,1,0
Sprite,Background,Centre,"sb\glow.png",490,194 S,0,135765,,0.5 C,0,135765,,255,0,255 F,0,135765,136265,1,0
Sprite,Background,Centre,"sb\glow.png",468,204 S,0,135784,,0.5 C,0,135784,,255,0,255 F,0,135784,136284,1,0
Sprite,Background,Centre,"sb\glow.png",419,237 S,0,135802,,0.5 C,0,135802,,255,0,255 F,0,135802,136302,1,0
Sprite,Background,Centre,"sb\glow.png",376,266 S,0,135821,,0.5 C,0,135821,,255,0,255 F,0,135821,136321,1,0
Sprite,Background,Centre,"sb\glow.png",347,286 S,0,135840,,0.5 C,0,135840,,255,0,255 F,0,135840,136340,1,0
Sprite,Background,Centre,"sb\glow.png",336,294 S,0,135859,,0.5 C,0,135859,,255,0,255 F,0,135859,136359,1,0
Sprite,Background,Centre,"sb\glow.png",320,276 S,0,135877,,0.5 C,0,135877,,255,0,255 F,0,135877,136377,1,0
Sprite,Background,Centre,"sb\glow.png",300,262 S,0,135896,,0.5 C,0,135896,,255,0,255 F,0,135896,136396,1,0
Sprite,Background,Centre,"sb\glow.png",277,254 S,0,135915,,0.5 C,0,135915,,255,0,255 F,0,135915,136415,1,0
Sprite,Background,Centre,"sb\glow.png",252,253 S,0,135934,,0.5 C,0,135934,,255,0,255 F,0,135934,136434,1,0
Sprite,Background,Centre,"sb\glow.png",227,258 S,0,135952,,0.5 C,0,135952,,255,0,255 F,0,135952,136452,1,0
Sprite,Background,Centre,"sb\glow.png",214,265 S,0,135971,,0.5 C,0,135971,,255,0,255 F,0,135971,136471,1,0
Sprite,Background,Centre,"sb\glow.png",237,270 S,0,135990,,0.5 C,0,135990,,255,0,255 F,0,135990,136490,1,0
Sprite,Background,Centre,"sb\glow.png",259,280 S,0,136009,,0.5 C,0,136009,,255,0,255 F,0,136009,136509,1,0
Sprite,Background,Centre,"sb\glow.png",302,317 S,0,136027,,0.5 C,0,136027,,255,0,255 F,0,136027,136527,1,0
Sprite,Background,Centre,"sb\glow.png",340,349 S,0,136046,,0.5 C,0,136046,,255,0,255 F,0,136046,136546,1,0
Sprite,Background,Centre,"sb\glow.png",366,372 S,0,136065,,0.5 C,0,136065,,255,0,255 F,0,136065,136565,1,0
Sprite,Background,Centre,"sb\glow.png",376,380 S,0,136084,,0.5 C,0,136084,,255,0,255 F,0,136084,136584,1,0
Sprite,Background,Centre,"sb\glow.png",396,368 S,0,136102,,0.5 C,0,136102,,255,0,255 F,0,136102,136602,1,0
Sprite,Background,Centre,"sb\glow.png",413,350 S,0,136121,,0.5 C,0,136121,,255,0,255 F,0,136121,136621,1,0
Sprite,Background,Centre,"sb\glow.png",425,328 S,0,136140,,0.5 C,0,136140,,255,0,255 F,0,136140,136640,1,0
Sprite,Background,Centre,"sb\glow.png",431,304 S,0,136159,,0.5 C,0,136159,,255,0,255 F,0,136159,136659,1,0
Sprite,Background,Centre,"sb\glow.png",388,252 S,0,136177,,0.5 C,0,136177,,255,0,255 F,0,136177,136677,1,0
Sprite,Background,Centre,"sb\glow.png",349,206 S,0,136196,,0.5 C,0,136196,,255,0,255 F,0,136196,136696,1,0
Sprite,Background,Centre,"sb\glow.png",322,175 S,0,136215,,0.5 C,0,136215,,255,0,255 F,0,136215,136715,1,0
Sprite,Background,Centre,"sb\glow.png",312,163 S,0,136234,,0.5 C,0,136234,,255,0,255 F,0,136234,136734,1,0
Sprite,Background,Centre,"sb\glow.png",294,214 S,0,136252,,0.5 C,0,136252,,255,128,192 F,0,136252,136752,1,0
Sprite,Background,Centre,"sb\glow.png",277,266 S,0,136271,,0.5 C,0,136271,,255,128,192 F,0,136271,136771,1,0
Sprite,Background,Centre,"sb\glow.png",260,314 S,0,136290,,0.5 C,0,136290,,255,128,192 F,0,136290,136790,1,0
Sprite,Background,Centre,"sb\glow.png",246,357 S,0,136309,,0.5 C,0,136309,,255,128,192 F,0,136309,136809,1,0
Sprite,Background,Centre,"sb\glow.png",234,392 S,0,136327,,0.5 C,0,136327,,255,128,192 F,0,136327,136827,1,0
Sprite,Background,Centre,"sb\glow.png",225,418 S,0,136346,,0.5 C,0,136346,,255,128,192 F,0,136346,136846,1,0 C,0,136835,,0,0,0
Sprite,Background,Centre,"sb\glow.png",219,434 S,0,136365,,0.5 C,0,136365,,255,128,192 F,0,136365,136865,1,0 C,0,136835,,0,0,0
Sprite,Background,Centre,"sb\glow.png",217,440 S,0,136384,,0.5 C,0,136384,,255,128,192 F,0,136384,136884,1,0 C,0,136835,,0,0,0
Sprite,Background,Centre,"sb\glow.png",215,425 S,0,136402,,0.5 C,0,136402,,255,128,192 F,0,136402,136902,1,0 C,0,136835,,0,0,0
Sprite,Background,Centre,"sb\glow.png",214,412 S,0,136421,,0.5 C,0,136421,,255,128,192 F,0,136421,136921,1,0 C,0,136835,,0,0,0
Sprite,Background,Centre,"sb\glow.png",212,403 S,0,136440,,0.5 C,0,136440,,255,128,192 F,0,136440,136940,1,0 C,0,136835,,0,0,0
Sprite,Background,Centre,"sb\glow.png",212,400 S,0,136459,,0.5 C,0,136459,,255,128,192 F,0,136459,136959,1,0 C,0,136835,,0,0,0
Sprite,Background,Centre,"sb\glow.png",211,385 S,0,136477,,0.5 C,0,136477,,255,128,192 F,0,136477,136977,1,0 C,0,136835,,0,0,0
Sprite,Background,Centre,"sb\glow.png",209,372 S,0,136496,,0.5 C,0,136496,,255,128,192 F,0,136496,136996,1,0 C,0,136835,,0,0,0
Sprite,Background,Centre,"sb\glow.png",208,363 S,0,136515,,0.5 C,0,136515,,255,128,192 F,0,136515,137015,1,0 C,0,136835,,0,0,0
Sprite,Background,Centre,"sb\glow.png",208,360 S,0,136534,,0.5 C,0,136534,,255,128,192 F,0,136534,137034,1,0 C,0,136835,,0,0,0
Sprite,Background,Centre,"sb\glow.png",251,335 S,0,136552,,0.5 C,0,136552,,255,128,192 F,0,136552,137052,1,0 C,0,136835,,0,0,0
Sprite,Background,Centre,"sb\glow.png",294,309 S,0,136571,,0.5 C,0,136571,,255,128,192 F,0,136571,137071,1,0 C,0,136835,,0,0,0
Sprite,Background,Centre,"sb\glow.png",334,285 S,0,136590,,0.5 C,0,136590,,255,128,192 F,0,136590,137090,1,0 C,0,136835,,0,0,0
Sprite,Background,Centre,"sb\glow.png",370,264 S,0,136609,,0.5 C,0,136609,,255,128,192 F,0,136609,137109,1,0 C,0,136835,,0,0,0
Sprite,Background,Centre,"sb\glow.png",399,247 S,0,136627,,0.5 C,0,136627,,255,128,192 F,0,136627,137127,1,0 C,0,136835,,0,0,0
Sprite,Background,Centre,"sb\glow.png",420,234 S,0,136646,,0.5 C,0,136646,,255,128,192 F,0,136646,137146,1,0 C,0,136835,,0,0,0
Sprite,Background,Centre,"sb\glow.png",434,226 S,0,136665,,0.5 C,0,136665,,255,128,192 F,0,136665,137165,1,0 C,0,136835,,0,0,0
Sprite,Background,Centre,"sb\glow.png",439,223 S,0,136684,,0.5 C,0,136684,,255,128,192 F,0,136684,137184,1,0 C,0,136835,,0,0,0
Sprite,Background,Centre,"sb\glow.png",437,242 S,0,136702,,0.5 C,0,136702,,255,128,192 F,0,136702,137202,1,0 C,0,136835,,0,0,0
Sprite,Background,Centre,"sb\glow.png",435,262 S,0,136721,,0.5 C,0,136721,,255,128,192 F,0,136721,137221,1,0 C,0,136835,,0,0,0
Sprite,Background,Centre,"sb\glow.png",433,282 S,0,136740,,0.5 C,0,136740,,255,128,192 F,0,136740,137240,1,0 C,0,136835,,0,0,0
Sprite,Background,Centre,"sb\glow.png",431,302 S,0,136759,,0.5 C,0,136759,,255,128,192 F,0,136759,137259,1,0 C,0,136835,,0,0,0
Sprite,Background,Centre,"sb\glow.png",427,337 S,0,136777,,0.5 C,0,136777,,255,128,192 F,0,136777,137277,1,0 C,0,136835,,0,0,0
Sprite,Background,Centre,"sb\glow.png",424,369 S,0,136796,,0.5 C,0,136796,,255,128,192 F,0,136796,137296,1,0 C,0,136835,,0,0,0
Sprite,Background,Centre,"sb\glow.png",422,390 S,0,136815,,0.5 C,0,136815,,255,128,192 F,0,136815,137315,1,0 C,0,136835,,0,0,0
Sprite,Background,Centre,"sb\glow.png",421,398 S,0,136834,,0.5 C,0,136834,,255,128,192 F,0,136834,137334,1,0 C,0,136835,,0,0,0
//Storyboard Layer 1 (Fail)
//Storyboard Layer 2 (Pass)
//Storyboard Layer 3 (Foreground)
Sprite,Foreground,Centre,"SB\Pixel.jpg",0,0 F,0,15635,,0.3674484 S,0,15635,,12 M,19,15635,16334,81,343,144,396 M,18,16334,16834,144,396,93,214
Sprite,Foreground,Centre,"SB\Pixel.jpg",0,0 F,0,15635,,0.4932649 S,0,15635,,12 M,19,15635,16334,81,343,162,331 M,18,16334,16834,162,331,93,214
Sprite,Foreground,Centre,"SB\Pixel.jpg",0,0 F,0,15635,,0.3408536 S,0,15635,,19 M,19,15635,16334,81,343,74,369 M,18,16334,16834,74,369,93,214
Sprite,Foreground,Centre,"SB\Pixel.jpg",0,0 F,0,15635,,0.4031543 S,0,15635,,13 M,19,15635,16334,81,343,153,442 M,18,16334,16834,153,442,93,214
Sprite,Foreground,Centre,"SB\Pixel.jpg",0,0 F,0,15635,,0.2097876 S,0,15635,,16 M,19,15635,16334,81,343,150,441 M,18,16334,16834,150,441,93,214
Sprite,Foreground,Centre,"SB\Pixel.jpg",0,0 F,0,15635,,0.3640446 S,0,15635,,10 M,19,15635,16334,81,343,167,380 M,18,16334,16834,167,380,93,214
Sprite,Foreground,Centre,"SB\Pixel.jpg",0,0 F,0,15635,,0.4965631 S,0,15635,,16 M,19,15635,16334,81,343,71,302 M,18,16334,16834,71,302,93,214
Sprite,Foreground,Centre,"SB\Pixel.jpg",0,0 F,0,15635,,0.3029425 S,0,15635,,19 M,19,15635,16334,81,343,-13,319 M,18,16334,16834,-13,319,93,214
Sprite,Foreground,Centre,"SB\Pixel.jpg",0,0 F,0,15635,,0.2820354 S,0,15635,,19 M,19,15635,16334,81,343,124,266 M,18,16334,16834,124,266,93,214
Sprite,Foreground,Centre,"SB\Pixel.jpg",0,0 F,0,15635,,0.2440475 S,0,15635,,12 M,19,15635,16334,81,343,48,334 M,18,16334,16834,48,334,93,214
Sprite,Foreground,Centre,"SB\Pixel.jpg",0,0 F,0,15635,,0.3463904 S,0,15635,,11 M,19,15635,16334,81,343,124,366 M,18,16334,16834,124,366,93,214
Sprite,Foreground,Centre,"SB\Pixel.jpg",0,0 F,0,15635,,0.4574658 S,0,15635,,16 M,19,15635,16334,81,343,146,390 M,18,16334,16834,146,390,93,214
Sprite,Foreground,Centre,"SB\Pixel.jpg",0,0 F,0,15635,,0.4689319 S,0,15635,,10 M,19,15635,16334,81,343,24,422 M,18,16334,16834,24,422,93,214
Sprite,Foreground,Centre,"SB\Pixel.jpg",0,0 F,0,15635,,0.4480443 S,0,15635,,12 M,19,15635,16334,81,343,15,371 M,18,16334,16834,15,371,93,214
Sprite,Foreground,Centre,"SB\Pixel.jpg",0,0 F,0,15635,,0.4159178 S,0,15635,,18 M,19,15635,16334,81,343,77,373 M,18,16334,16834,77,373,93,214
Sprite,Foreground,Centre,"SB\Pixel.jpg",0,0 F,0,15635,,0.2376582 S,0,15635,,19 M,19,15635,16334,81,343,126,386 M,18,16334,16834,126,386,93,214
Sprite,Foreground,Centre,"SB\Pixel.jpg",0,0 F,0,15635,,0.2976502 S,0,15635,,16 M,19,15635,16334,81,343,76,351 M,18,16334,16834,76,351,93,214
Sprite,Foreground,Centre,"SB\Pixel.jpg",0,0 F,0,15635,,0.4380891 S,0,15635,,17 M,19,15635,16334,81,343,147,404 M,18,16334,16834,147,404,93,214
Sprite,Foreground,Centre,"SB\Pixel.jpg",0,0 F,0,15635,,0.3990178 S,0,15635,,13 M,19,15635,16334,81,343,39,347 M,18,16334,16834,39,347,93,214
Sprite,Foreground,Centre,"SB\Pixel.jpg",0,0 F,0,15635,,0.2560615 S,0,15635,,10 M,19,15635,16334,81,343,145,287 M,18,16334,16834,145,287,93,214
Sprite,Foreground,Centre,"SB\Pixel.jpg",0,0 F,0,15635,,0.4782912 S,0,15635,,12 M,19,15635,16334,81,343,119,369 M,18,16334,16834,119,369,93,214
Sprite,Foreground,Centre,"SB\Pixel.jpg",0,0 F,0,15635,,0.4035516 S,0,15635,,10 M,19,15635,16334,81,343,-6,423 M,18,16334,16834,-6,423,93,214
Sprite,Foreground,Centre,"SB\Pixel.jpg",0,0 F,0,15635,,0.4859129 S,0,15635,,14 M,19,15635,16334,81,343,2,364 M,18,16334,16834,2,364,93,214
Sprite,Foreground,Centre,"SB\Pixel.jpg",0,0 F,0,15635,,0.267621 S,0,15635,,16 M,19,15635,16334,81,343,116,356 M,18,16334,16834,116,356,93,214
Sprite,Foreground,Centre,"SB\Pixel.jpg",0,0 F,0,15635,,0.2186925 S,0,15635,,12 M,19,15635,16334,81,343,53,413 M,18,16334,16834,53,413,93,214
Sprite,Foreground,Centre,"SB\Pixel.jpg",0,0 F,0,15635,,0.3161411 S,0,15635,,15 M,19,15635,16334,81,343,172,440 M,18,16334,16834,172,440,93,214
Sprite,Foreground,Centre,"SB\Pixel.jpg",0,0 F,0,15635,,0.2171025 S,0,15635,,12 M,19,15635,16334,81,343,82,349 M,18,16334,16834,82,349,93,214
Sprite,Foreground,Centre,"SB\Pixel.jpg",0,0 F,0,15635,,0.2312476 S,0,15635,,17 M,19,15635,16334,81,343,150,365 M,18,16334,16834,150,365,93,214
Sprite,Foreground,Centre,"SB\Pixel.jpg",0,0 F,0,15635,,0.4098957 S,0,15635,,16 M,19,15635,16334,81,343,167,269 M,18,16334,16834,167,269,93,214
Sprite,Foreground,Centre,"SB\Pixel.jpg",0,0 F,0,15635,,0.2518303 S,0,15635,,11 M,19,15635,16334,81,343,118,356 M,18,16334,16834,118,356,93,214
Sprite,Foreground,Centre,"SB\Pixel.jpg",0,0 F,0,15635,,0.3706068 S,0,15635,,10 M,19,15635,16334,81,343,31,442 M,18,16334,16834,31,442,93,214
Sprite,Foreground,Centre,"SB\Pixel.jpg",0,0 F,0,15635,,0.393797 S,0,15635,,15 M,19,15635,16334,81,343,149,356 M,18,16334,16834,149,356,93,214
Sprite,Foreground,Centre,"SB\Pixel.jpg",0,0 F,0,15635,,0.2467296 S,0,15635,,18 M,19,15635,16334,81,343,-4,345 M,18,16334,16834,-4,345,93,214
Sprite,Foreground,Centre,"SB\Pixel.jpg",0,0 F,0,15635,,0.4017467 S,0,15635,,19 M,19,15635,16334,81,343,96,353 M,18,16334,16834,96,353,93,214
Sprite,Foreground,Centre,"SB\Pixel.jpg",0,0 F,0,15635,,0.3449222 S,0,15635,,12 M,19,15635,16334,81,343,-7,336 M,18,16334,16834,-7,336,93,214
Sprite,Foreground,Centre,"SB\Pixel.jpg",0,0 F,0,20434,,0.3166514 S,0,20434,,18 M,19,20434,21135,426,360,416,263 M,18,21135,21635,416,263,196,252
Sprite,Foreground,Centre,"SB\Pixel.jpg",0,0 F,0,20434,,0.3528384 S,0,20434,,19 M,19,20434,21135,426,360,508,265 M,18,21135,21635,508,265,196,252
Sprite,Foreground,Centre,"SB\Pixel.jpg",0,0 F,0,20434,,0.2834989 S,0,20434,,19 M,19,20434,21135,426,360,329,390 M,18,21135,21635,329,390,196,252
Sprite,Foreground,Centre,"SB\Pixel.jpg",0,0 F,0,20434,,0.3261276 S,0,20434,,19 M,19,20434,21135,426,360,480,324 M,18,21135,21635,480,324,196,252
Sprite,Foreground,Centre,"SB\Pixel.jpg",0,0 F,0,20434,,0.2396794 S,0,20434,,18 M,19,20434,21135,426,360,520,311 M,18,21135,21635,520,311,196,252
Sprite,Foreground,Centre,"SB\Pixel.jpg",0,0 F,0,20434,,0.4355136 S,0,20434,,15 M,19,20434,21135,426,360,502,368 M,18,21135,21635,502,368,196,252
Sprite,Foreground,Centre,"SB\Pixel.jpg",0,0 F,0,20434,,0.4075182 S,0,20434,,11 M,19,20434,21135,426,360,524,266 M,18,21135,21635,524,266,196,252
Sprite,Foreground,Centre,"SB\Pixel.jpg",0,0 F,0,20434,,0.2784993 S,0,20434,,13 M,19,20434,21135,426,360,425,376 M,18,21135,21635,425,376,196,252
Sprite,Foreground,Centre,"SB\Pixel.jpg",0,0 F,0,20434,,0.3837511 S,0,20434,,15 M,19,20434,21135,426,360,482,286 M,18,21135,21635,482,286,196,252
Sprite,Foreground,Centre,"SB\Pixel.jpg",0,0 F,0,20434,,0.2291858 S,0,20434,,18 M,19,20434,21135,426,360,394,264 M,18,21135,21635,394,264,196,252
Sprite,Foreground,Centre,"SB\Pixel.jpg",0,0 F,0,20434,,0.2765923 S,0,20434,,12 M,19,20434,21135,426,360,504,390 M,18,21135,21635,504,390,196,252
Sprite,Foreground,Centre,"SB\Pixel.jpg",0,0 F,0,20434,,0.3474754 S,0,20434,,16 M,19,20434,21135,426,360,365,437 M,18,21135,21635,365,437,196,252
Sprite,Foreground,Centre,"SB\Pixel.jpg",0,0 F,0,20434,,0.4986262 S,0,20434,,16 M,19,20434,21135,426,360,399,308 M,18,21135,21635,399,308,196,252
Sprite,Foreground,Centre,"SB\Pixel.jpg",0,0 F,0,20434,,0.247143 S,0,20434,,17 M,19,20434,21135,426,360,522,452 M,18,21135,21635,522,452,196,252
Sprite,Foreground,Centre,"SB\Pixel.jpg",0,0 F,0,20434,,0.2330186 S,0,20434,,17 M,19,20434,21135,426,360,364,272 M,18,21135,21635,364,272,196,252
Sprite,Foreground,Centre,"SB\Pixel.jpg",0,0 F,0,20434,,0.3718924 S,0,20434,,12 M,19,20434,21135,426,360,493,388 M,18,21135,21635,493,388,196,252
Sprite,Foreground,Centre,"SB\Pixel.jpg",0,0 F,0,20434,,0.4721404 S,0,20434,,18 M,19,20434,21135,426,360,497,349 M,18,21135,21635,497,349,196,252
Sprite,Foreground,Centre,"SB\Pixel.jpg",0,0 F,0,20434,,0.3280683 S,0,20434,,16 M,19,20434,21135,426,360,394,415 M,18,21135,21635,394,415,196,252
Sprite,Foreground,Centre,"SB\Pixel.jpg",0,0 F,0,20434,,0.3871523 S,0,20434,,19 M,19,20434,21135,426,360,447,277 M,18,21135,21635,447,277,196,252
Sprite,Foreground,Centre,"SB\Pixel.jpg",0,0 F,0,20434,,0.2005993 S,0,20434,,15 M,19,20434,21135,426,360,433,287 M,18,21135,21635,433,287,196,252
Sprite,Foreground,Centre,"SB\Pixel.jpg",0,0 F,0,20434,,0.2975087 S,0,20434,,17 M,19,20434,21135,426,360,401,433 M,18,21135,21635,401,433,196,252
Sprite,Foreground,Centre,"SB\Pixel.jpg",0,0 F,0,20434,,0.3567532 S,0,20434,,11 M,19,20434,21135,426,360,491,368 M,18,21135,21635,491,368,196,252
Sprite,Foreground,Centre,"SB\Pixel.jpg",0,0 F,0,20434,,0.2749852 S,0,20434,,18 M,19,20434,21135,426,360,436,322 M,18,21135,21635,436,322,196,252
Sprite,Foreground,Centre,"SB\Pixel.jpg",0,0 F,0,20434,,0.2576757 S,0,20434,,11 M,19,20434,21135,426,360,510,327 M,18,21135,21635,510,327,196,252
Sprite,Foreground,Centre,"SB\Pixel.jpg",0,0 F,0,20434,,0.352991 S,0,20434,,17 M,19,20434,21135,426,360,367,366 M,18,21135,21635,367,366,196,252
Sprite,Foreground,Centre,"SB\Pixel.jpg",0,0 F,0,20434,,0.2358233 S,0,20434,,18 M,19,20434,21135,426,360,346,347 M,18,21135,21635,346,347,196,252
Sprite,Foreground,Centre,"SB\Pixel.jpg",0,0 F,0,20434,,0.2046528 S,0,20434,,15 M,19,20434,21135,426,360,466,388 M,18,21135,21635,466,388,196,252
Sprite,Foreground,Centre,"SB\Pixel.jpg",0,0 F,0,20434,,0.2361499 S,0,20434,,12 M,19,20434,21135,426,360,524,284 M,18,21135,21635,524,284,196,252
Sprite,Foreground,Centre,"SB\Pixel.jpg",0,0 F,0,20434,,0.2791955 S,0,20434,,10 M,19,20434,21135,426,360,485,311 M,18,21135,21635,485,311,196,252
Sprite,Foreground,Centre,"SB\Pixel.jpg",0,0 F,0,20434,,0.4469632 S,0,20434,,15 M,19,20434,21135,426,360,384,427 M,18,21135,21635,384,427,196,252
Sprite,Foreground,Centre,"SB\Pixel.jpg",0,0 F,0,20434,,0.4555207 S,0,20434,,18 M,19,20434,21135,426,360,366,449 M,18,21135,21635,366,449,196,252
Sprite,Foreground,Centre,"SB\Pixel.jpg",0,0 F,0,20434,,0.3655334 S,0,20434,,13 M,19,20434,21135,426,360,494,331 M,18,21135,21635,494,331,196,252
Sprite,Foreground,Centre,"SB\Pixel.jpg",0,0 F,0,20434,,0.3988633 S,0,20434,,16 M,19,20434,21135,426,360,404,344 M,18,21135,21635,404,344,196,252
Sprite,Foreground,Centre,"SB\Pixel.jpg",0,0 F,0,20434,,0.4041527 S,0,20434,,13 M,19,20434,21135,426,360,508,319 M,18,21135,21635,508,319,196,252
Sprite,Foreground,Centre,"SB\Pixel.jpg",0,0 F,0,20434,,0.4727132 S,0,20434,,15 M,19,20434,21135,426,360,485,303 M,18,21135,21635,485,303,196,252
Sprite,Foreground,Centre,"SB\Pixel.jpg",0,0 F,0,20434,,0.3490945 S,0,20434,,13 M,19,20434,21135,426,360,515,314 M,18,21135,21635,515,314,196,252
Sprite,Foreground,Centre,"SB\Pixel.jpg",0,0 F,0,30034,,0.2358157 S,0,30034,,11 M,19,30034,30735,399,333,450,390 M,18,30735,31235,450,390,290,301
Sprite,Foreground,Centre,"SB\Pixel.jpg",0,0 F,0,30034,,0.4448625 S,0,30034,,18 M,19,30034,30735,399,333,426,347 M,18,30735,31235,426,347,290,301
Sprite,Foreground,Centre,"SB\Pixel.jpg",0,0 F,0,30034,,0.3990368 S,0,30034,,10 M,19,30034,30735,399,333,374,351 M,18,30735,31235,374,351,290,301
Sprite,Foreground,Centre,"SB\Pixel.jpg",0,0 F,0,30034,,0.3441612 S,0,30034,,10 M,19,30034,30735,399,333,498,264 M,18,30735,31235,498,264,290,301
Sprite,Foreground,Centre,"SB\Pixel.jpg",0,0 F,0,30034,,0.2996246 S,0,30034,,10 M,19,30034,30735,399,333,496,240 M,18,30735,31235,496,240,290,301
Sprite,Foreground,Centre,"SB\Pixel.jpg",0,0 F,0,30034,,0.2672896 S,0,30034,,11 M,19,30034,30735,399,333,413,404 M,18,30735,31235,413,404,290,301
Sprite,Foreground,Centre,"SB\Pixel.jpg",0,0 F,0,30034,,0.4264424 S,0,30034,,12 M,19,30034,30735,399,333,454,399 M,18,30735,31235,454,399,290,301
Sprite,Foreground,Centre,"SB\Pixel.jpg",0,0 F,0,30034,,0.3733906 S,0,30034,,17 M,19,30034,30735,399,333,323,268 M,18,30735,31235,323,268,290,301
Sprite,Foreground,Centre,"SB\Pixel.jpg",0,0 F,0,30034,,0.2133764 S,0,30034,,12 M,19,30034,30735,399,333,344,313 M,18,30735,31235,344,313,290,301
Sprite,Foreground,Centre,"SB\Pixel.jpg",0,0 F,0,30034,,0.3247973 S,0,30034,,17 M,19,30034,30735,399,333,370,354 M,18,30735,31235,370,354,290,301
Sprite,Foreground,Centre,"SB\Pixel.jpg",0,0 F,0,30034,,0.3575272 S,0,30034,,17 M,19,30034,30735,399,333,319,259 M,18,30735,31235,319,259,290,301
Sprite,Foreground,Centre,"SB\Pixel.jpg",0,0 F,0,30034,,0.2255972 S,0,30034,,15 M,19,30034,30735,399,333,443,324 M,18,30735,31235,443,324,290,301
Sprite,Foreground,Centre,"SB\Pixel.jpg",0,0 F,0,30034,,0.4099815 S,0,30034,,17 M,19,30034,30735,399,333,454,302 M,18,30735,31235,454,302,290,301
Sprite,Foreground,Centre,"SB\Pixel.jpg",0,0 F,0,30034,,0.3269479 S,0,30034,,19 M,19,30034,30735,399,333,407,400 M,18,30735,31235,407,400,290,301
Sprite,Foreground,Centre,"SB\Pixel.jpg",0,0 F,0,30034,,0.4254443 S,0,30034,,12 M,19,30034,30735,399,333,462,349 M,18,30735,31235,462,349,290,301
Sprite,Foreground,Centre,"SB\Pixel.jpg",0,0 F,0,30034,,0.2156184 S,0,30034,,15 M,19,30034,30735,399,333,415,431 M,18,30735,31235,415,431,290,301
Sprite,Foreground,Centre,"SB\Pixel.jpg",0,0 F,0,30034,,0.3290091 S,0,30034,,19 M,19,30034,30735,399,333,492,321 M,18,30735,31235,492,321,290,301
Sprite,Foreground,Centre,"SB\Pixel.jpg",0,0 F,0,30034,,0.4997129 S,0,30034,,18 M,19,30034,30735,399,333,427,294 M,18,30735,31235,427,294,290,301
Sprite,Foreground,Centre,"SB\Pixel.jpg",0,0 F,0,30034,,0.4977987 S,0,30034,,16 M,19,30034,30735,399,333,432,251 M,18,30735,31235,432,251,290,301
Sprite,Foreground,Centre,"SB\Pixel.jpg",0,0 F,0,30034,,0.3012295 S,0,30034,,18 M,19,30034,30735,399,333,475,373 M,18,30735,31235,475,373,290,301
Sprite,Foreground,Centre,"SB\Pixel.jpg",0,0 F,0,30034,,0.3530591 S,0,30034,,13 M,19,30034,30735,399,333,402,269 M,18,30735,31235,402,269,290,301
Sprite,Foreground,Centre,"SB\Pixel.jpg",0,0 F,0,30034,,0.287238 S,0,30034,,18 M,19,30034,30735,399,333,403,309 M,18,30735,31235,403,309,290,301
Sprite,Foreground,Centre,"SB\Pixel.jpg",0,0 F,0,30034,,0.3607502 S,0,30034,,14 M,19,30034,30735,399,333,444,313 M,18,30735,31235,444,313,290,301
Sprite,Foreground,Centre,"SB\Pixel.jpg",0,0 F,0,30034,,0.4329405 S,0,30034,,16 M,19,30034,30735,399,333,365,416 M,18,30735,31235,365,416,290,301
Sprite,Foreground,Centre,"SB\Pixel.jpg",0,0 F,0,30034,,0.367354 S,0,30034,,14 M,19,30034,30735,399,333,346,400 M,18,30735,31235,346,400,290,301
Sprite,Foreground,Centre,"SB\Pixel.jpg",0,0 F,0,30034,,0.2187841 S,0,30034,,11 M,19,30034,30735,399,333,443,350 M,18,30735,31235,443,350,290,301
Sprite,Foreground,Centre,"SB\Pixel.jpg",0,0 F,0,30034,,0.270845 S,0,30034,,16 M,19,30034,30735,399,333,475,363 M,18,30735,31235,475,363,290,301
Sprite,Foreground,Centre,"SB\Pixel.jpg",0,0 F,0,30034,,0.2136048 S,0,30034,,15 M,19,30034,30735,399,333,455,419 M,18,30735,31235,455,419,290,301
Sprite,Foreground,Centre,"SB\Pixel.jpg",0,0 F,0,30034,,0.2500668 S,0,30034,,10 M,19,30034,30735,399,333,350,236 M,18,30735,31235,350,236,290,301
Sprite,Foreground,Centre,"SB\Pixel.jpg",0,0 F,0,30034,,0.3703012 S,0,30034,,16 M,19,30034,30735,399,333,351,344 M,18,30735,31235,351,344,290,301
Sprite,Foreground,Centre,"SB\Pixel.jpg",0,0 F,0,30034,,0.4056099 S,0,30034,,19 M,19,30034,30735,399,333,492,417 M,18,30735,31235,492,417,290,301
Sprite,Foreground,Centre,"SB\Pixel.jpg",0,0 F,0,30034,,0.2177424 S,0,30034,,16 M,19,30034,30735,399,333,435,358 M,18,30735,31235,435,358,290,301
Sprite,Foreground,Centre,"SB\Pixel.jpg",0,0 F,0,30034,,0.2324001 S,0,30034,,17 M,19,30034,30735,399,333,485,297 M,18,30735,31235,485,297,290,301
Sprite,Foreground,Centre,"SB\Pixel.jpg",0,0 F,0,30034,,0.4778979 S,0,30034,,17 M,19,30034,30735,399,333,313,266 M,18,30735,31235,313,266,290,301
Sprite,Foreground,Centre,"SB\Pixel.jpg",0,0 F,0,30034,,0.2690876 S,0,30034,,11 M,19,30034,30735,399,333,379,407 M,18,30735,31235,379,407,290,301
Sprite,Foreground,Centre,"SB\Pixel.jpg",0,0 F,0,30034,,0.3448871 S,0,30034,,17 M,19,30034,30735,399,333,342,367 M,18,30735,31235,342,367,290,301
Sprite,Foreground,Centre,"SB\Pixel.jpg",0,0 F,0,30034,,0.3343889 S,0,30034,,14 M,19,30034,30735,399,333,331,237 M,18,30735,31235,331,237,290,301
Sprite,Foreground,Centre,"SB\Pixel.jpg",0,0 F,0,39634,,0.3210461 S,0,39634,,18 M,19,39634,40334,441,384,372,458 M,18,40334,40834,372,458,80,184
Sprite,Foreground,Centre,"SB\Pixel.jpg",0,0 F,0,39634,,0.3127754 S,0,39634,,11 M,19,39634,40334,441,384,528,465 M,18,40334,40834,528,465,80,184
Sprite,Foreground,Centre,"SB\Pixel.jpg",0,0 F,0,39634,,0.4352037 S,0,39634,,13 M,19,39634,40334,441,384,359,410 M,18,40334,40834,359,410,80,184
Sprite,Foreground,Centre,"SB\Pixel.jpg",0,0 F,0,39634,,0.3702384 S,0,39634,,14 M,19,39634,40334,441,384,360,422 M,18,40334,40834,360,422,80,184
Sprite,Foreground,Centre,"SB\Pixel.jpg",0,0 F,0,39634,,0.3002365 S,0,39634,,11 M,19,39634,40334,441,384,342,312 M,18,40334,40834,342,312,80,184
Sprite,Foreground,Centre,"SB\Pixel.jpg",0,0 F,0,39634,,0.3925813 S,0,39634,,17 M,19,39634,40334,441,384,523,458 M,18,40334,40834,523,458,80,184
Sprite,Foreground,Centre,"SB\Pixel.jpg",0,0 F,0,39634,,0.206006 S,0,39634,,18 M,19,39634,40334,441,384,362,468 M,18,40334,40834,362,468,80,184
Sprite,Foreground,Centre,"SB\Pixel.jpg",0,0 F,0,39634,,0.3020881 S,0,39634,,15 M,19,39634,40334,441,384,446,377 M,18,40334,40834,446,377,80,184
Sprite,Foreground,Centre,"SB\Pixel.jpg",0,0 F,0,39634,,0.294404 S,0,39634,,10 M,19,39634,40334,441,384,403,343 M,18,40334,40834,403,343,80,184
Sprite,Foreground,Centre,"SB\Pixel.jpg",0,0 F,0,39634,,0.237756 S,0,39634,,11 M,19,39634,40334,441,384,447,331 M,18,40334,40834,447,331,80,184
Sprite,Foreground,Centre,"SB\Pixel.jpg",0,0 F,0,39634,,0.445295 S,0,39634,,14 M,19,39634,40334,441,384,394,364 M,18,40334,40834,394,364,80,184
Sprite,Foreground,Centre,"SB\Pixel.jpg",0,0 F,0,39634,,0.2727409 S,0,39634,,13 M,19,39634,40334,441,384,343,391 M,18,40334,40834,343,391,80,184
Sprite,Foreground,Centre,"SB\Pixel.jpg",0,0 F,0,39634,,0.3979812 S,0,39634,,12 M,19,39634,40334,441,384,353,337 M,18,40334,40834,353,337,80,184
Sprite,Foreground,Centre,"SB\Pixel.jpg",0,0 F,0,39634,,0.4884808 S,0,39634,,11 M,19,39634,40334,441,384,374,406 M,18,40334,40834,374,406,80,184
Sprite,Foreground,Centre,"SB\Pixel.jpg",0,0 F,0,39634,,0.2154199 S,0,39634,,17 M,19,39634,40334,441,384,466,354 M,18,40334,40834,466,354,80,184
Sprite,Foreground,Centre,"SB\Pixel.jpg",0,0 F,0,39634,,0.2782276 S,0,39634,,17 M,19,39634,40334,441,384,483,449 M,18,40334,40834,483,449,80,184
Sprite,Foreground,Centre,"SB\Pixel.jpg",0,0 F,0,39634,,0.3472579 S,0,39634,,17 M,19,39634,40334,441,384,475,433 M,18,40334,40834,475,433,80,184
Sprite,Foreground,Centre,"SB\Pixel.jpg",0,0 F,0,39634,,0.3791448 S,0,39634,,18 M,19,39634,40334,441,384,481,305 M,18,40334,40834,481,305,80,184
Sprite,Foreground,Centre,"SB\Pixel.jpg",0,0 F,0,39634,,0.4831749 S,0,39634,,18 M,19,39634,40334,441,384,538,328 M,18,40334,40834,538,328,80,184
Sprite,Foreground,Centre,"SB\Pixel.jpg",0,0 F,0,39634,,0.2280465 S,0,39634,,15 M,19,39634,40334,441,384,349,411 M,18,40334,40834,349,411,80,184
Sprite,Foreground,Centre,"SB\Pixel.jpg",0,0 F,0,39634,,0.4823172 S,0,39634,,13 M,19,39634,40334,441,384,524,339 M,18,40334,40834,524,339,80,184
Sprite,Foreground,Centre,"SB\Pixel.jpg",0,0 F,0,39634,,0.2064582 S,0,39634,,12 M,19,39634,40334,441,384,523,354 M,18,40334,40834,523,354,80,184
Sprite,Foreground,Centre,"SB\Pixel.jpg",0,0 F,0,39634,,0.3406901 S,0,39634,,14 M,19,39634,40334,441,384,377,339 M,18,40334,40834,377,339,80,184
Sprite,Foreground,Centre,"SB\Pixel.jpg",0,0 F,0,39634,,0.4770921 S,0,39634,,15 M,19,39634,40334,441,384,404,439 M,18,40334,40834,404,439,80,184
Sprite,Foreground,Centre,"SB\Pixel.jpg",0,0 F,0,39634,,0.2277088 S,0,39634,,10 M,19,39634,40334,441,384,353,287 M,18,40334,40834,353,287,80,184
Sprite,Foreground,Centre,"SB\Pixel.jpg",0,0 F,0,39634,,0.2677425 S,0,39634,,12 M,19,39634,40334,441,384,421,365 M,18,40334,40834,421,365,80,184
Sprite,Foreground,Centre,"SB\Pixel.jpg",0,0 F,0,39634,,0.4200889 S,0,39634,,15 M,19,39634,40334,441,384,356,431 M,18,40334,40834,356,431,80,184
Sprite,Foreground,Centre,"SB\Pixel.jpg",0,0 F,0,39634,,0.2380723 S,0,39634,,13 M,19,39634,40334,441,384,420,445 M,18,40334,40834,420,445,80,184
Sprite,Foreground,Centre,"SB\Pixel.jpg",0,0 F,0,39634,,0.3040893 S,0,39634,,16 M,19,39634,40334,441,384,411,301 M,18,40334,40834,411,301,80,184
Sprite,Foreground,Centre,"SB\Pixel.jpg",0,0 F,0,39634,,0.3532496 S,0,39634,,18 M,19,39634,40334,441,384,482,435 M,18,40334,40834,482,435,80,184
Sprite,Foreground,Centre,"SB\Pixel.jpg",0,0 F,0,39634,,0.3661534 S,0,39634,,16 M,19,39634,40334,441,384,394,426 M,18,40334,40834,394,426,80,184
Sprite,Foreground,Centre,"SB\Pixel.jpg",0,0 F,0,39634,,0.4645524 S,0,39634,,15 M,19,39634,40334,441,384,521,320 M,18,40334,40834,521,320,80,184
Sprite,Foreground,Centre,"SB\Pixel.jpg",0,0 F,0,39634,,0.4375608 S,0,39634,,11 M,19,39634,40334,441,384,441,308 M,18,40334,40834,441,308,80,184
Sprite,Foreground,Centre,"SB\Pixel.jpg",0,0 F,0,49235,,0.3617361 S,0,49235,,17 M,19,49235,49935,311,300,313,329 M,18,49935,50435,313,329,532,388
Sprite,Foreground,Centre,"SB\Pixel.jpg",0,0 F,0,49235,,0.3392907 S,0,49235,,11 M,19,49235,49935,311,300,406,333 M,18,49935,50435,406,333,532,388
Sprite,Foreground,Centre,"SB\Pixel.jpg",0,0 F,0,49235,,0.324874 S,0,49235,,19 M,19,49235,49935,311,300,340,379 M,18,49935,50435,340,379,532,388
Sprite,Foreground,Centre,"SB\Pixel.jpg",0,0 F,0,49235,,0.2146424 S,0,49235,,13 M,19,49235,49935,311,300,283,236 M,18,49935,50435,283,236,532,388
Sprite,Foreground,Centre,"SB\Pixel.jpg",0,0 F,0,49235,,0.3685962 S,0,49235,,14 M,19,49235,49935,311,300,254,384 M,18,49935,50435,254,384,532,388
Sprite,Foreground,Centre,"SB\Pixel.jpg",0,0 F,0,49235,,0.2677377 S,0,49235,,14 M,19,49235,49935,311,300,256,258 M,18,49935,50435,256,258,532,388
Sprite,Foreground,Centre,"SB\Pixel.jpg",0,0 F,0,49235,,0.2368772 S,0,49235,,11 M,19,49235,49935,311,300,243,368 M,18,49935,50435,243,368,532,388
Sprite,Foreground,Centre,"SB\Pixel.jpg",0,0 F,0,49235,,0.4351726 S,0,49235,,11 M,19,49235,49935,311,300,334,234 M,18,49935,50435,334,234,532,388
Sprite,Foreground,Centre,"SB\Pixel.jpg",0,0 F,0,49235,,0.4295851 S,0,49235,,14 M,19,49235,49935,311,300,257,343 M,18,49935,50435,257,343,532,388
Sprite,Foreground,Centre,"SB\Pixel.jpg",0,0 F,0,49235,,0.4436534 S,0,49235,,12 M,19,49235,49935,311,300,331,341 M,18,49935,50435,331,341,532,388
Sprite,Foreground,Centre,"SB\Pixel.jpg",0,0 F,0,49235,,0.3554184 S,0,49235,,12 M,19,49235,49935,311,300,264,299 M,18,49935,50435,264,299,532,388
Sprite,Foreground,Centre,"SB\Pixel.jpg",0,0 F,0,49235,,0.2310197 S,0,49235,,15 M,19,49235,49935,311,300,328,217 M,18,49935,50435,328,217,532,388
Sprite,Foreground,Centre,"SB\Pixel.jpg",0,0 F,0,49235,,0.2004746 S,0,49235,,16 M,19,49235,49935,311,300,347,288 M,18,49935,50435,347,288,532,388
Sprite,Foreground,Centre,"SB\Pixel.jpg",0,0 F,0,49235,,0.2670805 S,0,49235,,12 M,19,49235,49935,311,300,372,355 M,18,49935,50435,372,355,532,388
Sprite,Foreground,Centre,"SB\Pixel.jpg",0,0 F,0,49235,,0.4557389 S,0,49235,,12 M,19,49235,49935,311,300,248,279 M,18,49935,50435,248,279,532,388
Sprite,Foreground,Centre,"SB\Pixel.jpg",0,0 F,0,49235,,0.2261035 S,0,49235,,11 M,19,49235,49935,311,300,310,231 M,18,49935,50435,310,231,532,388
Sprite,Foreground,Centre,"SB\Pixel.jpg",0,0 F,0,49235,,0.4898539 S,0,49235,,16 M,19,49235,49935,311,300,315,296 M,18,49935,50435,315,296,532,388
Sprite,Foreground,Centre,"SB\Pixel.jpg",0,0 F,0,49235,,0.463141 S,0,49235,,17 M,19,49235,49935,311,300,344,264 M,18,49935,50435,344,264,532,388
Sprite,Foreground,Centre,"SB\Pixel.jpg",0,0 F,0,49235,,0.2844862 S,0,49235,,19 M,19,49235,49935,311,300,317,213 M,18,49935,50435,317,213,532,388
Sprite,Foreground,Centre,"SB\Pixel.jpg",0,0 F,0,49235,,0.2431358 S,0,49235,,15 M,19,49235,49935,311,300,369,343 M,18,49935,50435,369,343,532,388
Sprite,Foreground,Centre,"SB\Pixel.jpg",0,0 F,0,49235,,0.3715704 S,0,49235,,10 M,19,49235,49935,311,300,376,296 M,18,49935,50435,376,296,532,388
Sprite,Foreground,Centre,"SB\Pixel.jpg",0,0 F,0,49235,,0.2912144 S,0,49235,,13 M,19,49235,49935,311,300,384,328 M,18,49935,50435,384,328,532,388
Sprite,Foreground,Centre,"SB\Pixel.jpg",0,0 F,0,49235,,0.4908385 S,0,49235,,18 M,19,49235,49935,311,300,296,200 M,18,49935,50435,296,200,532,388
Sprite,Foreground,Centre,"SB\Pixel.jpg",0,0 F,0,49235,,0.3022618 S,0,49235,,13 M,19,49235,49935,311,300,250,295 M,18,49935,50435,250,295,532,388
Sprite,Foreground,Centre,"SB\Pixel.jpg",0,0 F,0,49235,,0.3295181 S,0,49235,,10 M,19,49235,49935,311,300,307,379 M,18,49935,50435,307,379,532,388
Sprite,Foreground,Centre,"SB\Pixel.jpg",0,0 F,0,49235,,0.4745153 S,0,49235,,17 M,19,49235,49935,311,300,234,223 M,18,49935,50435,234,223,532,388
Sprite,Foreground,Centre,"SB\Pixel.jpg",0,0 F,0,49235,,0.3614812 S,0,49235,,16 M,19,49235,49935,311,300,367,203 M,18,49935,50435,367,203,532,388
Sprite,Foreground,Centre,"SB\Pixel.jpg",0,0 F,0,49235,,0.4849945 S,0,49235,,10 M,19,49235,49935,311,300,218,381 M,18,49935,50435,218,381,532,388
Sprite,Foreground,Centre,"SB\Pixel.jpg",0,0 F,0,49235,,0.3615533 S,0,49235,,18 M,19,49235,49935,311,300,215,203 M,18,49935,50435,215,203,532,388
Sprite,Foreground,Centre,"SB\Pixel.jpg",0,0 F,0,49235,,0.3331605 S,0,49235,,11 M,19,49235,49935,311,300,317,220 M,18,49935,50435,317,220,532,388
Sprite,Foreground,Centre,"SB\Pixel.jpg",0,0 F,0,49235,,0.4253693 S,0,49235,,12 M,19,49235,49935,311,300,274,275 M,18,49935,50435,274,275,532,388
Sprite,Foreground,Centre,"SB\Pixel.jpg",0,0 F,0,58834,,0.3772795 S,0,58834,,12 M,19,58834,59534,329,141,379,186 M,18,59534,60034,379,186,468,236
Sprite,Foreground,Centre,"SB\Pixel.jpg",0,0 F,0,58834,,0.2995103 S,0,58834,,10 M,19,58834,59534,329,141,311,133 M,18,59534,60034,311,133,468,236
Sprite,Foreground,Centre,"SB\Pixel.jpg",0,0 F,0,58834,,0.2876709 S,0,58834,,10 M,19,58834,59534,329,141,287,146 M,18,59534,60034,287,146,468,236
Sprite,Foreground,Centre,"SB\Pixel.jpg",0,0 F,0,58834,,0.362942 S,0,58834,,13 M,19,58834,59534,329,141,321,113 M,18,59534,60034,321,113,468,236
Sprite,Foreground,Centre,"SB\Pixel.jpg",0,0 F,0,58834,,0.4145207 S,0,58834,,14 M,19,58834,59534,329,141,232,175 M,18,59534,60034,232,175,468,236
Sprite,Foreground,Centre,"SB\Pixel.jpg",0,0 F,0,58834,,0.2745867 S,0,58834,,16 M,19,58834,59534,329,141,309,93 M,18,59534,60034,309,93,468,236
Sprite,Foreground,Centre,"SB\Pixel.jpg",0,0 F,0,58834,,0.3939133 S,0,58834,,15 M,19,58834,59534,329,141,425,126 M,18,59534,60034,425,126,468,236
Sprite,Foreground,Centre,"SB\Pixel.jpg",0,0 F,0,58834,,0.2943176 S,0,58834,,17 M,19,58834,59534,329,141,287,126 M,18,59534,60034,287,126,468,236
Sprite,Foreground,Centre,"SB\Pixel.jpg",0,0 F,0,58834,,0.3330694 S,0,58834,,14 M,19,58834,59534,329,141,242,194 M,18,59534,60034,242,194,468,236
Sprite,Foreground,Centre,"SB\Pixel.jpg",0,0 F,0,58834,,0.4157211 S,0,58834,,10 M,19,58834,59534,329,141,387,57 M,18,59534,60034,387,57,468,236
Sprite,Foreground,Centre,"SB\Pixel.jpg",0,0 F,0,58834,,0.2367855 S,0,58834,,11 M,19,58834,59534,329,141,342,142 M,18,59534,60034,342,142,468,236
Sprite,Foreground,Centre,"SB\Pixel.jpg",0,0 F,0,58834,,0.2536432 S,0,58834,,14 M,19,58834,59534,329,141,245,43 M,18,59534,60034,245,43,468,236
Sprite,Foreground,Centre,"SB\Pixel.jpg",0,0 F,0,58834,,0.4123574 S,0,58834,,10 M,19,58834,59534,329,141,258,83 M,18,59534,60034,258,83,468,236
Sprite,Foreground,Centre,"SB\Pixel.jpg",0,0 F,0,58834,,0.4207174 S,0,58834,,14 M,19,58834,59534,329,141,401,216 M,18,59534,60034,401,216,468,236
Sprite,Foreground,Centre,"SB\Pixel.jpg",0,0 F,0,58834,,0.4332319 S,0,58834,,10 M,19,58834,59534,329,141,235,50 M,18,59534,60034,235,50,468,236
Sprite,Foreground,Centre,"SB\Pixel.jpg",0,0 F,0,58834,,0.2646362 S,0,58834,,14 M,19,58834,59534,329,141,279,86 M,18,59534,60034,279,86,468,236
Sprite,Foreground,Centre,"SB\Pixel.jpg",0,0 F,0,58834,,0.2585095 S,0,58834,,10 M,19,58834,59534,329,141,293,149 M,18,59534,60034,293,149,468,236
Sprite,Foreground,Centre,"SB\Pixel.jpg",0,0 F,0,58834,,0.3574575 S,0,58834,,10 M,19,58834,59534,329,141,323,101 M,18,59534,60034,323,101,468,236
Sprite,Foreground,Centre,"SB\Pixel.jpg",0,0 F,0,58834,,0.466475 S,0,58834,,10 M,19,58834,59534,329,141,284,90 M,18,59534,60034,284,90,468,236
Sprite,Foreground,Centre,"SB\Pixel.jpg",0,0 F,0,58834,,0.3057531 S,0,58834,,17 M,19,58834,59534,329,141,400,53 M,18,59534,60034,400,53,468,236
Sprite,Foreground,Centre,"SB\Pixel.jpg",0,0 F,0,58834,,0.2884119 S,0,58834,,11 M,19,58834,59534,329,141,411,110 M,18,59534,60034,411,110,468,236
Sprite,Foreground,Centre,"SB\Pixel.jpg",0,0 F,0,58834,,0.2220172 S,0,58834,,10 M,19,58834,59534,329,141,333,187 M,18,59534,60034,333,187,468,236
Sprite,Foreground,Centre,"SB\Pixel.jpg",0,0 F,0,58834,,0.4332686 S,0,58834,,14 M,19,58834,59534,329,141,399,200 M,18,59534,60034,399,200,468,236
Sprite,Foreground,Centre,"SB\Pixel.jpg",0,0 F,0,58834,,0.390492 S,0,58834,,17 M,19,58834,59534,329,141,349,44 M,18,59534,60034,349,44,468,236
Sprite,Foreground,Centre,"SB\Pixel.jpg",0,0 F,0,58834,,0.3955762 S,0,58834,,18 M,19,58834,59534,329,141,341,111 M,18,59534,60034,341,111,468,236
Sprite,Foreground,Centre,"SB\Pixel.jpg",0,0 F,0,58834,,0.4191301 S,0,58834,,18 M,19,58834,59534,329,141,386,72 M,18,59534,60034,386,72,468,236
Sprite,Foreground,Centre,"SB\Pixel.jpg",0,0 F,0,58834,,0.3295564 S,0,58834,,12 M,19,58834,59534,329,141,266,216 M,18,59534,60034,266,216,468,236
Sprite,Foreground,Centre,"SB\Pixel.jpg",0,0 F,0,58834,,0.2250552 S,0,58834,,15 M,19,58834,59534,329,141,423,91 M,18,59534,60034,423,91,468,236
Sprite,Foreground,Centre,"SB\Pixel.jpg",0,0 F,0,58834,,0.3550864 S,0,58834,,18 M,19,58834,59534,329,141,377,86 M,18,59534,60034,377,86,468,236
Sprite,Foreground,Centre,"SB\Pixel.jpg",0,0 F,0,58834,,0.3409091 S,0,58834,,16 M,19,58834,59534,329,141,325,135 M,18,59534,60034,325,135,468,236
Sprite,Foreground,Centre,"SB\Pixel.jpg",0,0 F,0,58834,,0.3808647 S,0,58834,,15 M,19,58834,59534,329,141,396,126 M,18,59534,60034,396,126,468,236
Sprite,Foreground,Centre,"SB\Pixel.jpg",0,0 F,0,58834,,0.319287 S,0,58834,,14 M,19,58834,59534,329,141,340,180 M,18,59534,60034,340,180,468,236
Sprite,Foreground,Centre,"SB\Pixel.jpg",0,0 F,0,58834,,0.2564355 S,0,58834,,17 M,19,58834,59534,329,141,301,41 M,18,59534,60034,301,41,468,236
Sprite,Foreground,Centre,"SB\Pixel.jpg",0,0 F,0,82834,,0.3062088 S,0,82834,,19 M,19,82834,83535,101,262,65,247 M,18,83535,84035,65,247,539,262
Sprite,Foreground,Centre,"SB\Pixel.jpg",0,0 F,0,82834,,0.2999552 S,0,82834,,18 M,19,82834,83535,101,262,187,261 M,18,83535,84035,187,261,539,262
Sprite,Foreground,Centre,"SB\Pixel.jpg",0,0 F,0,82834,,0.2939119 S,0,82834,,16 M,19,82834,83535,101,262,45,198 M,18,83535,84035,45,198,539,262
Sprite,Foreground,Centre,"SB\Pixel.jpg",0,0 F,0,82834,,0.4290864 S,0,82834,,12 M,19,82834,83535,101,262,66,246 M,18,83535,84035,66,246,539,262
Sprite,Foreground,Centre,"SB\Pixel.jpg",0,0 F,0,82834,,0.2826934 S,0,82834,,18 M,19,82834,83535,101,262,135,270 M,18,83535,84035,135,270,539,262
Sprite,Foreground,Centre,"SB\Pixel.jpg",0,0 F,0,82834,,0.4222845 S,0,82834,,10 M,19,82834,83535,101,262,166,253 M,18,83535,84035,166,253,539,262
Sprite,Foreground,Centre,"SB\Pixel.jpg",0,0 F,0,82834,,0.2344358 S,0,82834,,19 M,19,82834,83535,101,262,166,301 M,18,83535,84035,166,301,539,262
Sprite,Foreground,Centre,"SB\Pixel.jpg",0,0 F,0,82834,,0.4705382 S,0,82834,,13 M,19,82834,83535,101,262,45,203 M,18,83535,84035,45,203,539,262
Sprite,Foreground,Centre,"SB\Pixel.jpg",0,0 F,0,82834,,0.4153286 S,0,82834,,19 M,19,82834,83535,101,262,9,212 M,18,83535,84035,9,212,539,262
Sprite,Foreground,Centre,"SB\Pixel.jpg",0,0 F,0,82834,,0.4028195 S,0,82834,,19 M,19,82834,83535,101,262,54,245 M,18,83535,84035,54,245,539,262
Sprite,Foreground,Centre,"SB\Pixel.jpg",0,0 F,0,82834,,0.4108606 S,0,82834,,14 M,19,82834,83535,101,262,66,215 M,18,83535,84035,66,215,539,262
Sprite,Foreground,Centre,"SB\Pixel.jpg",0,0 F,0,82834,,0.3504877 S,0,82834,,13 M,19,82834,83535,101,262,157,192 M,18,83535,84035,157,192,539,262
Sprite,Foreground,Centre,"SB\Pixel.jpg",0,0 F,0,82834,,0.2876368 S,0,82834,,10 M,19,82834,83535,101,262,95,313 M,18,83535,84035,95,313,539,262
Sprite,Foreground,Centre,"SB\Pixel.jpg",0,0 F,0,82834,,0.3089889 S,0,82834,,15 M,19,82834,83535,101,262,105,175 M,18,83535,84035,105,175,539,262
Sprite,Foreground,Centre,"SB\Pixel.jpg",0,0 F,0,82834,,0.3248236 S,0,82834,,16 M,19,82834,83535,101,262,24,266 M,18,83535,84035,24,266,539,262
Sprite,Foreground,Centre,"SB\Pixel.jpg",0,0 F,0,82834,,0.3108656 S,0,82834,,16 M,19,82834,83535,101,262,85,326 M,18,83535,84035,85,326,539,262
Sprite,Foreground,Centre,"SB\Pixel.jpg",0,0 F,0,82834,,0.4463456 S,0,82834,,11 M,19,82834,83535,101,262,82,317 M,18,83535,84035,82,317,539,262
Sprite,Foreground,Centre,"SB\Pixel.jpg",0,0 F,0,82834,,0.3912801 S,0,82834,,10 M,19,82834,83535,101,262,113,361 M,18,83535,84035,113,361,539,262
Sprite,Foreground,Centre,"SB\Pixel.jpg",0,0 F,0,82834,,0.3803026 S,0,82834,,10 M,19,82834,83535,101,262,15,302 M,18,83535,84035,15,302,539,262
Sprite,Foreground,Centre,"SB\Pixel.jpg",0,0 F,0,82834,,0.3942281 S,0,82834,,19 M,19,82834,83535,101,262,58,353 M,18,83535,84035,58,353,539,262
Sprite,Foreground,Centre,"SB\Pixel.jpg",0,0 F,0,82834,,0.2408418 S,0,82834,,10 M,19,82834,83535,101,262,41,172 M,18,83535,84035,41,172,539,262
Sprite,Foreground,Centre,"SB\Pixel.jpg",0,0 F,0,82834,,0.2307763 S,0,82834,,16 M,19,82834,83535,101,262,162,332 M,18,83535,84035,162,332,539,262
Sprite,Foreground,Centre,"SB\Pixel.jpg",0,0 F,0,82834,,0.4475131 S,0,82834,,19 M,19,82834,83535,101,262,192,318 M,18,83535,84035,192,318,539,262
Sprite,Foreground,Centre,"SB\Pixel.jpg",0,0 F,0,82834,,0.2341419 S,0,82834,,16 M,19,82834,83535,101,262,140,349 M,18,83535,84035,140,349,539,262
Sprite,Foreground,Centre,"SB\Pixel.jpg",0,0 F,0,82834,,0.2792209 S,0,82834,,11 M,19,82834,83535,101,262,106,247 M,18,83535,84035,106,247,539,262
Sprite,Foreground,Centre,"SB\Pixel.jpg",0,0 F,0,82834,,0.2965411 S,0,82834,,14 M,19,82834,83535,101,262,84,345 M,18,83535,84035,84,345,539,262
Sprite,Foreground,Centre,"SB\Pixel.jpg",0,0 F,0,82834,,0.3273524 S,0,82834,,10 M,19,82834,83535,101,262,93,197 M,18,83535,84035,93,197,539,262
Sprite,Foreground,Centre,"SB\Pixel.jpg",0,0 F,0,82834,,0.4283687 S,0,82834,,14 M,19,82834,83535,101,262,71,290 M,18,83535,84035,71,290,539,262
Sprite,Foreground,Centre,"SB\Pixel.jpg",0,0 F,0,82834,,0.2018397 S,0,82834,,16 M,19,82834,83535,101,262,142,340 M,18,83535,84035,142,340,539,262
Sprite,Foreground,Centre,"SB\Pixel.jpg",0,0 F,0,82834,,0.3996482 S,0,82834,,12 M,19,82834,83535,101,262,58,337 M,18,83535,84035,58,337,539,262
Sprite,Foreground,Centre,"SB\Pixel.jpg",0,0 F,0,82834,,0.2051823 S,0,82834,,15 M,19,82834,83535,101,262,70,330 M,18,83535,84035,70,330,539,262
Sprite,Foreground,Centre,"SB\Pixel.jpg",0,0 F,0,82834,,0.4891983 S,0,82834,,12 M,19,82834,83535,101,262,155,320 M,18,83535,84035,155,320,539,262
Sprite,Foreground,Centre,"SB\Pixel.jpg",0,0 F,0,82834,,0.4101789 S,0,82834,,10 M,19,82834,83535,101,262,178,268 M,18,83535,84035,178,268,539,262
Sprite,Foreground,Centre,"SB\Pixel.jpg",0,0 F,0,82834,,0.4405315 S,0,82834,,17 M,19,82834,83535,101,262,157,233 M,18,83535,84035,157,233,539,262
Sprite,Foreground,Centre,"SB\Pixel.jpg",0,0 F,0,82834,,0.4036192 S,0,82834,,19 M,19,82834,83535,101,262,11,197 M,18,83535,84035,11,197,539,262
Sprite,Foreground,Centre,"SB\Pixel.jpg",0,0 F,0,82834,,0.3782049 S,0,82834,,17 M,19,82834,83535,101,262,127,246 M,18,83535,84035,127,246,539,262
Sprite,Foreground,Centre,"SB\Pixel.jpg",0,0 F,0,82834,,0.2221703 S,0,82834,,18 M,19,82834,83535,101,262,108,212 M,18,83535,84035,108,212,539,262
Sprite,Foreground,Centre,"SB\Pixel.jpg",0,0 F,0,87635,,0.3682922 S,0,87635,,16 M,19,87635,88334,535,205,614,182 M,18,88334,88834,614,182,296,394
Sprite,Foreground,Centre,"SB\Pixel.jpg",0,0 F,0,87635,,0.2529537 S,0,87635,,11 M,19,87635,88334,535,205,456,253 M,18,88334,88834,456,253,296,394
Sprite,Foreground,Centre,"SB\Pixel.jpg",0,0 F,0,87635,,0.4799196 S,0,87635,,10 M,19,87635,88334,535,205,575,231 M,18,88334,88834,575,231,296,394
Sprite,Foreground,Centre,"SB\Pixel.jpg",0,0 F,0,87635,,0.2523157 S,0,87635,,11 M,19,87635,88334,535,205,585,195 M,18,88334,88834,585,195,296,394
Sprite,Foreground,Centre,"SB\Pixel.jpg",0,0 F,0,87635,,0.3057951 S,0,87635,,11 M,19,87635,88334,535,205,605,203 M,18,88334,88834,605,203,296,394
Sprite,Foreground,Centre,"SB\Pixel.jpg",0,0 F,0,87635,,0.3903862 S,0,87635,,14 M,19,87635,88334,535,205,589,263 M,18,88334,88834,589,263,296,394
Sprite,Foreground,Centre,"SB\Pixel.jpg",0,0 F,0,87635,,0.3865956 S,0,87635,,14 M,19,87635,88334,535,205,607,174 M,18,88334,88834,607,174,296,394
Sprite,Foreground,Centre,"SB\Pixel.jpg",0,0 F,0,87635,,0.3117694 S,0,87635,,16 M,19,87635,88334,535,205,512,291 M,18,88334,88834,512,291,296,394
Sprite,Foreground,Centre,"SB\Pixel.jpg",0,0 F,0,87635,,0.3317067 S,0,87635,,14 M,19,87635,88334,535,205,485,208 M,18,88334,88834,485,208,296,394
Sprite,Foreground,Centre,"SB\Pixel.jpg",0,0 F,0,87635,,0.3375897 S,0,87635,,13 M,19,87635,88334,535,205,461,218 M,18,88334,88834,461,218,296,394
Sprite,Foreground,Centre,"SB\Pixel.jpg",0,0 F,0,87635,,0.3358648 S,0,87635,,11 M,19,87635,88334,535,205,524,112 M,18,88334,88834,524,112,296,394
Sprite,Foreground,Centre,"SB\Pixel.jpg",0,0 F,0,87635,,0.3092194 S,0,87635,,14 M,19,87635,88334,535,205,515,111 M,18,88334,88834,515,111,296,394
Sprite,Foreground,Centre,"SB\Pixel.jpg",0,0 F,0,87635,,0.4158252 S,0,87635,,13 M,19,87635,88334,535,205,498,127 M,18,88334,88834,498,127,296,394
Sprite,Foreground,Centre,"SB\Pixel.jpg",0,0 F,0,87635,,0.3369413 S,0,87635,,11 M,19,87635,88334,535,205,506,106 M,18,88334,88834,506,106,296,394
Sprite,Foreground,Centre,"SB\Pixel.jpg",0,0 F,0,87635,,0.3467408 S,0,87635,,15 M,19,87635,88334,535,205,598,120 M,18,88334,88834,598,120,296,394
Sprite,Foreground,Centre,"SB\Pixel.jpg",0,0 F,0,87635,,0.4594398 S,0,87635,,13 M,19,87635,88334,535,205,501,116 M,18,88334,88834,501,116,296,394
Sprite,Foreground,Centre,"SB\Pixel.jpg",0,0 F,0,87635,,0.2819847 S,0,87635,,11 M,19,87635,88334,535,205,476,171 M,18,88334,88834,476,171,296,394
Sprite,Foreground,Centre,"SB\Pixel.jpg",0,0 F,0,87635,,0.3449519 S,0,87635,,14 M,19,87635,88334,535,205,600,283 M,18,88334,88834,600,283,296,394
Sprite,Foreground,Centre,"SB\Pixel.jpg",0,0 F,0,87635,,0.4688202 S,0,87635,,19 M,19,87635,88334,535,205,505,218 M,18,88334,88834,505,218,296,394
Sprite,Foreground,Centre,"SB\Pixel.jpg",0,0 F,0,87635,,0.2142641 S,0,87635,,14 M,19,87635,88334,535,205,463,264 M,18,88334,88834,463,264,296,394
Sprite,Foreground,Centre,"SB\Pixel.jpg",0,0 F,0,87635,,0.2860763 S,0,87635,,18 M,19,87635,88334,535,205,459,126 M,18,88334,88834,459,126,296,394
Sprite,Foreground,Centre,"SB\Pixel.jpg",0,0 F,0,87635,,0.4576358 S,0,87635,,13 M,19,87635,88334,535,205,508,214 M,18,88334,88834,508,214,296,394
Sprite,Foreground,Centre,"SB\Pixel.jpg",0,0 F,0,87635,,0.2171646 S,0,87635,,14 M,19,87635,88334,535,205,504,139 M,18,88334,88834,504,139,296,394
Sprite,Foreground,Centre,"SB\Pixel.jpg",0,0 F,0,87635,,0.3748379 S,0,87635,,10 M,19,87635,88334,535,205,631,272 M,18,88334,88834,631,272,296,394
Sprite,Foreground,Centre,"SB\Pixel.jpg",0,0 F,0,87635,,0.2027025 S,0,87635,,16 M,19,87635,88334,535,205,527,210 M,18,88334,88834,527,210,296,394
Sprite,Foreground,Centre,"SB\Pixel.jpg",0,0 F,0,87635,,0.3564549 S,0,87635,,13 M,19,87635,88334,535,205,485,141 M,18,88334,88834,485,141,296,394
Sprite,Foreground,Centre,"SB\Pixel.jpg",0,0 F,0,87635,,0.3347754 S,0,87635,,17 M,19,87635,88334,535,205,542,106 M,18,88334,88834,542,106,296,394
Sprite,Foreground,Centre,"SB\Pixel.jpg",0,0 F,0,87635,,0.3255571 S,0,87635,,16 M,19,87635,88334,535,205,454,114 M,18,88334,88834,454,114,296,394
Sprite,Foreground,Centre,"SB\Pixel.jpg",0,0 F,0,87635,,0.2335014 S,0,87635,,17 M,19,87635,88334,535,205,490,112 M,18,88334,88834,490,112,296,394
Sprite,Foreground,Centre,"SB\Pixel.jpg",0,0 F,0,87635,,0.347396 S,0,87635,,14 M,19,87635,88334,535,205,471,207 M,18,88334,88834,471,207,296,394
Sprite,Foreground,Centre,"SB\Pixel.jpg",0,0 F,0,87635,,0.2030909 S,0,87635,,11 M,19,87635,88334,535,205,496,147 M,18,88334,88834,496,147,296,394
Sprite,Foreground,Centre,"SB\Pixel.jpg",0,0 F,0,97235,,0.2558353 S,0,97235,,10 M,19,97235,97934,482,314,521,264 M,18,97934,98434,521,264,132,392
Sprite,Foreground,Centre,"SB\Pixel.jpg",0,0 F,0,97235,,0.3010307 S,0,97235,,17 M,19,97235,97934,482,314,531,245 M,18,97934,98434,531,245,132,392
Sprite,Foreground,Centre,"SB\Pixel.jpg",0,0 F,0,97235,,0.4806574 S,0,97235,,14 M,19,97235,97934,482,314,473,296 M,18,97934,98434,473,296,132,392
Sprite,Foreground,Centre,"SB\Pixel.jpg",0,0 F,0,97235,,0.327817 S,0,97235,,14 M,19,97235,97934,482,314,392,407 M,18,97934,98434,392,407,132,392
Sprite,Foreground,Centre,"SB\Pixel.jpg",0,0 F,0,97235,,0.421484 S,0,97235,,16 M,19,97235,97934,482,314,483,409 M,18,97934,98434,483,409,132,392
Sprite,Foreground,Centre,"SB\Pixel.jpg",0,0 F,0,97235,,0.2967624 S,0,97235,,19 M,19,97235,97934,482,314,394,277 M,18,97934,98434,394,277,132,392
Sprite,Foreground,Centre,"SB\Pixel.jpg",0,0 F,0,97235,,0.4991021 S,0,97235,,14 M,19,97235,97934,482,314,522,284 M,18,97934,98434,522,284,132,392
Sprite,Foreground,Centre,"SB\Pixel.jpg",0,0 F,0,97235,,0.2765221 S,0,97235,,15 M,19,97235,97934,482,314,459,373 M,18,97934,98434,459,373,132,392
Sprite,Foreground,Centre,"SB\Pixel.jpg",0,0 F,0,97235,,0.3379616 S,0,97235,,12 M,19,97235,97934,482,314,500,378 M,18,97934,98434,500,378,132,392
Sprite,Foreground,Centre,"SB\Pixel.jpg",0,0 F,0,97235,,0.4663184 S,0,97235,,12 M,19,97235,97934,482,314,390,281 M,18,97934,98434,390,281,132,392
Sprite,Foreground,Centre,"SB\Pixel.jpg",0,0 F,0,97235,,0.2553555 S,0,97235,,18 M,19,97235,97934,482,314,422,343 M,18,97934,98434,422,343,132,392
Sprite,Foreground,Centre,"SB\Pixel.jpg",0,0 F,0,97235,,0.3484295 S,0,97235,,19 M,19,97235,97934,482,314,526,316 M,18,97934,98434,526,316,132,392
Sprite,Foreground,Centre,"SB\Pixel.jpg",0,0 F,0,97235,,0.3016047 S,0,97235,,14 M,19,97235,97934,482,314,467,381 M,18,97934,98434,467,381,132,392
Sprite,Foreground,Centre,"SB\Pixel.jpg",0,0 F,0,97235,,0.3526971 S,0,97235,,16 M,19,97235,97934,482,314,402,297 M,18,97934,98434,402,297,132,392
Sprite,Foreground,Centre,"SB\Pixel.jpg",0,0 F,0,97235,,0.4734167 S,0,97235,,10 M,19,97235,97934,482,314,432,356 M,18,97934,98434,432,356,132,392
Sprite,Foreground,Centre,"SB\Pixel.jpg",0,0 F,0,97235,,0.3530047 S,0,97235,,16 M,19,97235,97934,482,314,518,317 M,18,97934,98434,518,317,132,392
Sprite,Foreground,Centre,"SB\Pixel.jpg",0,0 F,0,97235,,0.2164218 S,0,97235,,10 M,19,97235,97934,482,314,526,300 M,18,97934,98434,526,300,132,392
Sprite,Foreground,Centre,"SB\Pixel.jpg",0,0 F,0,97235,,0.2459109 S,0,97235,,13 M,19,97235,97934,482,314,393,247 M,18,97934,98434,393,247,132,392
Sprite,Foreground,Centre,"SB\Pixel.jpg",0,0 F,0,97235,,0.2885283 S,0,97235,,10 M,19,97235,97934,482,314,556,274 M,18,97934,98434,556,274,132,392
Sprite,Foreground,Centre,"SB\Pixel.jpg",0,0 F,0,97235,,0.2055946 S,0,97235,,16 M,19,97235,97934,482,314,533,310 M,18,97934,98434,533,310,132,392
Sprite,Foreground,Centre,"SB\Pixel.jpg",0,0 F,0,97235,,0.256721 S,0,97235,,17 M,19,97235,97934,482,314,507,380 M,18,97934,98434,507,380,132,392
Sprite,Foreground,Centre,"SB\Pixel.jpg",0,0 F,0,97235,,0.2408016 S,0,97235,,11 M,19,97235,97934,482,314,480,360 M,18,97934,98434,480,360,132,392
Sprite,Foreground,Centre,"SB\Pixel.jpg",0,0 F,0,97235,,0.4516623 S,0,97235,,19 M,19,97235,97934,482,314,423,214 M,18,97934,98434,423,214,132,392
Sprite,Foreground,Centre,"SB\Pixel.jpg",0,0 F,0,97235,,0.2897288 S,0,97235,,13 M,19,97235,97934,482,314,581,370 M,18,97934,98434,581,370,132,392
Sprite,Foreground,Centre,"SB\Pixel.jpg",0,0 F,0,97235,,0.2583987 S,0,97235,,17 M,19,97235,97934,482,314,569,266 M,18,97934,98434,569,266,132,392
Sprite,Foreground,Centre,"SB\Pixel.jpg",0,0 F,0,97235,,0.4564389 S,0,97235,,11 M,19,97235,97934,482,314,571,297 M,18,97934,98434,571,297,132,392
Sprite,Foreground,Centre,"SB\Pixel.jpg",0,0 F,0,97235,,0.4592479 S,0,97235,,17 M,19,97235,97934,482,314,422,313 M,18,97934,98434,422,313,132,392
Sprite,Foreground,Centre,"SB\Pixel.jpg",0,0 F,0,97235,,0.3042797 S,0,97235,,13 M,19,97235,97934,482,314,560,262 M,18,97934,98434,560,262,132,392
Sprite,Foreground,Centre,"SB\Pixel.jpg",0,0 F,0,97235,,0.4911308 S,0,97235,,18 M,19,97235,97934,482,314,446,220 M,18,97934,98434,446,220,132,392
Sprite,Foreground,Centre,"SB\Pixel.jpg",0,0 F,0,97235,,0.307149 S,0,97235,,13 M,19,97235,97934,482,314,556,307 M,18,97934,98434,556,307,132,392
Sprite,Foreground,Centre,"SB\Pixel.jpg",0,0 F,0,97235,,0.396002 S,0,97235,,11 M,19,97235,97934,482,314,577,250 M,18,97934,98434,577,250,132,392
Sprite,Foreground,Centre,"SB\Pixel.jpg",0,0 F,0,97235,,0.3458152 S,0,97235,,10 M,19,97235,97934,482,314,454,341 M,18,97934,98434,454,341,132,392
Sprite,Foreground,Centre,"SB\Pixel.jpg",0,0 F,0,97235,,0.2072563 S,0,97235,,12 M,19,97235,97934,482,314,397,389 M,18,97934,98434,397,389,132,392
Sprite,Foreground,Centre,"SB\Pixel.jpg",0,0 F,0,97235,,0.2340872 S,0,97235,,15 M,19,97235,97934,482,314,524,241 M,18,97934,98434,524,241,132,392
Sprite,Foreground,Centre,"SB\Pixel.jpg",0,0 F,0,97235,,0.4896588 S,0,97235,,17 M,19,97235,97934,482,314,533,300 M,18,97934,98434,533,300,132,392
Sprite,Foreground,Centre,"SB\Text\002d.png",260,260 S,0,60534,,0.25 C,0,60534,,255,255,255 F,0,60534,60634,0,1 F,0,62335,62435,1,0
Sprite,Foreground,Centre,"SB\Text\0061.png",284,260 S,0,60534,,0.25 C,0,60584,,255,255,255 F,0,60584,60684,0,1 F,0,62335,62435,1,0
Sprite,Foreground,Centre,"SB\Text\007a.png",298,260 S,0,60534,,0.25 C,0,60634,,255,255,255 F,0,60634,60734,0,1 F,0,62335,62435,1,0
Sprite,Foreground,Centre,"SB\Text\0072.png",313,260 S,0,60534,,0.25 C,0,60684,,255,255,255 F,0,60684,60784,0,1 F,0,62335,62435,1,0
Sprite,Foreground,Centre,"SB\Text\0061.png",328,260 S,0,60534,,0.25 C,0,60734,,255,255,255 F,0,60734,60834,0,1 F,0,62335,62435,1,0
Sprite,Foreground,Centre,"SB\Text\0065.png",342,260 S,0,60534,,0.25 C,0,60784,,255,255,255 F,0,60784,60884,0,1 F,0,62335,62435,1,0
Sprite,Foreground,Centre,"SB\Text\006c.png",357,260 S,0,60534,,0.25 C,0,60834,,255,255,255 F,0,60834,60934,0,1 F,0,62335,62435,1,0
Sprite,Foreground,Centre,"SB\Text\002d.png",380,260 S,0,60534,,0.25 C,0,60884,,255,255,255 F,0,60884,60984,0,1 F,0,62335,62435,1,0
//Storyboard Layer 4 (Overlay)
//Storyboard Sound Samples

[TimingPoints]
2435,300,4,2,1,70,1,0
2435,-333.333333333333,4,2,1,70,0,0
7235,-83.3333333333333,4,2,2,80,0,0
10835,-62.5,4,2,3,80,0,0
11135,-83.3333333333333,4,2,1,80,0,0
11735,-50,4,2,1,80,0,0
12035,-50,4,2,2,65,0,0
12335,-50,4,2,1,65,0,0
12485,-83.3333333333333,4,2,1,65,0,0
13235,-50,4,2,1,75,0,0
13685,-83.3333333333333,4,2,1,75,0,0
14435,-83.3333333333333,4,2,1,85,0,0
15335,-166.666666666667,4,2,1,85,0,0
16235,-83.3333333333333,4,2,1,85,0,0
16535,-50,4,2,1,85,0,0
16835,-100,4,2,3,90,0,0
16985,-100,4,2,2,90,0,0
17435,-90.9090909090909,4,2,2,90,0,0
18035,-83.3333333333333,4,2,2,90,0,0
18635,-76.9230769230769,4,2,2,90,0,0
19235,-71.4285714285714,4,2,3,90,0,0
19385,-71.4285714285714,4,2,2,90,0,0
19835,-71.4285714285714,4,2,3,90,0,0
19910,-71.4285714285714,4,2,9,90,0,0
19985,-71.4285714285714,4,2,9,90,0,0
20435,-50,4,2,4,90,0,0
20735,-83.3333333333333,4,2,4,90,0,0
21185,-83.3333333333333,4,2,1,90,0,0
21335,-166.666666666667,4,2,1,90,0,0
21635,-50,4,2,2,90,0,1
21935,-62.5,4,2,1,90,0,1
22235,-62.5,4,2,4,90,0,1
22535,-83.3333333333333,4,2,2,90,0,1
23435,-62.5,4,2,5,90,0,1
23735,-62.5,4,2,1,90,0,1
23885,-62.5,4,2,2,90,0,1
24035,-83.3333333333333,4,2,2,90,0,1
24185,-83.3333333333333,4,2,1,90,0,1
24335,-62.5,4,2,2,90,0,1
24635,-62.5,4,2,6,90,0,1
24785,-62.5,4,2,2,90,0,1
24935,-83.3333333333333,4,2,2,90,0,1
25385,-83.3333333333333,4,2,1,90,0,1
25535,-62.5,4,2,4,90,0,1
25985,-62.5,4,2,2,90,0,1
26135,-50,4,2,2,90,0,1
26435,-50,4,2,2,90,0,1
26735,-50,4,2,2,90,0,1
26885,-50,4,2,2,90,0,1
27035,-83.3333333333333,4,2,6,90,0,1
27185,-83.3333333333333,4,2,2,90,0,1
28235,-62.5,4,2,5,90,0,1
28385,-62.5,4,2,1,90,0,1
28535,-62.5,4,2,2,90,0,1
28835,-62.5,4,2,1,90,0,1
28985,-50,4,2,1,90,0,1
29435,-62.5,4,2,5,90,0,1
29735,-62.5,4,2,2,90,0,1
30035,-62.5,4,2,4,90,0,0
31235,-50,4,2,2,90,0,1
31535,-62.5,4,2,1,90,0,1
31835,-62.5,4,2,5,90,0,1
32135,-62.5,4,2,2,90,0,1
32585,-83.3333333333333,4,2,2,90,0,1
32735,-83.3333333333333,4,2,1,90,0,1
33035,-62.5,4,2,5,90,0,1
33335,-50,4,2,2,90,0,1
33785,-62.5,4,2,1,90,0,1
34235,-62.5,4,2,5,90,0,1
34535,-50,4,2,2,90,0,1
34835,-50,4,2,1,90,0,1
35135,-62.5,4,2,1,90,0,1
35435,-62.5,4,2,6,90,0,1
35735,-50,4,2,1,90,0,1
36035,-50,4,2,6,90,0,1
36335,-50,4,2,1,90,0,1
36635,-50,4,2,5,90,0,1
36935,-83.3333333333333,4,2,2,90,0,1
37235,-83.3333333333333,4,2,1,90,0,1
37835,-83.3333333333333,4,2,5,90,0,1
37985,-62.5,4,2,5,90,0,1
38135,-62.5,4,2,2,90,0,1
38360,-62.5,4,2,2,90,0,1
38435,-62.5,4,2,1,90,0,1
38585,-50,4,2,1,90,0,1
39035,-62.5,4,2,6,90,0,1
39335,-62.5,4,2,2,90,0,1
39635,-62.5,4,2,2,80,0,0
39935,-166.666666666667,4,2,4,80,0,0
40085,-166.666666666667,4,2,1,80,0,0
40385,-166.666666666667,4,2,2,80,0,0
40535,-50,4,2,2,80,0,0
40835,-50,4,2,2,90,0,1
41135,-62.5,4,2,1,90,0,1
41435,-83.3333333333333,4,2,4,90,0,1
41735,-166.666666666667,4,2,4,90,0,1
42335,-83.3333333333333,4,2,4,90,0,1
42635,-83.3333333333333,4,2,5,90,0,1
42785,-62.5,4,2,5,90,0,1
42935,-62.5,4,2,2,90,0,1
43385,-50,4,2,1,90,0,1
43835,-83.3333333333333,4,2,4,90,0,1
44435,-166.666666666667,4,2,4,90,0,1
44735,-83.3333333333333,4,2,4,90,0,1
45035,-83.3333333333333,4,2,5,90,0,1
45185,-62.5,4,2,5,90,0,1
45335,-50,4,2,2,90,0,1
46235,-50,4,2,5,90,0,1
46385,-62.5,4,2,5,90,0,1
46535,-62.5,4,2,4,90,0,1
46685,-62.5,4,2,1,90,0,1
46985,-83.3333333333333,4,2,1,90,0,1
47135,-83.3333333333333,4,2,2,90,0,1
47435,-62.5,4,2,5,90,0,1
47735,-62.5,4,2,4,90,0,1
47885,-62.5,4,2,1,90,0,1
48185,-50,4,2,1,90,0,1
48635,-62.5,4,2,5,90,0,1
48935,-62.5,4,2,4,90,0,1
49235,-100,4,2,5,90,0,0
49535,-166.666666666667,4,2,2,90,0,0
49835,-100,4,2,2,90,0,0
50135,-83.3333333333333,4,2,2,90,0,0
50435,-50,4,2,2,90,0,1
50735,-62.5,4,2,1,90,0,1
51035,-83.3333333333333,4,2,4,90,0,1
51335,-166.666666666667,4,2,4,90,0,1
51935,-83.3333333333333,4,2,4,90,0,1
52235,-83.3333333333333,4,2,5,90,0,1
52385,-62.5,4,2,5,90,0,1
52535,-62.5,4,2,2,90,0,1
52685,-62.5,4,2,4,90,0,1
52985,-50,4,2,1,90,0,1
53435,-83.3333333333333,4,2,4,90,0,1
54035,-166.666666666667,4,2,4,90,0,1
54335,-83.3333333333333,4,2,4,90,0,1
54635,-62.5,4,2,5,90,0,1
54935,-50,4,2,2,90,0,1
55085,-50,4,2,1,90,0,1
55235,-50,4,2,2,90,0,1
55535,-62.5,4,2,2,90,0,1
55835,-62.5,4,2,5,90,0,1
55985,-83.3333333333333,4,2,5,90,0,1
56135,-83.3333333333333,4,2,2,90,0,1
56735,-62.5,4,2,4,90,0,1
57785,-62.5,4,2,2,90,0,1
58235,-62.5,4,2,4,90,0,1
58385,-62.5,4,2,1,90,0,1
58535,-50,4,2,1,90,0,1
58835,-100,4,2,5,90,0,0
59585,-100,4,2,1,90,0,0
59735,-166.666666666667,4,2,1,90,0,0
60035,-166.666666666667,4,2,7,80,0,0
69635,-100,4,2,8,80,0,0
70235,-100,4,2,4,80,0,0
74435,-100,4,2,8,80,0,0
75035,-100,4,2,4,80,0,0
78935,-62.5,4,2,4,80,0,0
79235,-62.5,4,2,4,70,0,0
82835,-62.5,4,2,3,70,0,0
83135,-83.3333333333333,4,2,2,70,0,0
83585,-83.3333333333333,4,2,1,70,0,0
83735,-166.666666666667,4,2,1,70,0,0
84035,-166.666666666667,4,2,9,75,0,0
84785,-166.666666666667,4,2,1,75,0,0
85535,-166.666666666667,4,2,2,75,0,0
85685,-83.3333333333334,4,2,2,75,0,0
85985,-83.3333333333334,4,2,1,75,0,0
86735,-83.3333333333334,4,2,2,75,0,0
87185,-83.3333333333334,4,2,1,75,0,0
87935,-166.666666666667,4,2,2,75,0,0
88235,-50,4,2,7,75,0,0
88535,-50,4,2,2,75,0,0
88835,-83.3333333333333,4,2,2,80,0,0
90035,-83.3333333333333,4,2,9,80,0,0
93635,-83.3333333333333,4,2,3,85,0,0
93785,-83.3333333333333,4,2,2,85,0,0
94235,-76.9230769230769,4,2,2,85,0,0
94835,-71.4285714285714,4,2,9,85,0,0
95435,-66.6666666666667,4,2,9,85,0,0
96035,-62.5,4,2,9,85,0,0
97235,-50,4,2,3,85,0,0
97535,-83.3333333333333,4,2,4,85,0,0
98135,-166.666666666667,4,2,10,85,0,0
98435,-50,4,2,2,90,0,1
98735,-62.5,4,2,4,90,0,1
99335,-83.3333333333333,4,2,6,90,0,1
99485,-83.3333333333333,4,2,1,90,0,1
99935,-83.3333333333333,4,2,6,90,0,1
100085,-83.3333333333333,4,2,1,90,0,1
100235,-62.5,4,2,1,90,0,1
100535,-62.5,4,2,6,90,0,1
100685,-62.5,4,2,2,90,0,1
101135,-62.5,4,2,4,90,0,1
101285,-62.5,4,2,2,90,0,1
101735,-62.5,4,2,5,90,0,1
101885,-62.5,4,2,2,90,0,1
102035,-83.3333333333333,4,2,1,90,0,1
102335,-83.3333333333333,4,2,4,90,0,1
102635,-83.3333333333333,4,2,1,90,0,1
102935,-83.3333333333333,4,2,6,90,0,1
103085,-83.3333333333333,4,2,3,90,0,1
103235,-50,4,2,3,90,0,1
103535,-62.5,4,2,6,90,0,1
103685,-62.5,4,2,1,90,0,1
104135,-62.5,4,2,6,90,0,1
104285,-62.5,4,2,1,90,0,1
104735,-83.3333333333333,4,2,6,90,0,1
104885,-83.3333333333333,4,2,1,90,0,1
105335,-83.3333333333333,4,2,4,90,0,1
106985,-83.3333333333333,4,2,2,90,0,1
107135,-83.3333333333333,4,2,4,90,0,1
107285,-83.3333333333333,4,2,2,90,0,1
107435,-83.3333333333333,4,2,4,90,0,1
108035,-166.666666666667,4,2,4,90,0,0
108335,-50,4,2,6,90,0,1
108485,-50,4,2,4,90,0,1
108635,-83.3333333333333,4,2,4,90,0,1
108935,-62.5,4,2,4,90,0,1
109535,-83.3333333333333,4,2,4,90,0,1
109835,-83.3333333333333,4,2,1,90,0,1
110135,-83.3333333333333,4,2,6,90,0,1
110284,-83.3333333333333,4,2,1,90,0,1
110585,-62.5,4,2,1,90,0,1
110735,-62.5,4,2,6,90,0,1
110885,-62.5,4,2,4,90,0,1
111035,-83.3333333333333,4,2,4,90,0,1
112235,-83.3333333333333,4,2,1,90,0,1
112535,-62.5,4,2,4,90,0,1
112685,-62.5,4,2,1,90,0,1
112835,-166.666666666667,4,2,2,90,0,1
113435,-166.666666666667,4,2,11,90,0,1
113735,-100,4,2,2,90,0,1
114335,-100,4,2,1,90,0,1
114635,-62.5,4,2,12,90,0,1
114935,-50,4,2,13,90,0,1
115235,-50,4,2,4,90,0,1
116435,-50,4,2,14,90,0,1
117335,-62.5,4,2,10,90,0,1
117635,-62.5,4,2,15,95,0,0
117785,-62.5,4,2,1,95,0,0
117935,-62.5,4,2,8,95,0,0
122435,-62.5,4,2,4,95,0,0
122735,-62.5,4,2,8,95,0,0
127235,-166.666666666667,4,2,8,95,0,0
127535,-62.5,4,2,16,95,0,0
127685,-62.5,4,2,4,95,0,0
127835,-62.5,4,2,4,95,0,0
128135,-62.5,4,2,8,95,0,0
131435,-62.5,4,2,10,95,0,0
131585,-62.5,4,2,1,95,0,0
131735,-62.5,4,2,8,95,0,0
132035,-62.5,4,2,17,95,0,0
132185,-62.5,4,2,5,95,0,0
132335,-62.5,4,2,8,95,0,0
132485,-62.5,4,2,5,95,0,0
132635,-62.5,4,2,4,95,0,0
132785,-62.5,4,2,5,95,0,0
132935,-62.5,4,2,8,95,0,0
133085,-62.5,4,2,5,95,0,0
133235,-62.5,4,2,4,95,0,0
133385,-62.5,4,2,5,95,0,0
133535,-62.5,4,2,8,95,0,0
133685,-62.5,4,2,5,95,0,0
133835,-62.5,4,2,4,95,0,0
133985,-62.5,4,2,5,95,0,0
134135,-62.5,4,2,8,95,0,0
134285,-62.5,4,2,5,95,0,0
134435,-62.5,4,2,14,95,0,0
134735,-62.5,4,2,8,95,0,0
134885,-62.5,4,2,14,95,0,0
135335,-62.5,4,2,8,95,0,0
135485,-62.5,4,2,14,95,0,0
135635,-50,4,2,14,95,0,0
136235,-50,4,2,18,95,0,0
136385,-50,4,2,1,95,0,0
136535,-50,4,2,15,95,0,0
136685,-62.5,4,2,15,95,0,0
136835,-62.5,4,2,11,95,0,0

[Colours]
Combo1 : 255,128,192
Combo2 : 255,0,128
Combo3 : 255,88,102
Combo4 : 255,0,255

[HitObjects]
372,200,2435,6,0,B|348:228|316:233|316:233|342:258|347:294|336:324|336:324|301:326|271:306|256:278|256:278|239:309|207:326|175:325|175:325|163:292|172:256|194:233|194:233|159:228|133:202|126:172|126:172|153:151|189:148|218:162|218:162|213:128|229:95|256:78|256:78|285:98|299:131|294:163|294:163|327:146|365:153|390:176,1,944.99997116089,4|0,2:0|0:0,0:0:0:0:
413,192,7235,6,0,B|418:147|418:147|435:133|435:133|441:81,1,119.999996337891,4|0,3:2|0:0,0:0:0:0:
446,50,7535,1,0,0:0:0:0:
413,192,7835,1,8,2:0:0:0:
99,192,9035,5,8,2:0:0:0:
256,64,10235,5,8,2:0:0:0:
256,320,10835,6,0,B|318:280|328:194|256:160|199:198|206:257,1,240,4|0,3:2|0:0,0:0:0:0:
356,354,11135,2,0,P|380:322|388:282,1,59.9999981689454,2|0,2:0|0:0,0:0:0:0:
114,267,11285,2,0,P|125:295|145:318,1,59.9999981689454,2|0,2:0|0:0,0:0:0:0:
250,379,11435,6,0,L|259:284,1,59.9999981689454,2|0,2:0|0:0,0:0:0:0:
234,111,11585,1,0,1:0:0:0:
234,111,11660,1,0,1:0:0:0:
234,111,11735,2,0,B|281:65|281:65|261:265,1,200,0|0,3:0|3:0,0:0:0:0:
362,298,12035,6,0,B|386:268|430:266|430:266|373:244|322:278|322:278|269:313|213:277,1,300,4|0,3:2|0:0,0:0:0:0:
219,280,12335,5,8,1:2:0:0:
372,102,12485,2,0,L|367:162,1,59.9999981689454,0|0,1:0|0:0,0:0:0:0:
362,298,12635,1,8,3:2:0:0:
362,298,12710,1,0,3:0:0:0:
362,298,12785,1,0,1:0:0:0:
209,84,12935,2,0,L|214:144,1,59.9999981689454,8|0,1:2|0:0,0:0:0:0:
225,339,13085,1,0,1:0:0:0:
222,309,13160,1,0,1:0:0:0:
219,280,13235,6,0,B|165:223|80:256|80:256|78:347|150:378,1,300,8|0,3:2|0:0,0:0:0:0:
148,377,13535,5,8,1:2:0:0:
343,189,13685,2,0,L|331:121,1,59.9999981689454,0|0,1:0|0:0,0:0:0:0:
362,298,13835,1,8,3:2:0:0:
362,298,13910,1,0,3:0:0:0:
362,298,13985,1,0,1:0:0:0:
137,118,14135,2,0,L|149:50,1,59.9999981689454,8|0,1:2|0:0,0:0:0:0:
120,213,14285,1,0,1:0:0:0:
114,242,14360,1,0,1:0:0:0:
109,272,14435,5,8,3:2:0:0:
343,189,14585,1,0,0:0:0:0:
137,118,14735,1,8,1:2:0:0:
315,34,14885,1,0,1:0:0:0:
236,185,15035,5,8,3:2:0:0:
241,155,15110,1,0,3:0:0:0:
246,126,15185,1,0,1:0:0:0:
220,279,15335,2,0,L|212:331,1,29.9999990844727,8|0,1:2|0:0,0:0:0:0:
210,339,15485,2,0,L|202:391,1,29.9999990844727,0|0,1:0|0:0,0:0:0:0:
17,287,15635,6,0,B|76:269|124:307|105:322|154:359|219:336,1,209.999993591309,8|0,3:2|0:0,0:0:0:0:
259,146,16235,6,0,P|246:108|249:72,2,59.9999981689454,10|0|0,2:0|0:0|0:0,0:0:0:0:
404,241,16535,2,0,B|433:211|433:211|321:219|321:219|297:239|297:239|169:247,1,300,10|0,2:0|0:0,0:0:0:0:
29,158,16835,6,0,L|44:26,1,100,4|2,2:0|2:0,0:0:0:0:
134,71,17135,2,0,L|123:171,1,100,0|2,1:0|2:0,0:0:0:0:
404,241,17435,6,0,L|389:109,1,110.000003356934,0|2,1:0|2:0,0:0:0:0:
297,144,17735,2,0,L|310:254,1,110.000003356934,0|2,1:0|2:0,0:0:0:0:
128,348,18035,6,0,P|40:348|-1:306,1,119.999996337891,0|2,1:0|2:0,0:0:0:0:
32,236,18335,2,0,P|120:236|161:278,1,119.999996337891,0|2,1:0|2:0,0:0:0:0:
322,348,18635,6,0,P|414:349|455:307,1,129.999994049073,0|2,1:0|2:0,0:0:0:0:
428,233,18935,2,0,P|336:232|295:274,1,129.999994049073,0|2,1:0|2:0,0:0:0:0:
224,339,19235,6,0,P|208:296|165:261,1,69.9999978637696,2|0,1:2|0:0,0:0:0:0:
428,233,19385,2,0,P|435:188|472:146,1,69.9999978637696,2|0,1:2|0:0,0:0:0:0:
231,191,19535,2,0,P|187:183|135:203,1,69.9999978637696,2|0,1:2|0:0,0:0:0:0:
397,88,19685,2,0,P|438:72|493:83,1,69.9999978637696,2|0,1:2|0:0,0:0:0:0:
308,24,19835,5,2,1:2:0:0:
310,53,19910,1,2,1:2:0:0:
312,83,19985,1,2,1:2:0:0:
314,113,20060,1,2,1:2:0:0:
316,143,20135,1,2,1:2:0:0:
318,173,20210,1,2,1:2:0:0:
320,203,20285,1,2,1:2:0:0:
322,233,20360,1,2,1:2:0:0:
362,304,20435,6,0,B|386:248|386:248|255:278|255:278|303:375,1,300,4|0,2:0|0:0,0:0:0:0:
301,371,20735,2,0,L|195:359,1,59.9999981689454,2|0,2:0|0:0,0:0:0:0:
318,173,20885,2,0,L|419:150,1,59.9999981689454,2|0,2:0|0:0,0:0:0:0:
448,340,21035,1,2,2:0:0:0:
132,196,21185,5,0,1:0:0:0:
132,196,21260,1,0,1:0:0:0:
191,271,21335,2,0,L|221:267,1,29.9999990844727,0|0,3:0|0:0,0:0:0:0:
249,263,21485,2,0,L|279:259,1,29.9999990844727,0|0,3:0|0:0,0:0:0:0:
132,196,21635,6,0,B|167:104|167:104|243:144|250:237|168:289,1,300,4|0,3:2|0:0,0:0:0:0:
87,367,21935,2,0,B|27:371|27:307|89:306|126:342|126:342|162:379|225:363,1,240,10|0,2:0|0:0,0:0:0:0:
348,252,22235,2,0,B|296:288|296:288|316:392,1,160,0|0,1:0|0:0,0:0:0:0:
440,224,22535,6,0,P|416:184|372:156,1,59.9999981689454,10|0,2:0|0:0,0:0:0:0:
428,81,22685,2,0,P|398:79|369:86,1,59.9999981689454,2|0,2:0|0:0,0:0:0:0:
348,252,22835,1,0,3:0:0:0:
206,77,22985,6,0,L|259:49,1,59.9999981689454,2|0,2:0|0:0,0:0:0:0:
200,242,23135,2,0,L|251:274,1,59.9999981689454,10|0,2:0|0:0,0:0:0:0:
311,163,23285,2,0,L|220:160,1,59.9999981689454,2|0,2:0|0:0,0:0:0:0:
26,203,23435,6,0,B|126:186|126:186|150:157|150:157|302:162,1,240,2|0,1:2|0:0,0:0:0:0:
103,25,23735,2,0,P|81:58|75:97,1,80,10|0,2:0|0:0,0:0:0:0:
200,242,23885,1,2,2:0:0:0:
316,78,24035,6,0,P|346:72|375:77,1,59.9999981689454,0|0,3:0|0:0,0:0:0:0:
440,296,24185,2,0,P|400:292|348:324,1,59.9999981689454,2|0,2:0|0:0,0:0:0:0:
347,169,24335,6,0,B|342:209|315:233|315:233|396:184|492:220,1,240,10|0,2:0|0:0,0:0:0:0:
251,161,24635,2,0,B|171:130|90:179|90:179|120:152|122:115,1,240,2|0,1:2|0:0,0:0:0:0:
125,23,24935,6,0,P|167:34|197:63,1,59.9999981689454,10|0,2:0|0:0,0:0:0:0:
8,224,25085,2,0,P|-4:182|7:142,1,59.9999981689454,2|0,2:0|0:0,0:0:0:0:
251,161,25235,5,2,3:2:0:0:
285,350,25385,1,2,2:0:0:0:
100,247,25535,2,0,B|130:305|205:299|205:299|244:239|322:259,1,240,10|0,2:0|0:0,0:0:0:0:
455,349,25835,6,0,P|419:365|379:365,1,80,0|0,1:0|0:0,0:0:0:0:
285,350,25985,1,2,2:0:0:0:
403,108,26135,2,0,B|367:104|343:72|343:72|303:136|359:176|359:176|415:216|395:291,1,300,10|0,2:0|0:0,0:0:0:0:
192,384,26435,6,0,B|172:320|205:273|205:273|290:156|388:264|303:369|205:273|205:273|136:208|88:256|88:256|128:248|156:264,1,600,4|2,3:2|2:0,0:0:0:0:
60,348,27035,6,0,P|20:324|0:264,1,59.9999981689454,2|0,1:2|0:0,0:0:0:0:
196,153,27185,1,2,2:0:0:0:
20,68,27335,6,0,B|28:128,1,59.9999981689454,10|0,2:0|0:0,0:0:0:0:
88,256,27485,2,0,B|96:188,1,59.9999981689454,2|0,2:0|0:0,0:0:0:0:
253,25,27635,5,2,3:2:0:0:
253,25,27785,2,0,L|262:84,1,59.9999981689454
360,67,27935,2,0,L|349:126,1,59.9999981689454,10|0,2:0|0:0,0:0:0:0:
166,100,28085,2,0,L|196:153,1,59.9999981689454,2|0,2:0|0:0,0:0:0:0:
335,277,28235,6,0,B|337:222|337:222|303:218|280:194|280:194|268:225|237:239|237:239|258:290,1,240,2|0,1:2|0:0,0:0:0:0:
343,373,28535,2,0,B|387:368|411:335|411:335|442:299|485:298,1,160,10|2,2:0|2:0,0:0:0:0:
157,226,28835,5,0,3:2:0:0:
335,277,28985,2,0,B|409:237|412:127|326:72|246:95|214:150|214:150|214:150|214:150|257:183|250:234,1,400,2|0,2:0|0:0,0:0:0:0:
64,208,29435,6,0,P|84:164|124:136,1,80,0|0,1:0|0:0,0:0:0:0:
252,300,29585,1,2,2:0:0:0:
45,302,29735,2,0,B|94:278|138:306|138:306|148:278|178:266|178:266|218:314|298:294,1,240,10|0,2:0|0:0,0:0:0:0:
335,277,30035,5,2,3:2:0:0:
492,109,30185,1,0,0:0:0:0:
348,292,30335,5,10,2:0:0:0:
348,24,30485,1,2,2:0:0:0:
108,228,30635,5,2,1:2:0:0:
295,115,30785,1,2,2:0:0:0:
188,334,30935,6,0,L|183:373,2,40,10|8|8,2:0|2:0|2:0,0:0:0:0:
128,134,31085,2,0,L|120:66,2,40,10|8|8,2:0|2:0|2:0,0:0:0:0:
226,245,31235,6,0,B|260:266|296:254|296:254|264:182|204:194|204:194|160:242|96:226,1,300,4|0,3:2|0:0,0:0:0:0:
13,238,31535,6,0,P|18:199|38:164,1,80,10|0,2:0|0:0,0:0:0:0:
214,64,31685,2,0,P|194:30|162:6,1,80,2|0,2:0|0:0,0:0:0:0:
226,245,31835,6,0,L|318:237,1,80,2|0,1:2|0:0,0:0:0:0:
398,68,31985,1,2,2:0:0:0:
236,148,32135,2,0,B|335:140|335:140|370:167|370:167|507:156,1,240,10|0,2:0|0:0,0:0:0:0:
466,159,32435,5,0,3:0:0:0:
236,148,32585,2,0,L|176:152,1,59.9999981689454
157,44,32735,2,0,L|100:63,1,59.9999981689454,10|0,2:0|0:0,0:0:0:0:
173,258,32885,2,0,L|114:246,1,59.9999981689454,2|0,2:0|0:0,0:0:0:0:
16,110,33035,6,0,B|36:145|78:157|78:157|38:175|22:214,1,160,2|2,1:2|2:0,0:0:0:0:
96,337,33260,1,2,2:0:0:0:
96,337,33335,2,0,B|120:305|120:305|112:223,1,100,10|0,2:0|0:0,0:0:0:0:
254,56,33485,2,0,B|230:88|230:88|238:170,1,100,2|0,2:0|0:0,0:0:0:0:
245,269,33635,5,0,3:0:0:0:
439,167,33785,2,0,P|401:156|362:158,1,80,2|0,2:0|0:0,0:0:0:0:
312,338,33935,2,0,B|341:311|341:266|341:266|396:234|444:282|444:282|420:322|368:322,1,240,10|0,2:0|0:0,0:0:0:0:
201,195,34235,6,0,P|141:255|248:254,1,240,2|0,1:2|0:0,0:0:0:0:
360,158,34535,2,0,B|387:115|387:115|373:45,1,100,10|0,2:0|0:0,0:0:0:0:
283,46,34685,2,0,B|255:88|255:88|265:136,1,100,2|0,2:0|0:0,0:0:0:0:
312,338,34835,5,2,3:2:0:0:
360,158,34985,1,0,0:0:0:0:
201,195,35135,2,0,L|152:188,6,40,10|2|2|2|2|2|2,2:0|2:0|2:0|2:0|2:0|2:0|2:0,0:0:0:0:
290,227,35435,2,0,B|230:218|230:218|213:228|213:228|198:214|198:214|127:204,1,160,2|0,1:2|0:0,0:0:0:0:
48,175,35735,6,0,B|6:130|33:81|33:81|109:66|161:143|138:207,1,300,10|0,2:0|0:0,0:0:0:0:
74,276,36035,6,0,B|23:285|0:336|0:336|-47:217|90:84|259:178|255:324|174:385,1,600,4|0,3:2|0:0,0:0:0:0:
88,370,36635,5,2,1:2:0:0:
290,227,36785,1,2,2:0:0:0:
424,324,36935,2,0,L|420:384,1,59.9999981689454,10|0,2:0|0:0,0:0:0:0:
435,167,37085,1,2,2:0:0:0:
433,196,37160,1,2,2:0:0:0:
431,226,37235,1,2,3:2:0:0:
219,119,37385,6,0,P|248:113|277:118,1,59.9999981689454
340,46,37535,2,0,P|359:68|370:96,1,59.9999981689454,10|0,2:0|0:0,0:0:0:0:
464,115,37685,2,0,P|454:143|435:166,1,59.9999981689454,2|0,2:0|0:0,0:0:0:0:
290,227,37835,5,2,1:2:0:0:
140,64,37985,2,0,B|105:68|105:68|95:64|95:64|40:68,1,80,2|0,2:0|0:0,0:0:0:0:
52,161,38135,2,0,B|86:159|86:159|96:163|96:163|131:159,1,80,10|0,2:0|0:0,0:0:0:0:
130,356,38285,1,2,2:0:0:0:
120,317,38360,1,2,2:0:0:0:
129,278,38435,5,0,3:0:0:0:
375,206,38585,2,0,B|449:219|473:332|364:385|294:327|298:266|298:266|275:310|221:326|178:305,1,400,2|0,0:0|0:0,0:0:0:0:
222,138,39035,6,0,L|215:218,1,80,2|0,1:2|0:0,0:0:0:0:
129,278,39185,1,2,2:0:0:0:
113,124,39335,2,0,B|118:179|118:179|109:200|109:200|123:219|123:219|130:287,1,160,10|2,2:0|2:0,0:0:0:0:
377,328,39635,5,0,3:0:0:0:
407,138,39785,1,0,0:0:0:0:
303,239,39935,2,0,L|355:235,1,29.9999990844727,2|0,2:0|0:0,0:0:0:0:
362,235,40085,2,0,L|414:231,1,29.9999990844727,2|0,2:0|0:0,0:0:0:0:
487,226,40235,1,2,2:0:0:0:
204,280,40385,5,0,1:0:0:0:
204,280,40460,1,0,1:0:0:0:
204,280,40535,2,0,B|149:142|259:93|334:160|286:271|172:206,1,300,0|0,1:0|0:0,0:0:0:0:
16,128,40835,6,0,B|0:76|32:32|32:32|128:56|128:160|80:200,1,300,4|0,3:2|0:0,0:0:0:0:
3,223,41135,6,0,P|34:263|117:280,1,80,10|0,2:0|0:0,0:0:0:0:
136,335,41285,2,0,P|153:299|154:260,1,80
259,46,41435,6,0,P|253:75|255:105,1,59.9999981689454,2|0,1:2|0:0,0:0:0:0:
246,293,41585,2,0,P|274:285|298:268,1,59.9999981689454,2|0,2:0|0:0,0:0:0:0:
466,179,41735,6,0,P|444:158|416:149,1,59.9999981689454,10|0,2:0|0:0,0:0:0:0:
180,165,42035,2,0,P|202:186|229:198,1,59.9999981689454,2|0,3:2|0:0,0:0:0:0:
387,300,42335,6,0,P|394:270|391:241,1,59.9999981689454,10|0,2:0|0:0,0:0:0:0:
400,53,42485,2,0,P|372:61|348:80,1,59.9999981689454,2|0,2:0|0:0,0:0:0:0:
322,173,42635,5,2,1:2:0:0:
148,75,42785,2,0,P|108:100|89:139,1,80,2|0,2:0|0:0,0:0:0:0:
0,113,42935,2,0,P|2:159|27:196,1,80,10|0,2:0|0:0,0:0:0:0:
86,297,43085,2,0,P|107:255|104:211,1,80,2|0,2:0|0:0,0:0:0:0:
45,29,43235,5,0,3:0:0:0:
295,141,43385,2,0,B|346:194|419:179|437:107|380:42|312:79|276:128|276:128|236:184|157:159,1,400,2|0,2:0|0:0,0:0:0:0:
0,228,43835,6,0,L|4:168,1,59.9999981689454,2|0,1:2|0:0,0:0:0:0:
87,187,43985,2,0,L|91:127,1,59.9999981689454,2|0,2:0|0:0,0:0:0:0:
195,11,44135,2,0,L|199:70,1,59.9999981689454,10|0,2:0|0:0,0:0:0:0:
282,52,44285,2,0,L|286:111,1,59.9999981689454,2|0,2:0|0:0,0:0:0:0:
175,224,44435,6,0,L|179:164,1,59.9999981689454,2|0,3:2|0:0,0:0:0:0:
0,108,44735,6,0,L|4:167,1,59.9999981689454,10|0,2:0|0:0,0:0:0:0:
86,67,44885,2,0,L|90:126,1,59.9999981689454,2|0,2:0|0:0,0:0:0:0:
265,205,45035,5,2,1:2:0:0:
384,106,45185,2,0,P|345:104|308:120,1,80,2|0,2:0|0:0,0:0:0:0:
220,290,45335,2,0,B|296:358|388:306|388:306|408:230|348:190,1,300,10|0,2:0|0:0,0:0:0:0:
169,209,45635,6,0,B|121:225|89:269|89:269|5:393|137:453|217:333|89:269|89:269|17:237|13:165|13:165|25:193|61:209,1,600,4|0,3:2|0:0,0:0:0:0:
96,120,46235,5,2,1:2:0:0:
280,39,46385,2,0,P|242:51|213:78,1,80,2|0,2:0|0:0,0:0:0:0:
261,256,46535,2,0,B|267:185|267:185|253:163|253:163|288:126|288:126|274:105|274:105|280:38,1,240,10|0,2:0|0:0,0:0:0:0:
283,9,46835,5,0,3:0:0:0:
488,120,46985,2,0,P|512:92|520:32,1,59.9999981689454
394,135,47135,2,0,P|406:169|454:206,1,59.9999981689454,10|0,2:0|0:0,0:0:0:0:
428,45,47285,2,0,P|391:38|335:61,1,59.9999981689454,2|0,2:0|0:0,0:0:0:0:
384,283,47435,6,0,B|436:291|496:263|496:263|468:295|468:335,1,160,2|2,1:2|2:0,0:0:0:0:
300,328,47735,2,0,P|289:281|327:208,1,80,10|0,2:0|0:0,0:0:0:0:
216,199,47885,2,0,P|251:165|333:162,1,80,2|0,2:0|0:0,0:0:0:0:
370,189,48035,5,0,3:0:0:0:
130,371,48185,2,0,B|62:369|42:303|42:303|118:255|178:311|178:311|238:364|307:323,1,400,2|0,2:0|0:0,0:0:0:0:
283,108,48635,6,0,B|231:156|231:156|247:244,1,160,2|2,1:2|2:0,0:0:0:0:
389,359,48935,2,0,P|394:320|383:282,1,80,10|0,2:0|0:0,0:0:0:0:
456,219,49085,2,0,P|424:194|385:185,1,80
247,244,49235,6,0,B|208:249|175:228|183:216|141:184|89:204,1,150,4|0,3:2|0:0,0:0:0:0:
107,382,49535,2,0,L|111:342,1,29.9999990844727,8|0,2:0|0:0,0:0:0:0:
113,324,49685,2,0,L|117:284,1,29.9999990844727,8|0,2:0|0:0,0:0:0:0:
239,148,49835,6,0,B|278:153|311:132|303:120|345:86|397:108,1,150,8|0,2:0|0:0,0:0:0:0:
370,221,50135,2,0,L|367:191,6,29.9999990844727,8|8|8|8|8|8|8,2:0|2:0|2:0|2:0|2:0|2:0|2:0,0:0:0:0:
468,332,50435,6,0,P|492:228|392:304,1,300,4|0,3:2|0:0,0:0:0:0:
245,377,50735,2,0,B|353:385|353:385|315:370|297:325,1,160,10|0,2:0|0:0,0:0:0:0:
188,263,51035,6,0,L|200:195,1,59.9999981689454,2|0,1:2|0:0,0:0:0:0:
225,50,51185,2,0,L|214:109,1,59.9999981689454,2|0,2:0|0:0,0:0:0:0:
188,263,51335,6,0,L|176:195,1,59.9999981689454,10|0,2:0|0:0,0:0:0:0:
63,138,51635,2,0,L|73:197,1,59.9999981689454,2|0,3:2|0:0,0:0:0:0:
302,197,51935,6,0,L|312:137,1,59.9999981689454,10|0,2:0|0:0,0:0:0:0:
150,49,52085,2,0,L|160:108,1,59.9999981689454,2|0,2:0|0:0,0:0:0:0:
188,263,52235,5,2,1:2:0:0:
404,59,52385,2,0,B|352:50|352:50|331:31|331:31|305:42|305:42|215:26,2,160,2|10|2,2:0|2:0|2:0,0:0:0:0:
416,159,52835,5,0,3:0:0:0:
188,263,52985,2,0,B|168:247|143:247|143:247|180:211|241:212|277:252|277:252|312:290|372:293|411:256|411:256|384:254|363:239,1,400,2|0,2:0|0:0,0:0:0:0:
321,152,53435,6,0,P|312:117|320:65,1,59.9999981689454,2|0,1:2|0:0,0:0:0:0:
497,213,53585,2,0,P|506:248|498:300,1,59.9999981689454,2|0,2:0|0:0,0:0:0:0:
416,159,53735,2,0,P|442:134|491:115,1,59.9999981689454,10|0,2:0|0:0,0:0:0:0:
500,368,53885,2,0,P|465:358|424:325,1,59.9999981689454,2|0,2:0|0:0,0:0:0:0:
351,265,54035,6,0,L|410:256,1,59.9999981689454,2|0,3:2|0:0,0:0:0:0:
321,152,54335,6,0,L|267:177,1,59.9999981689454,10|0,2:0|0:0,0:0:0:0:
361,382,54485,2,0,L|301:377,1,59.9999981689454,2|0,2:0|0:0,0:0:0:0:
168,211,54635,6,0,B|193:270|259:281|259:281|202:316|198:378,1,240,2|0,1:2|0:0,0:0:0:0:
16,356,54935,2,0,B|-26:311|10:225|103:233|133:297|111:342|111:342|111:342|111:342|105:306|80:286,1,300,10|0,2:0|0:0,0:0:0:0:
25,148,55235,6,0,B|12:82|80:39|80:39|144:50|164:115|164:115|122:114|82:163,1,300,4|0,3:2|0:0,0:0:0:0:
168,211,55535,2,0,B|205:199|239:212|239:212|248:200|248:200|287:220|344:200,1,160,8|0,2:0|0:0,0:0:0:0:
399,263,55835,5,2,1:2:0:0:
411,107,55985,2,0,L|406:166,1,59.9999981689454,2|0,2:0|0:0,0:0:0:0:
507,165,56135,2,0,L|486:221,1,59.9999981689454,10|0,2:0|0:0,0:0:0:0:
308,147,56285,2,0,L|318:206,1,59.9999981689454,2|0,2:0|0:0,0:0:0:0:
501,340,56435,6,0,L|442:349,1,59.9999981689454,2|0,3:2|0:0,0:0:0:0:
288,322,56585,2,0,L|344:342,1,59.9999981689454,2|0,2:0|0:0,0:0:0:0:
440,138,56735,2,0,B|401:89|401:89|393:180|393:180|404:198|404:198|395:304,1,240,10|0,2:0|0:0,0:0:0:0:
398,262,57035,5,0,1:0:0:0:
198,352,57185,2,0,P|194:307|222:255,1,80
234,183,57335,2,0,B|165:163|114:207|145:233|77:288|2:246,1,240,10|0,2:0|0:0,0:0:0:0:
21,254,57635,5,0,3:0:0:0:
43,83,57785,2,0,L|51:171,1,80,2|0,2:0|0:0,0:0:0:0:
234,183,57935,2,0,B|283:145|265:64|265:64|201:51|173:110,1,240,10|0,2:0|0:0,0:0:0:0:
205,274,58235,6,0,B|280:265|280:265|303:250|303:250|330:271|330:271|352:256|352:256|443:245,1,240,0|0,1:0|0:0,0:0:0:0:
456,260,58535,2,0,L|350:273,1,100,10|0,2:0|0:0,0:0:0:0:
126,328,58685,2,0,B|104:285|104:285|124:212,1,100,2|0,2:0|0:0,0:0:0:0:
265,85,58835,6,0,B|297:117|293:161|293:161|260:154|232:178|232:178|294:160|355:233|304:314|231:311|201:269,1,400,4|0,3:2|0:0,0:0:0:0:
404,180,59585,5,0,1:0:0:0:
404,180,59660,1,0,1:0:0:0:
456,260,59735,2,0,L|452:308,1,29.9999990844727,0|0,3:0|0:0,0:0:0:0:
452,320,59885,2,0,L|448:368,1,29.9999990844727,0|0,3:0|0:0,0:0:0:0:
404,180,60035,5,4,2:0:0:0:
148,56,69635,6,0,L|162:249,1,150,6|0,3:2|0:0,0:0:0:0:
162,241,69935,1,10,2:0:0:0:
62,184,70085,1,0,0:0:0:0:
281,93,70235,2,0,L|330:96,3,50,2|0|0|0,1:2|0:0|0:0|0:0,0:0:0:0:
250,184,70535,2,0,L|369:192,1,100,10|8,2:0|2:0,0:0:0:0:
468,341,70835,6,0,P|432:299|316:309,1,150,2|0,3:2|0:0,0:0:0:0:
313,313,71135,1,10,2:0:0:0:
381,380,71285,1,0,0:0:0:0:
475,214,71435,2,0,L|467:142,1,50,2|0,1:2|0:0,0:0:0:0:
460,77,71585,1,0,0:0:0:0:
349,191,71735,2,0,L|336:77,1,100,10|8,2:0|2:0,0:0:0:0:
131,264,72035,6,0,P|176:231|272:252,1,150,2|0,3:2|0:0,0:0:0:0:
292,267,72335,2,0,P|337:286|386:280,1,100,10|0,2:0|0:0,0:0:0:0:
209,372,72635,2,0,L|206:323,3,50,2|0|0|0,1:2|0:0|0:0|0:0,0:0:0:0:
131,264,72935,2,0,L|140:118,1,100,10|8,2:0|2:0,0:0:0:0:
279,38,73235,6,0,P|324:3|425:30,1,150,2|0,3:2|0:0,0:0:0:0:
411,16,73535,2,0,P|383:74|348:96,1,100,10|0,2:0|0:0,0:0:0:0:
212,107,73835,2,0,P|167:72|66:99,1,150,2|0,1:2|0:0,0:0:0:0:
80,86,74135,2,0,P|108:144|143:166,1,100,10|8,2:0|2:0,0:0:0:0:
336,228,74435,6,0,B|262:214|262:214|193:256,1,150,6|0,3:2|0:0,0:0:0:0:
168,273,74735,1,10,2:0:0:0:
280,316,74885,1,0,0:0:0:0:
400,156,75035,2,0,P|424:188|420:272,1,100,2|0,1:2|0:0,0:0:0:0:
168,273,75335,2,0,L|176:205,1,50,10|0,2:0|0:0,0:0:0:0:
233,149,75485,2,0,L|225:81,1,50,8|0,2:0|0:0,0:0:0:0:
95,132,75635,6,0,P|169:142|238:73,1,150,2|0,3:2|0:0,0:0:0:0:
308,48,75935,2,0,L|319:146,1,100,10|0,2:0|0:0,0:0:0:0:
144,49,76235,2,0,L|149:0,3,50,2|0|0|0,1:2|0:0|0:0|0:0,0:0:0:0:
95,132,76535,1,10,2:0:0:0:
48,49,76685,1,8,2:0:0:0:
195,169,76835,6,0,P|107:173|61:253,1,150,2|0,3:2|0:0,0:0:0:0:
155,257,77135,1,10,2:0:0:0:
155,257,77285,1,0,0:0:0:0:
252,91,77435,2,0,P|340:95|386:175,1,150,2|0,1:2|0:0,0:0:0:0:
292,179,77735,1,10,2:0:0:0:
292,179,77885,1,8,2:0:0:0:
118,130,78035,6,0,B|166:170|166:170|150:286,1,150,2|0,3:2|0:0,0:0:0:0:
116,344,78335,2,0,P|168:352|232:312,1,100,10|0,2:0|0:0,0:0:0:0:
292,179,78635,2,0,P|344:188|400:240,1,100,2|0,1:2|0:0,0:0:0:0:
302,364,78935,6,0,P|241:300|341:308,1,240,10|0,2:0|0:0,0:0:0:0:
396,379,79235,5,4,3:2:0:0:
381,214,79685,1,0,3:0:0:0:
116,379,80135,5,0,3:0:0:0:
131,214,80285,1,0,3:0:0:0:
131,214,80360,1,0,3:0:0:0:
131,214,80435,5,4,3:2:0:0:
172,300,80885,1,0,3:0:0:0:
381,214,81335,5,0,3:0:0:0:
340,300,81485,1,0,3:0:0:0:
340,300,81560,1,0,3:0:0:0:
340,300,81635,5,4,3:2:0:0:
475,206,82085,1,0,3:0:0:0:
172,300,82535,5,0,3:0:0:0:
37,206,82685,1,0,3:0:0:0:
37,206,82760,1,0,3:0:0:0:
37,206,82835,6,0,B|111:168|197:182|197:182|146:162|130:90,1,240,4|0,3:2|0:0,0:0:0:0:
240,33,83135,2,0,P|231:62|231:92,1,59.9999981689454,2|0,2:0|0:0,0:0:0:0:
282,225,83285,1,2,2:0:0:0:
282,225,83360,1,2,2:0:0:0:
282,225,83435,2,0,P|291:196|291:166,1,59.9999981689454,2|0,2:0|0:0,0:0:0:0:
325,76,83585,5,0,1:0:0:0:
325,76,83660,1,0,1:0:0:0:
325,76,83735,2,0,L|381:71,1,29.9999990844727,0|0,3:0|0:0,0:0:0:0:
385,71,83885,2,0,L|441:66,1,29.9999990844727,0|0,3:0|0:0,0:0:0:0:
475,206,84035,5,4,3:2:0:0:
429,367,84185,1,0,3:0:0:0:
382,179,84335,1,0,1:0:0:0:
498,300,84485,1,0,3:0:0:0:
313,247,84635,1,0,3:0:0:0:
313,247,84710,1,0,3:0:0:0:
313,247,84785,1,0,1:0:0:0:
452,112,84935,1,0,3:0:0:0:
336,341,85085,1,0,3:0:0:0:
336,341,85160,1,0,3:0:0:0:
336,341,85235,5,0,3:0:0:0:
219,221,85385,1,0,3:0:0:0:
359,86,85535,1,0,1:0:0:0:
182,320,85685,2,0,L|249:314,1,59.9999981689454,0|0,3:0|0:0,0:0:0:0:
372,253,85835,1,0,3:0:0:0:
343,250,85910,1,0,3:0:0:0:
313,247,85985,1,0,1:0:0:0:
136,132,86135,2,0,L|203:126,1,59.9999981689454,0|0,3:0|0:0,0:0:0:0:
418,91,86285,2,0,L|351:85,1,59.9999981689454,0|0,3:0|0:0,0:0:0:0:
287,24,86435,5,0,3:0:0:0:
265,66,86510,1,0,3:0:0:0:
268,113,86585,1,0,3:0:0:0:
289,156,86660,1,0,3:0:0:0:
297,203,86735,1,0,1:0:0:0:
282,248,86810,1,0,3:0:0:0:
248,281,86885,1,0,3:0:0:0:
202,293,86960,1,0,3:0:0:0:
156,281,87035,5,0,3:0:0:0:
162,228,87110,1,0,3:0:0:0:
199,190,87185,1,0,1:0:0:0:
251,181,87260,1,0,3:0:0:0:
297,203,87335,1,0,3:0:0:0:
344,238,87410,1,0,3:0:0:0:
403,238,87485,1,0,3:0:0:0:
452,205,87560,1,0,3:0:0:0:
471,149,87635,5,4,3:2:0:0:
477,299,87785,1,0,0:0:0:0:
376,148,87935,2,0,L|380:92,1,29.9999990844727,0|0,1:0|0:0,0:0:0:0:
380,90,88085,2,0,L|384:34,1,29.9999990844727,0|0,1:0|0:0,0:0:0:0:
176,120,88235,6,0,B|129:63|175:0|252:-2|290:86|292:145|236:196,1,300,2|0,2:0|0:0,0:0:0:0:
156,281,88535,2,0,L|76:273,6,50,0|0|0|0|0|0|0,3:0|3:0|3:0|3:0|3:0|3:0|3:0,0:0:0:0:
232,338,88835,6,0,L|362:324,1,119.999996337891,12|8,1:2|2:0,0:0:0:0:
446,317,89135,1,8,2:0:0:0:
131,168,89285,6,0,L|261:181,1,119.999996337891,8|8,1:2|3:2,0:0:0:0:
345,189,89510,1,0,3:0:0:0:
345,189,89585,1,8,3:2:0:0:
96,287,89735,6,0,L|173:279,1,59.9999981689454,8|0,1:2|0:0,0:0:0:0:
298,67,89885,1,8,3:2:0:0:
268,63,89960,1,0,3:0:0:0:
238,60,90035,6,0,L|251:190,1,119.999996337891,12|8,1:2|2:0,0:0:0:0:
259,274,90335,1,8,2:0:0:0:
444,31,90485,6,0,L|431:161,1,119.999996337891,8|8,1:2|3:2,0:0:0:0:
423,245,90710,1,0,3:0:0:0:
423,245,90785,1,8,3:2:0:0:
125,108,90935,6,0,L|130:167,1,59.9999981689454,8|0,1:2|0:0,0:0:0:0:
259,274,91085,1,8,3:2:0:0:
259,274,91160,1,0,3:0:0:0:
259,274,91235,5,12,1:2:0:0:
97,289,91385,1,8,2:0:0:0:
97,289,91535,1,8,2:0:0:0:
344,313,91685,5,8,1:2:0:0:
174,235,91835,1,8,3:2:0:0:
174,235,91910,1,0,3:0:0:0:
174,235,91985,1,8,3:2:0:0:
411,164,92135,5,8,1:2:0:0:
259,274,92285,1,8,3:2:0:0:
259,274,92360,1,0,3:0:0:0:
259,274,92435,5,12,1:2:0:0:
429,352,92585,1,8,2:0:0:0:
429,352,92735,1,8,2:0:0:0:
326,125,92885,5,8,1:2:0:0:
344,313,93035,1,8,3:2:0:0:
344,313,93110,1,0,3:0:0:0:
344,313,93185,1,8,3:2:0:0:
487,109,93335,5,8,1:2:0:0:
335,219,93485,1,8,3:2:0:0:
335,219,93560,1,0,3:0:0:0:
335,219,93635,5,12,1:2:0:0:
304,68,93785,2,0,L|325:124,1,59.9999981689454,10|0,2:0|0:0,0:0:0:0:
335,219,93935,5,8,1:2:0:0:
203,142,94085,2,0,L|249:179,1,59.9999981689454,10|0,2:0|0:0,0:0:0:0:
335,219,94235,5,8,1:2:0:0:
421,99,94385,2,0,L|409:169,1,64.9999970245363,10|0,3:2|0:0,0:0:0:0:
335,219,94535,5,8,1:2:0:0:
194,264,94685,2,0,L|265:275,1,64.9999970245363,10|0,2:0|0:0,0:0:0:0:
335,219,94835,5,12,1:2:0:0:
477,182,94985,2,0,P|445:167|410:164,1,69.9999978637696,10|0,2:0|0:0,0:0:0:0:
335,219,95135,5,8,1:2:0:0:
437,324,95285,2,0,P|435:289|419:257,1,69.9999978637696,10|0,2:0|0:0,0:0:0:0:
335,219,95435,5,8,1:2:0:0:
288,360,95585,2,0,P|322:341|346:308,1,75.0000028610231,10|0,3:2|0:0,0:0:0:0:
335,219,95735,5,8,1:2:0:0:
188,252,95885,2,0,P|220:269|257:273,1,75.0000028610231,10|0,3:2|0:0,0:0:0:0:
335,219,96035,6,0,L|342:132,1,80,14|0,1:2|0:0,0:0:0:0:
93,242,96185,2,0,L|100:334,1,80,10|0,1:2|0:0,0:0:0:0:
249,179,96335,2,0,L|255:96,1,80,10|0,1:2|0:0,0:0:0:0:
75,65,96485,2,0,L|82:145,1,80,10|0,1:2|0:0,0:0:0:0:
192,344,96635,5,14,1:2:0:0:
223,308,96710,1,2,1:2:0:0:
268,292,96785,1,10,1:2:0:0:
314,300,96860,1,2,1:2:0:0:
352,328,96935,1,10,1:2:0:0:
392,351,97010,1,2,1:2:0:0:
440,352,97085,1,10,1:2:0:0:
482,330,97160,1,2,1:2:0:0:
418,258,97235,6,0,B|354:166|382:70|488:76|514:198|392:204,1,300,4|0,3:2|0:0,0:0:0:0:
295,204,97535,2,0,P|294:160|309:107,1,59.9999981689454,2|0,2:0|0:0,0:0:0:0:
458,25,97685,2,0,P|486:35|511:50,1,59.9999981689454,2|0,2:0|0:0,0:0:0:0:
314,48,97835,2,0,B|260:43|222:72|234:84|198:104|135:101,1,179.999994506836,2|0,2:0|0:0,0:0:0:0:
60,60,98135,6,0,L|64:112,1,29.9999990844727,4|0,3:2|0:0,0:0:0:0:
64,120,98285,2,0,L|68:172,1,29.9999990844727,0|0,3:0|0:0,0:0:0:0:
68,336,98435,6,0,B|5:297|11:211|67:173|67:173|138:194|111:301,1,300,4|0,3:2|0:0,0:0:0:0:
188,320,98735,2,0,B|233:324|274:301|252:292|297:259|371:282,1,160,0|8,1:0|2:0,0:0:0:0:
424,312,99035,1,0,3:0:0:0:
424,312,99185,1,8,2:0:0:0:
200,224,99335,2,0,L|208:128,1,59.9999981689454,2|0,1:2|0:0,0:0:0:0:
272,96,99485,2,0,L|264:0,1,59.9999981689454,10|0,2:0|0:0,0:0:0:0:
337,275,99635,5,2,3:2:0:0:
473,224,99785,2,0,L|413:219,1,59.9999981689454,8|0,2:0|0:0,0:0:0:0:
272,96,99935,1,2,1:2:0:0:
461,130,100085,2,0,L|401:125,1,59.9999981689454,10|0,2:0|0:0,0:0:0:0:
202,198,100235,2,0,B|176:180|144:180|144:180|186:154|222:178|222:178|266:206|318:182,1,240,2|0,3:2|0:0,0:0:0:0:
295,27,100535,2,0,B|267:55|267:55|275:127,1,80,2|0,1:2|0:0,0:0:0:0:
146,276,100685,1,8,3:2:0:0:
149,315,100760,1,0,3:0:0:0:
152,355,100835,5,0,3:0:0:0:
337,275,100985,2,0,B|303:278|303:278|292:287|292:287|240:293,1,80,10|0,2:0|0:0,0:0:0:0:
148,376,101135,1,0,1:0:0:0:
125,181,101285,2,0,B|158:184|158:184|169:193|169:193|201:197,1,80,10|0,2:0|0:0,0:0:0:0:
356,280,101435,1,2,3:2:0:0:
356,280,101585,1,10,2:0:0:0:
362,103,101735,2,0,B|322:75|322:75|342:199,1,160,2|10,1:2|2:0,0:0:0:0:
382,372,102035,6,0,P|422:349|448:299,1,59.9999981689454,2|0,3:2|0:0,0:0:0:0:
445,245,102185,2,0,P|473:253|497:271,1,59.9999981689454,10|0,2:0|0:0,0:0:0:0:
214,270,102335,2,0,P|238:252|267:244,1,59.9999981689454,2|0,1:2|0:0,0:0:0:0:
356,280,102485,2,0,P|362:250|359:221,1,59.9999981689454,8|0,2:0|0:0,0:0:0:0:
223,76,102635,2,0,B|231:148|231:148|259:176|259:176|270:280,1,179.999994506836,2|0,3:2|0:0,0:0:0:0:
435,156,102935,2,0,B|447:116|422:88|422:88|363:64|311:110,1,179.999994506836,2|0,1:2|0:0,0:0:0:0:
168,221,103235,6,0,B|123:243|123:243|68:237,1,100,4|0,3:2|0:0,0:0:0:0:
59,142,103385,2,0,B|104:120|104:120|153:125,1,100,8|0,3:2|0:0,0:0:0:0:
298,262,103535,2,0,B|288:375|288:375|284:344|264:327,1,160,2|8,1:2|2:0,0:0:0:0:
241,158,103835,1,0,3:0:0:0:
241,158,103985,1,8,2:0:0:0:
469,212,104135,2,0,B|373:200|373:200|337:170|337:170|242:158,1,240,2|0,1:2|0:0,0:0:0:0:
59,142,104435,6,0,B|9:96|1:2|103:-28|141:38|118:89,1,240,2|0,3:2|0:0,0:0:0:0:
111,223,104735,2,0,P|64:238|18:229,1,59.9999981689454,2|0,1:2|0:0,0:0:0:0:
236,62,104885,2,0,P|265:65|293:76,1,59.9999981689454,10|0,2:0|0:0,0:0:0:0:
279,312,105035,2,0,B|227:268|227:268|243:140,1,179.999994506836,2|0,3:2|0:0,0:0:0:0:
364,12,105335,2,0,P|389:78|356:148,1,119.999996337891,0|8,1:0|2:0,0:0:0:0:
327,227,105560,5,0,0:0:0:0:
327,227,105635,2,0,P|400:204|480:272,1,179.999994506836,2|0,3:2|0:0,0:0:0:0:
388,300,105935,1,2,1:2:0:0:
388,300,106085,1,8,2:0:0:0:
293,76,106235,2,0,P|220:53|140:121,1,179.999994506836,2|0,3:2|0:0,0:0:0:0:
232,149,106535,1,2,1:2:0:0:
232,149,106685,1,10,3:2:0:0:
230,179,106760,1,0,3:0:0:0:
229,209,106835,5,2,3:2:0:0:
293,76,106985,1,10,2:0:0:0:
159,274,107135,5,2,1:2:0:0:
143,111,107285,1,10,2:0:0:0:
292,278,107435,5,2,3:2:0:0:
376,123,107585,1,0,0:0:0:0:
222,343,107735,5,10,2:0:0:0:
60,158,107885,1,8,2:0:0:0:
381,267,108035,6,0,L|286:278,1,89.9999972534181,0|0,3:0|0:0,0:0:0:0:
381,267,108335,6,0,P|303:195|431:219,1,300,6|0,1:2|0:0,0:0:0:0:
485,327,108635,2,0,L|478:267,1,59.9999981689454,2|0,3:2|0:0,0:0:0:0:
436,123,108785,2,0,L|429:182,1,59.9999981689454,10|0,2:0|0:0,0:0:0:0:
376,363,108935,2,0,B|304:381|256:339|279:327|224:273|140:307,1,240,2|0,1:2|0:0,0:0:0:0:
83,363,109235,6,0,P|-1:363|87:303,1,240,2|0,3:2|0:0,0:0:0:0:
236,208,109535,2,0,L|244:124,1,59.9999981689454,2|0,1:2|0:0,0:0:0:0:
173,0,109685,2,0,L|179:59,1,59.9999981689454,10|0,2:0|0:0,0:0:0:0:
78,168,109835,2,0,B|129:161|129:161|144:147|144:147|178:167|178:167|197:153|197:153|240:148,1,179.999994506836,2|0,3:2|0:0,0:0:0:0:
392,70,110135,2,0,L|243:52,1,119.999996337891,2|8,1:2|2:0,0:0:0:0:
419,324,110435,5,0,3:0:0:0:
508,112,110585,2,0,P|467:131|438:173,1,80,8|0,2:0|0:0,0:0:0:0:
407,348,110735,1,2,1:2:0:0:
325,124,110885,2,0,P|351:160|355:211,1,80,8|0,2:0|0:0,0:0:0:0:
123,254,111035,6,0,L|176:222,1,59.9999981689454,2|0,3:2|0:0,0:0:0:0:
357,195,111185,2,0,L|331:251,1,59.9999981689454,10|0,2:0|0:0,0:0:0:0:
203,376,111335,2,0,L|190:315,1,59.9999981689454,2|0,1:2|0:0,0:0:0:0:
220,139,111485,2,0,L|266:180,1,59.9999981689454,10|0,2:0|0:0,0:0:0:0:
407,348,111635,6,0,L|286:334,1,119.999996337891,2|8,3:2|2:0,0:0:0:0:
123,254,111935,2,0,L|34:263,1,59.9999981689454,2|0,1:2|0:0,0:0:0:0:
68,357,112085,2,0,L|127:350,1,59.9999981689454,10|0,2:0|0:0,0:0:0:0:
214,129,112235,2,0,B|206:205|206:205|222:233|222:233|210:337,1,179.999994506836,2|0,3:2|0:0,0:0:0:0:
454,218,112535,2,0,B|395:140|303:184|303:184|343:178|378:208,1,240,2|0,1:2|0:0,0:0:0:0:
497,322,112835,6,0,B|461:308|425:322|425:322|409:297|381:290|381:290|348:324|305:322,1,209.999993591309,4|0,3:2|0:0,0:0:0:0:
280,318,113435,1,2,3:2:0:0:
280,318,113585,1,2,2:0:0:0:
274,100,113735,2,0,B|322:140|322:140|306:248,1,150,10|0,2:0|0:0,0:0:0:0:
199,368,114035,2,0,P|185:311|215:248,1,100,2|0,3:2|0:0,0:0:0:0:
373,297,114335,1,10,2:0:0:0:
220,180,114485,1,2,3:2:0:0:
467,160,114635,6,0,P|394:97|395:193,1,240,6|0,3:2|0:0,0:0:0:0:
484,160,114935,2,0,P|423:76|387:207,1,300,6|0,3:2|0:0,0:0:0:0:
458,253,115235,5,2,3:2:0:0:
208,290,115385,1,0,3:0:0:0:
300,54,115535,1,2,1:2:0:0:
373,297,115685,1,0,3:0:0:0:
215,98,115835,5,2,3:2:0:0:
208,290,115985,1,0,3:0:0:0:
385,10,116135,1,2,1:2:0:0:
458,253,116285,1,0,3:0:0:0:
92,192,116435,6,0,B|64:120|128:60|128:60|115:92|124:124,1,200,6|0,3:2|0:0,0:0:0:0:
339,190,116660,2,0,B|367:118|303:58|303:58|316:90|307:122,1,200,0|0,3:0|0:0,0:0:0:0:
208,290,116885,2,0,B|205:249|205:249|218:233|218:233|215:162,1,100,0|0,3:0|0:0,0:0:0:0:
215,98,117035,1,6,3:2:0:0:
215,98,117335,6,0,B|158:145|68:121|60:55|60:55|77:90|128:99,1,240,4|0,1:2|0:0,0:0:0:0:
272,20,117635,6,0,B|317:62|317:62|297:194,1,160,6|8,3:2|2:0,0:0:0:0:
69,188,117935,1,2,1:2:0:0:
151,26,118085,1,8,2:0:0:0:
208,194,118235,2,0,B|164:189|141:157|141:157|80:156|52:216,1,160,2|8,3:2|2:0,0:0:0:0:
215,98,118535,2,0,B|275:26|391:62|354:168|280:158,1,240,2|0,1:2|0:0,0:0:0:0:
208,194,118835,6,0,B|196:308|196:308|252:258,1,160,2|8,3:2|2:0,0:0:0:0:
436,171,119135,1,2,1:2:0:0:
290,158,119285,1,8,2:0:0:0:
470,306,119435,2,0,B|380:337|318:249|318:249|369:267|430:227,1,240,2|0,3:2|0:0,0:0:0:0:
436,171,119735,2,0,B|484:207|484:207|468:319,1,160,2|8,1:2|2:0,0:0:0:0:
236,335,120035,6,0,B|229:283|229:283|210:261|210:261|223:235|223:235|211:132,1,160,2|8,3:2|2:0,0:0:0:0:
291,123,120335,1,2,1:2:0:0:
126,218,120485,1,8,2:0:0:0:
319,249,120635,1,2,3:2:0:0:
319,249,120785,1,8,2:0:0:0:
109,77,120935,2,0,B|165:81|223:56|223:56|197:81|197:121,1,160,2|8,1:2|2:0,0:0:0:0:
102,294,121235,6,0,P|177:309|125:218,1,240,2|0,3:2|0:0,0:0:0:0:
15,154,121535,2,0,P|13:134|15:114,6,40,10|8|8|8|8|8|8,1:2|2:0|2:0|2:0|2:0|2:0|2:0,0:0:0:0:
108,132,121835,2,0,B|172:107|229:135|214:156|282:191|353:152,1,240,2|0,3:2|0:0,0:0:0:0:
368,24,122135,2,0,B|320:60|320:60|340:180,1,160,2|8,1:2|2:0,0:0:0:0:
407,341,122435,6,0,B|412:297|412:297|374:289|353:254|353:254|341:293|306:310|306:310|325:360,1,240,6|0,3:2|0:0,0:0:0:0:
434,204,122735,2,0,B|468:156|444:96|444:96|438:133|414:152,1,160,2|8,1:2|2:0,0:0:0:0:
261,226,123035,1,2,3:2:0:0:
349,83,123185,1,8,2:0:0:0:
133,126,123335,2,0,B|213:114|261:46|261:46|238:104|288:164,1,240,2|0,1:2|0:0,0:0:0:0:
261,226,123635,6,0,B|265:271|238:300|238:300|246:352|290:376,1,160,2|8,3:2|2:0,0:0:0:0:
166,237,123935,2,0,B|120:244|56:220|56:220|81:239|88:287,1,160,2|8,1:2|2:0,0:0:0:0:
346,301,124235,2,0,B|409:317|461:255|461:255|430:194|358:209,1,240,2|0,3:2|0:0,0:0:0:0:
261,226,124535,1,2,1:2:0:0:
276,367,124685,1,8,2:0:0:0:
310,124,124835,6,0,B|210:136|210:136|186:168|186:168|67:182,1,240,2|0,3:2|0:0,0:0:0:0:
64,196,125135,2,0,L|237:177,1,160,2|8,1:2|2:0,0:0:0:0:
406,204,125435,2,0,P|422:290|302:356,1,240,2|0,3:2|0:0,0:0:0:0:
304,356,125735,2,0,P|275:283|328:202,1,160,2|8,1:2|2:0,0:0:0:0:
444,84,126035,5,2,3:2:0:0:
444,84,126185,1,8,2:0:0:0:
151,112,126335,2,0,B|159:4|260:3|260:3|219:28|215:99,1,240,2|0,1:2|0:0,0:0:0:0:
260,239,126635,2,0,B|162:286|111:199|111:199|153:222|216:190,1,240,2|0,3:2|0:0,0:0:0:0:
314,82,126935,2,0,B|403:142|353:230|353:230|352:182|293:143,1,240,2|0,1:2|0:0,0:0:0:0:
151,112,127235,6,0,L|160:4,1,89.9999972534181,0|0,3:0|0:0,0:0:0:0:
151,112,127535,6,0,P|79:52|91:160,1,240,6|0,1:2|0:0,0:0:0:0:
146,208,127835,1,2,3:2:0:0:
45,342,127985,1,8,2:0:0:0:
190,291,128135,2,0,B|126:303|126:303|102:331|102:331|11:348,1,160,2|8,1:2|2:0,0:0:0:0:
249,368,128435,6,0,B|293:324|293:324|269:196,1,160,2|8,3:2|2:0,0:0:0:0:
259,133,128735,1,2,1:2:0:0:
146,208,128885,1,8,2:0:0:0:
415,140,129035,2,0,B|440:93|416:40|416:40|378:66|325:62|325:62|349:86|353:114,1,240,2|0,3:2|0:0,0:0:0:0:
274,227,129335,2,0,B|306:196|347:206|347:206|371:236|420:237,1,160,2|8,1:2|2:0,0:0:0:0:
484,360,129560,1,8,0:2:0:0:
491,384,129635,6,0,B|507:272|507:272|490:317|435:332,1,160,2|8,3:2|2:0,0:0:0:0:
335,356,129935,1,2,1:2:0:0:
415,140,130085,1,8,2:0:0:0:
202,255,130235,2,0,B|271:249|271:249|293:231|293:231|328:260|328:260|350:242|350:242|418:236,1,240,2|0,3:2|0:0,0:0:0:0:
232,152,130535,2,0,B|205:108|226:63|226:63|268:48|304:81,1,160,2|8,1:2|2:0,0:0:0:0:
391,136,130760,1,8,0:2:0:0:
415,140,130835,6,0,P|468:56|372:68,1,240,2|0,3:2|0:0,0:0:0:0:
255,246,131135,2,0,L|259:294,6,40,10|8|8|8|8|8|8,1:2|2:0|2:0|2:0|2:0|2:0|2:0,0:0:0:0:
232,152,131435,2,0,B|298:137|353:182|320:204|375:255|453:233,1,240,2|0,3:2|0:0,0:0:0:0:
441,235,131735,1,2,1:2:0:0:
162,218,131885,1,8,3:2:0:0:
142,183,131960,1,0,3:2:0:0:
137,144,132035,5,6,3:2:0:0:
312,324,132185,1,8,2:0:0:0:
286,75,132335,1,2,1:2:0:0:
124,306,132485,1,8,3:2:0:0:
124,306,132560,1,0,3:0:0:0:
124,306,132635,5,2,3:2:0:0:
366,247,132785,1,8,2:0:0:0:
137,144,132935,1,2,1:2:0:0:
327,162,133085,1,8,3:2:0:0:
85,221,133235,5,2,3:2:0:0:
286,75,133385,1,8,3:2:0:0:
366,247,133535,1,2,1:2:0:0:
137,144,133685,1,8,3:2:0:0:
137,144,133760,1,0,3:0:0:0:
137,144,133835,6,0,P|175:193|116:308,1,160,2|8,3:2|2:0,0:0:0:0:
66,312,134060,1,0,3:0:0:0:
66,312,134135,2,0,P|127:304|198:412,1,160,2|8,1:2|3:2,0:0:0:0:
85,221,134435,5,2,3:2:0:0:
96,57,134585,1,8,3:2:0:0:
327,162,134735,1,2,1:2:0:0:
137,144,134885,1,8,3:2:0:0:
286,75,135035,5,2,3:2:0:0:
312,324,135185,1,8,3:2:0:0:
96,57,135335,1,2,1:2:0:0:
66,312,135485,1,8,3:2:0:0:
327,162,135635,6,0,B|376:96|455:134|455:134|424:132|395:154,1,200,6|0,3:2|0:0,0:0:0:0:
272,238,135860,2,0,B|223:172|144:210|144:210|175:208|204:230,1,200,0|0,3:0|0:0,0:0:0:0:
312,324,136085,2,0,P|344:301|367:225,1,100,0|0,3:0|0:0,0:0:0:0:
248,107,136235,5,6,3:2:0:0:
153,384,136385,1,0,1:0:0:0:
148,344,136460,1,0,1:0:0:0:
144,304,136535,1,10,1:2:0:0:
375,167,136685,2,0,L|367:247,1,80,0|0,3:0|0:0,0:0:0:0:
357,342,136835,5,4,2:0:0:0:
