osu file format v14

[General]
AudioFilename: USAO - Cyaegha.mp3
AudioLeadIn: 0
PreviewTime:117485
Countdown: 0
SampleSet: Soft
StackLeniency: 0.2
Mode: 0
LetterboxInBreaks: 0
WidescreenStoryboard: 1
EpilepsyWarning: 1

[Editor]
Bookmarks: 2435,12035,20435,21635,30635,31235,40835,50435,60035,69635,79235,88835,98435,108035,117635,127235,136835
DistanceSpacing: 0.4
BeatDivisor: 4
GridSize: 4
TimelineZoom: 3.000002

[Metadata]
Title:Cyaegha
TitleUnicode:Cyaegha
Artist:USAO
ArtistUnicode:USAO
Creator:- AzRaeL -
Version:0922_'s Expert
Source:Arcaea
Tags:Electronic Instrumental Dubstep Hardcore Tribecore Cyäegha Absolute Reason 夜浪、旧支配者 Cthulhu Mythos TANO*C Lowiro Sound Collection Memories of Conflict IROCD-002 XTREME UOM Records USAO-017 CHUNITHM PARADISE SUPER STAR maimai でらっくす Splash Dora- doraemonelf [_Drop_] 0922_
BeatmapID:2990225
BeatmapSetID:1314759

[Difficulty]
HPDrainRate:5.2
CircleSize:4
OverallDifficulty:8.5
ApproachRate:9.4
SliderMultiplier:0.999999999999999
SliderTickRate:1

[Events]
//Background and Video events
0,0,"BG.jpg",0,0
//Break Periods
2,60235,69035
//Storyboard Layer 0 (Background)
Sprite,Background,Centre,"SB\Pixel.jpg",144,177 F,18,16834,17834,1,0 S,19,16834,17834,0,100 R,19,16834,17834,1.446645,-4.83654
Sprite,Background,Centre,"SB\Pixel.jpg",144,177 C,0,16834,16834,0,0,0 S,19,16834,17834,0,90 R,19,16834,17834,1.446645,-4.83654
Sprite,Background,Centre,"SB\Pixel.jpg",207,375 F,18,21635,22635,1,0 S,19,21635,22635,0,100 R,19,21635,22635,1.642759,-4.640426
Sprite,Background,Centre,"SB\Pixel.jpg",207,375 C,0,21635,21635,0,0,0 S,19,21635,22635,0,90 R,19,21635,22635,1.642759,-4.640426
Sprite,Background,Centre,"SB\Pixel.jpg",145,290 F,18,26434,27434,1,0 S,19,26434,27434,0,100 R,19,26434,27434,3.700115,9.9833
Sprite,Background,Centre,"SB\Pixel.jpg",145,290 C,0,26434,26434,0,0,0 S,19,26434,27434,0,90 R,19,26434,27434,3.700115,9.9833
Sprite,Background,Centre,"SB\Pixel.jpg",389,348 F,18,31235,32235,1,0 S,19,31235,32235,0,100 R,19,31235,32235,6.02889,12.31208
Sprite,Background,Centre,"SB\Pixel.jpg",389,348 C,0,31235,31235,0,0,0 S,19,31235,32235,0,90 R,19,31235,32235,6.02889,12.31208
Sprite,Background,Centre,"SB\Pixel.jpg",148,179 F,18,36034,37034,1,0 S,19,36034,37034,0,100 R,19,36034,37034,1.531454,7.81464
Sprite,Background,Centre,"SB\Pixel.jpg",148,179 C,0,36034,36034,0,0,0 S,19,36034,37034,0,90 R,19,36034,37034,1.531454,7.81464
Sprite,Background,Centre,"SB\Pixel.jpg",300,313 F,18,40834,41834,1,0 S,19,40834,41834,0,100 R,19,40834,41834,2.812339,9.095524
Sprite,Background,Centre,"SB\Pixel.jpg",300,313 C,0,40834,40834,0,0,0 S,19,40834,41834,0,90 R,19,40834,41834,2.812339,9.095524
Sprite,Background,Centre,"SB\Pixel.jpg",493,272 F,18,45634,46634,1,0 S,19,45634,46634,0,100 R,19,45634,46634,5.746311,12.0295
Sprite,Background,Centre,"SB\Pixel.jpg",493,272 C,0,45634,45634,0,0,0 S,19,45634,46634,0,90 R,19,45634,46634,5.746311,12.0295
Sprite,Background,Centre,"SB\Pixel.jpg",386,297 F,18,50435,51435,1,0 S,19,50435,51435,0,100 R,19,50435,51435,5.83205,-0.4511356
Sprite,Background,Centre,"SB\Pixel.jpg",386,297 C,0,50435,50435,0,0,0 S,19,50435,51435,0,90 R,19,50435,51435,5.83205,-0.4511356
Sprite,Background,Centre,"SB\Pixel.jpg",267,112 F,18,55235,56235,1,0 S,19,55235,56235,0,100 R,19,55235,56235,3.044773,9.327958
Sprite,Background,Centre,"SB\Pixel.jpg",267,112 C,0,55235,55235,0,0,0 S,19,55235,56235,0,90 R,19,55235,56235,3.044773,9.327958
Sprite,Background,Centre,"SB\Pixel.jpg",547,349 F,18,60034,61034,1,0 S,19,60034,61034,0,100 R,19,60034,61034,6.132342,12.41553
Sprite,Background,Centre,"SB\Pixel.jpg",547,349 C,0,60034,60034,0,0,0 S,19,60034,61034,0,90 R,19,60034,61034,6.132342,12.41553
Sprite,Background,Centre,"SB\Pixel.jpg",471,208 F,18,84035,85035,1,0 S,19,84035,85035,0,100 R,19,84035,85035,3.886865,-2.39632
Sprite,Background,Centre,"SB\Pixel.jpg",471,208 C,0,84035,84035,0,0,0 S,19,84035,85035,0,90 R,19,84035,85035,3.886865,-2.39632
Sprite,Background,Centre,"SB\Pixel.jpg",323,391 F,18,88834,89834,1,0 S,19,88834,89834,0,100 R,19,88834,89834,3.756426,10.03961
Sprite,Background,Centre,"SB\Pixel.jpg",323,391 C,0,88834,88834,0,0,0 S,19,88834,89834,0,90 R,19,88834,89834,3.756426,10.03961
Sprite,Background,Centre,"SB\Pixel.jpg",290,219 F,18,98434,99434,1,0 S,19,98434,99434,0,100 R,19,98434,99434,5.703828,-0.5793571
Sprite,Background,Centre,"SB\Pixel.jpg",290,219 C,0,98434,98434,0,0,0 S,19,98434,99434,0,90 R,19,98434,99434,5.703828,-0.5793571
Sprite,Background,Centre,"SB\Pixel.jpg",436,117 F,18,108334,109334,1,0 S,19,108334,109334,0,100 R,19,108334,109334,1.932762,-4.350423
Sprite,Background,Centre,"SB\Pixel.jpg",436,117 C,0,108334,108334,0,0,0 S,19,108334,109334,0,90 R,19,108334,109334,1.932762,-4.350423
Sprite,Background,Centre,"SB\Pixel.jpg",146,194 F,18,117635,118635,1,0 S,19,117635,118635,0,100 R,19,117635,118635,5.113471,11.39666
Sprite,Background,Centre,"SB\Pixel.jpg",146,194 C,0,117635,117635,0,0,0 S,19,117635,118635,0,90 R,19,117635,118635,5.113471,11.39666
Sprite,Background,Centre,"SB\Pixel.jpg",283,203 F,18,127535,128535,1,0 S,19,127535,128535,0,100 R,19,127535,128535,0.368227,-5.914958
Sprite,Background,Centre,"SB\Pixel.jpg",283,203 C,0,127535,127535,0,0,0 S,19,127535,128535,0,90 R,19,127535,128535,0.368227,-5.914958
Sprite,Background,Centre,"sb\glow.png",77,184 S,0,26135,26135,0.5 C,0,26135,26135,255,128,192 F,0,26135,26635,1,0
Sprite,Background,Centre,"sb\glow.png",68,169 S,0,26153,26153,0.5 C,0,26153,26153,255,128,192 F,0,26153,26653,1,0
Sprite,Background,Centre,"sb\glow.png",59,154 S,0,26172,26172,0.5 C,0,26172,26172,255,128,192 F,0,26172,26672,1,0
Sprite,Background,Centre,"sb\glow.png",68,139 S,0,26191,26191,0.5 C,0,26191,26191,255,128,192 F,0,26191,26691,1,0
Sprite,Background,Centre,"sb\glow.png",77,124 S,0,26210,26210,0.5 C,0,26210,26210,255,128,192 F,0,26210,26710,1,0
Sprite,Background,Centre,"sb\glow.png",86,109 S,0,26228,26228,0.5 C,0,26228,26228,255,128,192 F,0,26228,26728,1,0
Sprite,Background,Centre,"sb\glow.png",95,94 S,0,26247,26247,0.5 C,0,26247,26247,255,128,192 F,0,26247,26747,1,0
Sprite,Background,Centre,"sb\glow.png",111,101 S,0,26266,26266,0.5 C,0,26266,26266,255,128,192 F,0,26266,26766,1,0
Sprite,Background,Centre,"sb\glow.png",127,108 S,0,26285,26285,0.5 C,0,26285,26285,255,128,192 F,0,26285,26785,1,0
Sprite,Background,Centre,"sb\glow.png",143,116 S,0,26303,26303,0.5 C,0,26303,26303,255,128,192 F,0,26303,26803,1,0
Sprite,Background,Centre,"sb\glow.png",159,123 S,0,26322,26322,0.5 C,0,26322,26322,255,128,192 F,0,26322,26822,1,0
Sprite,Background,Centre,"sb\glow.png",165,137 S,0,26341,26341,0.5 C,0,26341,26341,255,128,192 F,0,26341,26841,1,0
Sprite,Background,Centre,"sb\glow.png",166,154 S,0,26360,26360,0.5 C,0,26360,26360,255,128,192 F,0,26360,26860,1,0
Sprite,Background,Centre,"sb\glow.png",158,206 S,0,26378,26378,0.5 C,0,26378,26378,255,128,192 F,0,26378,26878,1,0
Sprite,Background,Centre,"sb\glow.png",151,250 S,0,26397,26397,0.5 C,0,26397,26397,255,128,192 F,0,26397,26897,1,0
Sprite,Background,Centre,"sb\glow.png",147,280 S,0,26416,26416,0.5 C,0,26416,26416,255,128,192 F,0,26416,26916,1,0
Sprite,Background,Centre,"sb\glow.png",145,290 S,0,26435,26435,0.5 C,0,26435,26435,255,128,192 F,0,26435,26935,1,0
Sprite,Background,Centre,"sb\glow.png",143,307 S,0,26453,26453,0.5 C,0,26453,26453,255,128,192 F,0,26453,26953,1,0
Sprite,Background,Centre,"sb\glow.png",141,325 S,0,26472,26472,0.5 C,0,26472,26472,255,128,192 F,0,26472,26972,1,0
Sprite,Background,Centre,"sb\glow.png",140,342 S,0,26491,26491,0.5 C,0,26491,26491,255,128,192 F,0,26491,26991,1,0
Sprite,Background,Centre,"sb\glow.png",138,360 S,0,26510,26510,0.5 C,0,26510,26510,255,128,192 F,0,26510,27010,1,0
Sprite,Background,Centre,"sb\glow.png",146,372 S,0,26528,26528,0.5 C,0,26528,26528,255,128,192 F,0,26528,27028,1,0
Sprite,Background,Centre,"sb\glow.png",162,380 S,0,26547,26547,0.5 C,0,26547,26547,255,128,192 F,0,26547,27047,1,0
Sprite,Background,Centre,"sb\glow.png",177,388 S,0,26566,26566,0.5 C,0,26566,26566,255,128,192 F,0,26566,27066,1,0
Sprite,Background,Centre,"sb\glow.png",193,396 S,0,26585,26585,0.5 C,0,26585,26585,255,128,192 F,0,26585,27085,1,0
Sprite,Background,Centre,"sb\glow.png",208,404 S,0,26603,26603,0.5 C,0,26603,26603,255,128,192 F,0,26603,27103,1,0
Sprite,Background,Centre,"sb\glow.png",224,412 S,0,26622,26622,0.5 C,0,26622,26622,255,128,192 F,0,26622,27122,1,0
Sprite,Background,Centre,"sb\glow.png",239,419 S,0,26641,26641,0.5 C,0,26641,26641,255,128,192 F,0,26641,27141,1,0
Sprite,Background,Centre,"sb\glow.png",255,427 S,0,26660,26660,0.5 C,0,26660,26660,255,128,192 F,0,26660,27160,1,0
Sprite,Background,Centre,"sb\glow.png",267,416 S,0,26678,26678,0.5 C,0,26678,26678,255,128,192 F,0,26678,27178,1,0
Sprite,Background,Centre,"sb\glow.png",279,403 S,0,26697,26697,0.5 C,0,26697,26697,255,128,192 F,0,26697,27197,1,0
Sprite,Background,Centre,"sb\glow.png",290,390 S,0,26716,26716,0.5 C,0,26716,26716,255,128,192 F,0,26716,27216,1,0
Sprite,Background,Centre,"sb\glow.png",302,377 S,0,26735,26735,0.5 C,0,26735,26735,255,128,192 F,0,26735,27235,1,0
Sprite,Background,Centre,"sb\glow.png",314,364 S,0,26753,26753,0.5 C,0,26753,26753,255,128,192 F,0,26753,27253,1,0
Sprite,Background,Centre,"sb\glow.png",325,351 S,0,26772,26772,0.5 C,0,26772,26772,255,128,192 F,0,26772,27272,1,0
Sprite,Background,Centre,"sb\glow.png",337,338 S,0,26791,26791,0.5 C,0,26791,26791,255,128,192 F,0,26791,27291,1,0
Sprite,Background,Centre,"sb\glow.png",341,324 S,0,26810,26810,0.5 C,0,26810,26810,255,128,192 F,0,26810,27310,1,0
Sprite,Background,Centre,"sb\glow.png",332,308 S,0,26828,26828,0.5 C,0,26828,26828,255,128,192 F,0,26828,27328,1,0
Sprite,Background,Centre,"sb\glow.png",324,293 S,0,26847,26847,0.5 C,0,26847,26847,255,128,192 F,0,26847,27347,1,0
Sprite,Background,Centre,"sb\glow.png",316,277 S,0,26866,26866,0.5 C,0,26866,26866,255,128,192 F,0,26866,27366,1,0
Sprite,Background,Centre,"sb\glow.png",508,95 S,0,35735,35735,0.5 C,0,35735,35735,255,128,192 F,0,35735,36235,1,0
Sprite,Background,Centre,"sb\glow.png",521,84 S,0,35753,35753,0.5 C,0,35753,35753,255,128,192 F,0,35753,36253,1,0
Sprite,Background,Centre,"sb\glow.png",535,73 S,0,35772,35772,0.5 C,0,35772,35772,255,128,192 F,0,35772,36272,1,0
Sprite,Background,Centre,"sb\glow.png",527,70 S,0,35791,35791,0.5 C,0,35791,35791,255,128,192 F,0,35791,36291,1,0
Sprite,Background,Centre,"sb\glow.png",510,71 S,0,35810,35810,0.5 C,0,35810,35810,255,128,192 F,0,35810,36310,1,0
Sprite,Background,Centre,"sb\glow.png",492,72 S,0,35828,35828,0.5 C,0,35828,35828,255,128,192 F,0,35828,36328,1,0
Sprite,Background,Centre,"sb\glow.png",475,73 S,0,35847,35847,0.5 C,0,35847,35847,255,128,192 F,0,35847,36347,1,0
Sprite,Background,Centre,"sb\glow.png",458,72 S,0,35866,35866,0.5 C,0,35866,35866,255,128,192 F,0,35866,36366,1,0
Sprite,Background,Centre,"sb\glow.png",443,70 S,0,35885,35885,0.5 C,0,35885,35885,255,128,192 F,0,35885,36385,1,0
Sprite,Background,Centre,"sb\glow.png",428,78 S,0,35903,35903,0.5 C,0,35903,35903,255,128,192 F,0,35903,36403,1,0
Sprite,Background,Centre,"sb\glow.png",411,81 S,0,35922,35922,0.5 C,0,35922,35922,255,128,192 F,0,35922,36422,1,0
Sprite,Background,Centre,"sb\glow.png",394,83 S,0,35941,35941,0.5 C,0,35941,35941,255,128,192 F,0,35941,36441,1,0
Sprite,Background,Centre,"sb\glow.png",376,86 S,0,35960,35960,0.5 C,0,35960,35960,255,128,192 F,0,35960,36460,1,0
Sprite,Background,Centre,"sb\glow.png",289,122 S,0,35978,35978,0.5 C,0,35978,35978,255,128,192 F,0,35978,36478,1,0
Sprite,Background,Centre,"sb\glow.png",215,152 S,0,35997,35997,0.5 C,0,35997,35997,255,128,192 F,0,35997,36497,1,0
Sprite,Background,Centre,"sb\glow.png",165,172 S,0,36016,36016,0.5 C,0,36016,36016,255,128,192 F,0,36016,36516,1,0
Sprite,Background,Centre,"sb\glow.png",148,179 S,0,36035,36035,0.5 C,0,36035,36035,255,128,192 F,0,36035,36535,1,0
Sprite,Background,Centre,"sb\glow.png",138,163 S,0,36053,36053,0.5 C,0,36053,36053,255,128,192 F,0,36053,36553,1,0
Sprite,Background,Centre,"sb\glow.png",134,145 S,0,36072,36072,0.5 C,0,36072,36072,255,128,192 F,0,36072,36572,1,0
Sprite,Background,Centre,"sb\glow.png",135,126 S,0,36091,36091,0.5 C,0,36091,36091,255,128,192 F,0,36091,36591,1,0
Sprite,Background,Centre,"sb\glow.png",142,109 S,0,36110,36110,0.5 C,0,36110,36110,255,128,192 F,0,36110,36610,1,0
Sprite,Background,Centre,"sb\glow.png",155,95 S,0,36128,36128,0.5 C,0,36128,36128,255,128,192 F,0,36128,36628,1,0
Sprite,Background,Centre,"sb\glow.png",171,86 S,0,36147,36147,0.5 C,0,36147,36147,255,128,192 F,0,36147,36647,1,0
Sprite,Background,Centre,"sb\glow.png",190,83 S,0,36166,36166,0.5 C,0,36166,36166,255,128,192 F,0,36166,36666,1,0
Sprite,Background,Centre,"sb\glow.png",208,84 S,0,36185,36185,0.5 C,0,36185,36185,255,128,192 F,0,36185,36685,1,0
Sprite,Background,Centre,"sb\glow.png",226,91 S,0,36203,36203,0.5 C,0,36203,36203,255,128,192 F,0,36203,36703,1,0
Sprite,Background,Centre,"sb\glow.png",240,103 S,0,36222,36222,0.5 C,0,36222,36222,255,128,192 F,0,36222,36722,1,0
Sprite,Background,Centre,"sb\glow.png",249,120 S,0,36241,36241,0.5 C,0,36241,36241,255,128,192 F,0,36241,36741,1,0
Sprite,Background,Centre,"sb\glow.png",253,138 S,0,36260,36260,0.5 C,0,36260,36260,255,128,192 F,0,36260,36760,1,0
Sprite,Background,Centre,"sb\glow.png",251,156 S,0,36278,36278,0.5 C,0,36278,36278,255,128,192 F,0,36278,36778,1,0
Sprite,Background,Centre,"sb\glow.png",246,174 S,0,36297,36297,0.5 C,0,36297,36297,255,128,192 F,0,36297,36797,1,0
Sprite,Background,Centre,"sb\glow.png",238,191 S,0,36316,36316,0.5 C,0,36316,36316,255,128,192 F,0,36316,36816,1,0
Sprite,Background,Centre,"sb\glow.png",229,208 S,0,36335,36335,0.5 C,0,36335,36335,255,128,192 F,0,36335,36835,1,0
Sprite,Background,Centre,"sb\glow.png",220,224 S,0,36353,36353,0.5 C,0,36353,36353,255,128,192 F,0,36353,36853,1,0
Sprite,Background,Centre,"sb\glow.png",212,241 S,0,36372,36372,0.5 C,0,36372,36372,255,128,192 F,0,36372,36872,1,0
Sprite,Background,Centre,"sb\glow.png",208,260 S,0,36391,36391,0.5 C,0,36391,36391,255,128,192 F,0,36391,36891,1,0
Sprite,Background,Centre,"sb\glow.png",207,278 S,0,36410,36410,0.5 C,0,36410,36410,255,128,192 F,0,36410,36910,1,0
Sprite,Background,Centre,"sb\glow.png",211,297 S,0,36428,36428,0.5 C,0,36428,36428,255,128,192 F,0,36428,36928,1,0
Sprite,Background,Centre,"sb\glow.png",219,314 S,0,36447,36447,0.5 C,0,36447,36447,255,128,192 F,0,36447,36947,1,0
Sprite,Background,Centre,"sb\glow.png",231,328 S,0,36466,36466,0.5 C,0,36466,36466,255,128,192 F,0,36466,36966,1,0
Sprite,Background,Centre,"sb\glow.png",238,311 S,0,36485,36485,0.5 C,0,36485,36485,255,128,192 F,0,36485,36985,1,0
Sprite,Background,Centre,"sb\glow.png",325,123 S,0,45334,45334,0.5 C,0,45334,45334,255,0,255 F,0,45334,45834,1,0
Sprite,Background,Centre,"sb\glow.png",320,107 S,0,45352,45352,0.5 C,0,45352,45352,255,0,255 F,0,45352,45852,1,0
Sprite,Background,Centre,"sb\glow.png",318,90 S,0,45371,45371,0.5 C,0,45371,45371,255,0,255 F,0,45371,45871,1,0
Sprite,Background,Centre,"sb\glow.png",319,72 S,0,45390,45390,0.5 C,0,45390,45390,255,0,255 F,0,45390,45890,1,0
Sprite,Background,Centre,"sb\glow.png",310,79 S,0,45409,45409,0.5 C,0,45409,45409,255,0,255 F,0,45409,45909,1,0
Sprite,Background,Centre,"sb\glow.png",301,94 S,0,45427,45427,0.5 C,0,45427,45427,255,0,255 F,0,45427,45927,1,0
Sprite,Background,Centre,"sb\glow.png",296,111 S,0,45446,45446,0.5 C,0,45446,45446,255,0,255 F,0,45446,45946,1,0
Sprite,Background,Centre,"sb\glow.png",294,128 S,0,45465,45465,0.5 C,0,45465,45465,255,0,255 F,0,45465,45965,1,0
Sprite,Background,Centre,"sb\glow.png",293,145 S,0,45484,45484,0.5 C,0,45484,45484,255,0,255 F,0,45484,45984,1,0
Sprite,Background,Centre,"sb\glow.png",295,163 S,0,45502,45502,0.5 C,0,45502,45502,255,0,255 F,0,45502,46002,1,0
Sprite,Background,Centre,"sb\glow.png",299,180 S,0,45521,45521,0.5 C,0,45521,45521,255,0,255 F,0,45521,46021,1,0
Sprite,Background,Centre,"sb\glow.png",305,196 S,0,45540,45540,0.5 C,0,45540,45540,255,0,255 F,0,45540,46040,1,0
Sprite,Background,Centre,"sb\glow.png",313,212 S,0,45559,45559,0.5 C,0,45559,45559,255,0,255 F,0,45559,46059,1,0
Sprite,Background,Centre,"sb\glow.png",379,234 S,0,45577,45577,0.5 C,0,45577,45577,255,0,255 F,0,45577,46077,1,0
Sprite,Background,Centre,"sb\glow.png",438,254 S,0,45596,45596,0.5 C,0,45596,45596,255,0,255 F,0,45596,46096,1,0
Sprite,Background,Centre,"sb\glow.png",478,267 S,0,45615,45615,0.5 C,0,45615,45615,255,0,255 F,0,45615,46115,1,0
Sprite,Background,Centre,"sb\glow.png",493,272 S,0,45634,45634,0.5 C,0,45634,45634,255,0,255 F,0,45634,46134,1,0
Sprite,Background,Centre,"sb\glow.png",511,274 S,0,45652,45652,0.5 C,0,45652,45652,255,0,255 F,0,45652,46152,1,0
Sprite,Background,Centre,"sb\glow.png",528,280 S,0,45671,45671,0.5 C,0,45671,45671,255,0,255 F,0,45671,46171,1,0
Sprite,Background,Centre,"sb\glow.png",543,288 S,0,45690,45690,0.5 C,0,45690,45690,255,0,255 F,0,45690,46190,1,0
Sprite,Background,Centre,"sb\glow.png",537,273 S,0,45709,45709,0.5 C,0,45709,45709,255,0,255 F,0,45709,46209,1,0
Sprite,Background,Centre,"sb\glow.png",525,258 S,0,45727,45727,0.5 C,0,45727,45727,255,0,255 F,0,45727,46227,1,0
Sprite,Background,Centre,"sb\glow.png",511,246 S,0,45746,45746,0.5 C,0,45746,45746,255,0,255 F,0,45746,46246,1,0
Sprite,Background,Centre,"sb\glow.png",495,236 S,0,45765,45765,0.5 C,0,45765,45765,255,0,255 F,0,45765,46265,1,0
Sprite,Background,Centre,"sb\glow.png",477,229 S,0,45784,45784,0.5 C,0,45784,45784,255,0,255 F,0,45784,46284,1,0
Sprite,Background,Centre,"sb\glow.png",459,224 S,0,45802,45802,0.5 C,0,45802,45802,255,0,255 F,0,45802,46302,1,0
Sprite,Background,Centre,"sb\glow.png",441,221 S,0,45821,45821,0.5 C,0,45821,45821,255,0,255 F,0,45821,46321,1,0
Sprite,Background,Centre,"sb\glow.png",422,221 S,0,45840,45840,0.5 C,0,45840,45840,255,0,255 F,0,45840,46340,1,0
Sprite,Background,Centre,"sb\glow.png",403,223 S,0,45859,45859,0.5 C,0,45859,45859,255,0,255 F,0,45859,46359,1,0
Sprite,Background,Centre,"sb\glow.png",412,267 S,0,45877,45877,0.5 C,0,45877,45877,255,0,255 F,0,45877,46377,1,0
Sprite,Background,Centre,"sb\glow.png",421,306 S,0,45896,45896,0.5 C,0,45896,45896,255,0,255 F,0,45896,46396,1,0
Sprite,Background,Centre,"sb\glow.png",427,333 S,0,45915,45915,0.5 C,0,45915,45915,255,0,255 F,0,45915,46415,1,0
Sprite,Background,Centre,"sb\glow.png",429,343 S,0,45934,45934,0.5 C,0,45934,45934,255,0,255 F,0,45934,46434,1,0
Sprite,Background,Centre,"sb\glow.png",573,276 S,0,54935,54935,0.5 C,0,54935,54935,255,88,102 F,0,54935,55435,1,0
Sprite,Background,Centre,"sb\glow.png",576,293 S,0,54953,54953,0.5 C,0,54953,54953,255,88,102 F,0,54953,55453,1,0
Sprite,Background,Centre,"sb\glow.png",578,311 S,0,54972,54972,0.5 C,0,54972,54972,255,88,102 F,0,54972,55472,1,0
Sprite,Background,Centre,"sb\glow.png",568,315 S,0,54991,54991,0.5 C,0,54991,54991,255,88,102 F,0,54991,55491,1,0
Sprite,Background,Centre,"sb\glow.png",551,311 S,0,55010,55010,0.5 C,0,55010,55010,255,88,102 F,0,55010,55510,1,0
Sprite,Background,Centre,"sb\glow.png",534,307 S,0,55028,55028,0.5 C,0,55028,55028,255,88,102 F,0,55028,55528,1,0
Sprite,Background,Centre,"sb\glow.png",518,302 S,0,55047,55047,0.5 C,0,55047,55047,255,88,102 F,0,55047,55547,1,0
Sprite,Background,Centre,"sb\glow.png",503,293 S,0,55066,55066,0.5 C,0,55066,55066,255,88,102 F,0,55066,55566,1,0
Sprite,Background,Centre,"sb\glow.png",487,284 S,0,55085,55085,0.5 C,0,55085,55085,255,88,102 F,0,55085,55585,1,0
Sprite,Background,Centre,"sb\glow.png",471,281 S,0,55103,55103,0.5 C,0,55103,55103,255,88,102 F,0,55103,55603,1,0
Sprite,Background,Centre,"sb\glow.png",453,279 S,0,55122,55122,0.5 C,0,55122,55122,255,88,102 F,0,55122,55622,1,0
Sprite,Background,Centre,"sb\glow.png",436,277 S,0,55141,55141,0.5 C,0,55141,55141,255,88,102 F,0,55141,55641,1,0
Sprite,Background,Centre,"sb\glow.png",418,275 S,0,55160,55160,0.5 C,0,55160,55160,255,88,102 F,0,55160,55660,1,0
Sprite,Background,Centre,"sb\glow.png",360,213 S,0,55178,55178,0.5 C,0,55178,55178,255,88,102 F,0,55178,55678,1,0
Sprite,Background,Centre,"sb\glow.png",311,160 S,0,55197,55197,0.5 C,0,55197,55197,255,88,102 F,0,55197,55697,1,0
Sprite,Background,Centre,"sb\glow.png",279,124 S,0,55216,55216,0.5 C,0,55216,55216,255,88,102 F,0,55216,55716,1,0
Sprite,Background,Centre,"sb\glow.png",267,112 S,0,55235,55235,0.5 C,0,55235,55235,255,88,102 F,0,55235,55735,1,0
Sprite,Background,Centre,"sb\glow.png",261,94 S,0,55253,55253,0.5 C,0,55253,55253,255,88,102 F,0,55253,55753,1,0
Sprite,Background,Centre,"sb\glow.png",254,77 S,0,55272,55272,0.5 C,0,55272,55272,255,88,102 F,0,55272,55772,1,0
Sprite,Background,Centre,"sb\glow.png",272,79 S,0,55291,55291,0.5 C,0,55291,55291,255,88,102 F,0,55291,55791,1,0
Sprite,Background,Centre,"sb\glow.png",290,81 S,0,55310,55310,0.5 C,0,55310,55310,255,88,102 F,0,55310,55810,1,0
Sprite,Background,Centre,"sb\glow.png",309,84 S,0,55328,55328,0.5 C,0,55328,55328,255,88,102 F,0,55328,55828,1,0
Sprite,Background,Centre,"sb\glow.png",327,87 S,0,55347,55347,0.5 C,0,55347,55347,255,88,102 F,0,55347,55847,1,0
Sprite,Background,Centre,"sb\glow.png",342,98 S,0,55366,55366,0.5 C,0,55366,55366,255,88,102 F,0,55366,55866,1,0
Sprite,Background,Centre,"sb\glow.png",358,109 S,0,55385,55385,0.5 C,0,55385,55385,255,88,102 F,0,55385,55885,1,0
Sprite,Background,Centre,"sb\glow.png",376,113 S,0,55403,55403,0.5 C,0,55403,55403,255,88,102 F,0,55403,55903,1,0
Sprite,Background,Centre,"sb\glow.png",394,114 S,0,55422,55422,0.5 C,0,55422,55422,255,88,102 F,0,55422,55922,1,0
Sprite,Background,Centre,"sb\glow.png",413,115 S,0,55441,55441,0.5 C,0,55441,55441,255,88,102 F,0,55441,55941,1,0
Sprite,Background,Centre,"sb\glow.png",432,116 S,0,55460,55460,0.5 C,0,55460,55460,255,88,102 F,0,55460,55960,1,0
Sprite,Background,Centre,"sb\glow.png",443,213 S,0,55478,55478,0.5 C,0,55478,55478,255,88,102 F,0,55478,55978,1,0
Sprite,Background,Centre,"sb\glow.png",453,294 S,0,55497,55497,0.5 C,0,55497,55497,255,88,102 F,0,55497,55997,1,0
Sprite,Background,Centre,"sb\glow.png",460,349 S,0,55516,55516,0.5 C,0,55516,55516,255,88,102 F,0,55516,56016,1,0
Sprite,Background,Centre,"sb\glow.png",462,368 S,0,55535,55535,0.5 C,0,55535,55535,255,88,102 F,0,55535,56035,1,0
Sprite,Background,Centre,"sb\glow.png",474,357 S,0,55553,55553,0.5 C,0,55553,55553,255,88,102 F,0,55553,56053,1,0
Sprite,Background,Centre,"sb\glow.png",484,345 S,0,55572,55572,0.5 C,0,55572,55572,255,88,102 F,0,55572,56072,1,0
Sprite,Background,Centre,"sb\glow.png",493,331 S,0,55591,55591,0.5 C,0,55591,55591,255,88,102 F,0,55591,56091,1,0
Sprite,Background,Centre,"sb\glow.png",499,316 S,0,55610,55610,0.5 C,0,55610,55610,255,88,102 F,0,55610,56110,1,0
Sprite,Background,Centre,"sb\glow.png",503,300 S,0,55628,55628,0.5 C,0,55628,55628,255,88,102 F,0,55628,56128,1,0
Sprite,Background,Centre,"sb\glow.png",504,284 S,0,55647,55647,0.5 C,0,55647,55647,255,88,102 F,0,55647,56147,1,0
Sprite,Background,Centre,"sb\glow.png",504,268 S,0,55666,55666,0.5 C,0,55666,55666,255,88,102 F,0,55666,56166,1,0
Sprite,Background,Centre,"sb\glow.png",500,252 S,0,55685,55685,0.5 C,0,55685,55685,255,88,102 F,0,55685,56185,1,0
Sprite,Background,Centre,"sb\glow.png",495,237 S,0,55703,55703,0.5 C,0,55703,55703,255,88,102 F,0,55703,56203,1,0
Sprite,Background,Centre,"sb\glow.png",487,222 S,0,55722,55722,0.5 C,0,55722,55722,255,88,102 F,0,55722,56222,1,0
Sprite,Background,Centre,"sb\glow.png",477,210 S,0,55741,55741,0.5 C,0,55741,55741,255,88,102 F,0,55741,56241,1,0
Sprite,Background,Centre,"sb\glow.png",290,219 S,0,98434,98434,0.5 C,0,98434,98434,255,128,192 F,0,98434,98934,1,0
Sprite,Background,Centre,"sb\glow.png",299,206 S,0,98452,98452,0.5 C,0,98452,98452,255,128,192 F,0,98452,98952,1,0
Sprite,Background,Centre,"sb\glow.png",308,193 S,0,98471,98471,0.5 C,0,98471,98471,255,128,192 F,0,98471,98971,1,0
Sprite,Background,Centre,"sb\glow.png",321,184 S,0,98490,98490,0.5 C,0,98490,98490,255,128,192 F,0,98490,98990,1,0
Sprite,Background,Centre,"sb\glow.png",336,180 S,0,98509,98509,0.5 C,0,98509,98509,255,128,192 F,0,98509,99009,1,0
Sprite,Background,Centre,"sb\glow.png",352,176 S,0,98527,98527,0.5 C,0,98527,98527,255,128,192 F,0,98527,99027,1,0
Sprite,Background,Centre,"sb\glow.png",368,173 S,0,98546,98546,0.5 C,0,98546,98546,255,128,192 F,0,98546,99046,1,0
Sprite,Background,Centre,"sb\glow.png",384,169 S,0,98565,98565,0.5 C,0,98565,98565,255,128,192 F,0,98565,99065,1,0
Sprite,Background,Centre,"sb\glow.png",399,165 S,0,98584,98584,0.5 C,0,98584,98584,255,128,192 F,0,98584,99084,1,0
Sprite,Background,Centre,"sb\glow.png",415,161 S,0,98602,98602,0.5 C,0,98602,98602,255,128,192 F,0,98602,99102,1,0
Sprite,Background,Centre,"sb\glow.png",431,157 S,0,98621,98621,0.5 C,0,98621,98621,255,128,192 F,0,98621,99121,1,0
Sprite,Background,Centre,"sb\glow.png",445,164 S,0,98640,98640,0.5 C,0,98640,98640,255,128,192 F,0,98640,99140,1,0
Sprite,Background,Centre,"sb\glow.png",459,172 S,0,98659,98659,0.5 C,0,98659,98659,255,128,192 F,0,98659,99159,1,0
Sprite,Background,Centre,"sb\glow.png",478,245 S,0,98677,98677,0.5 C,0,98677,98677,255,128,192 F,0,98677,99177,1,0
Sprite,Background,Centre,"sb\glow.png",495,311 S,0,98696,98696,0.5 C,0,98696,98696,255,128,192 F,0,98696,99196,1,0
Sprite,Background,Centre,"sb\glow.png",506,355 S,0,98715,98715,0.5 C,0,98715,98715,255,128,192 F,0,98715,99215,1,0
Sprite,Background,Centre,"sb\glow.png",510,372 S,0,98734,98734,0.5 C,0,98734,98734,255,128,192 F,0,98734,99234,1,0
Sprite,Background,Centre,"sb\glow.png",501,385 S,0,98752,98752,0.5 C,0,98752,98752,255,128,192 F,0,98752,99252,1,0
Sprite,Background,Centre,"sb\glow.png",492,398 S,0,98771,98771,0.5 C,0,98771,98771,255,128,192 F,0,98771,99271,1,0
Sprite,Background,Centre,"sb\glow.png",479,407 S,0,98790,98790,0.5 C,0,98790,98790,255,128,192 F,0,98790,99290,1,0
Sprite,Background,Centre,"sb\glow.png",464,411 S,0,98809,98809,0.5 C,0,98809,98809,255,128,192 F,0,98809,99309,1,0
Sprite,Background,Centre,"sb\glow.png",448,415 S,0,98827,98827,0.5 C,0,98827,98827,255,128,192 F,0,98827,99327,1,0
Sprite,Background,Centre,"sb\glow.png",432,418 S,0,98846,98846,0.5 C,0,98846,98846,255,128,192 F,0,98846,99346,1,0
Sprite,Background,Centre,"sb\glow.png",416,422 S,0,98865,98865,0.5 C,0,98865,98865,255,128,192 F,0,98865,99365,1,0
Sprite,Background,Centre,"sb\glow.png",401,426 S,0,98884,98884,0.5 C,0,98884,98884,255,128,192 F,0,98884,99384,1,0
Sprite,Background,Centre,"sb\glow.png",385,430 S,0,98902,98902,0.5 C,0,98902,98902,255,128,192 F,0,98902,99402,1,0
Sprite,Background,Centre,"sb\glow.png",369,434 S,0,98921,98921,0.5 C,0,98921,98921,255,128,192 F,0,98921,99421,1,0
Sprite,Background,Centre,"sb\glow.png",355,427 S,0,98940,98940,0.5 C,0,98940,98940,255,128,192 F,0,98940,99440,1,0
Sprite,Background,Centre,"sb\glow.png",341,419 S,0,98959,98959,0.5 C,0,98959,98959,255,128,192 F,0,98959,99459,1,0
Sprite,Background,Centre,"sb\glow.png",306,388 S,0,98977,98977,0.5 C,0,98977,98977,255,128,192 F,0,98977,99477,1,0
Sprite,Background,Centre,"sb\glow.png",276,361 S,0,98996,98996,0.5 C,0,98996,98996,255,128,192 F,0,98996,99496,1,0
Sprite,Background,Centre,"sb\glow.png",255,343 S,0,99015,99015,0.5 C,0,99015,99015,255,128,192 F,0,99015,99515,1,0
Sprite,Background,Centre,"sb\glow.png",247,336 S,0,99034,99034,0.5 C,0,99034,99034,255,128,192 F,0,99034,99534,1,0
Sprite,Background,Centre,"sb\glow.png",246,321 S,0,99052,99052,0.5 C,0,99052,99052,255,0,128 F,0,99052,99552,1,0
Sprite,Background,Centre,"sb\glow.png",246,304 S,0,99071,99071,0.5 C,0,99071,99071,255,0,128 F,0,99071,99571,1,0
Sprite,Background,Centre,"sb\glow.png",248,288 S,0,99090,99090,0.5 C,0,99090,99090,255,0,128 F,0,99090,99590,1,0
Sprite,Background,Centre,"sb\glow.png",250,272 S,0,99109,99109,0.5 C,0,99109,99109,255,0,128 F,0,99109,99609,1,0
Sprite,Background,Centre,"sb\glow.png",304,283 S,0,99127,99127,0.5 C,0,99127,99127,255,0,128 F,0,99127,99627,1,0
Sprite,Background,Centre,"sb\glow.png",352,293 S,0,99146,99146,0.5 C,0,99146,99146,255,0,128 F,0,99146,99646,1,0
Sprite,Background,Centre,"sb\glow.png",385,300 S,0,99165,99165,0.5 C,0,99165,99165,255,0,128 F,0,99165,99665,1,0
Sprite,Background,Centre,"sb\glow.png",397,303 S,0,99184,99184,0.5 C,0,99184,99184,255,0,128 F,0,99184,99684,1,0
Sprite,Background,Centre,"sb\glow.png",394,288 S,0,99202,99202,0.5 C,0,99202,99202,255,0,128 F,0,99202,99702,1,0
Sprite,Background,Centre,"sb\glow.png",389,272 S,0,99221,99221,0.5 C,0,99221,99221,255,0,128 F,0,99221,99721,1,0
Sprite,Background,Centre,"sb\glow.png",383,257 S,0,99240,99240,0.5 C,0,99240,99240,255,0,128 F,0,99240,99740,1,0
Sprite,Background,Centre,"sb\glow.png",375,243 S,0,99259,99259,0.5 C,0,99259,99259,255,0,128 F,0,99259,99759,1,0
Sprite,Background,Centre,"sb\glow.png",346,209 S,0,99277,99277,0.5 C,0,99277,99277,255,0,128 F,0,99277,99777,1,0
Sprite,Background,Centre,"sb\glow.png",320,179 S,0,99296,99296,0.5 C,0,99296,99296,255,0,128 F,0,99296,99796,1,0
Sprite,Background,Centre,"sb\glow.png",302,159 S,0,99315,99315,0.5 C,0,99315,99315,255,0,128 F,0,99315,99815,1,0
Sprite,Background,Centre,"sb\glow.png",295,151 S,0,99334,99334,0.5 C,0,99334,99334,255,0,128 F,0,99334,99834,1,0
Sprite,Background,Centre,"sb\glow.png",285,140 S,0,99352,99352,0.5 C,0,99352,99352,255,0,128 F,0,99352,99852,1,0
Sprite,Background,Centre,"sb\glow.png",274,127 S,0,99371,99371,0.5 C,0,99371,99371,255,0,128 F,0,99371,99871,1,0
Sprite,Background,Centre,"sb\glow.png",283,126 S,0,99390,99390,0.5 C,0,99390,99390,255,0,128 F,0,99390,99890,1,0
Sprite,Background,Centre,"sb\glow.png",299,128 S,0,99409,99409,0.5 C,0,99409,99409,255,0,128 F,0,99409,99909,1,0
Sprite,Background,Centre,"sb\glow.png",315,131 S,0,99427,99427,0.5 C,0,99427,99427,255,0,128 F,0,99427,99927,1,0
Sprite,Background,Centre,"sb\glow.png",331,134 S,0,99446,99446,0.5 C,0,99446,99446,255,0,128 F,0,99446,99946,1,0
Sprite,Background,Centre,"sb\glow.png",347,134 S,0,99465,99465,0.5 C,0,99465,99465,255,0,128 F,0,99465,99965,1,0
Sprite,Background,Centre,"sb\glow.png",363,135 S,0,99484,99484,0.5 C,0,99484,99484,255,0,128 F,0,99484,99984,1,0
Sprite,Background,Centre,"sb\glow.png",379,137 S,0,99502,99502,0.5 C,0,99502,99502,255,0,128 F,0,99502,100002,1,0
Sprite,Background,Centre,"sb\glow.png",395,140 S,0,99521,99521,0.5 C,0,99521,99521,255,0,128 F,0,99521,100021,1,0
Sprite,Background,Centre,"sb\glow.png",411,142 S,0,99540,99540,0.5 C,0,99540,99540,255,0,128 F,0,99540,100040,1,0
Sprite,Background,Centre,"sb\glow.png",427,145 S,0,99559,99559,0.5 C,0,99559,99559,255,0,128 F,0,99559,100059,1,0
Sprite,Background,Centre,"sb\glow.png",468,184 S,0,99577,99577,0.5 C,0,99577,99577,255,0,128 F,0,99577,100077,1,0
Sprite,Background,Centre,"sb\glow.png",505,220 S,0,99596,99596,0.5 C,0,99596,99596,255,0,128 F,0,99596,100096,1,0
Sprite,Background,Centre,"sb\glow.png",530,244 S,0,99615,99615,0.5 C,0,99615,99615,255,0,128 F,0,99615,100115,1,0
Sprite,Background,Centre,"sb\glow.png",539,253 S,0,99634,99634,0.5 C,0,99634,99634,255,0,128 F,0,99634,100134,1,0
Sprite,Background,Centre,"sb\glow.png",513,262 S,0,99652,99652,0.5 C,0,99652,99652,255,88,102 F,0,99652,100152,1,0
Sprite,Background,Centre,"sb\glow.png",486,272 S,0,99671,99671,0.5 C,0,99671,99671,255,88,102 F,0,99671,100171,1,0
Sprite,Background,Centre,"sb\glow.png",461,280 S,0,99690,99690,0.5 C,0,99690,99690,255,88,102 F,0,99690,100190,1,0
Sprite,Background,Centre,"sb\glow.png",440,288 S,0,99709,99709,0.5 C,0,99709,99709,255,88,102 F,0,99709,100209,1,0
Sprite,Background,Centre,"sb\glow.png",422,294 S,0,99727,99727,0.5 C,0,99727,99727,255,88,102 F,0,99727,100227,1,0
Sprite,Background,Centre,"sb\glow.png",408,299 S,0,99746,99746,0.5 C,0,99746,99746,255,88,102 F,0,99746,100246,1,0
Sprite,Background,Centre,"sb\glow.png",400,302 S,0,99765,99765,0.5 C,0,99765,99765,255,88,102 F,0,99765,100265,1,0
Sprite,Background,Centre,"sb\glow.png",397,303 S,0,99784,99784,0.5 C,0,99784,99784,255,88,102 F,0,99784,100284,1,0
Sprite,Background,Centre,"sb\glow.png",412,307 S,0,99802,99802,0.5 C,0,99802,99802,255,88,102 F,0,99802,100302,1,0
Sprite,Background,Centre,"sb\glow.png",428,310 S,0,99821,99821,0.5 C,0,99821,99821,255,88,102 F,0,99821,100321,1,0
Sprite,Background,Centre,"sb\glow.png",444,310 S,0,99840,99840,0.5 C,0,99840,99840,255,88,102 F,0,99840,100340,1,0
Sprite,Background,Centre,"sb\glow.png",460,309 S,0,99859,99859,0.5 C,0,99859,99859,255,88,102 F,0,99859,100359,1,0
Sprite,Background,Centre,"sb\glow.png",489,285 S,0,99877,99877,0.5 C,0,99877,99877,255,88,102 F,0,99877,100377,1,0
Sprite,Background,Centre,"sb\glow.png",515,264 S,0,99896,99896,0.5 C,0,99896,99896,255,88,102 F,0,99896,100396,1,0
Sprite,Background,Centre,"sb\glow.png",532,249 S,0,99915,99915,0.5 C,0,99915,99915,255,88,102 F,0,99915,100415,1,0
Sprite,Background,Centre,"sb\glow.png",539,244 S,0,99934,99934,0.5 C,0,99934,99934,255,88,102 F,0,99934,100434,1,0
Sprite,Background,Centre,"sb\glow.png",518,226 S,0,99952,99952,0.5 C,0,99952,99952,255,88,102 F,0,99952,100452,1,0
Sprite,Background,Centre,"sb\glow.png",497,207 S,0,99971,99971,0.5 C,0,99971,99971,255,88,102 F,0,99971,100471,1,0
Sprite,Background,Centre,"sb\glow.png",478,189 S,0,99990,99990,0.5 C,0,99990,99990,255,88,102 F,0,99990,100490,1,0
Sprite,Background,Centre,"sb\glow.png",461,174 S,0,100009,100009,0.5 C,0,100009,100009,255,88,102 F,0,100009,100509,1,0
Sprite,Background,Centre,"sb\glow.png",447,161 S,0,100027,100027,0.5 C,0,100027,100027,255,88,102 F,0,100027,100527,1,0
Sprite,Background,Centre,"sb\glow.png",436,152 S,0,100046,100046,0.5 C,0,100046,100046,255,88,102 F,0,100046,100546,1,0
Sprite,Background,Centre,"sb\glow.png",429,146 S,0,100065,100065,0.5 C,0,100065,100065,255,88,102 F,0,100065,100565,1,0
Sprite,Background,Centre,"sb\glow.png",427,144 S,0,100084,100084,0.5 C,0,100084,100084,255,88,102 F,0,100084,100584,1,0
Sprite,Background,Centre,"sb\glow.png",442,147 S,0,100102,100102,0.5 C,0,100102,100102,255,88,102 F,0,100102,100602,1,0
Sprite,Background,Centre,"sb\glow.png",457,153 S,0,100121,100121,0.5 C,0,100121,100121,255,88,102 F,0,100121,100621,1,0
Sprite,Background,Centre,"sb\glow.png",472,160 S,0,100140,100140,0.5 C,0,100140,100140,255,88,102 F,0,100140,100640,1,0
Sprite,Background,Centre,"sb\glow.png",485,169 S,0,100159,100159,0.5 C,0,100159,100159,255,88,102 F,0,100159,100659,1,0
Sprite,Background,Centre,"sb\glow.png",466,191 S,0,100177,100177,0.5 C,0,100177,100177,255,88,102 F,0,100177,100677,1,0
Sprite,Background,Centre,"sb\glow.png",448,210 S,0,100196,100196,0.5 C,0,100196,100196,255,88,102 F,0,100196,100696,1,0
Sprite,Background,Centre,"sb\glow.png",436,223 S,0,100215,100215,0.5 C,0,100215,100215,255,88,102 F,0,100215,100715,1,0
Sprite,Background,Centre,"sb\glow.png",431,228 S,0,100234,100234,0.5 C,0,100234,100234,255,88,102 F,0,100234,100734,1,0
Sprite,Background,Centre,"sb\glow.png",416,225 S,0,100252,100252,0.5 C,0,100252,100252,255,0,255 F,0,100252,100752,1,0
Sprite,Background,Centre,"sb\glow.png",400,221 S,0,100271,100271,0.5 C,0,100271,100271,255,0,255 F,0,100271,100771,1,0
Sprite,Background,Centre,"sb\glow.png",384,218 S,0,100290,100290,0.5 C,0,100290,100290,255,0,255 F,0,100290,100790,1,0
Sprite,Background,Centre,"sb\glow.png",368,214 S,0,100309,100309,0.5 C,0,100309,100309,255,0,255 F,0,100309,100809,1,0
Sprite,Background,Centre,"sb\glow.png",353,211 S,0,100327,100327,0.5 C,0,100327,100327,255,0,255 F,0,100327,100827,1,0
Sprite,Background,Centre,"sb\glow.png",337,207 S,0,100346,100346,0.5 C,0,100346,100346,255,0,255 F,0,100346,100846,1,0
Sprite,Background,Centre,"sb\glow.png",321,204 S,0,100365,100365,0.5 C,0,100365,100365,255,0,255 F,0,100365,100865,1,0
Sprite,Background,Centre,"sb\glow.png",305,199 S,0,100384,100384,0.5 C,0,100384,100384,255,0,255 F,0,100384,100884,1,0
Sprite,Background,Centre,"sb\glow.png",290,194 S,0,100402,100402,0.5 C,0,100402,100402,255,0,255 F,0,100402,100902,1,0
Sprite,Background,Centre,"sb\glow.png",295,202 S,0,100421,100421,0.5 C,0,100421,100421,255,0,255 F,0,100421,100921,1,0
Sprite,Background,Centre,"sb\glow.png",306,214 S,0,100440,100440,0.5 C,0,100440,100440,255,0,255 F,0,100440,100940,1,0
Sprite,Background,Centre,"sb\glow.png",314,227 S,0,100459,100459,0.5 C,0,100459,100459,255,0,255 F,0,100459,100959,1,0
Sprite,Background,Centre,"sb\glow.png",295,286 S,0,100477,100477,0.5 C,0,100477,100477,255,0,255 F,0,100477,100977,1,0
Sprite,Background,Centre,"sb\glow.png",279,339 S,0,100496,100496,0.5 C,0,100496,100496,255,0,255 F,0,100496,100996,1,0
Sprite,Background,Centre,"sb\glow.png",267,375 S,0,100515,100515,0.5 C,0,100515,100515,255,0,255 F,0,100515,101015,1,0
Sprite,Background,Centre,"sb\glow.png",263,389 S,0,100534,100534,0.5 C,0,100534,100534,255,0,255 F,0,100534,101034,1,0
Sprite,Background,Centre,"sb\glow.png",275,380 S,0,100552,100552,0.5 C,0,100552,100552,255,0,255 F,0,100552,101052,1,0
Sprite,Background,Centre,"sb\glow.png",289,370 S,0,100571,100571,0.5 C,0,100571,100571,255,0,255 F,0,100571,101071,1,0
Sprite,Background,Centre,"sb\glow.png",297,357 S,0,100590,100590,0.5 C,0,100590,100590,255,0,255 F,0,100590,101090,1,0
Sprite,Background,Centre,"sb\glow.png",304,342 S,0,100609,100609,0.5 C,0,100609,100609,255,0,255 F,0,100609,101109,1,0
Sprite,Background,Centre,"sb\glow.png",249,316 S,0,100627,100627,0.5 C,0,100627,100627,255,0,255 F,0,100627,101127,1,0
Sprite,Background,Centre,"sb\glow.png",198,293 S,0,100646,100646,0.5 C,0,100646,100646,255,0,255 F,0,100646,101146,1,0
Sprite,Background,Centre,"sb\glow.png",164,277 S,0,100665,100665,0.5 C,0,100665,100665,255,0,255 F,0,100665,101165,1,0
Sprite,Background,Centre,"sb\glow.png",151,271 S,0,100684,100684,0.5 C,0,100684,100684,255,0,255 F,0,100684,101184,1,0
Sprite,Background,Centre,"sb\glow.png",151,271 S,0,100702,100702,0.5 C,0,100702,100702,255,0,255 F,0,100702,101202,1,0
Sprite,Background,Centre,"sb\glow.png",151,271 S,0,100721,100721,0.5 C,0,100721,100721,255,0,255 F,0,100721,101221,1,0
Sprite,Background,Centre,"sb\glow.png",151,271 S,0,100740,100740,0.5 C,0,100740,100740,255,0,255 F,0,100740,101240,1,0
Sprite,Background,Centre,"sb\glow.png",151,271 S,0,100759,100759,0.5 C,0,100759,100759,255,0,255 F,0,100759,101259,1,0
Sprite,Background,Centre,"sb\glow.png",151,271 S,0,100777,100777,0.5 C,0,100777,100777,255,0,255 F,0,100777,101277,1,0
Sprite,Background,Centre,"sb\glow.png",151,271 S,0,100796,100796,0.5 C,0,100796,100796,255,0,255 F,0,100796,101296,1,0
Sprite,Background,Centre,"sb\glow.png",151,271 S,0,100815,100815,0.5 C,0,100815,100815,255,0,255 F,0,100815,101315,1,0
Sprite,Background,Centre,"sb\glow.png",151,271 S,0,100834,100834,0.5 C,0,100834,100834,255,0,255 F,0,100834,101334,1,0
Sprite,Background,Centre,"sb\glow.png",139,261 S,0,100852,100852,0.5 C,0,100852,100852,255,128,192 F,0,100852,101352,1,0
Sprite,Background,Centre,"sb\glow.png",127,251 S,0,100871,100871,0.5 C,0,100871,100871,255,128,192 F,0,100871,101371,1,0
Sprite,Background,Centre,"sb\glow.png",123,258 S,0,100890,100890,0.5 C,0,100890,100890,255,128,192 F,0,100890,101390,1,0
Sprite,Background,Centre,"sb\glow.png",125,273 S,0,100909,100909,0.5 C,0,100909,100909,255,128,192 F,0,100909,101409,1,0
Sprite,Background,Centre,"sb\glow.png",127,289 S,0,100927,100927,0.5 C,0,100927,100927,255,128,192 F,0,100927,101427,1,0
Sprite,Background,Centre,"sb\glow.png",128,306 S,0,100946,100946,0.5 C,0,100946,100946,255,128,192 F,0,100946,101446,1,0
Sprite,Background,Centre,"sb\glow.png",126,317 S,0,100965,100965,0.5 C,0,100965,100965,255,128,192 F,0,100965,101465,1,0
Sprite,Background,Centre,"sb\glow.png",127,333 S,0,100984,100984,0.5 C,0,100984,100984,255,128,192 F,0,100984,101484,1,0
Sprite,Background,Centre,"sb\glow.png",129,349 S,0,101002,101002,0.5 C,0,101002,101002,255,128,192 F,0,101002,101502,1,0
Sprite,Background,Centre,"sb\glow.png",132,363 S,0,101021,101021,0.5 C,0,101021,101021,255,128,192 F,0,101021,101521,1,0
Sprite,Background,Centre,"sb\glow.png",135,376 S,0,101040,101040,0.5 C,0,101040,101040,255,128,192 F,0,101040,101540,1,0
Sprite,Background,Centre,"sb\glow.png",137,392 S,0,101059,101059,0.5 C,0,101059,101059,255,128,192 F,0,101059,101559,1,0
Sprite,Background,Centre,"sb\glow.png",184,277 S,0,101077,101077,0.5 C,0,101077,101077,255,128,192 F,0,101077,101577,1,0
Sprite,Background,Centre,"sb\glow.png",226,171 S,0,101096,101096,0.5 C,0,101096,101096,255,128,192 F,0,101096,101596,1,0
Sprite,Background,Centre,"sb\glow.png",255,99 S,0,101115,101115,0.5 C,0,101115,101115,255,128,192 F,0,101115,101615,1,0
Sprite,Background,Centre,"sb\glow.png",266,72 S,0,101134,101134,0.5 C,0,101134,101134,255,128,192 F,0,101134,101634,1,0
Sprite,Background,Centre,"sb\glow.png",264,87 S,0,101152,101152,0.5 C,0,101152,101152,255,128,192 F,0,101152,101652,1,0
Sprite,Background,Centre,"sb\glow.png",262,103 S,0,101171,101171,0.5 C,0,101171,101171,255,128,192 F,0,101171,101671,1,0
Sprite,Background,Centre,"sb\glow.png",268,110 S,0,101190,101190,0.5 C,0,101190,101190,255,128,192 F,0,101190,101690,1,0
Sprite,Background,Centre,"sb\glow.png",267,125 S,0,101209,101209,0.5 C,0,101209,101209,255,128,192 F,0,101209,101709,1,0
Sprite,Background,Centre,"sb\glow.png",266,141 S,0,101227,101227,0.5 C,0,101227,101227,255,128,192 F,0,101227,101727,1,0
Sprite,Background,Centre,"sb\glow.png",264,158 S,0,101246,101246,0.5 C,0,101246,101246,255,128,192 F,0,101246,101746,1,0
Sprite,Background,Centre,"sb\glow.png",263,174 S,0,101265,101265,0.5 C,0,101265,101265,255,128,192 F,0,101265,101765,1,0
Sprite,Background,Centre,"sb\glow.png",261,190 S,0,101284,101284,0.5 C,0,101284,101284,255,128,192 F,0,101284,101784,1,0
Sprite,Background,Centre,"sb\glow.png",256,199 S,0,101302,101302,0.5 C,0,101302,101302,255,128,192 F,0,101302,101802,1,0
Sprite,Background,Centre,"sb\glow.png",253,213 S,0,101321,101321,0.5 C,0,101321,101321,255,128,192 F,0,101321,101821,1,0
Sprite,Background,Centre,"sb\glow.png",251,229 S,0,101340,101340,0.5 C,0,101340,101340,255,128,192 F,0,101340,101840,1,0
Sprite,Background,Centre,"sb\glow.png",249,244 S,0,101359,101359,0.5 C,0,101359,101359,255,128,192 F,0,101359,101859,1,0
Sprite,Background,Centre,"sb\glow.png",209,231 S,0,101377,101377,0.5 C,0,101377,101377,255,128,192 F,0,101377,101877,1,0
Sprite,Background,Centre,"sb\glow.png",174,219 S,0,101396,101396,0.5 C,0,101396,101396,255,128,192 F,0,101396,101896,1,0
Sprite,Background,Centre,"sb\glow.png",149,210 S,0,101415,101415,0.5 C,0,101415,101415,255,128,192 F,0,101415,101915,1,0
Sprite,Background,Centre,"sb\glow.png",140,207 S,0,101434,101434,0.5 C,0,101434,101434,255,128,192 F,0,101434,101934,1,0
Sprite,Background,Centre,"sb\glow.png",139,222 S,0,101452,101452,0.5 C,0,101452,101452,255,0,128 F,0,101452,101952,1,0
Sprite,Background,Centre,"sb\glow.png",140,238 S,0,101471,101471,0.5 C,0,101471,101471,255,0,128 F,0,101471,101971,1,0
Sprite,Background,Centre,"sb\glow.png",144,254 S,0,101490,101490,0.5 C,0,101490,101490,255,0,128 F,0,101490,101990,1,0
Sprite,Background,Centre,"sb\glow.png",150,269 S,0,101509,101509,0.5 C,0,101509,101509,255,0,128 F,0,101509,102009,1,0
Sprite,Background,Centre,"sb\glow.png",228,250 S,0,101527,101527,0.5 C,0,101527,101527,255,0,128 F,0,101527,102027,1,0
Sprite,Background,Centre,"sb\glow.png",298,232 S,0,101546,101546,0.5 C,0,101546,101546,255,0,128 F,0,101546,102046,1,0
Sprite,Background,Centre,"sb\glow.png",345,220 S,0,101565,101565,0.5 C,0,101565,101565,255,0,128 F,0,101565,102065,1,0
Sprite,Background,Centre,"sb\glow.png",363,215 S,0,101584,101584,0.5 C,0,101584,101584,255,0,128 F,0,101584,102084,1,0
Sprite,Background,Centre,"sb\glow.png",362,230 S,0,101602,101602,0.5 C,0,101602,101602,255,0,128 F,0,101602,102102,1,0
Sprite,Background,Centre,"sb\glow.png",359,246 S,0,101621,101621,0.5 C,0,101621,101621,255,0,128 F,0,101621,102121,1,0
Sprite,Background,Centre,"sb\glow.png",354,262 S,0,101640,101640,0.5 C,0,101640,101640,255,0,128 F,0,101640,102140,1,0
Sprite,Background,Centre,"sb\glow.png",347,276 S,0,101659,101659,0.5 C,0,101659,101659,255,0,128 F,0,101659,102159,1,0
Sprite,Background,Centre,"sb\glow.png",306,331 S,0,101677,101677,0.5 C,0,101677,101677,255,0,128 F,0,101677,102177,1,0
Sprite,Background,Centre,"sb\glow.png",270,379 S,0,101696,101696,0.5 C,0,101696,101696,255,0,128 F,0,101696,102196,1,0
Sprite,Background,Centre,"sb\glow.png",245,413 S,0,101715,101715,0.5 C,0,101715,101715,255,0,128 F,0,101715,102215,1,0
Sprite,Background,Centre,"sb\glow.png",236,425 S,0,101734,101734,0.5 C,0,101734,101734,255,0,128 F,0,101734,102234,1,0
Sprite,Background,Centre,"sb\glow.png",237,410 S,0,101752,101752,0.5 C,0,101752,101752,255,0,128 F,0,101752,102252,1,0
Sprite,Background,Centre,"sb\glow.png",238,393 S,0,101771,101771,0.5 C,0,101771,101771,255,0,128 F,0,101771,102271,1,0
Sprite,Background,Centre,"sb\glow.png",238,378 S,0,101790,101790,0.5 C,0,101790,101790,255,0,128 F,0,101790,102290,1,0
Sprite,Background,Centre,"sb\glow.png",236,367 S,0,101809,101809,0.5 C,0,101809,101809,255,0,128 F,0,101809,102309,1,0
Sprite,Background,Centre,"sb\glow.png",237,351 S,0,101827,101827,0.5 C,0,101827,101827,255,0,128 F,0,101827,102327,1,0
Sprite,Background,Centre,"sb\glow.png",238,335 S,0,101846,101846,0.5 C,0,101846,101846,255,0,128 F,0,101846,102346,1,0
Sprite,Background,Centre,"sb\glow.png",239,319 S,0,101865,101865,0.5 C,0,101865,101865,255,0,128 F,0,101865,102365,1,0
Sprite,Background,Centre,"sb\glow.png",239,303 S,0,101884,101884,0.5 C,0,101884,101884,255,0,128 F,0,101884,102384,1,0
Sprite,Background,Centre,"sb\glow.png",245,295 S,0,101902,101902,0.5 C,0,101902,101902,255,0,128 F,0,101902,102402,1,0
Sprite,Background,Centre,"sb\glow.png",246,279 S,0,101921,101921,0.5 C,0,101921,101921,255,0,128 F,0,101921,102421,1,0
Sprite,Background,Centre,"sb\glow.png",248,263 S,0,101940,101940,0.5 C,0,101940,101940,255,0,128 F,0,101940,102440,1,0
Sprite,Background,Centre,"sb\glow.png",249,247 S,0,101959,101959,0.5 C,0,101959,101959,255,0,128 F,0,101959,102459,1,0
Sprite,Background,Centre,"sb\glow.png",253,200 S,0,101977,101977,0.5 C,0,101977,101977,255,0,128 F,0,101977,102477,1,0
Sprite,Background,Centre,"sb\glow.png",257,158 S,0,101996,101996,0.5 C,0,101996,101996,255,0,128 F,0,101996,102496,1,0
Sprite,Background,Centre,"sb\glow.png",260,130 S,0,102015,102015,0.5 C,0,102015,102015,255,0,128 F,0,102015,102515,1,0
Sprite,Background,Centre,"sb\glow.png",261,119 S,0,102034,102034,0.5 C,0,102034,102034,255,0,128 F,0,102034,102534,1,0
Sprite,Background,Centre,"sb\glow.png",245,108 S,0,102052,102052,0.5 C,0,102052,102052,255,88,102 F,0,102052,102552,1,0
Sprite,Background,Centre,"sb\glow.png",228,97 S,0,102071,102071,0.5 C,0,102071,102071,255,88,102 F,0,102071,102571,1,0
Sprite,Background,Centre,"sb\glow.png",213,87 S,0,102090,102090,0.5 C,0,102090,102090,255,88,102 F,0,102090,102590,1,0
Sprite,Background,Centre,"sb\glow.png",199,78 S,0,102109,102109,0.5 C,0,102109,102109,255,88,102 F,0,102109,102609,1,0
Sprite,Background,Centre,"sb\glow.png",188,71 S,0,102127,102127,0.5 C,0,102127,102127,255,88,102 F,0,102127,102627,1,0
Sprite,Background,Centre,"sb\glow.png",180,66 S,0,102146,102146,0.5 C,0,102146,102146,255,88,102 F,0,102146,102646,1,0
Sprite,Background,Centre,"sb\glow.png",175,62 S,0,102165,102165,0.5 C,0,102165,102165,255,88,102 F,0,102165,102665,1,0
Sprite,Background,Centre,"sb\glow.png",173,61 S,0,102184,102184,0.5 C,0,102184,102184,255,88,102 F,0,102184,102684,1,0
Sprite,Background,Centre,"sb\glow.png",158,62 S,0,102202,102202,0.5 C,0,102202,102202,255,88,102 F,0,102202,102702,1,0
Sprite,Background,Centre,"sb\glow.png",141,63 S,0,102221,102221,0.5 C,0,102221,102221,255,88,102 F,0,102221,102721,1,0
Sprite,Background,Centre,"sb\glow.png",125,64 S,0,102240,102240,0.5 C,0,102240,102240,255,88,102 F,0,102240,102740,1,0
Sprite,Background,Centre,"sb\glow.png",109,65 S,0,102259,102259,0.5 C,0,102259,102259,255,88,102 F,0,102259,102759,1,0
Sprite,Background,Centre,"sb\glow.png",163,89 S,0,102277,102277,0.5 C,0,102277,102277,255,88,102 F,0,102277,102777,1,0
Sprite,Background,Centre,"sb\glow.png",212,111 S,0,102296,102296,0.5 C,0,102296,102296,255,88,102 F,0,102296,102796,1,0
Sprite,Background,Centre,"sb\glow.png",245,125 S,0,102315,102315,0.5 C,0,102315,102315,255,88,102 F,0,102315,102815,1,0
Sprite,Background,Centre,"sb\glow.png",258,131 S,0,102334,102334,0.5 C,0,102334,102334,255,88,102 F,0,102334,102834,1,0
Sprite,Background,Centre,"sb\glow.png",276,121 S,0,102352,102352,0.5 C,0,102352,102352,255,88,102 F,0,102352,102852,1,0
Sprite,Background,Centre,"sb\glow.png",293,111 S,0,102371,102371,0.5 C,0,102371,102371,255,88,102 F,0,102371,102871,1,0
Sprite,Background,Centre,"sb\glow.png",310,102 S,0,102390,102390,0.5 C,0,102390,102390,255,88,102 F,0,102390,102890,1,0
Sprite,Background,Centre,"sb\glow.png",324,94 S,0,102409,102409,0.5 C,0,102409,102409,255,88,102 F,0,102409,102909,1,0
Sprite,Background,Centre,"sb\glow.png",336,87 S,0,102427,102427,0.5 C,0,102427,102427,255,88,102 F,0,102427,102927,1,0
Sprite,Background,Centre,"sb\glow.png",345,82 S,0,102446,102446,0.5 C,0,102446,102446,255,88,102 F,0,102446,102946,1,0
Sprite,Background,Centre,"sb\glow.png",351,79 S,0,102465,102465,0.5 C,0,102465,102465,255,88,102 F,0,102465,102965,1,0
Sprite,Background,Centre,"sb\glow.png",353,78 S,0,102484,102484,0.5 C,0,102484,102484,255,88,102 F,0,102484,102984,1,0
Sprite,Background,Centre,"sb\glow.png",368,80 S,0,102502,102502,0.5 C,0,102502,102502,255,88,102 F,0,102502,103002,1,0
Sprite,Background,Centre,"sb\glow.png",384,82 S,0,102521,102521,0.5 C,0,102521,102521,255,88,102 F,0,102521,103021,1,0
Sprite,Background,Centre,"sb\glow.png",401,83 S,0,102540,102540,0.5 C,0,102540,102540,255,88,102 F,0,102540,103040,1,0
Sprite,Background,Centre,"sb\glow.png",417,85 S,0,102559,102559,0.5 C,0,102559,102559,255,88,102 F,0,102559,103059,1,0
Sprite,Background,Centre,"sb\glow.png",455,111 S,0,102577,102577,0.5 C,0,102577,102577,255,88,102 F,0,102577,103077,1,0
Sprite,Background,Centre,"sb\glow.png",488,134 S,0,102596,102596,0.5 C,0,102596,102596,255,88,102 F,0,102596,103096,1,0
Sprite,Background,Centre,"sb\glow.png",511,149 S,0,102615,102615,0.5 C,0,102615,102615,255,88,102 F,0,102615,103115,1,0
Sprite,Background,Centre,"sb\glow.png",520,155 S,0,102634,102634,0.5 C,0,102634,102634,255,88,102 F,0,102634,103134,1,0
Sprite,Background,Centre,"sb\glow.png",528,142 S,0,102652,102652,0.5 C,0,102652,102652,255,0,255 F,0,102652,103152,1,0
Sprite,Background,Centre,"sb\glow.png",525,131 S,0,102671,102671,0.5 C,0,102671,102671,255,0,255 F,0,102671,103171,1,0
Sprite,Background,Centre,"sb\glow.png",511,124 S,0,102690,102690,0.5 C,0,102690,102690,255,0,255 F,0,102690,103190,1,0
Sprite,Background,Centre,"sb\glow.png",501,130 S,0,102709,102709,0.5 C,0,102709,102709,255,0,255 F,0,102709,103209,1,0
Sprite,Background,Centre,"sb\glow.png",497,145 S,0,102727,102727,0.5 C,0,102727,102727,255,0,255 F,0,102727,103227,1,0
Sprite,Background,Centre,"sb\glow.png",499,161 S,0,102746,102746,0.5 C,0,102746,102746,255,0,255 F,0,102746,103246,1,0
Sprite,Background,Centre,"sb\glow.png",501,177 S,0,102765,102765,0.5 C,0,102765,102765,255,0,255 F,0,102765,103265,1,0
Sprite,Background,Centre,"sb\glow.png",504,193 S,0,102784,102784,0.5 C,0,102784,102784,255,0,255 F,0,102784,103284,1,0
Sprite,Background,Centre,"sb\glow.png",506,209 S,0,102802,102802,0.5 C,0,102802,102802,255,0,255 F,0,102802,103302,1,0
Sprite,Background,Centre,"sb\glow.png",509,225 S,0,102821,102821,0.5 C,0,102821,102821,255,0,255 F,0,102821,103321,1,0
Sprite,Background,Centre,"sb\glow.png",511,241 S,0,102840,102840,0.5 C,0,102840,102840,255,0,255 F,0,102840,103340,1,0
Sprite,Background,Centre,"sb\glow.png",513,257 S,0,102859,102859,0.5 C,0,102859,102859,255,0,255 F,0,102859,103359,1,0
Sprite,Background,Centre,"sb\glow.png",526,292 S,0,102877,102877,0.5 C,0,102877,102877,255,0,255 F,0,102877,103377,1,0
Sprite,Background,Centre,"sb\glow.png",538,323 S,0,102896,102896,0.5 C,0,102896,102896,255,0,255 F,0,102896,103396,1,0
Sprite,Background,Centre,"sb\glow.png",546,344 S,0,102915,102915,0.5 C,0,102915,102915,255,0,255 F,0,102915,103415,1,0
Sprite,Background,Centre,"sb\glow.png",549,352 S,0,102934,102934,0.5 C,0,102934,102934,255,0,255 F,0,102934,103434,1,0
Sprite,Background,Centre,"sb\glow.png",561,361 S,0,102952,102952,0.5 C,0,102952,102952,255,0,255 F,0,102952,103452,1,0
Sprite,Background,Centre,"sb\glow.png",575,370 S,0,102971,102971,0.5 C,0,102971,102971,255,0,255 F,0,102971,103471,1,0
Sprite,Background,Centre,"sb\glow.png",572,376 S,0,102990,102990,0.5 C,0,102990,102990,255,0,255 F,0,102990,103490,1,0
Sprite,Background,Centre,"sb\glow.png",556,378 S,0,103009,103009,0.5 C,0,103009,103009,255,0,255 F,0,103009,103509,1,0
Sprite,Background,Centre,"sb\glow.png",540,380 S,0,103027,103027,0.5 C,0,103027,103027,255,0,255 F,0,103027,103527,1,0
Sprite,Background,Centre,"sb\glow.png",524,382 S,0,103046,103046,0.5 C,0,103046,103046,255,0,255 F,0,103046,103546,1,0
Sprite,Background,Centre,"sb\glow.png",509,387 S,0,103065,103065,0.5 C,0,103065,103065,255,0,255 F,0,103065,103565,1,0
Sprite,Background,Centre,"sb\glow.png",493,392 S,0,103084,103084,0.5 C,0,103084,103084,255,0,255 F,0,103084,103584,1,0
Sprite,Background,Centre,"sb\glow.png",477,395 S,0,103102,103102,0.5 C,0,103102,103102,255,0,255 F,0,103102,103602,1,0
Sprite,Background,Centre,"sb\glow.png",461,397 S,0,103121,103121,0.5 C,0,103121,103121,255,0,255 F,0,103121,103621,1,0
Sprite,Background,Centre,"sb\glow.png",445,399 S,0,103140,103140,0.5 C,0,103140,103140,255,0,255 F,0,103140,103640,1,0
Sprite,Background,Centre,"sb\glow.png",429,401 S,0,103159,103159,0.5 C,0,103159,103159,255,0,255 F,0,103159,103659,1,0
Sprite,Background,Centre,"sb\glow.png",383,402 S,0,103177,103177,0.5 C,0,103177,103177,255,0,255 F,0,103177,103677,1,0
Sprite,Background,Centre,"sb\glow.png",342,403 S,0,103196,103196,0.5 C,0,103196,103196,255,0,255 F,0,103196,103696,1,0
Sprite,Background,Centre,"sb\glow.png",314,403 S,0,103215,103215,0.5 C,0,103215,103215,255,0,255 F,0,103215,103715,1,0
Sprite,Background,Centre,"sb\glow.png",304,403 S,0,103234,103234,0.5 C,0,103234,103234,255,0,255 F,0,103234,103734,1,0
Sprite,Background,Centre,"sb\glow.png",305,388 S,0,103252,103252,0.5 C,0,103252,103252,255,128,192 F,0,103252,103752,1,0
Sprite,Background,Centre,"sb\glow.png",307,372 S,0,103271,103271,0.5 C,0,103271,103271,255,128,192 F,0,103271,103771,1,0
Sprite,Background,Centre,"sb\glow.png",311,356 S,0,103290,103290,0.5 C,0,103290,103290,255,128,192 F,0,103290,103790,1,0
Sprite,Background,Centre,"sb\glow.png",317,341 S,0,103309,103309,0.5 C,0,103309,103309,255,128,192 F,0,103309,103809,1,0
Sprite,Background,Centre,"sb\glow.png",308,255 S,0,103327,103327,0.5 C,0,103327,103327,255,128,192 F,0,103327,103827,1,0
Sprite,Background,Centre,"sb\glow.png",300,179 S,0,103346,103346,0.5 C,0,103346,103346,255,128,192 F,0,103346,103846,1,0
Sprite,Background,Centre,"sb\glow.png",294,127 S,0,103365,103365,0.5 C,0,103365,103365,255,128,192 F,0,103365,103865,1,0
Sprite,Background,Centre,"sb\glow.png",292,107 S,0,103384,103384,0.5 C,0,103384,103384,255,128,192 F,0,103384,103884,1,0
Sprite,Background,Centre,"sb\glow.png",295,122 S,0,103402,103402,0.5 C,0,103402,103402,255,128,192 F,0,103402,103902,1,0
Sprite,Background,Centre,"sb\glow.png",300,138 S,0,103421,103421,0.5 C,0,103421,103421,255,128,192 F,0,103421,103921,1,0
Sprite,Background,Centre,"sb\glow.png",306,153 S,0,103440,103440,0.5 C,0,103440,103440,255,128,192 F,0,103440,103940,1,0
Sprite,Background,Centre,"sb\glow.png",314,167 S,0,103459,103459,0.5 C,0,103459,103459,255,128,192 F,0,103459,103959,1,0
Sprite,Background,Centre,"sb\glow.png",336,197 S,0,103477,103477,0.5 C,0,103477,103477,255,128,192 F,0,103477,103977,1,0
Sprite,Background,Centre,"sb\glow.png",356,224 S,0,103496,103496,0.5 C,0,103496,103496,255,128,192 F,0,103496,103996,1,0
Sprite,Background,Centre,"sb\glow.png",369,242 S,0,103515,103515,0.5 C,0,103515,103515,255,128,192 F,0,103515,104015,1,0
Sprite,Background,Centre,"sb\glow.png",374,249 S,0,103534,103534,0.5 C,0,103534,103534,255,128,192 F,0,103534,104034,1,0
Sprite,Background,Centre,"sb\glow.png",359,250 S,0,103552,103552,0.5 C,0,103552,103552,255,128,192 F,0,103552,104052,1,0
Sprite,Background,Centre,"sb\glow.png",342,250 S,0,103571,103571,0.5 C,0,103571,103571,255,128,192 F,0,103571,104071,1,0
Sprite,Background,Centre,"sb\glow.png",327,252 S,0,103590,103590,0.5 C,0,103590,103590,255,128,192 F,0,103590,104090,1,0
Sprite,Background,Centre,"sb\glow.png",318,255 S,0,103609,103609,0.5 C,0,103609,103609,255,128,192 F,0,103609,104109,1,0
Sprite,Background,Centre,"sb\glow.png",302,256 S,0,103627,103627,0.5 C,0,103627,103627,255,128,192 F,0,103627,104127,1,0
Sprite,Background,Centre,"sb\glow.png",285,257 S,0,103646,103646,0.5 C,0,103646,103646,255,128,192 F,0,103646,104146,1,0
Sprite,Background,Centre,"sb\glow.png",269,258 S,0,103665,103665,0.5 C,0,103665,103665,255,128,192 F,0,103665,104165,1,0
Sprite,Background,Centre,"sb\glow.png",253,258 S,0,103684,103684,0.5 C,0,103684,103684,255,128,192 F,0,103684,104184,1,0
Sprite,Background,Centre,"sb\glow.png",238,258 S,0,103702,103702,0.5 C,0,103702,103702,255,128,192 F,0,103702,104202,1,0
Sprite,Background,Centre,"sb\glow.png",228,256 S,0,103721,103721,0.5 C,0,103721,103721,255,128,192 F,0,103721,104221,1,0
Sprite,Background,Centre,"sb\glow.png",212,256 S,0,103740,103740,0.5 C,0,103740,103740,255,128,192 F,0,103740,104240,1,0
Sprite,Background,Centre,"sb\glow.png",196,257 S,0,103759,103759,0.5 C,0,103759,103759,255,128,192 F,0,103759,104259,1,0
Sprite,Background,Centre,"sb\glow.png",169,184 S,0,103777,103777,0.5 C,0,103777,103777,255,128,192 F,0,103777,104277,1,0
Sprite,Background,Centre,"sb\glow.png",145,118 S,0,103796,103796,0.5 C,0,103796,103796,255,128,192 F,0,103796,104296,1,0
Sprite,Background,Centre,"sb\glow.png",128,73 S,0,103815,103815,0.5 C,0,103815,103815,255,128,192 F,0,103815,104315,1,0
Sprite,Background,Centre,"sb\glow.png",122,56 S,0,103834,103834,0.5 C,0,103834,103834,255,128,192 F,0,103834,104334,1,0
Sprite,Background,Centre,"sb\glow.png",137,58 S,0,103852,103852,0.5 C,0,103852,103852,255,0,128 F,0,103852,104352,1,0
Sprite,Background,Centre,"sb\glow.png",153,60 S,0,103871,103871,0.5 C,0,103871,103871,255,0,128 F,0,103871,104371,1,0
Sprite,Background,Centre,"sb\glow.png",169,62 S,0,103890,103890,0.5 C,0,103890,103890,255,0,128 F,0,103890,104390,1,0
Sprite,Background,Centre,"sb\glow.png",186,64 S,0,103909,103909,0.5 C,0,103909,103909,255,0,128 F,0,103909,104409,1,0
Sprite,Background,Centre,"sb\glow.png",256,100 S,0,103927,103927,0.5 C,0,103927,103927,255,0,128 F,0,103927,104427,1,0
Sprite,Background,Centre,"sb\glow.png",319,131 S,0,103946,103946,0.5 C,0,103946,103946,255,0,128 F,0,103946,104446,1,0
Sprite,Background,Centre,"sb\glow.png",362,153 S,0,103965,103965,0.5 C,0,103965,103965,255,0,128 F,0,103965,104465,1,0
Sprite,Background,Centre,"sb\glow.png",378,161 S,0,103984,103984,0.5 C,0,103984,103984,255,0,128 F,0,103984,104484,1,0
Sprite,Background,Centre,"sb\glow.png",363,163 S,0,104002,104002,0.5 C,0,104002,104002,255,0,128 F,0,104002,104502,1,0
Sprite,Background,Centre,"sb\glow.png",347,164 S,0,104021,104021,0.5 C,0,104021,104021,255,0,128 F,0,104021,104521,1,0
Sprite,Background,Centre,"sb\glow.png",330,166 S,0,104040,104040,0.5 C,0,104040,104040,255,0,128 F,0,104040,104540,1,0
Sprite,Background,Centre,"sb\glow.png",314,167 S,0,104059,104059,0.5 C,0,104059,104059,255,0,128 F,0,104059,104559,1,0
Sprite,Background,Centre,"sb\glow.png",249,184 S,0,104077,104077,0.5 C,0,104077,104077,255,0,128 F,0,104077,104577,1,0
Sprite,Background,Centre,"sb\glow.png",191,199 S,0,104096,104096,0.5 C,0,104096,104096,255,0,128 F,0,104096,104596,1,0
Sprite,Background,Centre,"sb\glow.png",151,209 S,0,104115,104115,0.5 C,0,104115,104115,255,0,128 F,0,104115,104615,1,0
Sprite,Background,Centre,"sb\glow.png",136,213 S,0,104134,104134,0.5 C,0,104134,104134,255,0,128 F,0,104134,104634,1,0
Sprite,Background,Centre,"sb\glow.png",123,205 S,0,104152,104152,0.5 C,0,104152,104152,255,0,128 F,0,104152,104652,1,0
Sprite,Background,Centre,"sb\glow.png",110,195 S,0,104171,104171,0.5 C,0,104171,104171,255,0,128 F,0,104171,104671,1,0
Sprite,Background,Centre,"sb\glow.png",99,183 S,0,104190,104190,0.5 C,0,104190,104190,255,0,128 F,0,104190,104690,1,0
Sprite,Background,Centre,"sb\glow.png",91,169 S,0,104209,104209,0.5 C,0,104209,104209,255,0,128 F,0,104209,104709,1,0
Sprite,Background,Centre,"sb\glow.png",85,154 S,0,104227,104227,0.5 C,0,104227,104227,255,0,128 F,0,104227,104727,1,0
Sprite,Background,Centre,"sb\glow.png",82,138 S,0,104246,104246,0.5 C,0,104246,104246,255,0,128 F,0,104246,104746,1,0
Sprite,Background,Centre,"sb\glow.png",82,122 S,0,104265,104265,0.5 C,0,104265,104265,255,0,128 F,0,104265,104765,1,0
Sprite,Background,Centre,"sb\glow.png",85,106 S,0,104284,104284,0.5 C,0,104284,104284,255,0,128 F,0,104284,104784,1,0
Sprite,Background,Centre,"sb\glow.png",91,91 S,0,104302,104302,0.5 C,0,104302,104302,255,0,128 F,0,104302,104802,1,0
Sprite,Background,Centre,"sb\glow.png",99,77 S,0,104321,104321,0.5 C,0,104321,104321,255,0,128 F,0,104321,104821,1,0
Sprite,Background,Centre,"sb\glow.png",110,65 S,0,104340,104340,0.5 C,0,104340,104340,255,0,128 F,0,104340,104840,1,0
Sprite,Background,Centre,"sb\glow.png",122,55 S,0,104359,104359,0.5 C,0,104359,104359,255,0,128 F,0,104359,104859,1,0
Sprite,Background,Centre,"sb\glow.png",142,82 S,0,104377,104377,0.5 C,0,104377,104377,255,0,128 F,0,104377,104877,1,0
Sprite,Background,Centre,"sb\glow.png",159,107 S,0,104396,104396,0.5 C,0,104396,104396,255,0,128 F,0,104396,104896,1,0
Sprite,Background,Centre,"sb\glow.png",171,124 S,0,104415,104415,0.5 C,0,104415,104415,255,0,128 F,0,104415,104915,1,0
Sprite,Background,Centre,"sb\glow.png",175,130 S,0,104434,104434,0.5 C,0,104434,104434,255,0,128 F,0,104434,104934,1,0
Sprite,Background,Centre,"sb\glow.png",202,116 S,0,104452,104452,0.5 C,0,104452,104452,255,88,102 F,0,104452,104952,1,0
Sprite,Background,Centre,"sb\glow.png",229,102 S,0,104471,104471,0.5 C,0,104471,104471,255,88,102 F,0,104471,104971,1,0
Sprite,Background,Centre,"sb\glow.png",254,90 S,0,104490,104490,0.5 C,0,104490,104490,255,88,102 F,0,104490,104990,1,0
Sprite,Background,Centre,"sb\glow.png",276,78 S,0,104509,104509,0.5 C,0,104509,104509,255,88,102 F,0,104509,105009,1,0
Sprite,Background,Centre,"sb\glow.png",294,69 S,0,104527,104527,0.5 C,0,104527,104527,255,88,102 F,0,104527,105027,1,0
Sprite,Background,Centre,"sb\glow.png",307,62 S,0,104546,104546,0.5 C,0,104546,104546,255,88,102 F,0,104546,105046,1,0
Sprite,Background,Centre,"sb\glow.png",316,58 S,0,104565,104565,0.5 C,0,104565,104565,255,88,102 F,0,104565,105065,1,0
Sprite,Background,Centre,"sb\glow.png",319,56 S,0,104584,104584,0.5 C,0,104584,104584,255,88,102 F,0,104584,105084,1,0
Sprite,Background,Centre,"sb\glow.png",304,56 S,0,104602,104602,0.5 C,0,104602,104602,255,88,102 F,0,104602,105102,1,0
Sprite,Background,Centre,"sb\glow.png",288,58 S,0,104621,104621,0.5 C,0,104621,104621,255,88,102 F,0,104621,105121,1,0
Sprite,Background,Centre,"sb\glow.png",272,61 S,0,104640,104640,0.5 C,0,104640,104640,255,88,102 F,0,104640,105140,1,0
Sprite,Background,Centre,"sb\glow.png",256,66 S,0,104659,104659,0.5 C,0,104659,104659,255,88,102 F,0,104659,105159,1,0
Sprite,Background,Centre,"sb\glow.png",226,93 S,0,104677,104677,0.5 C,0,104677,104677,255,88,102 F,0,104677,105177,1,0
Sprite,Background,Centre,"sb\glow.png",199,116 S,0,104696,104696,0.5 C,0,104696,104696,255,88,102 F,0,104696,105196,1,0
Sprite,Background,Centre,"sb\glow.png",181,132 S,0,104715,104715,0.5 C,0,104715,104715,255,88,102 F,0,104715,105215,1,0
Sprite,Background,Centre,"sb\glow.png",174,138 S,0,104734,104734,0.5 C,0,104734,104734,255,88,102 F,0,104734,105234,1,0
Sprite,Background,Centre,"sb\glow.png",200,154 S,0,104752,104752,0.5 C,0,104752,104752,255,88,102 F,0,104752,105252,1,0
Sprite,Background,Centre,"sb\glow.png",227,170 S,0,104771,104771,0.5 C,0,104771,104771,255,88,102 F,0,104771,105271,1,0
Sprite,Background,Centre,"sb\glow.png",252,186 S,0,104790,104790,0.5 C,0,104790,104790,255,88,102 F,0,104790,105290,1,0
Sprite,Background,Centre,"sb\glow.png",274,199 S,0,104809,104809,0.5 C,0,104809,104809,255,88,102 F,0,104809,105309,1,0
Sprite,Background,Centre,"sb\glow.png",292,210 S,0,104827,104827,0.5 C,0,104827,104827,255,88,102 F,0,104827,105327,1,0
Sprite,Background,Centre,"sb\glow.png",306,218 S,0,104846,104846,0.5 C,0,104846,104846,255,88,102 F,0,104846,105346,1,0
Sprite,Background,Centre,"sb\glow.png",314,223 S,0,104865,104865,0.5 C,0,104865,104865,255,88,102 F,0,104865,105365,1,0
Sprite,Background,Centre,"sb\glow.png",317,225 S,0,104884,104884,0.5 C,0,104884,104884,255,88,102 F,0,104884,105384,1,0
Sprite,Background,Centre,"sb\glow.png",302,225 S,0,104902,104902,0.5 C,0,104902,104902,255,88,102 F,0,104902,105402,1,0
Sprite,Background,Centre,"sb\glow.png",285,224 S,0,104921,104921,0.5 C,0,104921,104921,255,88,102 F,0,104921,105421,1,0
Sprite,Background,Centre,"sb\glow.png",269,221 S,0,104940,104940,0.5 C,0,104940,104940,255,88,102 F,0,104940,105440,1,0
Sprite,Background,Centre,"sb\glow.png",254,217 S,0,104959,104959,0.5 C,0,104959,104959,255,88,102 F,0,104959,105459,1,0
Sprite,Background,Centre,"sb\glow.png",316,188 S,0,104977,104977,0.5 C,0,104977,104977,255,88,102 F,0,104977,105477,1,0
Sprite,Background,Centre,"sb\glow.png",373,163 S,0,104996,104996,0.5 C,0,104996,104996,255,88,102 F,0,104996,105496,1,0
Sprite,Background,Centre,"sb\glow.png",411,146 S,0,105015,105015,0.5 C,0,105015,105015,255,88,102 F,0,105015,105515,1,0
Sprite,Background,Centre,"sb\glow.png",426,139 S,0,105034,105034,0.5 C,0,105034,105034,255,88,102 F,0,105034,105534,1,0
Sprite,Background,Centre,"sb\glow.png",422,124 S,0,105052,105052,0.5 C,0,105052,105052,255,0,255 F,0,105052,105552,1,0
Sprite,Background,Centre,"sb\glow.png",431,116 S,0,105071,105071,0.5 C,0,105071,105071,255,0,255 F,0,105071,105571,1,0
Sprite,Background,Centre,"sb\glow.png",446,114 S,0,105090,105090,0.5 C,0,105090,105090,255,0,255 F,0,105090,105590,1,0
Sprite,Background,Centre,"sb\glow.png",445,129 S,0,105109,105109,0.5 C,0,105109,105109,255,0,255 F,0,105109,105609,1,0
Sprite,Background,Centre,"sb\glow.png",443,145 S,0,105127,105127,0.5 C,0,105127,105127,255,0,255 F,0,105127,105627,1,0
Sprite,Background,Centre,"sb\glow.png",441,161 S,0,105146,105146,0.5 C,0,105146,105146,255,0,255 F,0,105146,105646,1,0
Sprite,Background,Centre,"sb\glow.png",439,177 S,0,105165,105165,0.5 C,0,105165,105165,255,0,255 F,0,105165,105665,1,0
Sprite,Background,Centre,"sb\glow.png",437,193 S,0,105184,105184,0.5 C,0,105184,105184,255,0,255 F,0,105184,105684,1,0
Sprite,Background,Centre,"sb\glow.png",434,210 S,0,105202,105202,0.5 C,0,105202,105202,255,0,255 F,0,105202,105702,1,0
Sprite,Background,Centre,"sb\glow.png",432,226 S,0,105221,105221,0.5 C,0,105221,105221,255,0,255 F,0,105221,105721,1,0
Sprite,Background,Centre,"sb\glow.png",430,242 S,0,105240,105240,0.5 C,0,105240,105240,255,0,255 F,0,105240,105740,1,0
Sprite,Background,Centre,"sb\glow.png",428,258 S,0,105259,105259,0.5 C,0,105259,105259,255,0,255 F,0,105259,105759,1,0
Sprite,Background,Centre,"sb\glow.png",482,279 S,0,105277,105277,0.5 C,0,105277,105277,255,0,255 F,0,105277,105777,1,0
Sprite,Background,Centre,"sb\glow.png",530,297 S,0,105296,105296,0.5 C,0,105296,105296,255,0,255 F,0,105296,105796,1,0
Sprite,Background,Centre,"sb\glow.png",564,309 S,0,105315,105315,0.5 C,0,105315,105315,255,0,255 F,0,105315,105815,1,0
Sprite,Background,Centre,"sb\glow.png",576,314 S,0,105334,105334,0.5 C,0,105334,105334,255,0,255 F,0,105334,105834,1,0
Sprite,Background,Centre,"sb\glow.png",561,316 S,0,105352,105352,0.5 C,0,105352,105352,255,0,255 F,0,105352,105852,1,0
Sprite,Background,Centre,"sb\glow.png",545,317 S,0,105371,105371,0.5 C,0,105371,105371,255,0,255 F,0,105371,105871,1,0
Sprite,Background,Centre,"sb\glow.png",528,319 S,0,105390,105390,0.5 C,0,105390,105390,255,0,255 F,0,105390,105890,1,0
Sprite,Background,Centre,"sb\glow.png",512,321 S,0,105409,105409,0.5 C,0,105409,105409,255,0,255 F,0,105409,105909,1,0
Sprite,Background,Centre,"sb\glow.png",498,325 S,0,105427,105427,0.5 C,0,105427,105427,255,0,255 F,0,105427,105927,1,0
Sprite,Background,Centre,"sb\glow.png",489,338 S,0,105446,105446,0.5 C,0,105446,105446,255,0,255 F,0,105446,105946,1,0
Sprite,Background,Centre,"sb\glow.png",477,347 S,0,105465,105465,0.5 C,0,105465,105465,255,0,255 F,0,105465,105965,1,0
Sprite,Background,Centre,"sb\glow.png",461,350 S,0,105484,105484,0.5 C,0,105484,105484,255,0,255 F,0,105484,105984,1,0
Sprite,Background,Centre,"sb\glow.png",445,352 S,0,105502,105502,0.5 C,0,105502,105502,255,0,255 F,0,105502,106002,1,0
Sprite,Background,Centre,"sb\glow.png",429,354 S,0,105521,105521,0.5 C,0,105521,105521,255,0,255 F,0,105521,106021,1,0
Sprite,Background,Centre,"sb\glow.png",413,356 S,0,105540,105540,0.5 C,0,105540,105540,255,0,255 F,0,105540,106040,1,0
Sprite,Background,Centre,"sb\glow.png",397,358 S,0,105559,105559,0.5 C,0,105559,105559,255,0,255 F,0,105559,106059,1,0
Sprite,Background,Centre,"sb\glow.png",317,339 S,0,105577,105577,0.5 C,0,105577,105577,255,0,255 F,0,105577,106077,1,0
Sprite,Background,Centre,"sb\glow.png",246,321 S,0,105596,105596,0.5 C,0,105596,105596,255,0,255 F,0,105596,106096,1,0
Sprite,Background,Centre,"sb\glow.png",198,310 S,0,105615,105615,0.5 C,0,105615,105615,255,0,255 F,0,105615,106115,1,0
Sprite,Background,Centre,"sb\glow.png",180,305 S,0,105634,105634,0.5 C,0,105634,105634,255,0,255 F,0,105634,106134,1,0
Sprite,Background,Centre,"sb\glow.png",175,291 S,0,105652,105652,0.5 C,0,105652,105652,255,128,192 F,0,105652,106152,1,0
Sprite,Background,Centre,"sb\glow.png",170,275 S,0,105671,105671,0.5 C,0,105671,105671,255,128,192 F,0,105671,106171,1,0
Sprite,Background,Centre,"sb\glow.png",168,259 S,0,105690,105690,0.5 C,0,105690,105690,255,128,192 F,0,105690,106190,1,0
Sprite,Background,Centre,"sb\glow.png",168,243 S,0,105709,105709,0.5 C,0,105709,105709,255,128,192 F,0,105709,106209,1,0
Sprite,Background,Centre,"sb\glow.png",220,233 S,0,105727,105727,0.5 C,0,105727,105727,255,128,192 F,0,105727,106227,1,0
Sprite,Background,Centre,"sb\glow.png",267,225 S,0,105746,105746,0.5 C,0,105746,105746,255,128,192 F,0,105746,106246,1,0
Sprite,Background,Centre,"sb\glow.png",299,220 S,0,105765,105765,0.5 C,0,105765,105765,255,128,192 F,0,105765,106265,1,0
Sprite,Background,Centre,"sb\glow.png",311,218 S,0,105784,105784,0.5 C,0,105784,105784,255,128,192 F,0,105784,106284,1,0
Sprite,Background,Centre,"sb\glow.png",316,232 S,0,105802,105802,0.5 C,0,105802,105802,255,128,192 F,0,105802,106302,1,0
Sprite,Background,Centre,"sb\glow.png",321,248 S,0,105821,105821,0.5 C,0,105821,105821,255,128,192 F,0,105821,106321,1,0
Sprite,Background,Centre,"sb\glow.png",323,264 S,0,105840,105840,0.5 C,0,105840,105840,255,128,192 F,0,105840,106340,1,0
Sprite,Background,Centre,"sb\glow.png",323,280 S,0,105859,105859,0.5 C,0,105859,105859,255,128,192 F,0,105859,106359,1,0
Sprite,Background,Centre,"sb\glow.png",283,231 S,0,105877,105877,0.5 C,0,105877,105877,255,128,192 F,0,105877,106377,1,0
Sprite,Background,Centre,"sb\glow.png",247,186 S,0,105896,105896,0.5 C,0,105896,105896,255,128,192 F,0,105896,106396,1,0
Sprite,Background,Centre,"sb\glow.png",222,155 S,0,105915,105915,0.5 C,0,105915,105915,255,128,192 F,0,105915,106415,1,0
Sprite,Background,Centre,"sb\glow.png",213,143 S,0,105934,105934,0.5 C,0,105934,105934,255,128,192 F,0,105934,106434,1,0
Sprite,Background,Centre,"sb\glow.png",204,131 S,0,105952,105952,0.5 C,0,105952,105952,255,128,192 F,0,105952,106452,1,0
Sprite,Background,Centre,"sb\glow.png",198,120 S,0,105971,105971,0.5 C,0,105971,105971,255,128,192 F,0,105971,106471,1,0
Sprite,Background,Centre,"sb\glow.png",213,121 S,0,105990,105990,0.5 C,0,105990,105990,255,128,192 F,0,105990,106490,1,0
Sprite,Background,Centre,"sb\glow.png",229,122 S,0,106009,106009,0.5 C,0,106009,106009,255,128,192 F,0,106009,106509,1,0
Sprite,Background,Centre,"sb\glow.png",245,124 S,0,106027,106027,0.5 C,0,106027,106027,255,128,192 F,0,106027,106527,1,0
Sprite,Background,Centre,"sb\glow.png",261,125 S,0,106046,106046,0.5 C,0,106046,106046,255,128,192 F,0,106046,106546,1,0
Sprite,Background,Centre,"sb\glow.png",277,123 S,0,106065,106065,0.5 C,0,106065,106065,255,128,192 F,0,106065,106565,1,0
Sprite,Background,Centre,"sb\glow.png",293,121 S,0,106084,106084,0.5 C,0,106084,106084,255,128,192 F,0,106084,106584,1,0
Sprite,Background,Centre,"sb\glow.png",309,122 S,0,106102,106102,0.5 C,0,106102,106102,255,128,192 F,0,106102,106602,1,0
Sprite,Background,Centre,"sb\glow.png",325,124 S,0,106121,106121,0.5 C,0,106121,106121,255,128,192 F,0,106121,106621,1,0
Sprite,Background,Centre,"sb\glow.png",341,126 S,0,106140,106140,0.5 C,0,106140,106140,255,128,192 F,0,106140,106640,1,0
Sprite,Background,Centre,"sb\glow.png",357,127 S,0,106159,106159,0.5 C,0,106159,106159,255,128,192 F,0,106159,106659,1,0
Sprite,Background,Centre,"sb\glow.png",421,130 S,0,106177,106177,0.5 C,0,106177,106177,255,128,192 F,0,106177,106677,1,0
Sprite,Background,Centre,"sb\glow.png",477,133 S,0,106196,106196,0.5 C,0,106196,106196,255,128,192 F,0,106196,106696,1,0
Sprite,Background,Centre,"sb\glow.png",516,134 S,0,106215,106215,0.5 C,0,106215,106215,255,128,192 F,0,106215,106715,1,0
Sprite,Background,Centre,"sb\glow.png",530,135 S,0,106234,106234,0.5 C,0,106234,106234,255,128,192 F,0,106234,106734,1,0
Sprite,Background,Centre,"sb\glow.png",533,120 S,0,106252,106252,0.5 C,0,106252,106252,255,0,128 F,0,106252,106752,1,0
Sprite,Background,Centre,"sb\glow.png",534,104 S,0,106271,106271,0.5 C,0,106271,106271,255,0,128 F,0,106271,106771,1,0
Sprite,Background,Centre,"sb\glow.png",534,87 S,0,106290,106290,0.5 C,0,106290,106290,255,0,128 F,0,106290,106790,1,0
Sprite,Background,Centre,"sb\glow.png",532,72 S,0,106309,106309,0.5 C,0,106309,106309,255,0,128 F,0,106309,106809,1,0
Sprite,Background,Centre,"sb\glow.png",489,118 S,0,106327,106327,0.5 C,0,106327,106327,255,0,128 F,0,106327,106827,1,0
Sprite,Background,Centre,"sb\glow.png",450,161 S,0,106346,106346,0.5 C,0,106346,106346,255,0,128 F,0,106346,106846,1,0
Sprite,Background,Centre,"sb\glow.png",424,190 S,0,106365,106365,0.5 C,0,106365,106365,255,0,128 F,0,106365,106865,1,0
Sprite,Background,Centre,"sb\glow.png",414,201 S,0,106384,106384,0.5 C,0,106384,106384,255,0,128 F,0,106384,106884,1,0
Sprite,Background,Centre,"sb\glow.png",411,216 S,0,106402,106402,0.5 C,0,106402,106402,255,0,128 F,0,106402,106902,1,0
Sprite,Background,Centre,"sb\glow.png",408,232 S,0,106421,106421,0.5 C,0,106421,106421,255,0,128 F,0,106421,106921,1,0
Sprite,Background,Centre,"sb\glow.png",408,248 S,0,106440,106440,0.5 C,0,106440,106440,255,0,128 F,0,106440,106940,1,0
Sprite,Background,Centre,"sb\glow.png",409,264 S,0,106459,106459,0.5 C,0,106459,106459,255,0,128 F,0,106459,106959,1,0
Sprite,Background,Centre,"sb\glow.png",441,303 S,0,106477,106477,0.5 C,0,106477,106477,255,0,128 F,0,106477,106977,1,0
Sprite,Background,Centre,"sb\glow.png",469,336 S,0,106496,106496,0.5 C,0,106496,106496,255,0,128 F,0,106496,106996,1,0
Sprite,Background,Centre,"sb\glow.png",489,359 S,0,106515,106515,0.5 C,0,106515,106515,255,0,128 F,0,106515,107015,1,0
Sprite,Background,Centre,"sb\glow.png",496,368 S,0,106534,106534,0.5 C,0,106534,106534,255,0,128 F,0,106534,107034,1,0
Sprite,Background,Centre,"sb\glow.png",490,347 S,0,106552,106552,0.5 C,0,106552,106552,255,0,128 F,0,106552,107052,1,0
Sprite,Background,Centre,"sb\glow.png",483,326 S,0,106571,106571,0.5 C,0,106571,106571,255,0,128 F,0,106571,107071,1,0
Sprite,Background,Centre,"sb\glow.png",477,307 S,0,106590,106590,0.5 C,0,106590,106590,255,0,128 F,0,106590,107090,1,0
Sprite,Background,Centre,"sb\glow.png",472,290 S,0,106609,106609,0.5 C,0,106609,106609,255,0,128 F,0,106609,107109,1,0
Sprite,Background,Centre,"sb\glow.png",467,276 S,0,106627,106627,0.5 C,0,106627,106627,255,0,128 F,0,106627,107127,1,0
Sprite,Background,Centre,"sb\glow.png",464,265 S,0,106646,106646,0.5 C,0,106646,106646,255,0,128 F,0,106646,107146,1,0
Sprite,Background,Centre,"sb\glow.png",462,258 S,0,106665,106665,0.5 C,0,106665,106665,255,0,128 F,0,106665,107165,1,0
Sprite,Background,Centre,"sb\glow.png",461,256 S,0,106684,106684,0.5 C,0,106684,106684,255,0,128 F,0,106684,107184,1,0
Sprite,Background,Centre,"sb\glow.png",452,257 S,0,106702,106702,0.5 C,0,106702,106702,255,0,128 F,0,106702,107202,1,0
Sprite,Background,Centre,"sb\glow.png",443,259 S,0,106721,106721,0.5 C,0,106721,106721,255,0,128 F,0,106721,107221,1,0
Sprite,Background,Centre,"sb\glow.png",437,260 S,0,106740,106740,0.5 C,0,106740,106740,255,0,128 F,0,106740,107240,1,0
Sprite,Background,Centre,"sb\glow.png",435,260 S,0,106759,106759,0.5 C,0,106759,106759,255,0,128 F,0,106759,107259,1,0
Sprite,Background,Centre,"sb\glow.png",426,262 S,0,106777,106777,0.5 C,0,106777,106777,255,0,128 F,0,106777,107277,1,0
Sprite,Background,Centre,"sb\glow.png",417,263 S,0,106796,106796,0.5 C,0,106796,106796,255,0,128 F,0,106796,107296,1,0
Sprite,Background,Centre,"sb\glow.png",411,265 S,0,106815,106815,0.5 C,0,106815,106815,255,0,128 F,0,106815,107315,1,0
Sprite,Background,Centre,"sb\glow.png",409,265 S,0,106834,106834,0.5 C,0,106834,106834,255,0,128 F,0,106834,107334,1,0
Sprite,Background,Centre,"sb\glow.png",394,267 S,0,106852,106852,0.5 C,0,106852,106852,255,88,102 F,0,106852,107352,1,0
Sprite,Background,Centre,"sb\glow.png",378,269 S,0,106871,106871,0.5 C,0,106871,106871,255,88,102 F,0,106871,107371,1,0
Sprite,Background,Centre,"sb\glow.png",361,271 S,0,106890,106890,0.5 C,0,106890,106890,255,88,102 F,0,106890,107390,1,0
Sprite,Background,Centre,"sb\glow.png",345,273 S,0,106909,106909,0.5 C,0,106909,106909,255,88,102 F,0,106909,107409,1,0
Sprite,Background,Centre,"sb\glow.png",332,269 S,0,106927,106927,0.5 C,0,106927,106927,255,88,102 F,0,106927,107427,1,0
Sprite,Background,Centre,"sb\glow.png",316,271 S,0,106946,106946,0.5 C,0,106946,106946,255,88,102 F,0,106946,107446,1,0
Sprite,Background,Centre,"sb\glow.png",300,273 S,0,106965,106965,0.5 C,0,106965,106965,255,88,102 F,0,106965,107465,1,0
Sprite,Background,Centre,"sb\glow.png",288,279 S,0,106984,106984,0.5 C,0,106984,106984,255,88,102 F,0,106984,107484,1,0
Sprite,Background,Centre,"sb\glow.png",272,282 S,0,107002,107002,0.5 C,0,107002,107002,255,88,102 F,0,107002,107502,1,0
Sprite,Background,Centre,"sb\glow.png",256,284 S,0,107021,107021,0.5 C,0,107021,107021,255,88,102 F,0,107021,107521,1,0
Sprite,Background,Centre,"sb\glow.png",240,286 S,0,107040,107040,0.5 C,0,107040,107040,255,88,102 F,0,107040,107540,1,0
Sprite,Background,Centre,"sb\glow.png",224,288 S,0,107059,107059,0.5 C,0,107059,107059,255,88,102 F,0,107059,107559,1,0
Sprite,Background,Centre,"sb\glow.png",242,318 S,0,107077,107077,0.5 C,0,107077,107077,255,88,102 F,0,107077,107577,1,0
Sprite,Background,Centre,"sb\glow.png",258,344 S,0,107096,107096,0.5 C,0,107096,107096,255,88,102 F,0,107096,107596,1,0
Sprite,Background,Centre,"sb\glow.png",270,362 S,0,107115,107115,0.5 C,0,107115,107115,255,88,102 F,0,107115,107615,1,0
Sprite,Background,Centre,"sb\glow.png",274,369 S,0,107134,107134,0.5 C,0,107134,107134,255,88,102 F,0,107134,107634,1,0
Sprite,Background,Centre,"sb\glow.png",286,359 S,0,107152,107152,0.5 C,0,107152,107152,255,88,102 F,0,107152,107652,1,0
Sprite,Background,Centre,"sb\glow.png",297,348 S,0,107171,107171,0.5 C,0,107171,107171,255,88,102 F,0,107171,107671,1,0
Sprite,Background,Centre,"sb\glow.png",306,334 S,0,107190,107190,0.5 C,0,107190,107190,255,88,102 F,0,107190,107690,1,0
Sprite,Background,Centre,"sb\glow.png",313,319 S,0,107209,107209,0.5 C,0,107209,107209,255,88,102 F,0,107209,107709,1,0
Sprite,Background,Centre,"sb\glow.png",316,304 S,0,107227,107227,0.5 C,0,107227,107227,255,88,102 F,0,107227,107727,1,0
Sprite,Background,Centre,"sb\glow.png",318,288 S,0,107246,107246,0.5 C,0,107246,107246,255,88,102 F,0,107246,107746,1,0
Sprite,Background,Centre,"sb\glow.png",316,272 S,0,107265,107265,0.5 C,0,107265,107265,255,88,102 F,0,107265,107765,1,0
Sprite,Background,Centre,"sb\glow.png",312,256 S,0,107284,107284,0.5 C,0,107284,107284,255,88,102 F,0,107284,107784,1,0
Sprite,Background,Centre,"sb\glow.png",305,241 S,0,107302,107302,0.5 C,0,107302,107302,255,88,102 F,0,107302,107802,1,0
Sprite,Background,Centre,"sb\glow.png",296,228 S,0,107321,107321,0.5 C,0,107321,107321,255,88,102 F,0,107321,107821,1,0
Sprite,Background,Centre,"sb\glow.png",285,216 S,0,107340,107340,0.5 C,0,107340,107340,255,88,102 F,0,107340,107840,1,0
Sprite,Background,Centre,"sb\glow.png",272,207 S,0,107359,107359,0.5 C,0,107359,107359,255,88,102 F,0,107359,107859,1,0
Sprite,Background,Centre,"sb\glow.png",227,173 S,0,107377,107377,0.5 C,0,107377,107377,255,88,102 F,0,107377,107877,1,0
Sprite,Background,Centre,"sb\glow.png",187,142 S,0,107396,107396,0.5 C,0,107396,107396,255,88,102 F,0,107396,107896,1,0
Sprite,Background,Centre,"sb\glow.png",160,122 S,0,107415,107415,0.5 C,0,107415,107415,255,88,102 F,0,107415,107915,1,0
Sprite,Background,Centre,"sb\glow.png",150,114 S,0,107434,107434,0.5 C,0,107434,107434,255,88,102 F,0,107434,107934,1,0
Sprite,Background,Centre,"sb\glow.png",135,117 S,0,107452,107452,0.5 C,0,107452,107452,255,88,102 F,0,107452,107952,1,0
Sprite,Background,Centre,"sb\glow.png",119,120 S,0,107471,107471,0.5 C,0,107471,107471,255,88,102 F,0,107471,107971,1,0
Sprite,Background,Centre,"sb\glow.png",103,122 S,0,107490,107490,0.5 C,0,107490,107490,255,88,102 F,0,107490,107990,1,0
Sprite,Background,Centre,"sb\glow.png",87,125 S,0,107509,107509,0.5 C,0,107509,107509,255,88,102 F,0,107509,108009,1,0
Sprite,Background,Centre,"sb\glow.png",90,166 S,0,107527,107527,0.5 C,0,107527,107527,255,88,102 F,0,107527,108027,1,0
Sprite,Background,Centre,"sb\glow.png",94,203 S,0,107546,107546,0.5 C,0,107546,107546,255,88,102 F,0,107546,108046,1,0
Sprite,Background,Centre,"sb\glow.png",96,228 S,0,107565,107565,0.5 C,0,107565,107565,255,88,102 F,0,107565,108065,1,0
Sprite,Background,Centre,"sb\glow.png",97,238 S,0,107584,107584,0.5 C,0,107584,107584,255,88,102 F,0,107584,108084,1,0
Sprite,Background,Centre,"sb\glow.png",112,235 S,0,107602,107602,0.5 C,0,107602,107602,255,88,102 F,0,107602,108102,1,0
Sprite,Background,Centre,"sb\glow.png",128,232 S,0,107621,107621,0.5 C,0,107621,107621,255,88,102 F,0,107621,108121,1,0
Sprite,Background,Centre,"sb\glow.png",144,229 S,0,107640,107640,0.5 C,0,107640,107640,255,88,102 F,0,107640,108140,1,0
Sprite,Background,Centre,"sb\glow.png",160,225 S,0,107659,107659,0.5 C,0,107659,107659,255,88,102 F,0,107659,108159,1,0
Sprite,Background,Centre,"sb\glow.png",223,198 S,0,107677,107677,0.5 C,0,107677,107677,255,88,102 F,0,107677,108177,1,0
Sprite,Background,Centre,"sb\glow.png",279,173 S,0,107696,107696,0.5 C,0,107696,107696,255,88,102 F,0,107696,108196,1,0
Sprite,Background,Centre,"sb\glow.png",318,156 S,0,107715,107715,0.5 C,0,107715,107715,255,88,102 F,0,107715,108215,1,0
Sprite,Background,Centre,"sb\glow.png",332,150 S,0,107734,107734,0.5 C,0,107734,107734,255,88,102 F,0,107734,108234,1,0
Sprite,Background,Centre,"sb\glow.png",333,135 S,0,107752,107752,0.5 C,0,107752,107752,255,88,102 F,0,107752,108252,1,0
Sprite,Background,Centre,"sb\glow.png",334,118 S,0,107771,107771,0.5 C,0,107771,107771,255,88,102 F,0,107771,108271,1,0
Sprite,Background,Centre,"sb\glow.png",333,133 S,0,107790,107790,0.5 C,0,107790,107790,255,88,102 F,0,107790,108290,1,0
Sprite,Background,Centre,"sb\glow.png",332,149 S,0,107809,107809,0.5 C,0,107809,107809,255,88,102 F,0,107809,108309,1,0
Sprite,Background,Centre,"sb\glow.png",333,135 S,0,107827,107827,0.5 C,0,107827,107827,255,88,102 F,0,107827,108327,1,0
Sprite,Background,Centre,"sb\glow.png",334,118 S,0,107846,107846,0.5 C,0,107846,107846,255,88,102 F,0,107846,108346,1,0
Sprite,Background,Centre,"sb\glow.png",333,133 S,0,107865,107865,0.5 C,0,107865,107865,255,88,102 F,0,107865,108365,1,0
Sprite,Background,Centre,"sb\glow.png",332,149 S,0,107884,107884,0.5 C,0,107884,107884,255,88,102 F,0,107884,108384,1,0
Sprite,Background,Centre,"sb\glow.png",333,135 S,0,107902,107902,0.5 C,0,107902,107902,255,88,102 F,0,107902,108402,1,0
Sprite,Background,Centre,"sb\glow.png",334,118 S,0,107921,107921,0.5 C,0,107921,107921,255,88,102 F,0,107921,108421,1,0
Sprite,Background,Centre,"sb\glow.png",333,133 S,0,107940,107940,0.5 C,0,107940,107940,255,88,102 F,0,107940,108440,1,0
Sprite,Background,Centre,"sb\glow.png",332,149 S,0,107959,107959,0.5 C,0,107959,107959,255,88,102 F,0,107959,108459,1,0
Sprite,Background,Centre,"sb\glow.png",363,165 S,0,107977,107977,0.5 C,0,107977,107977,255,88,102 F,0,107977,108477,1,0
Sprite,Background,Centre,"sb\glow.png",390,179 S,0,107996,107996,0.5 C,0,107996,107996,255,88,102 F,0,107996,108496,1,0
Sprite,Background,Centre,"sb\glow.png",409,188 S,0,108015,108015,0.5 C,0,108015,108015,255,88,102 F,0,108015,108515,1,0
Sprite,Background,Centre,"sb\glow.png",416,192 S,0,108034,108034,0.5 C,0,108034,108034,255,88,102 F,0,108034,108534,1,0
Sprite,Background,Centre,"sb\glow.png",418,186 S,0,108052,108052,0.5 C,0,108052,108052,255,0,255 F,0,108052,108552,1,0
Sprite,Background,Centre,"sb\glow.png",420,181 S,0,108071,108071,0.5 C,0,108071,108071,255,0,255 F,0,108071,108571,1,0
Sprite,Background,Centre,"sb\glow.png",422,175 S,0,108090,108090,0.5 C,0,108090,108090,255,0,255 F,0,108090,108590,1,0
Sprite,Background,Centre,"sb\glow.png",424,169 S,0,108109,108109,0.5 C,0,108109,108109,255,0,255 F,0,108109,108609,1,0
Sprite,Background,Centre,"sb\glow.png",425,163 S,0,108127,108127,0.5 C,0,108127,108127,255,0,255 F,0,108127,108627,1,0
Sprite,Background,Centre,"sb\glow.png",426,156 S,0,108146,108146,0.5 C,0,108146,108146,255,0,255 F,0,108146,108646,1,0
Sprite,Background,Centre,"sb\glow.png",426,150 S,0,108165,108165,0.5 C,0,108165,108165,255,0,255 F,0,108165,108665,1,0
Sprite,Background,Centre,"sb\glow.png",426,144 S,0,108184,108184,0.5 C,0,108184,108184,255,0,255 F,0,108184,108684,1,0
Sprite,Background,Centre,"sb\glow.png",425,138 S,0,108202,108202,0.5 C,0,108202,108202,255,0,255 F,0,108202,108702,1,0
Sprite,Background,Centre,"sb\glow.png",424,131 S,0,108221,108221,0.5 C,0,108221,108221,255,0,255 F,0,108221,108721,1,0
Sprite,Background,Centre,"sb\glow.png",423,125 S,0,108240,108240,0.5 C,0,108240,108240,255,0,255 F,0,108240,108740,1,0
Sprite,Background,Centre,"sb\glow.png",421,119 S,0,108259,108259,0.5 C,0,108259,108259,255,0,255 F,0,108259,108759,1,0
Sprite,Background,Centre,"sb\glow.png",426,118 S,0,108277,108277,0.5 C,0,108277,108277,255,0,255 F,0,108277,108777,1,0
Sprite,Background,Centre,"sb\glow.png",431,118 S,0,108296,108296,0.5 C,0,108296,108296,255,0,255 F,0,108296,108796,1,0
Sprite,Background,Centre,"sb\glow.png",435,117 S,0,108315,108315,0.5 C,0,108315,108315,255,0,255 F,0,108315,108815,1,0
Sprite,Background,Centre,"sb\glow.png",436,117 S,0,108334,108334,0.5 C,0,108334,108334,255,0,255 F,0,108334,108834,1,0
Sprite,Background,Centre,"sb\glow.png",439,132 S,0,108352,108352,0.5 C,0,108352,108352,255,128,192 F,0,108352,108852,1,0
Sprite,Background,Centre,"sb\glow.png",441,148 S,0,108371,108371,0.5 C,0,108371,108371,255,128,192 F,0,108371,108871,1,0
Sprite,Background,Centre,"sb\glow.png",443,164 S,0,108390,108390,0.5 C,0,108390,108390,255,128,192 F,0,108390,108890,1,0
Sprite,Background,Centre,"sb\glow.png",443,181 S,0,108409,108409,0.5 C,0,108409,108409,255,128,192 F,0,108409,108909,1,0
Sprite,Background,Centre,"sb\glow.png",443,197 S,0,108427,108427,0.5 C,0,108427,108427,255,128,192 F,0,108427,108927,1,0
Sprite,Background,Centre,"sb\glow.png",442,213 S,0,108446,108446,0.5 C,0,108446,108446,255,128,192 F,0,108446,108946,1,0
Sprite,Background,Centre,"sb\glow.png",440,229 S,0,108465,108465,0.5 C,0,108465,108465,255,128,192 F,0,108465,108965,1,0
Sprite,Background,Centre,"sb\glow.png",438,245 S,0,108484,108484,0.5 C,0,108484,108484,255,128,192 F,0,108484,108984,1,0
Sprite,Background,Centre,"sb\glow.png",434,261 S,0,108502,108502,0.5 C,0,108502,108502,255,128,192 F,0,108502,109002,1,0
Sprite,Background,Centre,"sb\glow.png",430,277 S,0,108521,108521,0.5 C,0,108521,108521,255,128,192 F,0,108521,109021,1,0
Sprite,Background,Centre,"sb\glow.png",424,292 S,0,108540,108540,0.5 C,0,108540,108540,255,128,192 F,0,108540,109040,1,0
Sprite,Background,Centre,"sb\glow.png",418,307 S,0,108559,108559,0.5 C,0,108559,108559,255,128,192 F,0,108559,109059,1,0
Sprite,Background,Centre,"sb\glow.png",368,325 S,0,108577,108577,0.5 C,0,108577,108577,255,128,192 F,0,108577,109077,1,0
Sprite,Background,Centre,"sb\glow.png",323,340 S,0,108596,108596,0.5 C,0,108596,108596,255,128,192 F,0,108596,109096,1,0
Sprite,Background,Centre,"sb\glow.png",292,350 S,0,108615,108615,0.5 C,0,108615,108615,255,128,192 F,0,108615,109115,1,0
Sprite,Background,Centre,"sb\glow.png",280,354 S,0,108634,108634,0.5 C,0,108634,108634,255,128,192 F,0,108634,109134,1,0
Sprite,Background,Centre,"sb\glow.png",262,356 S,0,108652,108652,0.5 C,0,108652,108652,255,0,128 F,0,108652,109152,1,0
Sprite,Background,Centre,"sb\glow.png",244,358 S,0,108671,108671,0.5 C,0,108671,108671,255,0,128 F,0,108671,109171,1,0
Sprite,Background,Centre,"sb\glow.png",225,360 S,0,108690,108690,0.5 C,0,108690,108690,255,0,128 F,0,108690,109190,1,0
Sprite,Background,Centre,"sb\glow.png",206,362 S,0,108709,108709,0.5 C,0,108709,108709,255,0,128 F,0,108709,109209,1,0
Sprite,Background,Centre,"sb\glow.png",206,365 S,0,108727,108727,0.5 C,0,108727,108727,255,0,128 F,0,108727,109227,1,0
Sprite,Background,Centre,"sb\glow.png",207,367 S,0,108746,108746,0.5 C,0,108746,108746,255,0,128 F,0,108746,109246,1,0
Sprite,Background,Centre,"sb\glow.png",207,368 S,0,108765,108765,0.5 C,0,108765,108765,255,0,128 F,0,108765,109265,1,0
Sprite,Background,Centre,"sb\glow.png",207,369 S,0,108784,108784,0.5 C,0,108784,108784,255,0,128 F,0,108784,109284,1,0
Sprite,Background,Centre,"sb\glow.png",225,367 S,0,108802,108802,0.5 C,0,108802,108802,255,0,128 F,0,108802,109302,1,0
Sprite,Background,Centre,"sb\glow.png",243,365 S,0,108821,108821,0.5 C,0,108821,108821,255,0,128 F,0,108821,109321,1,0
Sprite,Background,Centre,"sb\glow.png",262,362 S,0,108840,108840,0.5 C,0,108840,108840,255,0,128 F,0,108840,109340,1,0
Sprite,Background,Centre,"sb\glow.png",280,360 S,0,108859,108859,0.5 C,0,108859,108859,255,0,128 F,0,108859,109359,1,0
Sprite,Background,Centre,"sb\glow.png",337,375 S,0,108877,108877,0.5 C,0,108877,108877,255,0,128 F,0,108877,109377,1,0
Sprite,Background,Centre,"sb\glow.png",388,388 S,0,108896,108896,0.5 C,0,108896,108896,255,0,128 F,0,108896,109396,1,0
Sprite,Background,Centre,"sb\glow.png",423,397 S,0,108915,108915,0.5 C,0,108915,108915,255,0,128 F,0,108915,109415,1,0
Sprite,Background,Centre,"sb\glow.png",436,400 S,0,108934,108934,0.5 C,0,108934,108934,255,0,128 F,0,108934,109434,1,0
Sprite,Background,Centre,"sb\glow.png",422,407 S,0,108952,108952,0.5 C,0,108952,108952,255,0,128 F,0,108952,109452,1,0
Sprite,Background,Centre,"sb\glow.png",408,414 S,0,108971,108971,0.5 C,0,108971,108971,255,0,128 F,0,108971,109471,1,0
Sprite,Background,Centre,"sb\glow.png",401,410 S,0,108990,108990,0.5 C,0,108990,108990,255,0,128 F,0,108990,109490,1,0
Sprite,Background,Centre,"sb\glow.png",403,394 S,0,109009,109009,0.5 C,0,109009,109009,255,0,128 F,0,109009,109509,1,0
Sprite,Background,Centre,"sb\glow.png",406,378 S,0,109027,109027,0.5 C,0,109027,109027,255,0,128 F,0,109027,109527,1,0
Sprite,Background,Centre,"sb\glow.png",408,362 S,0,109046,109046,0.5 C,0,109046,109046,255,0,128 F,0,109046,109546,1,0
Sprite,Background,Centre,"sb\glow.png",410,346 S,0,109065,109065,0.5 C,0,109065,109065,255,0,128 F,0,109065,109565,1,0
Sprite,Background,Centre,"sb\glow.png",407,330 S,0,109084,109084,0.5 C,0,109084,109084,255,0,128 F,0,109084,109584,1,0
Sprite,Background,Centre,"sb\glow.png",409,314 S,0,109102,109102,0.5 C,0,109102,109102,255,0,128 F,0,109102,109602,1,0
Sprite,Background,Centre,"sb\glow.png",411,298 S,0,109121,109121,0.5 C,0,109121,109121,255,0,128 F,0,109121,109621,1,0
Sprite,Background,Centre,"sb\glow.png",414,282 S,0,109140,109140,0.5 C,0,109140,109140,255,0,128 F,0,109140,109640,1,0
Sprite,Background,Centre,"sb\glow.png",416,266 S,0,109159,109159,0.5 C,0,109159,109159,255,0,128 F,0,109159,109659,1,0
Sprite,Background,Centre,"sb\glow.png",414,265 S,0,109177,109177,0.5 C,0,109177,109177,255,0,128 F,0,109177,109677,1,0
Sprite,Background,Centre,"sb\glow.png",413,265 S,0,109196,109196,0.5 C,0,109196,109196,255,0,128 F,0,109196,109696,1,0
Sprite,Background,Centre,"sb\glow.png",411,265 S,0,109215,109215,0.5 C,0,109215,109215,255,0,128 F,0,109215,109715,1,0
Sprite,Background,Centre,"sb\glow.png",411,265 S,0,109234,109234,0.5 C,0,109234,109234,255,0,128 F,0,109234,109734,1,0
Sprite,Background,Centre,"sb\glow.png",409,280 S,0,109252,109252,0.5 C,0,109252,109252,255,88,102 F,0,109252,109752,1,0
Sprite,Background,Centre,"sb\glow.png",406,296 S,0,109271,109271,0.5 C,0,109271,109271,255,88,102 F,0,109271,109771,1,0
Sprite,Background,Centre,"sb\glow.png",404,312 S,0,109290,109290,0.5 C,0,109290,109290,255,88,102 F,0,109290,109790,1,0
Sprite,Background,Centre,"sb\glow.png",401,328 S,0,109309,109309,0.5 C,0,109309,109309,255,88,102 F,0,109309,109809,1,0
Sprite,Background,Centre,"sb\glow.png",403,344 S,0,109327,109327,0.5 C,0,109327,109327,255,88,102 F,0,109327,109827,1,0
Sprite,Background,Centre,"sb\glow.png",402,360 S,0,109346,109346,0.5 C,0,109346,109346,255,88,102 F,0,109346,109846,1,0
Sprite,Background,Centre,"sb\glow.png",400,377 S,0,109365,109365,0.5 C,0,109365,109365,255,88,102 F,0,109365,109865,1,0
Sprite,Background,Centre,"sb\glow.png",398,393 S,0,109384,109384,0.5 C,0,109384,109384,255,88,102 F,0,109384,109884,1,0
Sprite,Background,Centre,"sb\glow.png",395,409 S,0,109402,109402,0.5 C,0,109402,109402,255,88,102 F,0,109402,109902,1,0
Sprite,Background,Centre,"sb\glow.png",400,416 S,0,109421,109421,0.5 C,0,109421,109421,255,88,102 F,0,109421,109921,1,0
Sprite,Background,Centre,"sb\glow.png",414,409 S,0,109440,109440,0.5 C,0,109440,109440,255,88,102 F,0,109440,109940,1,0
Sprite,Background,Centre,"sb\glow.png",428,402 S,0,109459,109459,0.5 C,0,109459,109459,255,88,102 F,0,109459,109959,1,0
Sprite,Background,Centre,"sb\glow.png",453,331 S,0,109477,109477,0.5 C,0,109477,109477,255,88,102 F,0,109477,109977,1,0
Sprite,Background,Centre,"sb\glow.png",475,268 S,0,109496,109496,0.5 C,0,109496,109496,255,88,102 F,0,109496,109996,1,0
Sprite,Background,Centre,"sb\glow.png",490,224 S,0,109515,109515,0.5 C,0,109515,109515,255,88,102 F,0,109515,110015,1,0
Sprite,Background,Centre,"sb\glow.png",496,208 S,0,109534,109534,0.5 C,0,109534,109534,255,88,102 F,0,109534,110034,1,0
Sprite,Background,Centre,"sb\glow.png",514,210 S,0,109552,109552,0.5 C,0,109552,109552,255,88,102 F,0,109552,110052,1,0
Sprite,Background,Centre,"sb\glow.png",532,212 S,0,109571,109571,0.5 C,0,109571,109571,255,88,102 F,0,109571,110071,1,0
Sprite,Background,Centre,"sb\glow.png",551,214 S,0,109590,109590,0.5 C,0,109590,109590,255,88,102 F,0,109590,110090,1,0
Sprite,Background,Centre,"sb\glow.png",570,216 S,0,109609,109609,0.5 C,0,109609,109609,255,88,102 F,0,109609,110109,1,0
Sprite,Background,Centre,"sb\glow.png",570,219 S,0,109627,109627,0.5 C,0,109627,109627,255,88,102 F,0,109627,110127,1,0
Sprite,Background,Centre,"sb\glow.png",570,221 S,0,109646,109646,0.5 C,0,109646,109646,255,88,102 F,0,109646,110146,1,0
Sprite,Background,Centre,"sb\glow.png",570,222 S,0,109665,109665,0.5 C,0,109665,109665,255,88,102 F,0,109665,110165,1,0
Sprite,Background,Centre,"sb\glow.png",570,223 S,0,109684,109684,0.5 C,0,109684,109684,255,88,102 F,0,109684,110184,1,0
Sprite,Background,Centre,"sb\glow.png",552,221 S,0,109702,109702,0.5 C,0,109702,109702,255,88,102 F,0,109702,110202,1,0
Sprite,Background,Centre,"sb\glow.png",534,219 S,0,109721,109721,0.5 C,0,109721,109721,255,88,102 F,0,109721,110221,1,0
Sprite,Background,Centre,"sb\glow.png",515,217 S,0,109740,109740,0.5 C,0,109740,109740,255,88,102 F,0,109740,110240,1,0
Sprite,Background,Centre,"sb\glow.png",496,215 S,0,109759,109759,0.5 C,0,109759,109759,255,88,102 F,0,109759,110259,1,0
Sprite,Background,Centre,"sb\glow.png",440,176 S,0,109777,109777,0.5 C,0,109777,109777,255,88,102 F,0,109777,110277,1,0
Sprite,Background,Centre,"sb\glow.png",391,141 S,0,109796,109796,0.5 C,0,109796,109796,255,88,102 F,0,109796,110296,1,0
Sprite,Background,Centre,"sb\glow.png",357,117 S,0,109815,109815,0.5 C,0,109815,109815,255,88,102 F,0,109815,110315,1,0
Sprite,Background,Centre,"sb\glow.png",344,108 S,0,109834,109834,0.5 C,0,109834,109834,255,88,102 F,0,109834,110334,1,0
Sprite,Background,Centre,"sb\glow.png",366,103 S,0,109852,109852,0.5 C,0,109852,109852,255,0,255 F,0,109852,110352,1,0
Sprite,Background,Centre,"sb\glow.png",389,98 S,0,109871,109871,0.5 C,0,109871,109871,255,0,255 F,0,109871,110371,1,0
Sprite,Background,Centre,"sb\glow.png",410,94 S,0,109890,109890,0.5 C,0,109890,109890,255,0,255 F,0,109890,110390,1,0
Sprite,Background,Centre,"sb\glow.png",428,90 S,0,109909,109909,0.5 C,0,109909,109909,255,0,255 F,0,109909,110409,1,0
Sprite,Background,Centre,"sb\glow.png",443,87 S,0,109927,109927,0.5 C,0,109927,109927,255,0,255 F,0,109927,110427,1,0
Sprite,Background,Centre,"sb\glow.png",454,84 S,0,109946,109946,0.5 C,0,109946,109946,255,0,255 F,0,109946,110446,1,0
Sprite,Background,Centre,"sb\glow.png",461,83 S,0,109965,109965,0.5 C,0,109965,109965,255,0,255 F,0,109965,110465,1,0
Sprite,Background,Centre,"sb\glow.png",464,82 S,0,109984,109984,0.5 C,0,109984,109984,255,0,255 F,0,109984,110484,1,0
Sprite,Background,Centre,"sb\glow.png",442,84 S,0,110002,110002,0.5 C,0,110002,110002,255,0,255 F,0,110002,110502,1,0
Sprite,Background,Centre,"sb\glow.png",420,86 S,0,110021,110021,0.5 C,0,110021,110021,255,0,255 F,0,110021,110521,1,0
Sprite,Background,Centre,"sb\glow.png",399,88 S,0,110040,110040,0.5 C,0,110040,110040,255,0,255 F,0,110040,110540,1,0
Sprite,Background,Centre,"sb\glow.png",381,90 S,0,110059,110059,0.5 C,0,110059,110059,255,0,255 F,0,110059,110559,1,0
Sprite,Background,Centre,"sb\glow.png",367,91 S,0,110077,110077,0.5 C,0,110077,110077,255,0,255 F,0,110077,110577,1,0
Sprite,Background,Centre,"sb\glow.png",355,92 S,0,110096,110096,0.5 C,0,110096,110096,255,0,255 F,0,110096,110596,1,0
Sprite,Background,Centre,"sb\glow.png",349,93 S,0,110115,110115,0.5 C,0,110115,110115,255,0,255 F,0,110115,110615,1,0
Sprite,Background,Centre,"sb\glow.png",346,93 S,0,110134,110134,0.5 C,0,110134,110134,255,0,255 F,0,110134,110634,1,0
Sprite,Background,Centre,"sb\glow.png",371,97 S,0,110152,110152,0.5 C,0,110152,110152,255,0,255 F,0,110152,110652,1,0
Sprite,Background,Centre,"sb\glow.png",396,102 S,0,110171,110171,0.5 C,0,110171,110171,255,0,255 F,0,110171,110671,1,0
Sprite,Background,Centre,"sb\glow.png",419,106 S,0,110190,110190,0.5 C,0,110190,110190,255,0,255 F,0,110190,110690,1,0
Sprite,Background,Centre,"sb\glow.png",440,109 S,0,110209,110209,0.5 C,0,110209,110209,255,0,255 F,0,110209,110709,1,0
Sprite,Background,Centre,"sb\glow.png",457,112 S,0,110227,110227,0.5 C,0,110227,110227,255,0,255 F,0,110227,110727,1,0
Sprite,Background,Centre,"sb\glow.png",469,114 S,0,110246,110246,0.5 C,0,110246,110246,255,0,255 F,0,110246,110746,1,0
Sprite,Background,Centre,"sb\glow.png",477,116 S,0,110265,110265,0.5 C,0,110265,110265,255,0,255 F,0,110265,110765,1,0
Sprite,Background,Centre,"sb\glow.png",480,116 S,0,110284,110284,0.5 C,0,110284,110284,255,0,255 F,0,110284,110784,1,0
Sprite,Background,Centre,"sb\glow.png",464,137 S,0,110302,110302,0.5 C,0,110302,110302,255,0,255 F,0,110302,110802,1,0
Sprite,Background,Centre,"sb\glow.png",447,159 S,0,110321,110321,0.5 C,0,110321,110321,255,0,255 F,0,110321,110821,1,0
Sprite,Background,Centre,"sb\glow.png",431,179 S,0,110340,110340,0.5 C,0,110340,110340,255,0,255 F,0,110340,110840,1,0
Sprite,Background,Centre,"sb\glow.png",418,196 S,0,110359,110359,0.5 C,0,110359,110359,255,0,255 F,0,110359,110859,1,0
Sprite,Background,Centre,"sb\glow.png",407,211 S,0,110377,110377,0.5 C,0,110377,110377,255,0,255 F,0,110377,110877,1,0
Sprite,Background,Centre,"sb\glow.png",398,222 S,0,110396,110396,0.5 C,0,110396,110396,255,0,255 F,0,110396,110896,1,0
Sprite,Background,Centre,"sb\glow.png",393,229 S,0,110415,110415,0.5 C,0,110415,110415,255,0,255 F,0,110415,110915,1,0
Sprite,Background,Centre,"sb\glow.png",391,231 S,0,110434,110434,0.5 C,0,110434,110434,255,0,255 F,0,110434,110934,1,0
Sprite,Background,Centre,"sb\glow.png",376,234 S,0,110452,110452,0.5 C,0,110452,110452,255,128,192 F,0,110452,110952,1,0
Sprite,Background,Centre,"sb\glow.png",360,236 S,0,110471,110471,0.5 C,0,110471,110471,255,128,192 F,0,110471,110971,1,0
Sprite,Background,Centre,"sb\glow.png",344,239 S,0,110490,110490,0.5 C,0,110490,110490,255,128,192 F,0,110490,110990,1,0
Sprite,Background,Centre,"sb\glow.png",328,241 S,0,110509,110509,0.5 C,0,110509,110509,255,128,192 F,0,110509,111009,1,0
Sprite,Background,Centre,"sb\glow.png",312,244 S,0,110527,110527,0.5 C,0,110527,110527,255,128,192 F,0,110527,111027,1,0
Sprite,Background,Centre,"sb\glow.png",298,251 S,0,110546,110546,0.5 C,0,110546,110546,255,128,192 F,0,110546,111046,1,0
Sprite,Background,Centre,"sb\glow.png",284,261 S,0,110565,110565,0.5 C,0,110565,110565,255,128,192 F,0,110565,111065,1,0
Sprite,Background,Centre,"sb\glow.png",271,270 S,0,110584,110584,0.5 C,0,110584,110584,255,128,192 F,0,110584,111084,1,0
Sprite,Background,Centre,"sb\glow.png",257,276 S,0,110602,110602,0.5 C,0,110602,110602,255,128,192 F,0,110602,111102,1,0
Sprite,Background,Centre,"sb\glow.png",241,278 S,0,110621,110621,0.5 C,0,110621,110621,255,128,192 F,0,110621,111121,1,0
Sprite,Background,Centre,"sb\glow.png",224,280 S,0,110640,110640,0.5 C,0,110640,110640,255,128,192 F,0,110640,111140,1,0
Sprite,Background,Centre,"sb\glow.png",208,282 S,0,110659,110659,0.5 C,0,110659,110659,255,128,192 F,0,110659,111159,1,0
Sprite,Background,Centre,"sb\glow.png",192,285 S,0,110677,110677,0.5 C,0,110677,110677,255,128,192 F,0,110677,111177,1,0
Sprite,Background,Centre,"sb\glow.png",176,287 S,0,110696,110696,0.5 C,0,110696,110696,255,128,192 F,0,110696,111196,1,0
Sprite,Background,Centre,"sb\glow.png",176,273 S,0,110715,110715,0.5 C,0,110715,110715,255,128,192 F,0,110715,111215,1,0
Sprite,Background,Centre,"sb\glow.png",178,257 S,0,110734,110734,0.5 C,0,110734,110734,255,128,192 F,0,110734,111234,1,0
Sprite,Background,Centre,"sb\glow.png",180,241 S,0,110752,110752,0.5 C,0,110752,110752,255,128,192 F,0,110752,111252,1,0
Sprite,Background,Centre,"sb\glow.png",182,225 S,0,110771,110771,0.5 C,0,110771,110771,255,128,192 F,0,110771,111271,1,0
Sprite,Background,Centre,"sb\glow.png",184,208 S,0,110790,110790,0.5 C,0,110790,110790,255,128,192 F,0,110790,111290,1,0
Sprite,Background,Centre,"sb\glow.png",186,192 S,0,110809,110809,0.5 C,0,110809,110809,255,128,192 F,0,110809,111309,1,0
Sprite,Background,Centre,"sb\glow.png",188,176 S,0,110827,110827,0.5 C,0,110827,110827,255,128,192 F,0,110827,111327,1,0
Sprite,Background,Centre,"sb\glow.png",192,168 S,0,110846,110846,0.5 C,0,110846,110846,255,128,192 F,0,110846,111346,1,0
Sprite,Background,Centre,"sb\glow.png",203,179 S,0,110865,110865,0.5 C,0,110865,110865,255,128,192 F,0,110865,111365,1,0
Sprite,Background,Centre,"sb\glow.png",214,191 S,0,110884,110884,0.5 C,0,110884,110884,255,128,192 F,0,110884,111384,1,0
Sprite,Background,Centre,"sb\glow.png",234,220 S,0,110902,110902,0.5 C,0,110902,110902,255,128,192 F,0,110902,111402,1,0
Sprite,Background,Centre,"sb\glow.png",254,249 S,0,110921,110921,0.5 C,0,110921,110921,255,128,192 F,0,110921,111421,1,0
Sprite,Background,Centre,"sb\glow.png",273,276 S,0,110940,110940,0.5 C,0,110940,110940,255,128,192 F,0,110940,111440,1,0
Sprite,Background,Centre,"sb\glow.png",290,299 S,0,110959,110959,0.5 C,0,110959,110959,255,128,192 F,0,110959,111459,1,0
Sprite,Background,Centre,"sb\glow.png",303,318 S,0,110977,110977,0.5 C,0,110977,110977,255,128,192 F,0,110977,111477,1,0
Sprite,Background,Centre,"sb\glow.png",313,333 S,0,110996,110996,0.5 C,0,110996,110996,255,128,192 F,0,110996,111496,1,0
Sprite,Background,Centre,"sb\glow.png",320,342 S,0,111015,111015,0.5 C,0,111015,111015,255,128,192 F,0,111015,111515,1,0
Sprite,Background,Centre,"sb\glow.png",322,345 S,0,111034,111034,0.5 C,0,111034,111034,255,128,192 F,0,111034,111534,1,0
Sprite,Background,Centre,"sb\glow.png",340,346 S,0,111052,111052,0.5 C,0,111052,111052,255,0,128 F,0,111052,111552,1,0
Sprite,Background,Centre,"sb\glow.png",358,348 S,0,111071,111071,0.5 C,0,111071,111071,255,0,128 F,0,111071,111571,1,0
Sprite,Background,Centre,"sb\glow.png",377,349 S,0,111090,111090,0.5 C,0,111090,111090,255,0,128 F,0,111090,111590,1,0
Sprite,Background,Centre,"sb\glow.png",396,350 S,0,111109,111109,0.5 C,0,111109,111109,255,0,128 F,0,111109,111609,1,0
Sprite,Background,Centre,"sb\glow.png",397,348 S,0,111127,111127,0.5 C,0,111127,111127,255,0,128 F,0,111127,111627,1,0
Sprite,Background,Centre,"sb\glow.png",397,347 S,0,111146,111146,0.5 C,0,111146,111146,255,0,128 F,0,111146,111646,1,0
Sprite,Background,Centre,"sb\glow.png",397,345 S,0,111165,111165,0.5 C,0,111165,111165,255,0,128 F,0,111165,111665,1,0
Sprite,Background,Centre,"sb\glow.png",397,345 S,0,111184,111184,0.5 C,0,111184,111184,255,0,128 F,0,111184,111684,1,0
Sprite,Background,Centre,"sb\glow.png",379,344 S,0,111202,111202,0.5 C,0,111202,111202,255,0,128 F,0,111202,111702,1,0
Sprite,Background,Centre,"sb\glow.png",361,342 S,0,111221,111221,0.5 C,0,111221,111221,255,0,128 F,0,111221,111721,1,0
Sprite,Background,Centre,"sb\glow.png",342,341 S,0,111240,111240,0.5 C,0,111240,111240,255,0,128 F,0,111240,111740,1,0
Sprite,Background,Centre,"sb\glow.png",323,339 S,0,111259,111259,0.5 C,0,111259,111259,255,0,128 F,0,111259,111759,1,0
Sprite,Background,Centre,"sb\glow.png",270,319 S,0,111277,111277,0.5 C,0,111277,111277,255,0,128 F,0,111277,111777,1,0
Sprite,Background,Centre,"sb\glow.png",223,302 S,0,111296,111296,0.5 C,0,111296,111296,255,0,128 F,0,111296,111796,1,0
Sprite,Background,Centre,"sb\glow.png",191,290 S,0,111315,111315,0.5 C,0,111315,111315,255,0,128 F,0,111315,111815,1,0
Sprite,Background,Centre,"sb\glow.png",179,285 S,0,111334,111334,0.5 C,0,111334,111334,255,0,128 F,0,111334,111834,1,0
Sprite,Background,Centre,"sb\glow.png",161,287 S,0,111352,111352,0.5 C,0,111352,111352,255,0,128 F,0,111352,111852,1,0
Sprite,Background,Centre,"sb\glow.png",143,289 S,0,111371,111371,0.5 C,0,111371,111371,255,0,128 F,0,111371,111871,1,0
Sprite,Background,Centre,"sb\glow.png",124,292 S,0,111390,111390,0.5 C,0,111390,111390,255,0,128 F,0,111390,111890,1,0
Sprite,Background,Centre,"sb\glow.png",106,294 S,0,111409,111409,0.5 C,0,111409,111409,255,0,128 F,0,111409,111909,1,0
Sprite,Background,Centre,"sb\glow.png",105,292 S,0,111427,111427,0.5 C,0,111427,111427,255,0,128 F,0,111427,111927,1,0
Sprite,Background,Centre,"sb\glow.png",105,290 S,0,111446,111446,0.5 C,0,111446,111446,255,0,128 F,0,111446,111946,1,0
Sprite,Background,Centre,"sb\glow.png",105,289 S,0,111465,111465,0.5 C,0,111465,111465,255,0,128 F,0,111465,111965,1,0
Sprite,Background,Centre,"sb\glow.png",105,288 S,0,111484,111484,0.5 C,0,111484,111484,255,0,128 F,0,111484,111984,1,0
Sprite,Background,Centre,"sb\glow.png",123,286 S,0,111502,111502,0.5 C,0,111502,111502,255,0,128 F,0,111502,112002,1,0
Sprite,Background,Centre,"sb\glow.png",141,283 S,0,111521,111521,0.5 C,0,111521,111521,255,0,128 F,0,111521,112021,1,0
Sprite,Background,Centre,"sb\glow.png",160,281 S,0,111540,111540,0.5 C,0,111540,111540,255,0,128 F,0,111540,112040,1,0
Sprite,Background,Centre,"sb\glow.png",178,278 S,0,111559,111559,0.5 C,0,111559,111559,255,0,128 F,0,111559,112059,1,0
Sprite,Background,Centre,"sb\glow.png",235,234 S,0,111577,111577,0.5 C,0,111577,111577,255,0,128 F,0,111577,112077,1,0
Sprite,Background,Centre,"sb\glow.png",286,194 S,0,111596,111596,0.5 C,0,111596,111596,255,0,128 F,0,111596,112096,1,0
Sprite,Background,Centre,"sb\glow.png",321,167 S,0,111615,111615,0.5 C,0,111615,111615,255,0,128 F,0,111615,112115,1,0
Sprite,Background,Centre,"sb\glow.png",334,157 S,0,111634,111634,0.5 C,0,111634,111634,255,0,128 F,0,111634,112134,1,0
Sprite,Background,Centre,"sb\glow.png",349,156 S,0,111652,111652,0.5 C,0,111652,111652,255,88,102 F,0,111652,112152,1,0
Sprite,Background,Centre,"sb\glow.png",366,158 S,0,111671,111671,0.5 C,0,111671,111671,255,88,102 F,0,111671,112171,1,0
Sprite,Background,Centre,"sb\glow.png",381,161 S,0,111690,111690,0.5 C,0,111690,111690,255,88,102 F,0,111690,112190,1,0
Sprite,Background,Centre,"sb\glow.png",396,168 S,0,111709,111709,0.5 C,0,111709,111709,255,88,102 F,0,111709,112209,1,0
Sprite,Background,Centre,"sb\glow.png",410,177 S,0,111727,111727,0.5 C,0,111727,111727,255,88,102 F,0,111727,112227,1,0
Sprite,Background,Centre,"sb\glow.png",422,187 S,0,111746,111746,0.5 C,0,111746,111746,255,88,102 F,0,111746,112246,1,0
Sprite,Background,Centre,"sb\glow.png",435,197 S,0,111765,111765,0.5 C,0,111765,111765,255,88,102 F,0,111765,112265,1,0
Sprite,Background,Centre,"sb\glow.png",448,207 S,0,111784,111784,0.5 C,0,111784,111784,255,88,102 F,0,111784,112284,1,0
Sprite,Background,Centre,"sb\glow.png",463,214 S,0,111802,111802,0.5 C,0,111802,111802,255,88,102 F,0,111802,112302,1,0
Sprite,Background,Centre,"sb\glow.png",478,218 S,0,111821,111821,0.5 C,0,111821,111821,255,88,102 F,0,111821,112321,1,0
Sprite,Background,Centre,"sb\glow.png",494,219 S,0,111840,111840,0.5 C,0,111840,111840,255,88,102 F,0,111840,112340,1,0
Sprite,Background,Centre,"sb\glow.png",511,217 S,0,111859,111859,0.5 C,0,111859,111859,255,88,102 F,0,111859,112359,1,0
Sprite,Background,Centre,"sb\glow.png",505,185 S,0,111877,111877,0.5 C,0,111877,111877,255,88,102 F,0,111877,112377,1,0
Sprite,Background,Centre,"sb\glow.png",499,157 S,0,111896,111896,0.5 C,0,111896,111896,255,88,102 F,0,111896,112396,1,0
Sprite,Background,Centre,"sb\glow.png",495,137 S,0,111915,111915,0.5 C,0,111915,111915,255,88,102 F,0,111915,112415,1,0
Sprite,Background,Centre,"sb\glow.png",494,130 S,0,111934,111934,0.5 C,0,111934,111934,255,88,102 F,0,111934,112434,1,0
Sprite,Background,Centre,"sb\glow.png",497,113 S,0,111952,111952,0.5 C,0,111952,111952,255,88,102 F,0,111952,112452,1,0
Sprite,Background,Centre,"sb\glow.png",500,94 S,0,111971,111971,0.5 C,0,111971,111971,255,88,102 F,0,111971,112471,1,0
Sprite,Background,Centre,"sb\glow.png",501,75 S,0,111990,111990,0.5 C,0,111990,111990,255,88,102 F,0,111990,112490,1,0
Sprite,Background,Centre,"sb\glow.png",501,57 S,0,112009,112009,0.5 C,0,112009,112009,255,88,102 F,0,112009,112509,1,0
Sprite,Background,Centre,"sb\glow.png",503,56 S,0,112027,112027,0.5 C,0,112027,112027,255,88,102 F,0,112027,112527,1,0
Sprite,Background,Centre,"sb\glow.png",505,57 S,0,112046,112046,0.5 C,0,112046,112046,255,88,102 F,0,112046,112546,1,0
Sprite,Background,Centre,"sb\glow.png",506,57 S,0,112065,112065,0.5 C,0,112065,112065,255,88,102 F,0,112065,112565,1,0
Sprite,Background,Centre,"sb\glow.png",507,57 S,0,112084,112084,0.5 C,0,112084,112084,255,88,102 F,0,112084,112584,1,0
Sprite,Background,Centre,"sb\glow.png",507,75 S,0,112102,112102,0.5 C,0,112102,112102,255,88,102 F,0,112102,112602,1,0
Sprite,Background,Centre,"sb\glow.png",506,93 S,0,112121,112121,0.5 C,0,112121,112121,255,88,102 F,0,112121,112621,1,0
Sprite,Background,Centre,"sb\glow.png",504,112 S,0,112140,112140,0.5 C,0,112140,112140,255,88,102 F,0,112140,112640,1,0
Sprite,Background,Centre,"sb\glow.png",500,130 S,0,112159,112159,0.5 C,0,112159,112159,255,88,102 F,0,112159,112659,1,0
Sprite,Background,Centre,"sb\glow.png",503,164 S,0,112177,112177,0.5 C,0,112177,112177,255,88,102 F,0,112177,112677,1,0
Sprite,Background,Centre,"sb\glow.png",506,194 S,0,112196,112196,0.5 C,0,112196,112196,255,88,102 F,0,112196,112696,1,0
Sprite,Background,Centre,"sb\glow.png",508,214 S,0,112215,112215,0.5 C,0,112215,112215,255,88,102 F,0,112215,112715,1,0
Sprite,Background,Centre,"sb\glow.png",509,222 S,0,112234,112234,0.5 C,0,112234,112234,255,88,102 F,0,112234,112734,1,0
Sprite,Background,Centre,"sb\glow.png",494,225 S,0,112252,112252,0.5 C,0,112252,112252,255,0,255 F,0,112252,112752,1,0
Sprite,Background,Centre,"sb\glow.png",478,225 S,0,112271,112271,0.5 C,0,112271,112271,255,0,255 F,0,112271,112771,1,0
Sprite,Background,Centre,"sb\glow.png",462,221 S,0,112290,112290,0.5 C,0,112290,112290,255,0,255 F,0,112290,112790,1,0
Sprite,Background,Centre,"sb\glow.png",448,213 S,0,112309,112309,0.5 C,0,112309,112309,255,0,255 F,0,112309,112809,1,0
Sprite,Background,Centre,"sb\glow.png",435,203 S,0,112327,112327,0.5 C,0,112327,112327,255,0,255 F,0,112327,112827,1,0
Sprite,Background,Centre,"sb\glow.png",423,193 S,0,112346,112346,0.5 C,0,112346,112346,255,0,255 F,0,112346,112846,1,0
Sprite,Background,Centre,"sb\glow.png",410,182 S,0,112365,112365,0.5 C,0,112365,112365,255,0,255 F,0,112365,112865,1,0
Sprite,Background,Centre,"sb\glow.png",397,173 S,0,112384,112384,0.5 C,0,112384,112384,255,0,255 F,0,112384,112884,1,0
Sprite,Background,Centre,"sb\glow.png",382,167 S,0,112402,112402,0.5 C,0,112402,112402,255,0,255 F,0,112402,112902,1,0
Sprite,Background,Centre,"sb\glow.png",366,163 S,0,112421,112421,0.5 C,0,112421,112421,255,0,255 F,0,112421,112921,1,0
Sprite,Background,Centre,"sb\glow.png",350,161 S,0,112440,112440,0.5 C,0,112440,112440,255,0,255 F,0,112440,112940,1,0
Sprite,Background,Centre,"sb\glow.png",334,162 S,0,112459,112459,0.5 C,0,112459,112459,255,0,255 F,0,112459,112959,1,0
Sprite,Background,Centre,"sb\glow.png",298,217 S,0,112477,112477,0.5 C,0,112477,112477,255,0,255 F,0,112477,112977,1,0
Sprite,Background,Centre,"sb\glow.png",266,267 S,0,112496,112496,0.5 C,0,112496,112496,255,0,255 F,0,112496,112996,1,0
Sprite,Background,Centre,"sb\glow.png",244,301 S,0,112515,112515,0.5 C,0,112515,112515,255,0,255 F,0,112515,113015,1,0
Sprite,Background,Centre,"sb\glow.png",236,314 S,0,112534,112534,0.5 C,0,112534,112534,255,0,255 F,0,112534,113034,1,0
Sprite,Background,Centre,"sb\glow.png",248,327 S,0,112552,112552,0.5 C,0,112552,112552,255,0,255 F,0,112552,113052,1,0
Sprite,Background,Centre,"sb\glow.png",263,338 S,0,112571,112571,0.5 C,0,112571,112571,255,0,255 F,0,112571,113071,1,0
Sprite,Background,Centre,"sb\glow.png",280,344 S,0,112590,112590,0.5 C,0,112590,112590,255,0,255 F,0,112590,113090,1,0
Sprite,Background,Centre,"sb\glow.png",299,346 S,0,112609,112609,0.5 C,0,112609,112609,255,0,255 F,0,112609,113109,1,0
Sprite,Background,Centre,"sb\glow.png",317,343 S,0,112627,112627,0.5 C,0,112627,112627,255,0,255 F,0,112627,113127,1,0
Sprite,Background,Centre,"sb\glow.png",334,335 S,0,112646,112646,0.5 C,0,112646,112646,255,0,255 F,0,112646,113146,1,0
Sprite,Background,Centre,"sb\glow.png",348,323 S,0,112665,112665,0.5 C,0,112665,112665,255,0,255 F,0,112665,113165,1,0
Sprite,Background,Centre,"sb\glow.png",359,308 S,0,112684,112684,0.5 C,0,112684,112684,255,0,255 F,0,112684,113184,1,0
Sprite,Background,Centre,"sb\glow.png",365,290 S,0,112702,112702,0.5 C,0,112702,112702,255,0,255 F,0,112702,113202,1,0
Sprite,Background,Centre,"sb\glow.png",367,272 S,0,112721,112721,0.5 C,0,112721,112721,255,0,255 F,0,112721,113221,1,0
Sprite,Background,Centre,"sb\glow.png",363,254 S,0,112740,112740,0.5 C,0,112740,112740,255,0,255 F,0,112740,113240,1,0
Sprite,Background,Centre,"sb\glow.png",355,237 S,0,112759,112759,0.5 C,0,112759,112759,255,0,255 F,0,112759,113259,1,0
Sprite,Background,Centre,"sb\glow.png",287,200 S,0,112777,112777,0.5 C,0,112777,112777,255,0,255 F,0,112777,113277,1,0
Sprite,Background,Centre,"sb\glow.png",226,167 S,0,112796,112796,0.5 C,0,112796,112796,255,0,255 F,0,112796,113296,1,0
Sprite,Background,Centre,"sb\glow.png",185,145 S,0,112815,112815,0.5 C,0,112815,112815,255,0,255 F,0,112815,113315,1,0
Sprite,Background,Centre,"sb\glow.png",169,137 S,0,112834,112834,0.5 C,0,112834,112834,255,0,255 F,0,112834,113334,1,0
Sprite,Background,Centre,"sb\glow.png",171,146 S,0,112852,112852,0.5 C,0,112852,112852,255,128,192 F,0,112852,113352,1,0
Sprite,Background,Centre,"sb\glow.png",172,155 S,0,112871,112871,0.5 C,0,112871,112871,255,128,192 F,0,112871,113371,1,0
Sprite,Background,Centre,"sb\glow.png",173,164 S,0,112890,112890,0.5 C,0,112890,112890,255,128,192 F,0,112890,113390,1,0
Sprite,Background,Centre,"sb\glow.png",174,174 S,0,112909,112909,0.5 C,0,112909,112909,255,128,192 F,0,112909,113409,1,0
Sprite,Background,Centre,"sb\glow.png",175,183 S,0,112927,112927,0.5 C,0,112927,112927,255,128,192 F,0,112927,113427,1,0
Sprite,Background,Centre,"sb\glow.png",174,192 S,0,112946,112946,0.5 C,0,112946,112946,255,128,192 F,0,112946,113446,1,0
Sprite,Background,Centre,"sb\glow.png",174,202 S,0,112965,112965,0.5 C,0,112965,112965,255,128,192 F,0,112965,113465,1,0
Sprite,Background,Centre,"sb\glow.png",172,211 S,0,112984,112984,0.5 C,0,112984,112984,255,128,192 F,0,112984,113484,1,0
Sprite,Background,Centre,"sb\glow.png",171,220 S,0,113002,113002,0.5 C,0,113002,113002,255,128,192 F,0,113002,113502,1,0
Sprite,Background,Centre,"sb\glow.png",168,229 S,0,113021,113021,0.5 C,0,113021,113021,255,128,192 F,0,113021,113521,1,0
Sprite,Background,Centre,"sb\glow.png",164,238 S,0,113040,113040,0.5 C,0,113040,113040,255,128,192 F,0,113040,113540,1,0
Sprite,Background,Centre,"sb\glow.png",159,244 S,0,113059,113059,0.5 C,0,113059,113059,255,128,192 F,0,113059,113559,1,0
Sprite,Background,Centre,"sb\glow.png",153,250 S,0,113077,113077,0.5 C,0,113077,113077,255,128,192 F,0,113077,113577,1,0
Sprite,Background,Centre,"sb\glow.png",149,259 S,0,113096,113096,0.5 C,0,113096,113096,255,128,192 F,0,113096,113596,1,0
Sprite,Background,Centre,"sb\glow.png",147,268 S,0,113115,113115,0.5 C,0,113115,113115,255,128,192 F,0,113115,113615,1,0
Sprite,Background,Centre,"sb\glow.png",145,277 S,0,113134,113134,0.5 C,0,113134,113134,255,128,192 F,0,113134,113634,1,0
Sprite,Background,Centre,"sb\glow.png",143,286 S,0,113152,113152,0.5 C,0,113152,113152,255,128,192 F,0,113152,113652,1,0
Sprite,Background,Centre,"sb\glow.png",142,296 S,0,113171,113171,0.5 C,0,113171,113171,255,128,192 F,0,113171,113671,1,0
Sprite,Background,Centre,"sb\glow.png",142,305 S,0,113190,113190,0.5 C,0,113190,113190,255,128,192 F,0,113190,113690,1,0
Sprite,Background,Centre,"sb\glow.png",142,314 S,0,113209,113209,0.5 C,0,113209,113209,255,128,192 F,0,113209,113709,1,0
Sprite,Background,Centre,"sb\glow.png",143,324 S,0,113227,113227,0.5 C,0,113227,113227,255,128,192 F,0,113227,113727,1,0
Sprite,Background,Centre,"sb\glow.png",145,333 S,0,113246,113246,0.5 C,0,113246,113246,255,128,192 F,0,113246,113746,1,0
Sprite,Background,Centre,"sb\glow.png",147,342 S,0,113265,113265,0.5 C,0,113265,113265,255,128,192 F,0,113265,113765,1,0
Sprite,Background,Centre,"sb\glow.png",150,351 S,0,113284,113284,0.5 C,0,113284,113284,255,128,192 F,0,113284,113784,1,0
Sprite,Background,Centre,"sb\glow.png",171,361 S,0,113302,113302,0.5 C,0,113302,113302,255,128,192 F,0,113302,113802,1,0
Sprite,Background,Centre,"sb\glow.png",192,371 S,0,113321,113321,0.5 C,0,113321,113321,255,128,192 F,0,113321,113821,1,0
Sprite,Background,Centre,"sb\glow.png",211,381 S,0,113340,113340,0.5 C,0,113340,113340,255,128,192 F,0,113340,113840,1,0
Sprite,Background,Centre,"sb\glow.png",228,389 S,0,113359,113359,0.5 C,0,113359,113359,255,128,192 F,0,113359,113859,1,0
Sprite,Background,Centre,"sb\glow.png",243,396 S,0,113377,113377,0.5 C,0,113377,113377,255,128,192 F,0,113377,113877,1,0
Sprite,Background,Centre,"sb\glow.png",253,401 S,0,113396,113396,0.5 C,0,113396,113396,255,128,192 F,0,113396,113896,1,0
Sprite,Background,Centre,"sb\glow.png",260,404 S,0,113415,113415,0.5 C,0,113415,113415,255,128,192 F,0,113415,113915,1,0
Sprite,Background,Centre,"sb\glow.png",262,405 S,0,113434,113434,0.5 C,0,113434,113434,255,128,192 F,0,113434,113934,1,0
Sprite,Background,Centre,"sb\glow.png",262,405 S,0,113452,113452,0.5 C,0,113452,113452,255,0,128 F,0,113452,113952,1,0
Sprite,Background,Centre,"sb\glow.png",262,405 S,0,113471,113471,0.5 C,0,113471,113471,255,0,128 F,0,113471,113971,1,0
Sprite,Background,Centre,"sb\glow.png",262,405 S,0,113490,113490,0.5 C,0,113490,113490,255,0,128 F,0,113490,113990,1,0
Sprite,Background,Centre,"sb\glow.png",262,405 S,0,113509,113509,0.5 C,0,113509,113509,255,0,128 F,0,113509,114009,1,0
Sprite,Background,Centre,"sb\glow.png",262,405 S,0,113527,113527,0.5 C,0,113527,113527,255,0,128 F,0,113527,114027,1,0
Sprite,Background,Centre,"sb\glow.png",262,405 S,0,113546,113546,0.5 C,0,113546,113546,255,0,128 F,0,113546,114046,1,0
Sprite,Background,Centre,"sb\glow.png",262,405 S,0,113565,113565,0.5 C,0,113565,113565,255,0,128 F,0,113565,114065,1,0
Sprite,Background,Centre,"sb\glow.png",262,405 S,0,113584,113584,0.5 C,0,113584,113584,255,0,128 F,0,113584,114084,1,0
Sprite,Background,Centre,"sb\glow.png",266,380 S,0,113602,113602,0.5 C,0,113602,113602,255,0,128 F,0,113602,114102,1,0
Sprite,Background,Centre,"sb\glow.png",271,355 S,0,113621,113621,0.5 C,0,113621,113621,255,0,128 F,0,113621,114121,1,0
Sprite,Background,Centre,"sb\glow.png",275,332 S,0,113640,113640,0.5 C,0,113640,113640,255,0,128 F,0,113640,114140,1,0
Sprite,Background,Centre,"sb\glow.png",278,311 S,0,113659,113659,0.5 C,0,113659,113659,255,0,128 F,0,113659,114159,1,0
Sprite,Background,Centre,"sb\glow.png",281,294 S,0,113677,113677,0.5 C,0,113677,113677,255,0,128 F,0,113677,114177,1,0
Sprite,Background,Centre,"sb\glow.png",283,282 S,0,113696,113696,0.5 C,0,113696,113696,255,0,128 F,0,113696,114196,1,0
Sprite,Background,Centre,"sb\glow.png",285,274 S,0,113715,113715,0.5 C,0,113715,113715,255,0,128 F,0,113715,114215,1,0
Sprite,Background,Centre,"sb\glow.png",285,271 S,0,113734,113734,0.5 C,0,113734,113734,255,0,128 F,0,113734,114234,1,0
Sprite,Background,Centre,"sb\glow.png",291,281 S,0,113752,113752,0.5 C,0,113752,113752,255,0,128 F,0,113752,114252,1,0
Sprite,Background,Centre,"sb\glow.png",295,293 S,0,113771,113771,0.5 C,0,113771,113771,255,0,128 F,0,113771,114271,1,0
Sprite,Background,Centre,"sb\glow.png",299,305 S,0,113790,113790,0.5 C,0,113790,113790,255,0,128 F,0,113790,114290,1,0
Sprite,Background,Centre,"sb\glow.png",301,317 S,0,113809,113809,0.5 C,0,113809,113809,255,0,128 F,0,113809,114309,1,0
Sprite,Background,Centre,"sb\glow.png",301,330 S,0,113827,113827,0.5 C,0,113827,113827,255,0,128 F,0,113827,114327,1,0
Sprite,Background,Centre,"sb\glow.png",300,342 S,0,113846,113846,0.5 C,0,113846,113846,255,0,128 F,0,113846,114346,1,0
Sprite,Background,Centre,"sb\glow.png",297,354 S,0,113865,113865,0.5 C,0,113865,113865,255,0,128 F,0,113865,114365,1,0
Sprite,Background,Centre,"sb\glow.png",293,366 S,0,113884,113884,0.5 C,0,113884,113884,255,0,128 F,0,113884,114384,1,0
Sprite,Background,Centre,"sb\glow.png",287,377 S,0,113902,113902,0.5 C,0,113902,113902,255,0,128 F,0,113902,114402,1,0
Sprite,Background,Centre,"sb\glow.png",280,387 S,0,113921,113921,0.5 C,0,113921,113921,255,0,128 F,0,113921,114421,1,0
Sprite,Background,Centre,"sb\glow.png",272,397 S,0,113940,113940,0.5 C,0,113940,113940,255,0,128 F,0,113940,114440,1,0
Sprite,Background,Centre,"sb\glow.png",263,405 S,0,113959,113959,0.5 C,0,113959,113959,255,0,128 F,0,113959,114459,1,0
Sprite,Background,Centre,"sb\glow.png",243,377 S,0,113977,113977,0.5 C,0,113977,113977,255,0,128 F,0,113977,114477,1,0
Sprite,Background,Centre,"sb\glow.png",225,352 S,0,113996,113996,0.5 C,0,113996,113996,255,0,128 F,0,113996,114496,1,0
Sprite,Background,Centre,"sb\glow.png",213,335 S,0,114015,114015,0.5 C,0,114015,114015,255,0,128 F,0,114015,114515,1,0
Sprite,Background,Centre,"sb\glow.png",208,328 S,0,114034,114034,0.5 C,0,114034,114034,255,0,128 F,0,114034,114534,1,0
Sprite,Background,Centre,"sb\glow.png",220,331 S,0,114052,114052,0.5 C,0,114052,114052,255,88,102 F,0,114052,114552,1,0
Sprite,Background,Centre,"sb\glow.png",232,334 S,0,114071,114071,0.5 C,0,114071,114071,255,88,102 F,0,114071,114571,1,0
Sprite,Background,Centre,"sb\glow.png",244,336 S,0,114090,114090,0.5 C,0,114090,114090,255,88,102 F,0,114090,114590,1,0
Sprite,Background,Centre,"sb\glow.png",256,339 S,0,114109,114109,0.5 C,0,114109,114109,255,88,102 F,0,114109,114609,1,0
Sprite,Background,Centre,"sb\glow.png",268,342 S,0,114127,114127,0.5 C,0,114127,114127,255,88,102 F,0,114127,114627,1,0
Sprite,Background,Centre,"sb\glow.png",280,345 S,0,114146,114146,0.5 C,0,114146,114146,255,88,102 F,0,114146,114646,1,0
Sprite,Background,Centre,"sb\glow.png",293,348 S,0,114165,114165,0.5 C,0,114165,114165,255,88,102 F,0,114165,114665,1,0
Sprite,Background,Centre,"sb\glow.png",305,351 S,0,114184,114184,0.5 C,0,114184,114184,255,88,102 F,0,114184,114684,1,0
Sprite,Background,Centre,"sb\glow.png",317,354 S,0,114202,114202,0.5 C,0,114202,114202,255,88,102 F,0,114202,114702,1,0
Sprite,Background,Centre,"sb\glow.png",329,357 S,0,114221,114221,0.5 C,0,114221,114221,255,88,102 F,0,114221,114721,1,0
Sprite,Background,Centre,"sb\glow.png",341,359 S,0,114240,114240,0.5 C,0,114240,114240,255,88,102 F,0,114240,114740,1,0
Sprite,Background,Centre,"sb\glow.png",353,362 S,0,114259,114259,0.5 C,0,114259,114259,255,88,102 F,0,114259,114759,1,0
Sprite,Background,Centre,"sb\glow.png",397,370 S,0,114277,114277,0.5 C,0,114277,114277,255,88,102 F,0,114277,114777,1,0
Sprite,Background,Centre,"sb\glow.png",436,377 S,0,114296,114296,0.5 C,0,114296,114296,255,88,102 F,0,114296,114796,1,0
Sprite,Background,Centre,"sb\glow.png",463,382 S,0,114315,114315,0.5 C,0,114315,114315,255,88,102 F,0,114315,114815,1,0
Sprite,Background,Centre,"sb\glow.png",473,384 S,0,114334,114334,0.5 C,0,114334,114334,255,88,102 F,0,114334,114834,1,0
Sprite,Background,Centre,"sb\glow.png",473,384 S,0,114352,114352,0.5 C,0,114352,114352,255,88,102 F,0,114352,114852,1,0
Sprite,Background,Centre,"sb\glow.png",473,384 S,0,114371,114371,0.5 C,0,114371,114371,255,88,102 F,0,114371,114871,1,0
Sprite,Background,Centre,"sb\glow.png",473,384 S,0,114390,114390,0.5 C,0,114390,114390,255,88,102 F,0,114390,114890,1,0
Sprite,Background,Centre,"sb\glow.png",473,384 S,0,114409,114409,0.5 C,0,114409,114409,255,88,102 F,0,114409,114909,1,0
Sprite,Background,Centre,"sb\glow.png",473,384 S,0,114427,114427,0.5 C,0,114427,114427,255,88,102 F,0,114427,114927,1,0
Sprite,Background,Centre,"sb\glow.png",473,384 S,0,114446,114446,0.5 C,0,114446,114446,255,88,102 F,0,114446,114946,1,0
Sprite,Background,Centre,"sb\glow.png",473,384 S,0,114465,114465,0.5 C,0,114465,114465,255,88,102 F,0,114465,114965,1,0
Sprite,Background,Centre,"sb\glow.png",473,384 S,0,114484,114484,0.5 C,0,114484,114484,255,88,102 F,0,114484,114984,1,0
Sprite,Background,Centre,"sb\glow.png",475,358 S,0,114502,114502,0.5 C,0,114502,114502,255,88,102 F,0,114502,115002,1,0
Sprite,Background,Centre,"sb\glow.png",477,333 S,0,114521,114521,0.5 C,0,114521,114521,255,88,102 F,0,114521,115021,1,0
Sprite,Background,Centre,"sb\glow.png",478,309 S,0,114540,114540,0.5 C,0,114540,114540,255,88,102 F,0,114540,115040,1,0
Sprite,Background,Centre,"sb\glow.png",480,287 S,0,114559,114559,0.5 C,0,114559,114559,255,88,102 F,0,114559,115059,1,0
Sprite,Background,Centre,"sb\glow.png",481,270 S,0,114577,114577,0.5 C,0,114577,114577,255,88,102 F,0,114577,115077,1,0
Sprite,Background,Centre,"sb\glow.png",482,257 S,0,114596,114596,0.5 C,0,114596,114596,255,88,102 F,0,114596,115096,1,0
Sprite,Background,Centre,"sb\glow.png",483,249 S,0,114615,114615,0.5 C,0,114615,114615,255,88,102 F,0,114615,115115,1,0
Sprite,Background,Centre,"sb\glow.png",483,246 S,0,114634,114634,0.5 C,0,114634,114634,255,88,102 F,0,114634,115134,1,0
Sprite,Background,Centre,"sb\glow.png",489,256 S,0,114652,114652,0.5 C,0,114652,114652,255,0,255 F,0,114652,115152,1,0
Sprite,Background,Centre,"sb\glow.png",494,268 S,0,114671,114671,0.5 C,0,114671,114671,255,0,255 F,0,114671,115171,1,0
Sprite,Background,Centre,"sb\glow.png",498,279 S,0,114690,114690,0.5 C,0,114690,114690,255,0,255 F,0,114690,115190,1,0
Sprite,Background,Centre,"sb\glow.png",501,292 S,0,114709,114709,0.5 C,0,114709,114709,255,0,255 F,0,114709,115209,1,0
Sprite,Background,Centre,"sb\glow.png",502,304 S,0,114727,114727,0.5 C,0,114727,114727,255,0,255 F,0,114727,115227,1,0
Sprite,Background,Centre,"sb\glow.png",502,316 S,0,114746,114746,0.5 C,0,114746,114746,255,0,255 F,0,114746,115246,1,0
Sprite,Background,Centre,"sb\glow.png",500,329 S,0,114765,114765,0.5 C,0,114765,114765,255,0,255 F,0,114765,115265,1,0
Sprite,Background,Centre,"sb\glow.png",497,341 S,0,114784,114784,0.5 C,0,114784,114784,255,0,255 F,0,114784,115284,1,0
Sprite,Background,Centre,"sb\glow.png",493,353 S,0,114802,114802,0.5 C,0,114802,114802,255,0,255 F,0,114802,115302,1,0
Sprite,Background,Centre,"sb\glow.png",488,364 S,0,114821,114821,0.5 C,0,114821,114821,255,0,255 F,0,114821,115321,1,0
Sprite,Background,Centre,"sb\glow.png",481,374 S,0,114840,114840,0.5 C,0,114840,114840,255,0,255 F,0,114840,115340,1,0
Sprite,Background,Centre,"sb\glow.png",473,384 S,0,114859,114859,0.5 C,0,114859,114859,255,0,255 F,0,114859,115359,1,0
Sprite,Background,Centre,"sb\glow.png",444,357 S,0,114877,114877,0.5 C,0,114877,114877,255,0,255 F,0,114877,115377,1,0
Sprite,Background,Centre,"sb\glow.png",418,332 S,0,114896,114896,0.5 C,0,114896,114896,255,0,255 F,0,114896,115396,1,0
Sprite,Background,Centre,"sb\glow.png",401,315 S,0,114915,114915,0.5 C,0,114915,114915,255,0,255 F,0,114915,115415,1,0
Sprite,Background,Centre,"sb\glow.png",394,309 S,0,114934,114934,0.5 C,0,114934,114934,255,0,255 F,0,114934,115434,1,0
Sprite,Background,Centre,"sb\glow.png",388,299 S,0,114952,114952,0.5 C,0,114952,114952,255,0,255 F,0,114952,115452,1,0
Sprite,Background,Centre,"sb\glow.png",383,287 S,0,114971,114971,0.5 C,0,114971,114971,255,0,255 F,0,114971,115471,1,0
Sprite,Background,Centre,"sb\glow.png",379,276 S,0,114990,114990,0.5 C,0,114990,114990,255,0,255 F,0,114990,115490,1,0
Sprite,Background,Centre,"sb\glow.png",376,263 S,0,115009,115009,0.5 C,0,115009,115009,255,0,255 F,0,115009,115509,1,0
Sprite,Background,Centre,"sb\glow.png",375,251 S,0,115027,115027,0.5 C,0,115027,115027,255,0,255 F,0,115027,115527,1,0
Sprite,Background,Centre,"sb\glow.png",375,238 S,0,115046,115046,0.5 C,0,115046,115046,255,0,255 F,0,115046,115546,1,0
Sprite,Background,Centre,"sb\glow.png",377,226 S,0,115065,115065,0.5 C,0,115065,115065,255,0,255 F,0,115065,115565,1,0
Sprite,Background,Centre,"sb\glow.png",379,214 S,0,115084,115084,0.5 C,0,115084,115084,255,0,255 F,0,115084,115584,1,0
Sprite,Background,Centre,"sb\glow.png",383,202 S,0,115102,115102,0.5 C,0,115102,115102,255,0,255 F,0,115102,115602,1,0
Sprite,Background,Centre,"sb\glow.png",389,191 S,0,115121,115121,0.5 C,0,115121,115121,255,0,255 F,0,115121,115621,1,0
Sprite,Background,Centre,"sb\glow.png",395,180 S,0,115140,115140,0.5 C,0,115140,115140,255,0,255 F,0,115140,115640,1,0
Sprite,Background,Centre,"sb\glow.png",403,171 S,0,115159,115159,0.5 C,0,115159,115159,255,0,255 F,0,115159,115659,1,0
Sprite,Background,Centre,"sb\glow.png",450,157 S,0,115177,115177,0.5 C,0,115177,115177,255,0,255 F,0,115177,115677,1,0
Sprite,Background,Centre,"sb\glow.png",493,146 S,0,115196,115196,0.5 C,0,115196,115196,255,0,255 F,0,115196,115696,1,0
Sprite,Background,Centre,"sb\glow.png",522,138 S,0,115215,115215,0.5 C,0,115215,115215,255,0,255 F,0,115215,115715,1,0
Sprite,Background,Centre,"sb\glow.png",533,135 S,0,115234,115234,0.5 C,0,115234,115234,255,0,255 F,0,115234,115734,1,0
Sprite,Background,Centre,"sb\glow.png",507,139 S,0,115252,115252,0.5 C,0,115252,115252,255,128,192 F,0,115252,115752,1,0
Sprite,Background,Centre,"sb\glow.png",480,144 S,0,115271,115271,0.5 C,0,115271,115271,255,128,192 F,0,115271,115771,1,0
Sprite,Background,Centre,"sb\glow.png",455,148 S,0,115290,115290,0.5 C,0,115290,115290,255,128,192 F,0,115290,115790,1,0
Sprite,Background,Centre,"sb\glow.png",434,152 S,0,115309,115309,0.5 C,0,115309,115309,255,128,192 F,0,115309,115809,1,0
Sprite,Background,Centre,"sb\glow.png",416,155 S,0,115327,115327,0.5 C,0,115327,115327,255,128,192 F,0,115327,115827,1,0
Sprite,Background,Centre,"sb\glow.png",402,157 S,0,115346,115346,0.5 C,0,115346,115346,255,128,192 F,0,115346,115846,1,0
Sprite,Background,Centre,"sb\glow.png",394,158 S,0,115365,115365,0.5 C,0,115365,115365,255,128,192 F,0,115365,115865,1,0
Sprite,Background,Centre,"sb\glow.png",391,159 S,0,115384,115384,0.5 C,0,115384,115384,255,128,192 F,0,115384,115884,1,0
Sprite,Background,Centre,"sb\glow.png",418,152 S,0,115402,115402,0.5 C,0,115402,115402,255,128,192 F,0,115402,115902,1,0
Sprite,Background,Centre,"sb\glow.png",446,146 S,0,115421,115421,0.5 C,0,115421,115421,255,128,192 F,0,115421,115921,1,0
Sprite,Background,Centre,"sb\glow.png",471,139 S,0,115440,115440,0.5 C,0,115440,115440,255,128,192 F,0,115440,115940,1,0
Sprite,Background,Centre,"sb\glow.png",494,134 S,0,115459,115459,0.5 C,0,115459,115459,255,128,192 F,0,115459,115959,1,0
Sprite,Background,Centre,"sb\glow.png",512,129 S,0,115477,115477,0.5 C,0,115477,115477,255,128,192 F,0,115477,115977,1,0
Sprite,Background,Centre,"sb\glow.png",526,126 S,0,115496,115496,0.5 C,0,115496,115496,255,128,192 F,0,115496,115996,1,0
Sprite,Background,Centre,"sb\glow.png",535,124 S,0,115515,115515,0.5 C,0,115515,115515,255,128,192 F,0,115515,116015,1,0
Sprite,Background,Centre,"sb\glow.png",538,123 S,0,115534,115534,0.5 C,0,115534,115534,255,128,192 F,0,115534,116034,1,0
Sprite,Background,Centre,"sb\glow.png",513,132 S,0,115552,115552,0.5 C,0,115552,115552,255,0,128 F,0,115552,116052,1,0
Sprite,Background,Centre,"sb\glow.png",488,140 S,0,115571,115571,0.5 C,0,115571,115571,255,0,128 F,0,115571,116071,1,0
Sprite,Background,Centre,"sb\glow.png",464,148 S,0,115590,115590,0.5 C,0,115590,115590,255,0,128 F,0,115590,116090,1,0
Sprite,Background,Centre,"sb\glow.png",444,155 S,0,115609,115609,0.5 C,0,115609,115609,255,0,128 F,0,115609,116109,1,0
Sprite,Background,Centre,"sb\glow.png",427,161 S,0,115627,115627,0.5 C,0,115627,115627,255,0,128 F,0,115627,116127,1,0
Sprite,Background,Centre,"sb\glow.png",414,165 S,0,115646,115646,0.5 C,0,115646,115646,255,0,128 F,0,115646,116146,1,0
Sprite,Background,Centre,"sb\glow.png",406,168 S,0,115665,115665,0.5 C,0,115665,115665,255,0,128 F,0,115665,116165,1,0
Sprite,Background,Centre,"sb\glow.png",403,169 S,0,115684,115684,0.5 C,0,115684,115684,255,0,128 F,0,115684,116184,1,0
Sprite,Background,Centre,"sb\glow.png",419,182 S,0,115702,115702,0.5 C,0,115702,115702,255,0,128 F,0,115702,116202,1,0
Sprite,Background,Centre,"sb\glow.png",436,195 S,0,115721,115721,0.5 C,0,115721,115721,255,0,128 F,0,115721,116221,1,0
Sprite,Background,Centre,"sb\glow.png",451,207 S,0,115740,115740,0.5 C,0,115740,115740,255,0,128 F,0,115740,116240,1,0
Sprite,Background,Centre,"sb\glow.png",465,217 S,0,115759,115759,0.5 C,0,115759,115759,255,0,128 F,0,115759,116259,1,0
Sprite,Background,Centre,"sb\glow.png",476,226 S,0,115777,115777,0.5 C,0,115777,115777,255,0,128 F,0,115777,116277,1,0
Sprite,Background,Centre,"sb\glow.png",484,232 S,0,115796,115796,0.5 C,0,115796,115796,255,0,128 F,0,115796,116296,1,0
Sprite,Background,Centre,"sb\glow.png",489,237 S,0,115815,115815,0.5 C,0,115815,115815,255,0,128 F,0,115815,116315,1,0
Sprite,Background,Centre,"sb\glow.png",491,238 S,0,115834,115834,0.5 C,0,115834,115834,255,0,128 F,0,115834,116334,1,0
Sprite,Background,Centre,"sb\glow.png",484,206 S,0,115852,115852,0.5 C,0,115852,115852,255,88,102 F,0,115852,116352,1,0
Sprite,Background,Centre,"sb\glow.png",476,174 S,0,115871,115871,0.5 C,0,115871,115871,255,88,102 F,0,115871,116371,1,0
Sprite,Background,Centre,"sb\glow.png",469,144 S,0,115890,115890,0.5 C,0,115890,115890,255,88,102 F,0,115890,116390,1,0
Sprite,Background,Centre,"sb\glow.png",463,118 S,0,115909,115909,0.5 C,0,115909,115909,255,88,102 F,0,115909,116409,1,0
Sprite,Background,Centre,"sb\glow.png",458,96 S,0,115927,115927,0.5 C,0,115927,115927,255,88,102 F,0,115927,116427,1,0
Sprite,Background,Centre,"sb\glow.png",454,80 S,0,115946,115946,0.5 C,0,115946,115946,255,88,102 F,0,115946,116446,1,0
Sprite,Background,Centre,"sb\glow.png",452,70 S,0,115965,115965,0.5 C,0,115965,115965,255,88,102 F,0,115965,116465,1,0
Sprite,Background,Centre,"sb\glow.png",451,66 S,0,115984,115984,0.5 C,0,115984,115984,255,88,102 F,0,115984,116484,1,0
Sprite,Background,Centre,"sb\glow.png",457,99 S,0,116002,116002,0.5 C,0,116002,116002,255,88,102 F,0,116002,116502,1,0
Sprite,Background,Centre,"sb\glow.png",463,133 S,0,116021,116021,0.5 C,0,116021,116021,255,88,102 F,0,116021,116521,1,0
Sprite,Background,Centre,"sb\glow.png",468,164 S,0,116040,116040,0.5 C,0,116040,116040,255,88,102 F,0,116040,116540,1,0
Sprite,Background,Centre,"sb\glow.png",473,192 S,0,116059,116059,0.5 C,0,116059,116059,255,88,102 F,0,116059,116559,1,0
Sprite,Background,Centre,"sb\glow.png",477,215 S,0,116077,116077,0.5 C,0,116077,116077,255,88,102 F,0,116077,116577,1,0
Sprite,Background,Centre,"sb\glow.png",480,232 S,0,116096,116096,0.5 C,0,116096,116096,255,88,102 F,0,116096,116596,1,0
Sprite,Background,Centre,"sb\glow.png",482,242 S,0,116115,116115,0.5 C,0,116115,116115,255,88,102 F,0,116115,116615,1,0
Sprite,Background,Centre,"sb\glow.png",483,246 S,0,116134,116134,0.5 C,0,116134,116134,255,88,102 F,0,116134,116634,1,0
Sprite,Background,Centre,"sb\glow.png",478,212 S,0,116152,116152,0.5 C,0,116152,116152,255,0,255 F,0,116152,116652,1,0
Sprite,Background,Centre,"sb\glow.png",474,177 S,0,116171,116171,0.5 C,0,116171,116171,255,0,255 F,0,116171,116671,1,0
Sprite,Background,Centre,"sb\glow.png",469,144 S,0,116190,116190,0.5 C,0,116190,116190,255,0,255 F,0,116190,116690,1,0
Sprite,Background,Centre,"sb\glow.png",466,116 S,0,116209,116209,0.5 C,0,116209,116209,255,0,255 F,0,116209,116709,1,0
Sprite,Background,Centre,"sb\glow.png",462,92 S,0,116227,116227,0.5 C,0,116227,116227,255,0,255 F,0,116227,116727,1,0
Sprite,Background,Centre,"sb\glow.png",460,75 S,0,116246,116246,0.5 C,0,116246,116246,255,0,255 F,0,116246,116746,1,0
Sprite,Background,Centre,"sb\glow.png",459,64 S,0,116265,116265,0.5 C,0,116265,116265,255,0,255 F,0,116265,116765,1,0
Sprite,Background,Centre,"sb\glow.png",458,60 S,0,116284,116284,0.5 C,0,116284,116284,255,0,255 F,0,116284,116784,1,0
Sprite,Background,Centre,"sb\glow.png",416,91 S,0,116302,116302,0.5 C,0,116302,116302,255,0,255 F,0,116302,116802,1,0
Sprite,Background,Centre,"sb\glow.png",373,122 S,0,116321,116321,0.5 C,0,116321,116321,255,0,255 F,0,116321,116821,1,0
Sprite,Background,Centre,"sb\glow.png",333,151 S,0,116340,116340,0.5 C,0,116340,116340,255,0,255 F,0,116340,116840,1,0
Sprite,Background,Centre,"sb\glow.png",298,176 S,0,116359,116359,0.5 C,0,116359,116359,255,0,255 F,0,116359,116859,1,0
Sprite,Background,Centre,"sb\glow.png",270,197 S,0,116377,116377,0.5 C,0,116377,116377,255,0,255 F,0,116377,116877,1,0
Sprite,Background,Centre,"sb\glow.png",248,213 S,0,116396,116396,0.5 C,0,116396,116396,255,0,255 F,0,116396,116896,1,0
Sprite,Background,Centre,"sb\glow.png",235,222 S,0,116415,116415,0.5 C,0,116415,116415,255,0,255 F,0,116415,116915,1,0
Sprite,Background,Centre,"sb\glow.png",230,226 S,0,116434,116434,0.5 C,0,116434,116434,255,0,255 F,0,116434,116934,1,0
Sprite,Background,Centre,"sb\glow.png",225,241 S,0,116452,116452,0.5 C,0,116452,116452,255,128,192 F,0,116452,116952,1,0
Sprite,Background,Centre,"sb\glow.png",222,256 S,0,116471,116471,0.5 C,0,116471,116471,255,128,192 F,0,116471,116971,1,0
Sprite,Background,Centre,"sb\glow.png",220,273 S,0,116490,116490,0.5 C,0,116490,116490,255,128,192 F,0,116490,116990,1,0
Sprite,Background,Centre,"sb\glow.png",219,289 S,0,116509,116509,0.5 C,0,116509,116509,255,128,192 F,0,116509,117009,1,0
Sprite,Background,Centre,"sb\glow.png",220,305 S,0,116527,116527,0.5 C,0,116527,116527,255,128,192 F,0,116527,117027,1,0
Sprite,Background,Centre,"sb\glow.png",223,321 S,0,116546,116546,0.5 C,0,116546,116546,255,128,192 F,0,116546,117046,1,0
Sprite,Background,Centre,"sb\glow.png",227,337 S,0,116565,116565,0.5 C,0,116565,116565,255,128,192 F,0,116565,117065,1,0
Sprite,Background,Centre,"sb\glow.png",232,352 S,0,116584,116584,0.5 C,0,116584,116584,255,128,192 F,0,116584,117084,1,0
Sprite,Background,Centre,"sb\glow.png",288,382 S,0,116602,116602,0.5 C,0,116602,116602,255,128,192 F,0,116602,117102,1,0
Sprite,Background,Centre,"sb\glow.png",337,408 S,0,116621,116621,0.5 C,0,116621,116621,255,128,192 F,0,116621,117121,1,0
Sprite,Background,Centre,"sb\glow.png",371,426 S,0,116640,116640,0.5 C,0,116640,116640,255,128,192 F,0,116640,117140,1,0
Sprite,Background,Centre,"sb\glow.png",384,433 S,0,116659,116659,0.5 C,0,116659,116659,255,128,192 F,0,116659,117159,1,0
Sprite,Background,Centre,"sb\glow.png",392,420 S,0,116677,116677,0.5 C,0,116677,116677,255,128,192 F,0,116677,117177,1,0
Sprite,Background,Centre,"sb\glow.png",398,405 S,0,116696,116696,0.5 C,0,116696,116696,255,128,192 F,0,116696,117196,1,0
Sprite,Background,Centre,"sb\glow.png",402,389 S,0,116715,116715,0.5 C,0,116715,116715,255,128,192 F,0,116715,117215,1,0
Sprite,Background,Centre,"sb\glow.png",405,373 S,0,116734,116734,0.5 C,0,116734,116734,255,128,192 F,0,116734,117234,1,0
Sprite,Background,Centre,"sb\glow.png",405,357 S,0,116752,116752,0.5 C,0,116752,116752,255,128,192 F,0,116752,117252,1,0
Sprite,Background,Centre,"sb\glow.png",403,341 S,0,116771,116771,0.5 C,0,116771,116771,255,128,192 F,0,116771,117271,1,0
Sprite,Background,Centre,"sb\glow.png",400,325 S,0,116790,116790,0.5 C,0,116790,116790,255,128,192 F,0,116790,117290,1,0
Sprite,Background,Centre,"sb\glow.png",394,310 S,0,116809,116809,0.5 C,0,116809,116809,255,128,192 F,0,116809,117309,1,0
Sprite,Background,Centre,"sb\glow.png",334,279 S,0,116827,116827,0.5 C,0,116827,116827,255,128,192 F,0,116827,117327,1,0
Sprite,Background,Centre,"sb\glow.png",280,252 S,0,116846,116846,0.5 C,0,116846,116846,255,128,192 F,0,116846,117346,1,0
Sprite,Background,Centre,"sb\glow.png",244,233 S,0,116865,116865,0.5 C,0,116865,116865,255,128,192 F,0,116865,117365,1,0
Sprite,Background,Centre,"sb\glow.png",230,226 S,0,116884,116884,0.5 C,0,116884,116884,255,128,192 F,0,116884,117384,1,0
Sprite,Background,Centre,"sb\glow.png",243,200 S,0,116902,116902,0.5 C,0,116902,116902,255,128,192 F,0,116902,117402,1,0
Sprite,Background,Centre,"sb\glow.png",256,173 S,0,116921,116921,0.5 C,0,116921,116921,255,128,192 F,0,116921,117421,1,0
Sprite,Background,Centre,"sb\glow.png",268,148 S,0,116940,116940,0.5 C,0,116940,116940,255,128,192 F,0,116940,117440,1,0
Sprite,Background,Centre,"sb\glow.png",279,127 S,0,116959,116959,0.5 C,0,116959,116959,255,128,192 F,0,116959,117459,1,0
Sprite,Background,Centre,"sb\glow.png",288,109 S,0,116977,116977,0.5 C,0,116977,116977,255,128,192 F,0,116977,117477,1,0
Sprite,Background,Centre,"sb\glow.png",294,95 S,0,116996,116996,0.5 C,0,116996,116996,255,128,192 F,0,116996,117496,1,0
Sprite,Background,Centre,"sb\glow.png",299,87 S,0,117015,117015,0.5 C,0,117015,117015,255,128,192 F,0,117015,117515,1,0
Sprite,Background,Centre,"sb\glow.png",300,84 S,0,117034,117034,0.5 C,0,117034,117034,255,128,192 F,0,117034,117534,1,0
Sprite,Background,Centre,"sb\glow.png",315,86 S,0,117052,117052,0.5 C,0,117052,117052,255,0,128 F,0,117052,117552,1,0
Sprite,Background,Centre,"sb\glow.png",331,87 S,0,117071,117071,0.5 C,0,117071,117071,255,0,128 F,0,117071,117571,1,0
Sprite,Background,Centre,"sb\glow.png",348,89 S,0,117090,117090,0.5 C,0,117090,117090,255,0,128 F,0,117090,117590,1,0
Sprite,Background,Centre,"sb\glow.png",364,90 S,0,117109,117109,0.5 C,0,117109,117109,255,0,128 F,0,117109,117609,1,0
Sprite,Background,Centre,"sb\glow.png",380,92 S,0,117127,117127,0.5 C,0,117127,117127,255,0,128 F,0,117127,117627,1,0
Sprite,Background,Centre,"sb\glow.png",396,94 S,0,117146,117146,0.5 C,0,117146,117146,255,0,128 F,0,117146,117646,1,0
Sprite,Background,Centre,"sb\glow.png",412,95 S,0,117165,117165,0.5 C,0,117165,117165,255,0,128 F,0,117165,117665,1,0
Sprite,Background,Centre,"sb\glow.png",428,97 S,0,117184,117184,0.5 C,0,117184,117184,255,0,128 F,0,117184,117684,1,0
Sprite,Background,Centre,"sb\glow.png",439,125 S,0,117202,117202,0.5 C,0,117202,117202,255,0,128 F,0,117202,117702,1,0
Sprite,Background,Centre,"sb\glow.png",449,153 S,0,117221,117221,0.5 C,0,117221,117221,255,0,128 F,0,117221,117721,1,0
Sprite,Background,Centre,"sb\glow.png",459,178 S,0,117240,117240,0.5 C,0,117240,117240,255,0,128 F,0,117240,117740,1,0
Sprite,Background,Centre,"sb\glow.png",467,201 S,0,117259,117259,0.5 C,0,117259,117259,255,0,128 F,0,117259,117759,1,0
Sprite,Background,Centre,"sb\glow.png",474,220 S,0,117277,117277,0.5 C,0,117277,117277,255,0,128 F,0,117277,117777,1,0
Sprite,Background,Centre,"sb\glow.png",479,234 S,0,117296,117296,0.5 C,0,117296,117296,255,0,128 F,0,117296,117796,1,0
Sprite,Background,Centre,"sb\glow.png",482,243 S,0,117315,117315,0.5 C,0,117315,117315,255,0,128 F,0,117315,117815,1,0
Sprite,Background,Centre,"sb\glow.png",483,246 S,0,117334,117334,0.5 C,0,117334,117334,255,0,128 F,0,117334,117834,1,0
Sprite,Background,Centre,"sb\glow.png",468,248 S,0,117352,117352,0.5 C,0,117352,117352,255,0,128 F,0,117352,117852,1,0
Sprite,Background,Centre,"sb\glow.png",452,250 S,0,117371,117371,0.5 C,0,117371,117371,255,0,128 F,0,117371,117871,1,0
Sprite,Background,Centre,"sb\glow.png",435,252 S,0,117390,117390,0.5 C,0,117390,117390,255,0,128 F,0,117390,117890,1,0
Sprite,Background,Centre,"sb\glow.png",419,254 S,0,117409,117409,0.5 C,0,117409,117409,255,0,128 F,0,117409,117909,1,0
Sprite,Background,Centre,"sb\glow.png",403,255 S,0,117427,117427,0.5 C,0,117427,117427,255,0,128 F,0,117427,117927,1,0
Sprite,Background,Centre,"sb\glow.png",387,257 S,0,117446,117446,0.5 C,0,117446,117446,255,0,128 F,0,117446,117946,1,0
Sprite,Background,Centre,"sb\glow.png",371,259 S,0,117465,117465,0.5 C,0,117465,117465,255,0,128 F,0,117465,117965,1,0
Sprite,Background,Centre,"sb\glow.png",355,261 S,0,117484,117484,0.5 C,0,117484,117484,255,0,128 F,0,117484,117984,1,0
Sprite,Background,Centre,"sb\glow.png",315,249 S,0,117502,117502,0.5 C,0,117502,117502,255,0,128 F,0,117502,118002,1,0
Sprite,Background,Centre,"sb\glow.png",276,236 S,0,117521,117521,0.5 C,0,117521,117521,255,0,128 F,0,117521,118021,1,0
Sprite,Background,Centre,"sb\glow.png",240,224 S,0,117540,117540,0.5 C,0,117540,117540,255,0,128 F,0,117540,118040,1,0
Sprite,Background,Centre,"sb\glow.png",208,214 S,0,117559,117559,0.5 C,0,117559,117559,255,0,128 F,0,117559,118059,1,0
Sprite,Background,Centre,"sb\glow.png",182,206 S,0,117577,117577,0.5 C,0,117577,117577,255,0,128 F,0,117577,118077,1,0
Sprite,Background,Centre,"sb\glow.png",163,199 S,0,117596,117596,0.5 C,0,117596,117596,255,0,128 F,0,117596,118096,1,0
Sprite,Background,Centre,"sb\glow.png",150,195 S,0,117615,117615,0.5 C,0,117615,117615,255,0,128 F,0,117615,118115,1,0
Sprite,Background,Centre,"sb\glow.png",146,194 S,0,117634,117634,0.5 C,0,117634,117634,255,0,128 F,0,117634,118134,1,0
Sprite,Background,Centre,"sb\glow.png",134,186 S,0,117652,117652,0.5 C,0,117652,117652,255,88,102 F,0,117652,118152,1,0
Sprite,Background,Centre,"sb\glow.png",121,178 S,0,117671,117671,0.5 C,0,117671,117671,255,88,102 F,0,117671,118171,1,0
Sprite,Background,Centre,"sb\glow.png",113,176 S,0,117690,117690,0.5 C,0,117690,117690,255,88,102 F,0,117690,118190,1,0
Sprite,Background,Centre,"sb\glow.png",116,190 S,0,117709,117709,0.5 C,0,117709,117709,255,88,102 F,0,117709,118209,1,0
Sprite,Background,Centre,"sb\glow.png",118,205 S,0,117727,117727,0.5 C,0,117727,117727,255,88,102 F,0,117727,118227,1,0
Sprite,Background,Centre,"sb\glow.png",121,220 S,0,117746,117746,0.5 C,0,117746,117746,255,88,102 F,0,117746,118246,1,0
Sprite,Background,Centre,"sb\glow.png",124,235 S,0,117765,117765,0.5 C,0,117765,117765,255,88,102 F,0,117765,118265,1,0
Sprite,Background,Centre,"sb\glow.png",127,249 S,0,117784,117784,0.5 C,0,117784,117784,255,88,102 F,0,117784,118284,1,0
Sprite,Background,Centre,"sb\glow.png",130,264 S,0,117802,117802,0.5 C,0,117802,117802,255,88,102 F,0,117802,118302,1,0
Sprite,Background,Centre,"sb\glow.png",133,279 S,0,117821,117821,0.5 C,0,117821,117821,255,88,102 F,0,117821,118321,1,0
Sprite,Background,Centre,"sb\glow.png",135,293 S,0,117840,117840,0.5 C,0,117840,117840,255,88,102 F,0,117840,118340,1,0
Sprite,Background,Centre,"sb\glow.png",138,308 S,0,117859,117859,0.5 C,0,117859,117859,255,88,102 F,0,117859,118359,1,0
Sprite,Background,Centre,"sb\glow.png",190,330 S,0,117877,117877,0.5 C,0,117877,117877,255,88,102 F,0,117877,118377,1,0
Sprite,Background,Centre,"sb\glow.png",236,348 S,0,117896,117896,0.5 C,0,117896,117896,255,88,102 F,0,117896,118396,1,0
Sprite,Background,Centre,"sb\glow.png",268,361 S,0,117915,117915,0.5 C,0,117915,117915,255,88,102 F,0,117915,118415,1,0
Sprite,Background,Centre,"sb\glow.png",280,366 S,0,117934,117934,0.5 C,0,117934,117934,255,88,102 F,0,117934,118434,1,0
Sprite,Background,Centre,"sb\glow.png",290,376 S,0,117952,117952,0.5 C,0,117952,117952,255,88,102 F,0,117952,118452,1,0
Sprite,Background,Centre,"sb\glow.png",301,386 S,0,117971,117971,0.5 C,0,117971,117971,255,88,102 F,0,117971,118471,1,0
Sprite,Background,Centre,"sb\glow.png",310,389 S,0,117990,117990,0.5 C,0,117990,117990,255,88,102 F,0,117990,118490,1,0
Sprite,Background,Centre,"sb\glow.png",313,376 S,0,118009,118009,0.5 C,0,118009,118009,255,88,102 F,0,118009,118509,1,0
Sprite,Background,Centre,"sb\glow.png",316,361 S,0,118027,118027,0.5 C,0,118027,118027,255,88,102 F,0,118027,118527,1,0
Sprite,Background,Centre,"sb\glow.png",320,346 S,0,118046,118046,0.5 C,0,118046,118046,255,88,102 F,0,118046,118546,1,0
Sprite,Background,Centre,"sb\glow.png",323,332 S,0,118065,118065,0.5 C,0,118065,118065,255,88,102 F,0,118065,118565,1,0
Sprite,Background,Centre,"sb\glow.png",326,317 S,0,118084,118084,0.5 C,0,118084,118084,255,88,102 F,0,118084,118584,1,0
Sprite,Background,Centre,"sb\glow.png",329,302 S,0,118102,118102,0.5 C,0,118102,118102,255,88,102 F,0,118102,118602,1,0
Sprite,Background,Centre,"sb\glow.png",333,288 S,0,118121,118121,0.5 C,0,118121,118121,255,88,102 F,0,118121,118621,1,0
Sprite,Background,Centre,"sb\glow.png",336,273 S,0,118140,118140,0.5 C,0,118140,118140,255,88,102 F,0,118140,118640,1,0
Sprite,Background,Centre,"sb\glow.png",339,258 S,0,118159,118159,0.5 C,0,118159,118159,255,88,102 F,0,118159,118659,1,0
Sprite,Background,Centre,"sb\glow.png",391,213 S,0,118177,118177,0.5 C,0,118177,118177,255,88,102 F,0,118177,118677,1,0
Sprite,Background,Centre,"sb\glow.png",439,172 S,0,118196,118196,0.5 C,0,118196,118196,255,88,102 F,0,118196,118696,1,0
Sprite,Background,Centre,"sb\glow.png",471,144 S,0,118215,118215,0.5 C,0,118215,118215,255,88,102 F,0,118215,118715,1,0
Sprite,Background,Centre,"sb\glow.png",483,134 S,0,118234,118234,0.5 C,0,118234,118234,255,88,102 F,0,118234,118734,1,0
Sprite,Background,Centre,"sb\glow.png",483,134 S,0,118252,118252,0.5 C,0,118252,118252,255,0,255 F,0,118252,118752,1,0
Sprite,Background,Centre,"sb\glow.png",483,134 S,0,118271,118271,0.5 C,0,118271,118271,255,0,255 F,0,118271,118771,1,0
Sprite,Background,Centre,"sb\glow.png",483,134 S,0,118290,118290,0.5 C,0,118290,118290,255,0,255 F,0,118290,118790,1,0
Sprite,Background,Centre,"sb\glow.png",483,134 S,0,118309,118309,0.5 C,0,118309,118309,255,0,255 F,0,118309,118809,1,0
Sprite,Background,Centre,"sb\glow.png",483,134 S,0,118327,118327,0.5 C,0,118327,118327,255,0,255 F,0,118327,118827,1,0
Sprite,Background,Centre,"sb\glow.png",483,134 S,0,118346,118346,0.5 C,0,118346,118346,255,0,255 F,0,118346,118846,1,0
Sprite,Background,Centre,"sb\glow.png",483,134 S,0,118365,118365,0.5 C,0,118365,118365,255,0,255 F,0,118365,118865,1,0
Sprite,Background,Centre,"sb\glow.png",483,134 S,0,118384,118384,0.5 C,0,118384,118384,255,0,255 F,0,118384,118884,1,0
Sprite,Background,Centre,"sb\glow.png",465,125 S,0,118402,118402,0.5 C,0,118402,118402,255,0,255 F,0,118402,118902,1,0
Sprite,Background,Centre,"sb\glow.png",446,116 S,0,118421,118421,0.5 C,0,118421,118421,255,0,255 F,0,118421,118921,1,0
Sprite,Background,Centre,"sb\glow.png",428,108 S,0,118440,118440,0.5 C,0,118440,118440,255,0,255 F,0,118440,118940,1,0
Sprite,Background,Centre,"sb\glow.png",413,100 S,0,118459,118459,0.5 C,0,118459,118459,255,0,255 F,0,118459,118959,1,0
Sprite,Background,Centre,"sb\glow.png",400,94 S,0,118477,118477,0.5 C,0,118477,118477,255,0,255 F,0,118477,118977,1,0
Sprite,Background,Centre,"sb\glow.png",391,90 S,0,118496,118496,0.5 C,0,118496,118496,255,0,255 F,0,118496,118996,1,0
Sprite,Background,Centre,"sb\glow.png",385,87 S,0,118515,118515,0.5 C,0,118515,118515,255,0,255 F,0,118515,119015,1,0
Sprite,Background,Centre,"sb\glow.png",383,86 S,0,118534,118534,0.5 C,0,118534,118534,255,0,255 F,0,118534,119034,1,0
Sprite,Background,Centre,"sb\glow.png",391,112 S,0,118552,118552,0.5 C,0,118552,118552,255,0,255 F,0,118552,119052,1,0
Sprite,Background,Centre,"sb\glow.png",399,138 S,0,118571,118571,0.5 C,0,118571,118571,255,0,255 F,0,118571,119071,1,0
Sprite,Background,Centre,"sb\glow.png",407,163 S,0,118590,118590,0.5 C,0,118590,118590,255,0,255 F,0,118590,119090,1,0
Sprite,Background,Centre,"sb\glow.png",414,184 S,0,118609,118609,0.5 C,0,118609,118609,255,0,255 F,0,118609,119109,1,0
Sprite,Background,Centre,"sb\glow.png",419,202 S,0,118627,118627,0.5 C,0,118627,118627,255,0,255 F,0,118627,119127,1,0
Sprite,Background,Centre,"sb\glow.png",423,215 S,0,118646,118646,0.5 C,0,118646,118646,255,0,255 F,0,118646,119146,1,0
Sprite,Background,Centre,"sb\glow.png",426,223 S,0,118665,118665,0.5 C,0,118665,118665,255,0,255 F,0,118665,119165,1,0
Sprite,Background,Centre,"sb\glow.png",427,226 S,0,118684,118684,0.5 C,0,118684,118684,255,0,255 F,0,118684,119184,1,0
Sprite,Background,Centre,"sb\glow.png",407,214 S,0,118702,118702,0.5 C,0,118702,118702,255,0,255 F,0,118702,119202,1,0
Sprite,Background,Centre,"sb\glow.png",387,201 S,0,118721,118721,0.5 C,0,118721,118721,255,0,255 F,0,118721,119221,1,0
Sprite,Background,Centre,"sb\glow.png",368,189 S,0,118740,118740,0.5 C,0,118740,118740,255,0,255 F,0,118740,119240,1,0
Sprite,Background,Centre,"sb\glow.png",351,179 S,0,118759,118759,0.5 C,0,118759,118759,255,0,255 F,0,118759,119259,1,0
Sprite,Background,Centre,"sb\glow.png",338,171 S,0,118777,118777,0.5 C,0,118777,118777,255,0,255 F,0,118777,119277,1,0
Sprite,Background,Centre,"sb\glow.png",328,164 S,0,118796,118796,0.5 C,0,118796,118796,255,0,255 F,0,118796,119296,1,0
Sprite,Background,Centre,"sb\glow.png",321,160 S,0,118815,118815,0.5 C,0,118815,118815,255,0,255 F,0,118815,119315,1,0
Sprite,Background,Centre,"sb\glow.png",319,159 S,0,118834,118834,0.5 C,0,118834,118834,255,0,255 F,0,118834,119334,1,0
Sprite,Background,Centre,"sb\glow.png",313,146 S,0,118852,118852,0.5 C,0,118852,118852,255,128,192 F,0,118852,119352,1,0
Sprite,Background,Centre,"sb\glow.png",309,132 S,0,118871,118871,0.5 C,0,118871,118871,255,128,192 F,0,118871,119371,1,0
Sprite,Background,Centre,"sb\glow.png",306,121 S,0,118890,118890,0.5 C,0,118890,118890,255,128,192 F,0,118890,119390,1,0
Sprite,Background,Centre,"sb\glow.png",297,132 S,0,118909,118909,0.5 C,0,118909,118909,255,128,192 F,0,118909,119409,1,0
Sprite,Background,Centre,"sb\glow.png",291,146 S,0,118927,118927,0.5 C,0,118927,118927,255,128,192 F,0,118927,119427,1,0
Sprite,Background,Centre,"sb\glow.png",288,161 S,0,118946,118946,0.5 C,0,118946,118946,255,128,192 F,0,118946,119446,1,0
Sprite,Background,Centre,"sb\glow.png",286,175 S,0,118965,118965,0.5 C,0,118965,118965,255,128,192 F,0,118965,119465,1,0
Sprite,Background,Centre,"sb\glow.png",285,190 S,0,118984,118984,0.5 C,0,118984,118984,255,128,192 F,0,118984,119484,1,0
Sprite,Background,Centre,"sb\glow.png",286,205 S,0,119002,119002,0.5 C,0,119002,119002,255,128,192 F,0,119002,119502,1,0
Sprite,Background,Centre,"sb\glow.png",288,220 S,0,119021,119021,0.5 C,0,119021,119021,255,128,192 F,0,119021,119521,1,0
Sprite,Background,Centre,"sb\glow.png",291,235 S,0,119040,119040,0.5 C,0,119040,119040,255,128,192 F,0,119040,119540,1,0
Sprite,Background,Centre,"sb\glow.png",296,249 S,0,119059,119059,0.5 C,0,119059,119059,255,128,192 F,0,119059,119559,1,0
Sprite,Background,Centre,"sb\glow.png",338,299 S,0,119077,119077,0.5 C,0,119077,119077,255,128,192 F,0,119077,119577,1,0
Sprite,Background,Centre,"sb\glow.png",376,343 S,0,119096,119096,0.5 C,0,119096,119096,255,128,192 F,0,119096,119596,1,0
Sprite,Background,Centre,"sb\glow.png",401,374 S,0,119115,119115,0.5 C,0,119115,119115,255,128,192 F,0,119115,119615,1,0
Sprite,Background,Centre,"sb\glow.png",411,385 S,0,119134,119134,0.5 C,0,119134,119134,255,128,192 F,0,119134,119634,1,0
Sprite,Background,Centre,"sb\glow.png",425,386 S,0,119152,119152,0.5 C,0,119152,119152,255,128,192 F,0,119152,119652,1,0
Sprite,Background,Centre,"sb\glow.png",440,389 S,0,119171,119171,0.5 C,0,119171,119171,255,128,192 F,0,119171,119671,1,0
Sprite,Background,Centre,"sb\glow.png",450,392 S,0,119190,119190,0.5 C,0,119190,119190,255,128,192 F,0,119190,119690,1,0
Sprite,Background,Centre,"sb\glow.png",444,379 S,0,119209,119209,0.5 C,0,119209,119209,255,128,192 F,0,119209,119709,1,0
Sprite,Background,Centre,"sb\glow.png",435,367 S,0,119227,119227,0.5 C,0,119227,119227,255,128,192 F,0,119227,119727,1,0
Sprite,Background,Centre,"sb\glow.png",425,357 S,0,119246,119246,0.5 C,0,119246,119246,255,128,192 F,0,119246,119746,1,0
Sprite,Background,Centre,"sb\glow.png",413,348 S,0,119265,119265,0.5 C,0,119265,119265,255,128,192 F,0,119265,119765,1,0
Sprite,Background,Centre,"sb\glow.png",400,340 S,0,119284,119284,0.5 C,0,119284,119284,255,128,192 F,0,119284,119784,1,0
Sprite,Background,Centre,"sb\glow.png",387,333 S,0,119302,119302,0.5 C,0,119302,119302,255,128,192 F,0,119302,119802,1,0
Sprite,Background,Centre,"sb\glow.png",373,327 S,0,119321,119321,0.5 C,0,119321,119321,255,128,192 F,0,119321,119821,1,0
Sprite,Background,Centre,"sb\glow.png",359,322 S,0,119340,119340,0.5 C,0,119340,119340,255,128,192 F,0,119340,119840,1,0
Sprite,Background,Centre,"sb\glow.png",344,319 S,0,119359,119359,0.5 C,0,119359,119359,255,128,192 F,0,119359,119859,1,0
Sprite,Background,Centre,"sb\glow.png",306,326 S,0,119377,119377,0.5 C,0,119377,119377,255,128,192 F,0,119377,119877,1,0
Sprite,Background,Centre,"sb\glow.png",273,332 S,0,119396,119396,0.5 C,0,119396,119396,255,128,192 F,0,119396,119896,1,0
Sprite,Background,Centre,"sb\glow.png",251,336 S,0,119415,119415,0.5 C,0,119415,119415,255,128,192 F,0,119415,119915,1,0
Sprite,Background,Centre,"sb\glow.png",242,338 S,0,119434,119434,0.5 C,0,119434,119434,255,128,192 F,0,119434,119934,1,0
Sprite,Background,Centre,"sb\glow.png",242,338 S,0,119452,119452,0.5 C,0,119452,119452,255,0,128 F,0,119452,119952,1,0
Sprite,Background,Centre,"sb\glow.png",242,338 S,0,119471,119471,0.5 C,0,119471,119471,255,0,128 F,0,119471,119971,1,0
Sprite,Background,Centre,"sb\glow.png",242,338 S,0,119490,119490,0.5 C,0,119490,119490,255,0,128 F,0,119490,119990,1,0
Sprite,Background,Centre,"sb\glow.png",242,338 S,0,119509,119509,0.5 C,0,119509,119509,255,0,128 F,0,119509,120009,1,0
Sprite,Background,Centre,"sb\glow.png",242,338 S,0,119527,119527,0.5 C,0,119527,119527,255,0,128 F,0,119527,120027,1,0
Sprite,Background,Centre,"sb\glow.png",242,338 S,0,119546,119546,0.5 C,0,119546,119546,255,0,128 F,0,119546,120046,1,0
Sprite,Background,Centre,"sb\glow.png",242,338 S,0,119565,119565,0.5 C,0,119565,119565,255,0,128 F,0,119565,120065,1,0
Sprite,Background,Centre,"sb\glow.png",242,338 S,0,119584,119584,0.5 C,0,119584,119584,255,0,128 F,0,119584,120084,1,0
Sprite,Background,Centre,"sb\glow.png",229,323 S,0,119602,119602,0.5 C,0,119602,119602,255,0,128 F,0,119602,120102,1,0
Sprite,Background,Centre,"sb\glow.png",216,308 S,0,119621,119621,0.5 C,0,119621,119621,255,0,128 F,0,119621,120121,1,0
Sprite,Background,Centre,"sb\glow.png",203,294 S,0,119640,119640,0.5 C,0,119640,119640,255,0,128 F,0,119640,120140,1,0
Sprite,Background,Centre,"sb\glow.png",192,281 S,0,119659,119659,0.5 C,0,119659,119659,255,0,128 F,0,119659,120159,1,0
Sprite,Background,Centre,"sb\glow.png",183,271 S,0,119677,119677,0.5 C,0,119677,119677,255,0,128 F,0,119677,120177,1,0
Sprite,Background,Centre,"sb\glow.png",177,263 S,0,119696,119696,0.5 C,0,119696,119696,255,0,128 F,0,119696,120196,1,0
Sprite,Background,Centre,"sb\glow.png",173,259 S,0,119715,119715,0.5 C,0,119715,119715,255,0,128 F,0,119715,120215,1,0
Sprite,Background,Centre,"sb\glow.png",171,257 S,0,119734,119734,0.5 C,0,119734,119734,255,0,128 F,0,119734,120234,1,0
Sprite,Background,Centre,"sb\glow.png",154,266 S,0,119752,119752,0.5 C,0,119752,119752,255,0,128 F,0,119752,120252,1,0
Sprite,Background,Centre,"sb\glow.png",136,274 S,0,119771,119771,0.5 C,0,119771,119771,255,0,128 F,0,119771,120271,1,0
Sprite,Background,Centre,"sb\glow.png",120,282 S,0,119790,119790,0.5 C,0,119790,119790,255,0,128 F,0,119790,120290,1,0
Sprite,Background,Centre,"sb\glow.png",105,289 S,0,119809,119809,0.5 C,0,119809,119809,255,0,128 F,0,119809,120309,1,0
Sprite,Background,Centre,"sb\glow.png",93,295 S,0,119827,119827,0.5 C,0,119827,119827,255,0,128 F,0,119827,120327,1,0
Sprite,Background,Centre,"sb\glow.png",85,299 S,0,119846,119846,0.5 C,0,119846,119846,255,0,128 F,0,119846,120346,1,0
Sprite,Background,Centre,"sb\glow.png",79,302 S,0,119865,119865,0.5 C,0,119865,119865,255,0,128 F,0,119865,120365,1,0
Sprite,Background,Centre,"sb\glow.png",77,303 S,0,119884,119884,0.5 C,0,119884,119884,255,0,128 F,0,119884,120384,1,0
Sprite,Background,Centre,"sb\glow.png",107,309 S,0,119902,119902,0.5 C,0,119902,119902,255,0,128 F,0,119902,120402,1,0
Sprite,Background,Centre,"sb\glow.png",139,316 S,0,119921,119921,0.5 C,0,119921,119921,255,0,128 F,0,119921,120421,1,0
Sprite,Background,Centre,"sb\glow.png",167,322 S,0,119940,119940,0.5 C,0,119940,119940,255,0,128 F,0,119940,120440,1,0
Sprite,Background,Centre,"sb\glow.png",192,327 S,0,119959,119959,0.5 C,0,119959,119959,255,0,128 F,0,119959,120459,1,0
Sprite,Background,Centre,"sb\glow.png",213,332 S,0,119977,119977,0.5 C,0,119977,119977,255,0,128 F,0,119977,120477,1,0
Sprite,Background,Centre,"sb\glow.png",229,335 S,0,119996,119996,0.5 C,0,119996,119996,255,0,128 F,0,119996,120496,1,0
Sprite,Background,Centre,"sb\glow.png",238,337 S,0,120015,120015,0.5 C,0,120015,120015,255,0,128 F,0,120015,120515,1,0
Sprite,Background,Centre,"sb\glow.png",242,338 S,0,120034,120034,0.5 C,0,120034,120034,255,0,128 F,0,120034,120534,1,0
Sprite,Background,Centre,"sb\glow.png",252,328 S,0,120052,120052,0.5 C,0,120052,120052,255,88,102 F,0,120052,120552,1,0
Sprite,Background,Centre,"sb\glow.png",261,316 S,0,120071,120071,0.5 C,0,120071,120071,255,88,102 F,0,120071,120571,1,0
Sprite,Background,Centre,"sb\glow.png",268,303 S,0,120090,120090,0.5 C,0,120090,120090,255,88,102 F,0,120090,120590,1,0
Sprite,Background,Centre,"sb\glow.png",274,289 S,0,120109,120109,0.5 C,0,120109,120109,255,88,102 F,0,120109,120609,1,0
Sprite,Background,Centre,"sb\glow.png",277,274 S,0,120127,120127,0.5 C,0,120127,120127,255,88,102 F,0,120127,120627,1,0
Sprite,Background,Centre,"sb\glow.png",278,259 S,0,120146,120146,0.5 C,0,120146,120146,255,88,102 F,0,120146,120646,1,0
Sprite,Background,Centre,"sb\glow.png",278,244 S,0,120165,120165,0.5 C,0,120165,120165,255,88,102 F,0,120165,120665,1,0
Sprite,Background,Centre,"sb\glow.png",275,230 S,0,120184,120184,0.5 C,0,120184,120184,255,88,102 F,0,120184,120684,1,0
Sprite,Background,Centre,"sb\glow.png",270,215 S,0,120202,120202,0.5 C,0,120202,120202,255,88,102 F,0,120202,120702,1,0
Sprite,Background,Centre,"sb\glow.png",264,202 S,0,120221,120221,0.5 C,0,120221,120221,255,88,102 F,0,120221,120721,1,0
Sprite,Background,Centre,"sb\glow.png",255,190 S,0,120240,120240,0.5 C,0,120240,120240,255,88,102 F,0,120240,120740,1,0
Sprite,Background,Centre,"sb\glow.png",245,179 S,0,120259,120259,0.5 C,0,120259,120259,255,88,102 F,0,120259,120759,1,0
Sprite,Background,Centre,"sb\glow.png",195,148 S,0,120277,120277,0.5 C,0,120277,120277,255,88,102 F,0,120277,120777,1,0
Sprite,Background,Centre,"sb\glow.png",149,121 S,0,120296,120296,0.5 C,0,120296,120296,255,88,102 F,0,120296,120796,1,0
Sprite,Background,Centre,"sb\glow.png",119,102 S,0,120315,120315,0.5 C,0,120315,120315,255,88,102 F,0,120315,120815,1,0
Sprite,Background,Centre,"sb\glow.png",107,95 S,0,120334,120334,0.5 C,0,120334,120334,255,88,102 F,0,120334,120834,1,0
Sprite,Background,Centre,"sb\glow.png",111,109 S,0,120352,120352,0.5 C,0,120352,120352,255,88,102 F,0,120352,120852,1,0
Sprite,Background,Centre,"sb\glow.png",117,122 S,0,120371,120371,0.5 C,0,120371,120371,255,88,102 F,0,120371,120871,1,0
Sprite,Background,Centre,"sb\glow.png",125,135 S,0,120390,120390,0.5 C,0,120390,120390,255,88,102 F,0,120390,120890,1,0
Sprite,Background,Centre,"sb\glow.png",134,147 S,0,120409,120409,0.5 C,0,120409,120409,255,88,102 F,0,120409,120909,1,0
Sprite,Background,Centre,"sb\glow.png",145,157 S,0,120427,120427,0.5 C,0,120427,120427,255,88,102 F,0,120427,120927,1,0
Sprite,Background,Centre,"sb\glow.png",157,166 S,0,120446,120446,0.5 C,0,120446,120446,255,88,102 F,0,120446,120946,1,0
Sprite,Background,Centre,"sb\glow.png",170,172 S,0,120465,120465,0.5 C,0,120465,120465,255,88,102 F,0,120465,120965,1,0
Sprite,Background,Centre,"sb\glow.png",184,178 S,0,120484,120484,0.5 C,0,120484,120484,255,88,102 F,0,120484,120984,1,0
Sprite,Background,Centre,"sb\glow.png",199,181 S,0,120502,120502,0.5 C,0,120502,120502,255,88,102 F,0,120502,121002,1,0
Sprite,Background,Centre,"sb\glow.png",214,182 S,0,120521,120521,0.5 C,0,120521,120521,255,88,102 F,0,120521,121021,1,0
Sprite,Background,Centre,"sb\glow.png",229,180 S,0,120540,120540,0.5 C,0,120540,120540,255,88,102 F,0,120540,121040,1,0
Sprite,Background,Centre,"sb\glow.png",244,177 S,0,120559,120559,0.5 C,0,120559,120559,255,88,102 F,0,120559,121059,1,0
Sprite,Background,Centre,"sb\glow.png",233,139 S,0,120577,120577,0.5 C,0,120577,120577,255,88,102 F,0,120577,121077,1,0
Sprite,Background,Centre,"sb\glow.png",223,104 S,0,120596,120596,0.5 C,0,120596,120596,255,88,102 F,0,120596,121096,1,0
Sprite,Background,Centre,"sb\glow.png",216,81 S,0,120615,120615,0.5 C,0,120615,120615,255,88,102 F,0,120615,121115,1,0
Sprite,Background,Centre,"sb\glow.png",213,72 S,0,120634,120634,0.5 C,0,120634,120634,255,88,102 F,0,120634,121134,1,0
Sprite,Background,Centre,"sb\glow.png",213,72 S,0,120652,120652,0.5 C,0,120652,120652,255,0,255 F,0,120652,121152,1,0
Sprite,Background,Centre,"sb\glow.png",213,72 S,0,120671,120671,0.5 C,0,120671,120671,255,0,255 F,0,120671,121171,1,0
Sprite,Background,Centre,"sb\glow.png",213,72 S,0,120690,120690,0.5 C,0,120690,120690,255,0,255 F,0,120690,121190,1,0
Sprite,Background,Centre,"sb\glow.png",213,72 S,0,120709,120709,0.5 C,0,120709,120709,255,0,255 F,0,120709,121209,1,0
Sprite,Background,Centre,"sb\glow.png",213,72 S,0,120727,120727,0.5 C,0,120727,120727,255,0,255 F,0,120727,121227,1,0
Sprite,Background,Centre,"sb\glow.png",213,72 S,0,120746,120746,0.5 C,0,120746,120746,255,0,255 F,0,120746,121246,1,0
Sprite,Background,Centre,"sb\glow.png",213,72 S,0,120765,120765,0.5 C,0,120765,120765,255,0,255 F,0,120765,121265,1,0
Sprite,Background,Centre,"sb\glow.png",213,72 S,0,120784,120784,0.5 C,0,120784,120784,255,0,255 F,0,120784,121284,1,0
Sprite,Background,Centre,"sb\glow.png",240,89 S,0,120802,120802,0.5 C,0,120802,120802,255,0,255 F,0,120802,121302,1,0
Sprite,Background,Centre,"sb\glow.png",267,106 S,0,120821,120821,0.5 C,0,120821,120821,255,0,255 F,0,120821,121321,1,0
Sprite,Background,Centre,"sb\glow.png",292,122 S,0,120840,120840,0.5 C,0,120840,120840,255,0,255 F,0,120840,121340,1,0
Sprite,Background,Centre,"sb\glow.png",314,136 S,0,120859,120859,0.5 C,0,120859,120859,255,0,255 F,0,120859,121359,1,0
Sprite,Background,Centre,"sb\glow.png",332,148 S,0,120877,120877,0.5 C,0,120877,120877,255,0,255 F,0,120877,121377,1,0
Sprite,Background,Centre,"sb\glow.png",345,157 S,0,120896,120896,0.5 C,0,120896,120896,255,0,255 F,0,120896,121396,1,0
Sprite,Background,Centre,"sb\glow.png",354,162 S,0,120915,120915,0.5 C,0,120915,120915,255,0,255 F,0,120915,121415,1,0
Sprite,Background,Centre,"sb\glow.png",357,164 S,0,120934,120934,0.5 C,0,120934,120934,255,0,255 F,0,120934,121434,1,0
Sprite,Background,Centre,"sb\glow.png",352,145 S,0,120952,120952,0.5 C,0,120952,120952,255,0,255 F,0,120952,121452,1,0
Sprite,Background,Centre,"sb\glow.png",346,125 S,0,120971,120971,0.5 C,0,120971,120971,255,0,255 F,0,120971,121471,1,0
Sprite,Background,Centre,"sb\glow.png",341,107 S,0,120990,120990,0.5 C,0,120990,120990,255,0,255 F,0,120990,121490,1,0
Sprite,Background,Centre,"sb\glow.png",337,91 S,0,121009,121009,0.5 C,0,121009,121009,255,0,255 F,0,121009,121509,1,0
Sprite,Background,Centre,"sb\glow.png",333,77 S,0,121027,121027,0.5 C,0,121027,121027,255,0,255 F,0,121027,121527,1,0
Sprite,Background,Centre,"sb\glow.png",330,67 S,0,121046,121046,0.5 C,0,121046,121046,255,0,255 F,0,121046,121546,1,0
Sprite,Background,Centre,"sb\glow.png",329,61 S,0,121065,121065,0.5 C,0,121065,121065,255,0,255 F,0,121065,121565,1,0
Sprite,Background,Centre,"sb\glow.png",328,59 S,0,121084,121084,0.5 C,0,121084,121084,255,0,255 F,0,121084,121584,1,0
Sprite,Background,Centre,"sb\glow.png",312,81 S,0,121102,121102,0.5 C,0,121102,121102,255,0,255 F,0,121102,121602,1,0
Sprite,Background,Centre,"sb\glow.png",297,103 S,0,121121,121121,0.5 C,0,121121,121121,255,0,255 F,0,121121,121621,1,0
Sprite,Background,Centre,"sb\glow.png",282,124 S,0,121140,121140,0.5 C,0,121140,121140,255,0,255 F,0,121140,121640,1,0
Sprite,Background,Centre,"sb\glow.png",269,142 S,0,121159,121159,0.5 C,0,121159,121159,255,0,255 F,0,121159,121659,1,0
Sprite,Background,Centre,"sb\glow.png",259,156 S,0,121177,121177,0.5 C,0,121177,121177,255,0,255 F,0,121177,121677,1,0
Sprite,Background,Centre,"sb\glow.png",251,168 S,0,121196,121196,0.5 C,0,121196,121196,255,0,255 F,0,121196,121696,1,0
Sprite,Background,Centre,"sb\glow.png",246,174 S,0,121215,121215,0.5 C,0,121215,121215,255,0,255 F,0,121215,121715,1,0
Sprite,Background,Centre,"sb\glow.png",244,177 S,0,121234,121234,0.5 C,0,121234,121234,255,0,255 F,0,121234,121734,1,0
Sprite,Background,Centre,"sb\glow.png",256,185 S,0,121252,121252,0.5 C,0,121252,121252,255,128,192 F,0,121252,121752,1,0
Sprite,Background,Centre,"sb\glow.png",267,195 S,0,121271,121271,0.5 C,0,121271,121271,255,128,192 F,0,121271,121771,1,0
Sprite,Background,Centre,"sb\glow.png",277,206 S,0,121290,121290,0.5 C,0,121290,121290,255,128,192 F,0,121290,121790,1,0
Sprite,Background,Centre,"sb\glow.png",284,219 S,0,121309,121309,0.5 C,0,121309,121309,255,128,192 F,0,121309,121809,1,0
Sprite,Background,Centre,"sb\glow.png",290,233 S,0,121327,121327,0.5 C,0,121327,121327,255,128,192 F,0,121327,121827,1,0
Sprite,Background,Centre,"sb\glow.png",293,247 S,0,121346,121346,0.5 C,0,121346,121346,255,128,192 F,0,121346,121846,1,0
Sprite,Background,Centre,"sb\glow.png",294,262 S,0,121365,121365,0.5 C,0,121365,121365,255,128,192 F,0,121365,121865,1,0
Sprite,Background,Centre,"sb\glow.png",293,277 S,0,121384,121384,0.5 C,0,121384,121384,255,128,192 F,0,121384,121884,1,0
Sprite,Background,Centre,"sb\glow.png",290,292 S,0,121402,121402,0.5 C,0,121402,121402,255,128,192 F,0,121402,121902,1,0
Sprite,Background,Centre,"sb\glow.png",285,306 S,0,121421,121421,0.5 C,0,121421,121421,255,128,192 F,0,121421,121921,1,0
Sprite,Background,Centre,"sb\glow.png",277,318 S,0,121440,121440,0.5 C,0,121440,121440,255,128,192 F,0,121440,121940,1,0
Sprite,Background,Centre,"sb\glow.png",267,330 S,0,121459,121459,0.5 C,0,121459,121459,255,128,192 F,0,121459,121959,1,0
Sprite,Background,Centre,"sb\glow.png",243,306 S,0,121477,121477,0.5 C,0,121477,121477,255,128,192 F,0,121477,121977,1,0
Sprite,Background,Centre,"sb\glow.png",221,284 S,0,121496,121496,0.5 C,0,121496,121496,255,128,192 F,0,121496,121996,1,0
Sprite,Background,Centre,"sb\glow.png",207,269 S,0,121515,121515,0.5 C,0,121515,121515,255,128,192 F,0,121515,122015,1,0
Sprite,Background,Centre,"sb\glow.png",201,263 S,0,121534,121534,0.5 C,0,121534,121534,255,128,192 F,0,121534,122034,1,0
Sprite,Background,Centre,"sb\glow.png",187,263 S,0,121552,121552,0.5 C,0,121552,121552,255,128,192 F,0,121552,122052,1,0
Sprite,Background,Centre,"sb\glow.png",172,263 S,0,121571,121571,0.5 C,0,121571,121571,255,128,192 F,0,121571,122071,1,0
Sprite,Background,Centre,"sb\glow.png",185,263 S,0,121590,121590,0.5 C,0,121590,121590,255,128,192 F,0,121590,122090,1,0
Sprite,Background,Centre,"sb\glow.png",200,263 S,0,121609,121609,0.5 C,0,121609,121609,255,128,192 F,0,121609,122109,1,0
Sprite,Background,Centre,"sb\glow.png",187,263 S,0,121627,121627,0.5 C,0,121627,121627,255,128,192 F,0,121627,122127,1,0
Sprite,Background,Centre,"sb\glow.png",172,263 S,0,121646,121646,0.5 C,0,121646,121646,255,128,192 F,0,121646,122146,1,0
Sprite,Background,Centre,"sb\glow.png",185,263 S,0,121665,121665,0.5 C,0,121665,121665,255,128,192 F,0,121665,122165,1,0
Sprite,Background,Centre,"sb\glow.png",200,263 S,0,121684,121684,0.5 C,0,121684,121684,255,128,192 F,0,121684,122184,1,0
Sprite,Background,Centre,"sb\glow.png",187,263 S,0,121702,121702,0.5 C,0,121702,121702,255,128,192 F,0,121702,122202,1,0
Sprite,Background,Centre,"sb\glow.png",172,263 S,0,121721,121721,0.5 C,0,121721,121721,255,128,192 F,0,121721,122221,1,0
Sprite,Background,Centre,"sb\glow.png",185,263 S,0,121740,121740,0.5 C,0,121740,121740,255,128,192 F,0,121740,122240,1,0
Sprite,Background,Centre,"sb\glow.png",200,263 S,0,121759,121759,0.5 C,0,121759,121759,255,128,192 F,0,121759,122259,1,0
Sprite,Background,Centre,"sb\glow.png",225,288 S,0,121777,121777,0.5 C,0,121777,121777,255,128,192 F,0,121777,122277,1,0
Sprite,Background,Centre,"sb\glow.png",246,310 S,0,121796,121796,0.5 C,0,121796,121796,255,128,192 F,0,121796,122296,1,0
Sprite,Background,Centre,"sb\glow.png",261,325 S,0,121815,121815,0.5 C,0,121815,121815,255,128,192 F,0,121815,122315,1,0
Sprite,Background,Centre,"sb\glow.png",266,331 S,0,121834,121834,0.5 C,0,121834,121834,255,128,192 F,0,121834,122334,1,0
Sprite,Background,Centre,"sb\glow.png",281,328 S,0,121852,121852,0.5 C,0,121852,121852,255,128,192 F,0,121852,122352,1,0
Sprite,Background,Centre,"sb\glow.png",297,324 S,0,121871,121871,0.5 C,0,121871,121871,255,128,192 F,0,121871,122371,1,0
Sprite,Background,Centre,"sb\glow.png",312,318 S,0,121890,121890,0.5 C,0,121890,121890,255,128,192 F,0,121890,122390,1,0
Sprite,Background,Centre,"sb\glow.png",324,320 S,0,121909,121909,0.5 C,0,121909,121909,255,128,192 F,0,121909,122409,1,0
Sprite,Background,Centre,"sb\glow.png",339,323 S,0,121927,121927,0.5 C,0,121927,121927,255,128,192 F,0,121927,122427,1,0
Sprite,Background,Centre,"sb\glow.png",355,324 S,0,121946,121946,0.5 C,0,121946,121946,255,128,192 F,0,121946,122446,1,0
Sprite,Background,Centre,"sb\glow.png",371,325 S,0,121965,121965,0.5 C,0,121965,121965,255,128,192 F,0,121965,122465,1,0
Sprite,Background,Centre,"sb\glow.png",387,329 S,0,121984,121984,0.5 C,0,121984,121984,255,128,192 F,0,121984,122484,1,0
Sprite,Background,Centre,"sb\glow.png",403,333 S,0,122002,122002,0.5 C,0,122002,122002,255,128,192 F,0,122002,122502,1,0
Sprite,Background,Centre,"sb\glow.png",418,339 S,0,122021,122021,0.5 C,0,122021,122021,255,128,192 F,0,122021,122521,1,0
Sprite,Background,Centre,"sb\glow.png",433,346 S,0,122040,122040,0.5 C,0,122040,122040,255,128,192 F,0,122040,122540,1,0
Sprite,Background,Centre,"sb\glow.png",447,354 S,0,122059,122059,0.5 C,0,122059,122059,255,128,192 F,0,122059,122559,1,0
Sprite,Background,Centre,"sb\glow.png",491,370 S,0,122077,122077,0.5 C,0,122077,122077,255,128,192 F,0,122077,122577,1,0
Sprite,Background,Centre,"sb\glow.png",530,384 S,0,122096,122096,0.5 C,0,122096,122096,255,128,192 F,0,122096,122596,1,0
Sprite,Background,Centre,"sb\glow.png",557,393 S,0,122115,122115,0.5 C,0,122115,122115,255,128,192 F,0,122115,122615,1,0
Sprite,Background,Centre,"sb\glow.png",567,397 S,0,122134,122134,0.5 C,0,122134,122134,255,128,192 F,0,122134,122634,1,0
Sprite,Background,Centre,"sb\glow.png",555,404 S,0,122152,122152,0.5 C,0,122152,122152,255,128,192 F,0,122152,122652,1,0
Sprite,Background,Centre,"sb\glow.png",542,411 S,0,122171,122171,0.5 C,0,122171,122171,255,128,192 F,0,122171,122671,1,0
Sprite,Background,Centre,"sb\glow.png",536,398 S,0,122190,122190,0.5 C,0,122190,122190,255,128,192 F,0,122190,122690,1,0
Sprite,Background,Centre,"sb\glow.png",533,384 S,0,122209,122209,0.5 C,0,122209,122209,255,128,192 F,0,122209,122709,1,0
Sprite,Background,Centre,"sb\glow.png",532,369 S,0,122227,122227,0.5 C,0,122227,122227,255,128,192 F,0,122227,122727,1,0
Sprite,Background,Centre,"sb\glow.png",531,354 S,0,122246,122246,0.5 C,0,122246,122246,255,128,192 F,0,122246,122746,1,0
Sprite,Background,Centre,"sb\glow.png",533,339 S,0,122265,122265,0.5 C,0,122265,122265,255,128,192 F,0,122265,122765,1,0
Sprite,Background,Centre,"sb\glow.png",535,324 S,0,122284,122284,0.5 C,0,122284,122284,255,128,192 F,0,122284,122784,1,0
Sprite,Background,Centre,"sb\glow.png",537,309 S,0,122302,122302,0.5 C,0,122302,122302,255,128,192 F,0,122302,122802,1,0
Sprite,Background,Centre,"sb\glow.png",541,295 S,0,122321,122321,0.5 C,0,122321,122321,255,128,192 F,0,122321,122821,1,0
Sprite,Background,Centre,"sb\glow.png",545,280 S,0,122340,122340,0.5 C,0,122340,122340,255,128,192 F,0,122340,122840,1,0
Sprite,Background,Centre,"sb\glow.png",551,266 S,0,122359,122359,0.5 C,0,122359,122359,255,128,192 F,0,122359,122859,1,0
Sprite,Background,Centre,"sb\glow.png",546,212 S,0,122377,122377,0.5 C,0,122377,122377,255,128,192 F,0,122377,122877,1,0
Sprite,Background,Centre,"sb\glow.png",542,164 S,0,122396,122396,0.5 C,0,122396,122396,255,128,192 F,0,122396,122896,1,0
Sprite,Background,Centre,"sb\glow.png",539,131 S,0,122415,122415,0.5 C,0,122415,122415,255,128,192 F,0,122415,122915,1,0
Sprite,Background,Centre,"sb\glow.png",538,119 S,0,122434,122434,0.5 C,0,122434,122434,255,128,192 F,0,122434,122934,1,0
Sprite,Background,Centre,"sb\glow.png",529,130 S,0,122452,122452,0.5 C,0,122452,122452,255,0,128 F,0,122452,122952,1,0
Sprite,Background,Centre,"sb\glow.png",518,140 S,0,122471,122471,0.5 C,0,122471,122471,255,0,128 F,0,122471,122971,1,0
Sprite,Background,Centre,"sb\glow.png",507,150 S,0,122490,122490,0.5 C,0,122490,122490,255,0,128 F,0,122490,122990,1,0
Sprite,Background,Centre,"sb\glow.png",495,159 S,0,122509,122509,0.5 C,0,122509,122509,255,0,128 F,0,122509,123009,1,0
Sprite,Background,Centre,"sb\glow.png",482,167 S,0,122527,122527,0.5 C,0,122527,122527,255,0,128 F,0,122527,123027,1,0
Sprite,Background,Centre,"sb\glow.png",468,173 S,0,122546,122546,0.5 C,0,122546,122546,255,0,128 F,0,122546,123046,1,0
Sprite,Background,Centre,"sb\glow.png",454,178 S,0,122565,122565,0.5 C,0,122565,122565,255,0,128 F,0,122565,123065,1,0
Sprite,Background,Centre,"sb\glow.png",440,182 S,0,122584,122584,0.5 C,0,122584,122584,255,0,128 F,0,122584,123084,1,0
Sprite,Background,Centre,"sb\glow.png",425,184 S,0,122602,122602,0.5 C,0,122602,122602,255,0,128 F,0,122602,123102,1,0
Sprite,Background,Centre,"sb\glow.png",410,186 S,0,122621,122621,0.5 C,0,122621,122621,255,0,128 F,0,122621,123121,1,0
Sprite,Background,Centre,"sb\glow.png",395,185 S,0,122640,122640,0.5 C,0,122640,122640,255,0,128 F,0,122640,123140,1,0
Sprite,Background,Centre,"sb\glow.png",380,184 S,0,122659,122659,0.5 C,0,122659,122659,255,0,128 F,0,122659,123159,1,0
Sprite,Background,Centre,"sb\glow.png",314,143 S,0,122677,122677,0.5 C,0,122677,122677,255,0,128 F,0,122677,123177,1,0
Sprite,Background,Centre,"sb\glow.png",255,106 S,0,122696,122696,0.5 C,0,122696,122696,255,0,128 F,0,122696,123196,1,0
Sprite,Background,Centre,"sb\glow.png",215,81 S,0,122715,122715,0.5 C,0,122715,122715,255,0,128 F,0,122715,123215,1,0
Sprite,Background,Centre,"sb\glow.png",200,72 S,0,122734,122734,0.5 C,0,122734,122734,255,0,128 F,0,122734,123234,1,0
Sprite,Background,Centre,"sb\glow.png",212,80 S,0,122752,122752,0.5 C,0,122752,122752,255,0,128 F,0,122752,123252,1,0
Sprite,Background,Centre,"sb\glow.png",224,89 S,0,122771,122771,0.5 C,0,122771,122771,255,0,128 F,0,122771,123271,1,0
Sprite,Background,Centre,"sb\glow.png",234,100 S,0,122790,122790,0.5 C,0,122790,122790,255,0,128 F,0,122790,123290,1,0
Sprite,Background,Centre,"sb\glow.png",244,111 S,0,122809,122809,0.5 C,0,122809,122809,255,0,128 F,0,122809,123309,1,0
Sprite,Background,Centre,"sb\glow.png",253,123 S,0,122827,122827,0.5 C,0,122827,122827,255,0,128 F,0,122827,123327,1,0
Sprite,Background,Centre,"sb\glow.png",260,136 S,0,122846,122846,0.5 C,0,122846,122846,255,0,128 F,0,122846,123346,1,0
Sprite,Background,Centre,"sb\glow.png",266,150 S,0,122865,122865,0.5 C,0,122865,122865,255,0,128 F,0,122865,123365,1,0
Sprite,Background,Centre,"sb\glow.png",271,164 S,0,122884,122884,0.5 C,0,122884,122884,255,0,128 F,0,122884,123384,1,0
Sprite,Background,Centre,"sb\glow.png",274,179 S,0,122902,122902,0.5 C,0,122902,122902,255,0,128 F,0,122902,123402,1,0
Sprite,Background,Centre,"sb\glow.png",276,193 S,0,122921,122921,0.5 C,0,122921,122921,255,0,128 F,0,122921,123421,1,0
Sprite,Background,Centre,"sb\glow.png",277,208 S,0,122940,122940,0.5 C,0,122940,122940,255,0,128 F,0,122940,123440,1,0
Sprite,Background,Centre,"sb\glow.png",276,223 S,0,122959,122959,0.5 C,0,122959,122959,255,0,128 F,0,122959,123459,1,0
Sprite,Background,Centre,"sb\glow.png",267,265 S,0,122977,122977,0.5 C,0,122977,122977,255,0,128 F,0,122977,123477,1,0
Sprite,Background,Centre,"sb\glow.png",260,302 S,0,122996,122996,0.5 C,0,122996,122996,255,0,128 F,0,122996,123496,1,0
Sprite,Background,Centre,"sb\glow.png",255,327 S,0,123015,123015,0.5 C,0,123015,123015,255,0,128 F,0,123015,123515,1,0
Sprite,Background,Centre,"sb\glow.png",253,336 S,0,123034,123034,0.5 C,0,123034,123034,255,0,128 F,0,123034,123534,1,0
Sprite,Background,Centre,"sb\glow.png",253,336 S,0,123052,123052,0.5 C,0,123052,123052,255,88,102 F,0,123052,123552,1,0
Sprite,Background,Centre,"sb\glow.png",253,336 S,0,123071,123071,0.5 C,0,123071,123071,255,88,102 F,0,123071,123571,1,0
Sprite,Background,Centre,"sb\glow.png",253,336 S,0,123090,123090,0.5 C,0,123090,123090,255,88,102 F,0,123090,123590,1,0
Sprite,Background,Centre,"sb\glow.png",253,336 S,0,123109,123109,0.5 C,0,123109,123109,255,88,102 F,0,123109,123609,1,0
Sprite,Background,Centre,"sb\glow.png",253,336 S,0,123127,123127,0.5 C,0,123127,123127,255,88,102 F,0,123127,123627,1,0
Sprite,Background,Centre,"sb\glow.png",253,336 S,0,123146,123146,0.5 C,0,123146,123146,255,88,102 F,0,123146,123646,1,0
Sprite,Background,Centre,"sb\glow.png",253,336 S,0,123165,123165,0.5 C,0,123165,123165,255,88,102 F,0,123165,123665,1,0
Sprite,Background,Centre,"sb\glow.png",253,336 S,0,123184,123184,0.5 C,0,123184,123184,255,88,102 F,0,123184,123684,1,0
Sprite,Background,Centre,"sb\glow.png",273,337 S,0,123202,123202,0.5 C,0,123202,123202,255,88,102 F,0,123202,123702,1,0
Sprite,Background,Centre,"sb\glow.png",293,339 S,0,123221,123221,0.5 C,0,123221,123221,255,88,102 F,0,123221,123721,1,0
Sprite,Background,Centre,"sb\glow.png",312,340 S,0,123240,123240,0.5 C,0,123240,123240,255,88,102 F,0,123240,123740,1,0
Sprite,Background,Centre,"sb\glow.png",328,341 S,0,123259,123259,0.5 C,0,123259,123259,255,88,102 F,0,123259,123759,1,0
Sprite,Background,Centre,"sb\glow.png",341,342 S,0,123277,123277,0.5 C,0,123277,123277,255,88,102 F,0,123277,123777,1,0
Sprite,Background,Centre,"sb\glow.png",351,342 S,0,123296,123296,0.5 C,0,123296,123296,255,88,102 F,0,123296,123796,1,0
Sprite,Background,Centre,"sb\glow.png",358,343 S,0,123315,123315,0.5 C,0,123315,123315,255,88,102 F,0,123315,123815,1,0
Sprite,Background,Centre,"sb\glow.png",360,343 S,0,123334,123334,0.5 C,0,123334,123334,255,88,102 F,0,123334,123834,1,0
Sprite,Background,Centre,"sb\glow.png",344,321 S,0,123352,123352,0.5 C,0,123352,123352,255,88,102 F,0,123352,123852,1,0
Sprite,Background,Centre,"sb\glow.png",328,299 S,0,123371,123371,0.5 C,0,123371,123371,255,88,102 F,0,123371,123871,1,0
Sprite,Background,Centre,"sb\glow.png",314,278 S,0,123390,123390,0.5 C,0,123390,123390,255,88,102 F,0,123390,123890,1,0
Sprite,Background,Centre,"sb\glow.png",301,260 S,0,123409,123409,0.5 C,0,123409,123409,255,88,102 F,0,123409,123909,1,0
Sprite,Background,Centre,"sb\glow.png",290,245 S,0,123427,123427,0.5 C,0,123427,123427,255,88,102 F,0,123427,123927,1,0
Sprite,Background,Centre,"sb\glow.png",282,234 S,0,123446,123446,0.5 C,0,123446,123446,255,88,102 F,0,123446,123946,1,0
Sprite,Background,Centre,"sb\glow.png",277,227 S,0,123465,123465,0.5 C,0,123465,123465,255,88,102 F,0,123465,123965,1,0
Sprite,Background,Centre,"sb\glow.png",275,224 S,0,123484,123484,0.5 C,0,123484,123484,255,88,102 F,0,123484,123984,1,0
Sprite,Background,Centre,"sb\glow.png",313,214 S,0,123502,123502,0.5 C,0,123502,123502,255,88,102 F,0,123502,124002,1,0
Sprite,Background,Centre,"sb\glow.png",351,204 S,0,123521,123521,0.5 C,0,123521,123521,255,88,102 F,0,123521,124021,1,0
Sprite,Background,Centre,"sb\glow.png",386,195 S,0,123540,123540,0.5 C,0,123540,123540,255,88,102 F,0,123540,124040,1,0
Sprite,Background,Centre,"sb\glow.png",417,187 S,0,123559,123559,0.5 C,0,123559,123559,255,88,102 F,0,123559,124059,1,0
Sprite,Background,Centre,"sb\glow.png",443,180 S,0,123577,123577,0.5 C,0,123577,123577,255,88,102 F,0,123577,124077,1,0
Sprite,Background,Centre,"sb\glow.png",462,175 S,0,123596,123596,0.5 C,0,123596,123596,255,88,102 F,0,123596,124096,1,0
Sprite,Background,Centre,"sb\glow.png",474,172 S,0,123615,123615,0.5 C,0,123615,123615,255,88,102 F,0,123615,124115,1,0
Sprite,Background,Centre,"sb\glow.png",478,171 S,0,123634,123634,0.5 C,0,123634,123634,255,88,102 F,0,123634,124134,1,0
Sprite,Background,Centre,"sb\glow.png",486,183 S,0,123652,123652,0.5 C,0,123652,123652,255,0,255 F,0,123652,124152,1,0
Sprite,Background,Centre,"sb\glow.png",493,196 S,0,123671,123671,0.5 C,0,123671,123671,255,0,255 F,0,123671,124171,1,0
Sprite,Background,Centre,"sb\glow.png",499,210 S,0,123690,123690,0.5 C,0,123690,123690,255,0,255 F,0,123690,124190,1,0
Sprite,Background,Centre,"sb\glow.png",503,224 S,0,123709,123709,0.5 C,0,123709,123709,255,0,255 F,0,123709,124209,1,0
Sprite,Background,Centre,"sb\glow.png",505,239 S,0,123727,123727,0.5 C,0,123727,123727,255,0,255 F,0,123727,124227,1,0
Sprite,Background,Centre,"sb\glow.png",505,254 S,0,123746,123746,0.5 C,0,123746,123746,255,0,255 F,0,123746,124246,1,0
Sprite,Background,Centre,"sb\glow.png",504,269 S,0,123765,123765,0.5 C,0,123765,123765,255,0,255 F,0,123765,124265,1,0
Sprite,Background,Centre,"sb\glow.png",501,283 S,0,123784,123784,0.5 C,0,123784,123784,255,0,255 F,0,123784,124284,1,0
Sprite,Background,Centre,"sb\glow.png",496,298 S,0,123802,123802,0.5 C,0,123802,123802,255,0,255 F,0,123802,124302,1,0
Sprite,Background,Centre,"sb\glow.png",489,311 S,0,123821,123821,0.5 C,0,123821,123821,255,0,255 F,0,123821,124321,1,0
Sprite,Background,Centre,"sb\glow.png",482,324 S,0,123840,123840,0.5 C,0,123840,123840,255,0,255 F,0,123840,124340,1,0
Sprite,Background,Centre,"sb\glow.png",472,336 S,0,123859,123859,0.5 C,0,123859,123859,255,0,255 F,0,123859,124359,1,0
Sprite,Background,Centre,"sb\glow.png",439,305 S,0,123877,123877,0.5 C,0,123877,123877,255,0,255 F,0,123877,124377,1,0
Sprite,Background,Centre,"sb\glow.png",409,276 S,0,123896,123896,0.5 C,0,123896,123896,255,0,255 F,0,123896,124396,1,0
Sprite,Background,Centre,"sb\glow.png",389,256 S,0,123915,123915,0.5 C,0,123915,123915,255,0,255 F,0,123915,124415,1,0
Sprite,Background,Centre,"sb\glow.png",381,249 S,0,123934,123934,0.5 C,0,123934,123934,255,0,255 F,0,123934,124434,1,0
Sprite,Background,Centre,"sb\glow.png",373,237 S,0,123952,123952,0.5 C,0,123952,123952,255,0,255 F,0,123952,124452,1,0
Sprite,Background,Centre,"sb\glow.png",366,224 S,0,123971,123971,0.5 C,0,123971,123971,255,0,255 F,0,123971,124471,1,0
Sprite,Background,Centre,"sb\glow.png",361,210 S,0,123990,123990,0.5 C,0,123990,123990,255,0,255 F,0,123990,124490,1,0
Sprite,Background,Centre,"sb\glow.png",357,196 S,0,124009,124009,0.5 C,0,124009,124009,255,0,255 F,0,124009,124509,1,0
Sprite,Background,Centre,"sb\glow.png",355,181 S,0,124027,124027,0.5 C,0,124027,124027,255,0,255 F,0,124027,124527,1,0
Sprite,Background,Centre,"sb\glow.png",354,166 S,0,124046,124046,0.5 C,0,124046,124046,255,0,255 F,0,124046,124546,1,0
Sprite,Background,Centre,"sb\glow.png",356,151 S,0,124065,124065,0.5 C,0,124065,124065,255,0,255 F,0,124065,124565,1,0
Sprite,Background,Centre,"sb\glow.png",359,136 S,0,124084,124084,0.5 C,0,124084,124084,255,0,255 F,0,124084,124584,1,0
Sprite,Background,Centre,"sb\glow.png",364,122 S,0,124102,124102,0.5 C,0,124102,124102,255,0,255 F,0,124102,124602,1,0
Sprite,Background,Centre,"sb\glow.png",371,109 S,0,124121,124121,0.5 C,0,124121,124121,255,0,255 F,0,124121,124621,1,0
Sprite,Background,Centre,"sb\glow.png",379,96 S,0,124140,124140,0.5 C,0,124140,124140,255,0,255 F,0,124140,124640,1,0
Sprite,Background,Centre,"sb\glow.png",389,85 S,0,124159,124159,0.5 C,0,124159,124159,255,0,255 F,0,124159,124659,1,0
Sprite,Background,Centre,"sb\glow.png",424,74 S,0,124177,124177,0.5 C,0,124177,124177,255,0,255 F,0,124177,124677,1,0
Sprite,Background,Centre,"sb\glow.png",455,65 S,0,124196,124196,0.5 C,0,124196,124196,255,0,255 F,0,124196,124696,1,0
Sprite,Background,Centre,"sb\glow.png",477,58 S,0,124215,124215,0.5 C,0,124215,124215,255,0,255 F,0,124215,124715,1,0
Sprite,Background,Centre,"sb\glow.png",485,56 S,0,124234,124234,0.5 C,0,124234,124234,255,0,255 F,0,124234,124734,1,0
Sprite,Background,Centre,"sb\glow.png",485,56 S,0,124252,124252,0.5 C,0,124252,124252,255,128,192 F,0,124252,124752,1,0
Sprite,Background,Centre,"sb\glow.png",485,56 S,0,124271,124271,0.5 C,0,124271,124271,255,128,192 F,0,124271,124771,1,0
Sprite,Background,Centre,"sb\glow.png",485,56 S,0,124290,124290,0.5 C,0,124290,124290,255,128,192 F,0,124290,124790,1,0
Sprite,Background,Centre,"sb\glow.png",485,56 S,0,124309,124309,0.5 C,0,124309,124309,255,128,192 F,0,124309,124809,1,0
Sprite,Background,Centre,"sb\glow.png",485,56 S,0,124327,124327,0.5 C,0,124327,124327,255,128,192 F,0,124327,124827,1,0
Sprite,Background,Centre,"sb\glow.png",485,56 S,0,124346,124346,0.5 C,0,124346,124346,255,128,192 F,0,124346,124846,1,0
Sprite,Background,Centre,"sb\glow.png",485,56 S,0,124365,124365,0.5 C,0,124365,124365,255,128,192 F,0,124365,124865,1,0
Sprite,Background,Centre,"sb\glow.png",485,56 S,0,124384,124384,0.5 C,0,124384,124384,255,128,192 F,0,124384,124884,1,0
Sprite,Background,Centre,"sb\glow.png",484,77 S,0,124402,124402,0.5 C,0,124402,124402,255,128,192 F,0,124402,124902,1,0
Sprite,Background,Centre,"sb\glow.png",482,99 S,0,124421,124421,0.5 C,0,124421,124421,255,128,192 F,0,124421,124921,1,0
Sprite,Background,Centre,"sb\glow.png",481,119 S,0,124440,124440,0.5 C,0,124440,124440,255,128,192 F,0,124440,124940,1,0
Sprite,Background,Centre,"sb\glow.png",480,136 S,0,124459,124459,0.5 C,0,124459,124459,255,128,192 F,0,124459,124959,1,0
Sprite,Background,Centre,"sb\glow.png",479,151 S,0,124477,124477,0.5 C,0,124477,124477,255,128,192 F,0,124477,124977,1,0
Sprite,Background,Centre,"sb\glow.png",479,162 S,0,124496,124496,0.5 C,0,124496,124496,255,128,192 F,0,124496,124996,1,0
Sprite,Background,Centre,"sb\glow.png",478,169 S,0,124515,124515,0.5 C,0,124515,124515,255,128,192 F,0,124515,125015,1,0
Sprite,Background,Centre,"sb\glow.png",478,171 S,0,124534,124534,0.5 C,0,124534,124534,255,128,192 F,0,124534,125034,1,0
Sprite,Background,Centre,"sb\glow.png",496,182 S,0,124552,124552,0.5 C,0,124552,124552,255,128,192 F,0,124552,125052,1,0
Sprite,Background,Centre,"sb\glow.png",514,194 S,0,124571,124571,0.5 C,0,124571,124571,255,128,192 F,0,124571,125071,1,0
Sprite,Background,Centre,"sb\glow.png",531,205 S,0,124590,124590,0.5 C,0,124590,124590,255,128,192 F,0,124590,125090,1,0
Sprite,Background,Centre,"sb\glow.png",546,214 S,0,124609,124609,0.5 C,0,124609,124609,255,128,192 F,0,124609,125109,1,0
Sprite,Background,Centre,"sb\glow.png",558,222 S,0,124627,124627,0.5 C,0,124627,124627,255,128,192 F,0,124627,125127,1,0
Sprite,Background,Centre,"sb\glow.png",567,228 S,0,124646,124646,0.5 C,0,124646,124646,255,128,192 F,0,124646,125146,1,0
Sprite,Background,Centre,"sb\glow.png",573,232 S,0,124665,124665,0.5 C,0,124665,124665,255,128,192 F,0,124665,125165,1,0
Sprite,Background,Centre,"sb\glow.png",575,233 S,0,124684,124684,0.5 C,0,124684,124684,255,128,192 F,0,124684,125184,1,0
Sprite,Background,Centre,"sb\glow.png",554,252 S,0,124702,124702,0.5 C,0,124702,124702,255,128,192 F,0,124702,125202,1,0
Sprite,Background,Centre,"sb\glow.png",532,271 S,0,124721,124721,0.5 C,0,124721,124721,255,128,192 F,0,124721,125221,1,0
Sprite,Background,Centre,"sb\glow.png",512,288 S,0,124740,124740,0.5 C,0,124740,124740,255,128,192 F,0,124740,125240,1,0
Sprite,Background,Centre,"sb\glow.png",495,304 S,0,124759,124759,0.5 C,0,124759,124759,255,128,192 F,0,124759,125259,1,0
Sprite,Background,Centre,"sb\glow.png",480,316 S,0,124777,124777,0.5 C,0,124777,124777,255,128,192 F,0,124777,125277,1,0
Sprite,Background,Centre,"sb\glow.png",469,326 S,0,124796,124796,0.5 C,0,124796,124796,255,128,192 F,0,124796,125296,1,0
Sprite,Background,Centre,"sb\glow.png",462,332 S,0,124815,124815,0.5 C,0,124815,124815,255,128,192 F,0,124815,125315,1,0
Sprite,Background,Centre,"sb\glow.png",460,334 S,0,124834,124834,0.5 C,0,124834,124834,255,128,192 F,0,124834,125334,1,0
Sprite,Background,Centre,"sb\glow.png",446,335 S,0,124852,124852,0.5 C,0,124852,124852,255,0,128 F,0,124852,125352,1,0
Sprite,Background,Centre,"sb\glow.png",431,336 S,0,124871,124871,0.5 C,0,124871,124871,255,0,128 F,0,124871,125371,1,0
Sprite,Background,Centre,"sb\glow.png",416,337 S,0,124890,124890,0.5 C,0,124890,124890,255,0,128 F,0,124890,125390,1,0
Sprite,Background,Centre,"sb\glow.png",401,338 S,0,124909,124909,0.5 C,0,124909,124909,255,0,128 F,0,124909,125409,1,0
Sprite,Background,Centre,"sb\glow.png",386,339 S,0,124927,124927,0.5 C,0,124927,124927,255,0,128 F,0,124927,125427,1,0
Sprite,Background,Centre,"sb\glow.png",373,345 S,0,124946,124946,0.5 C,0,124946,124946,255,0,128 F,0,124946,125446,1,0
Sprite,Background,Centre,"sb\glow.png",359,343 S,0,124965,124965,0.5 C,0,124965,124965,255,0,128 F,0,124965,125465,1,0
Sprite,Background,Centre,"sb\glow.png",344,343 S,0,124984,124984,0.5 C,0,124984,124984,255,0,128 F,0,124984,125484,1,0
Sprite,Background,Centre,"sb\glow.png",329,344 S,0,125002,125002,0.5 C,0,125002,125002,255,0,128 F,0,125002,125502,1,0
Sprite,Background,Centre,"sb\glow.png",314,345 S,0,125021,125021,0.5 C,0,125021,125021,255,0,128 F,0,125021,125521,1,0
Sprite,Background,Centre,"sb\glow.png",299,346 S,0,125040,125040,0.5 C,0,125040,125040,255,0,128 F,0,125040,125540,1,0
Sprite,Background,Centre,"sb\glow.png",284,347 S,0,125059,125059,0.5 C,0,125059,125059,255,0,128 F,0,125059,125559,1,0
Sprite,Background,Centre,"sb\glow.png",277,287 S,0,125077,125077,0.5 C,0,125077,125077,255,0,128 F,0,125077,125577,1,0
Sprite,Background,Centre,"sb\glow.png",272,233 S,0,125096,125096,0.5 C,0,125096,125096,255,0,128 F,0,125096,125596,1,0
Sprite,Background,Centre,"sb\glow.png",268,196 S,0,125115,125115,0.5 C,0,125115,125115,255,0,128 F,0,125115,125615,1,0
Sprite,Background,Centre,"sb\glow.png",267,182 S,0,125134,125134,0.5 C,0,125134,125134,255,0,128 F,0,125134,125634,1,0
Sprite,Background,Centre,"sb\glow.png",277,192 S,0,125152,125152,0.5 C,0,125152,125152,255,0,128 F,0,125152,125652,1,0
Sprite,Background,Centre,"sb\glow.png",286,204 S,0,125171,125171,0.5 C,0,125171,125171,255,0,128 F,0,125171,125671,1,0
Sprite,Background,Centre,"sb\glow.png",293,217 S,0,125190,125190,0.5 C,0,125190,125190,255,0,128 F,0,125190,125690,1,0
Sprite,Background,Centre,"sb\glow.png",299,231 S,0,125209,125209,0.5 C,0,125209,125209,255,0,128 F,0,125209,125709,1,0
Sprite,Background,Centre,"sb\glow.png",303,245 S,0,125227,125227,0.5 C,0,125227,125227,255,0,128 F,0,125227,125727,1,0
Sprite,Background,Centre,"sb\glow.png",305,260 S,0,125246,125246,0.5 C,0,125246,125246,255,0,128 F,0,125246,125746,1,0
Sprite,Background,Centre,"sb\glow.png",306,275 S,0,125265,125265,0.5 C,0,125265,125265,255,0,128 F,0,125265,125765,1,0
Sprite,Background,Centre,"sb\glow.png",305,290 S,0,125284,125284,0.5 C,0,125284,125284,255,0,128 F,0,125284,125784,1,0
Sprite,Background,Centre,"sb\glow.png",302,305 S,0,125302,125302,0.5 C,0,125302,125302,255,0,128 F,0,125302,125802,1,0
Sprite,Background,Centre,"sb\glow.png",298,319 S,0,125321,125321,0.5 C,0,125321,125321,255,0,128 F,0,125321,125821,1,0
Sprite,Background,Centre,"sb\glow.png",291,332 S,0,125340,125340,0.5 C,0,125340,125340,255,0,128 F,0,125340,125840,1,0
Sprite,Background,Centre,"sb\glow.png",283,345 S,0,125359,125359,0.5 C,0,125359,125359,255,0,128 F,0,125359,125859,1,0
Sprite,Background,Centre,"sb\glow.png",247,320 S,0,125377,125377,0.5 C,0,125377,125377,255,0,128 F,0,125377,125877,1,0
Sprite,Background,Centre,"sb\glow.png",214,297 S,0,125396,125396,0.5 C,0,125396,125396,255,0,128 F,0,125396,125896,1,0
Sprite,Background,Centre,"sb\glow.png",192,281 S,0,125415,125415,0.5 C,0,125415,125415,255,0,128 F,0,125415,125915,1,0
Sprite,Background,Centre,"sb\glow.png",184,275 S,0,125434,125434,0.5 C,0,125434,125434,255,0,128 F,0,125434,125934,1,0
Sprite,Background,Centre,"sb\glow.png",184,275 S,0,125452,125452,0.5 C,0,125452,125452,255,88,102 F,0,125452,125952,1,0
Sprite,Background,Centre,"sb\glow.png",184,275 S,0,125471,125471,0.5 C,0,125471,125471,255,88,102 F,0,125471,125971,1,0
Sprite,Background,Centre,"sb\glow.png",184,275 S,0,125490,125490,0.5 C,0,125490,125490,255,88,102 F,0,125490,125990,1,0
Sprite,Background,Centre,"sb\glow.png",184,275 S,0,125509,125509,0.5 C,0,125509,125509,255,88,102 F,0,125509,126009,1,0
Sprite,Background,Centre,"sb\glow.png",184,275 S,0,125527,125527,0.5 C,0,125527,125527,255,88,102 F,0,125527,126027,1,0
Sprite,Background,Centre,"sb\glow.png",184,275 S,0,125546,125546,0.5 C,0,125546,125546,255,88,102 F,0,125546,126046,1,0
Sprite,Background,Centre,"sb\glow.png",184,275 S,0,125565,125565,0.5 C,0,125565,125565,255,88,102 F,0,125565,126065,1,0
Sprite,Background,Centre,"sb\glow.png",184,275 S,0,125584,125584,0.5 C,0,125584,125584,255,88,102 F,0,125584,126084,1,0
Sprite,Background,Centre,"sb\glow.png",183,250 S,0,125602,125602,0.5 C,0,125602,125602,255,88,102 F,0,125602,126102,1,0
Sprite,Background,Centre,"sb\glow.png",181,224 S,0,125621,125621,0.5 C,0,125621,125621,255,88,102 F,0,125621,126121,1,0
Sprite,Background,Centre,"sb\glow.png",180,201 S,0,125640,125640,0.5 C,0,125640,125640,255,88,102 F,0,125640,126140,1,0
Sprite,Background,Centre,"sb\glow.png",179,180 S,0,125659,125659,0.5 C,0,125659,125659,255,88,102 F,0,125659,126159,1,0
Sprite,Background,Centre,"sb\glow.png",178,163 S,0,125677,125677,0.5 C,0,125677,125677,255,88,102 F,0,125677,126177,1,0
Sprite,Background,Centre,"sb\glow.png",178,150 S,0,125696,125696,0.5 C,0,125696,125696,255,88,102 F,0,125696,126196,1,0
Sprite,Background,Centre,"sb\glow.png",177,142 S,0,125715,125715,0.5 C,0,125715,125715,255,88,102 F,0,125715,126215,1,0
Sprite,Background,Centre,"sb\glow.png",177,139 S,0,125734,125734,0.5 C,0,125734,125734,255,88,102 F,0,125734,126234,1,0
Sprite,Background,Centre,"sb\glow.png",158,151 S,0,125752,125752,0.5 C,0,125752,125752,255,88,102 F,0,125752,126252,1,0
Sprite,Background,Centre,"sb\glow.png",139,164 S,0,125771,125771,0.5 C,0,125771,125771,255,88,102 F,0,125771,126271,1,0
Sprite,Background,Centre,"sb\glow.png",121,175 S,0,125790,125790,0.5 C,0,125790,125790,255,88,102 F,0,125790,126290,1,0
Sprite,Background,Centre,"sb\glow.png",105,185 S,0,125809,125809,0.5 C,0,125809,125809,255,88,102 F,0,125809,126309,1,0
Sprite,Background,Centre,"sb\glow.png",92,193 S,0,125827,125827,0.5 C,0,125827,125827,255,88,102 F,0,125827,126327,1,0
Sprite,Background,Centre,"sb\glow.png",82,200 S,0,125846,125846,0.5 C,0,125846,125846,255,88,102 F,0,125846,126346,1,0
Sprite,Background,Centre,"sb\glow.png",76,204 S,0,125865,125865,0.5 C,0,125865,125865,255,88,102 F,0,125865,126365,1,0
Sprite,Background,Centre,"sb\glow.png",74,205 S,0,125884,125884,0.5 C,0,125884,125884,255,88,102 F,0,125884,126384,1,0
Sprite,Background,Centre,"sb\glow.png",94,218 S,0,125902,125902,0.5 C,0,125902,125902,255,88,102 F,0,125902,126402,1,0
Sprite,Background,Centre,"sb\glow.png",115,231 S,0,125921,125921,0.5 C,0,125921,125921,255,88,102 F,0,125921,126421,1,0
Sprite,Background,Centre,"sb\glow.png",134,243 S,0,125940,125940,0.5 C,0,125940,125940,255,88,102 F,0,125940,126440,1,0
Sprite,Background,Centre,"sb\glow.png",151,254 S,0,125959,125959,0.5 C,0,125959,125959,255,88,102 F,0,125959,126459,1,0
Sprite,Background,Centre,"sb\glow.png",165,263 S,0,125977,125977,0.5 C,0,125977,125977,255,88,102 F,0,125977,126477,1,0
Sprite,Background,Centre,"sb\glow.png",175,269 S,0,125996,125996,0.5 C,0,125996,125996,255,88,102 F,0,125996,126496,1,0
Sprite,Background,Centre,"sb\glow.png",182,274 S,0,126015,126015,0.5 C,0,126015,126015,255,88,102 F,0,126015,126515,1,0
Sprite,Background,Centre,"sb\glow.png",184,275 S,0,126034,126034,0.5 C,0,126034,126034,255,88,102 F,0,126034,126534,1,0
Sprite,Background,Centre,"sb\glow.png",198,273 S,0,126052,126052,0.5 C,0,126052,126052,255,0,255 F,0,126052,126552,1,0
Sprite,Background,Centre,"sb\glow.png",213,271 S,0,126071,126071,0.5 C,0,126071,126071,255,0,255 F,0,126071,126571,1,0
Sprite,Background,Centre,"sb\glow.png",228,269 S,0,126090,126090,0.5 C,0,126090,126090,255,0,255 F,0,126090,126590,1,0
Sprite,Background,Centre,"sb\glow.png",243,267 S,0,126109,126109,0.5 C,0,126109,126109,255,0,255 F,0,126109,126609,1,0
Sprite,Background,Centre,"sb\glow.png",258,266 S,0,126127,126127,0.5 C,0,126127,126127,255,0,255 F,0,126127,126627,1,0
Sprite,Background,Centre,"sb\glow.png",272,264 S,0,126146,126146,0.5 C,0,126146,126146,255,0,255 F,0,126146,126646,1,0
Sprite,Background,Centre,"sb\glow.png",287,262 S,0,126165,126165,0.5 C,0,126165,126165,255,0,255 F,0,126165,126665,1,0
Sprite,Background,Centre,"sb\glow.png",302,260 S,0,126184,126184,0.5 C,0,126184,126184,255,0,255 F,0,126184,126684,1,0
Sprite,Background,Centre,"sb\glow.png",317,258 S,0,126202,126202,0.5 C,0,126202,126202,255,0,255 F,0,126202,126702,1,0
Sprite,Background,Centre,"sb\glow.png",332,256 S,0,126221,126221,0.5 C,0,126221,126221,255,0,255 F,0,126221,126721,1,0
Sprite,Background,Centre,"sb\glow.png",347,254 S,0,126240,126240,0.5 C,0,126240,126240,255,0,255 F,0,126240,126740,1,0
Sprite,Background,Centre,"sb\glow.png",362,252 S,0,126259,126259,0.5 C,0,126259,126259,255,0,255 F,0,126259,126759,1,0
Sprite,Background,Centre,"sb\glow.png",377,197 S,0,126277,126277,0.5 C,0,126277,126277,255,0,255 F,0,126277,126777,1,0
Sprite,Background,Centre,"sb\glow.png",391,147 S,0,126296,126296,0.5 C,0,126296,126296,255,0,255 F,0,126296,126796,1,0
Sprite,Background,Centre,"sb\glow.png",400,113 S,0,126315,126315,0.5 C,0,126315,126315,255,0,255 F,0,126315,126815,1,0
Sprite,Background,Centre,"sb\glow.png",403,100 S,0,126334,126334,0.5 C,0,126334,126334,255,0,255 F,0,126334,126834,1,0
Sprite,Background,Centre,"sb\glow.png",391,107 S,0,126352,126352,0.5 C,0,126352,126352,255,0,255 F,0,126352,126852,1,0
Sprite,Background,Centre,"sb\glow.png",378,116 S,0,126371,126371,0.5 C,0,126371,126371,255,0,255 F,0,126371,126871,1,0
Sprite,Background,Centre,"sb\glow.png",368,126 S,0,126390,126390,0.5 C,0,126390,126390,255,0,255 F,0,126390,126890,1,0
Sprite,Background,Centre,"sb\glow.png",359,138 S,0,126409,126409,0.5 C,0,126409,126409,255,0,255 F,0,126409,126909,1,0
Sprite,Background,Centre,"sb\glow.png",351,151 S,0,126427,126427,0.5 C,0,126427,126427,255,0,255 F,0,126427,126927,1,0
Sprite,Background,Centre,"sb\glow.png",346,165 S,0,126446,126446,0.5 C,0,126446,126446,255,0,255 F,0,126446,126946,1,0
Sprite,Background,Centre,"sb\glow.png",343,180 S,0,126465,126465,0.5 C,0,126465,126465,255,0,255 F,0,126465,126965,1,0
Sprite,Background,Centre,"sb\glow.png",343,194 S,0,126484,126484,0.5 C,0,126484,126484,255,0,255 F,0,126484,126984,1,0
Sprite,Background,Centre,"sb\glow.png",344,209 S,0,126502,126502,0.5 C,0,126502,126502,255,0,255 F,0,126502,127002,1,0
Sprite,Background,Centre,"sb\glow.png",347,224 S,0,126521,126521,0.5 C,0,126521,126521,255,0,255 F,0,126521,127021,1,0
Sprite,Background,Centre,"sb\glow.png",353,238 S,0,126540,126540,0.5 C,0,126540,126540,255,0,255 F,0,126540,127040,1,0
Sprite,Background,Centre,"sb\glow.png",361,250 S,0,126559,126559,0.5 C,0,126559,126559,255,0,255 F,0,126559,127059,1,0
Sprite,Background,Centre,"sb\glow.png",400,287 S,0,126577,126577,0.5 C,0,126577,126577,255,0,255 F,0,126577,127077,1,0
Sprite,Background,Centre,"sb\glow.png",434,320 S,0,126596,126596,0.5 C,0,126596,126596,255,0,255 F,0,126596,127096,1,0
Sprite,Background,Centre,"sb\glow.png",458,343 S,0,126615,126615,0.5 C,0,126615,126615,255,0,255 F,0,126615,127115,1,0
Sprite,Background,Centre,"sb\glow.png",467,351 S,0,126634,126634,0.5 C,0,126634,126634,255,0,255 F,0,126634,127134,1,0
Sprite,Background,Centre,"sb\glow.png",466,338 S,0,126652,126652,0.5 C,0,126652,126652,255,0,255 F,0,126652,127152,1,0
Sprite,Background,Centre,"sb\glow.png",464,325 S,0,126671,126671,0.5 C,0,126671,126671,255,0,255 F,0,126671,127171,1,0
Sprite,Background,Centre,"sb\glow.png",459,312 S,0,126690,126690,0.5 C,0,126690,126690,255,0,255 F,0,126690,127190,1,0
Sprite,Background,Centre,"sb\glow.png",453,299 S,0,126709,126709,0.5 C,0,126709,126709,255,0,255 F,0,126709,127209,1,0
Sprite,Background,Centre,"sb\glow.png",445,288 S,0,126727,126727,0.5 C,0,126727,126727,255,0,255 F,0,126727,127227,1,0
Sprite,Background,Centre,"sb\glow.png",436,278 S,0,126746,126746,0.5 C,0,126746,126746,255,0,255 F,0,126746,127246,1,0
Sprite,Background,Centre,"sb\glow.png",425,269 S,0,126765,126765,0.5 C,0,126765,126765,255,0,255 F,0,126765,127265,1,0
Sprite,Background,Centre,"sb\glow.png",414,262 S,0,126784,126784,0.5 C,0,126784,126784,255,0,255 F,0,126784,127284,1,0
Sprite,Background,Centre,"sb\glow.png",401,257 S,0,126802,126802,0.5 C,0,126802,126802,255,0,255 F,0,126802,127302,1,0
Sprite,Background,Centre,"sb\glow.png",388,253 S,0,126821,126821,0.5 C,0,126821,126821,255,0,255 F,0,126821,127321,1,0
Sprite,Background,Centre,"sb\glow.png",374,251 S,0,126840,126840,0.5 C,0,126840,126840,255,0,255 F,0,126840,127340,1,0
Sprite,Background,Centre,"sb\glow.png",361,252 S,0,126859,126859,0.5 C,0,126859,126859,255,0,255 F,0,126859,127359,1,0
Sprite,Background,Centre,"sb\glow.png",313,262 S,0,126877,126877,0.5 C,0,126877,126877,255,0,255 F,0,126877,127377,1,0
Sprite,Background,Centre,"sb\glow.png",271,271 S,0,126896,126896,0.5 C,0,126896,126896,255,0,255 F,0,126896,127396,1,0
Sprite,Background,Centre,"sb\glow.png",243,277 S,0,126915,126915,0.5 C,0,126915,126915,255,0,255 F,0,126915,127415,1,0
Sprite,Background,Centre,"sb\glow.png",232,279 S,0,126934,126934,0.5 C,0,126934,126934,255,0,255 F,0,126934,127434,1,0
Sprite,Background,Centre,"sb\glow.png",242,285 S,0,126952,126952,0.5 C,0,126952,126952,255,0,255 F,0,126952,127452,1,0
Sprite,Background,Centre,"sb\glow.png",253,291 S,0,126971,126971,0.5 C,0,126971,126971,255,0,255 F,0,126971,127471,1,0
Sprite,Background,Centre,"sb\glow.png",265,294 S,0,126990,126990,0.5 C,0,126990,126990,255,0,255 F,0,126990,127490,1,0
Sprite,Background,Centre,"sb\glow.png",278,296 S,0,127009,127009,0.5 C,0,127009,127009,255,0,255 F,0,127009,127509,1,0
Sprite,Background,Centre,"sb\glow.png",290,296 S,0,127027,127027,0.5 C,0,127027,127027,255,0,255 F,0,127027,127527,1,0
Sprite,Background,Centre,"sb\glow.png",302,294 S,0,127046,127046,0.5 C,0,127046,127046,255,0,255 F,0,127046,127546,1,0
Sprite,Background,Centre,"sb\glow.png",314,290 S,0,127065,127065,0.5 C,0,127065,127065,255,0,255 F,0,127065,127565,1,0
Sprite,Background,Centre,"sb\glow.png",326,285 S,0,127084,127084,0.5 C,0,127084,127084,255,0,255 F,0,127084,127584,1,0
Sprite,Background,Centre,"sb\glow.png",336,278 S,0,127102,127102,0.5 C,0,127102,127102,255,0,255 F,0,127102,127602,1,0
Sprite,Background,Centre,"sb\glow.png",346,270 S,0,127121,127121,0.5 C,0,127121,127121,255,0,255 F,0,127121,127621,1,0
Sprite,Background,Centre,"sb\glow.png",353,261 S,0,127140,127140,0.5 C,0,127140,127140,255,0,255 F,0,127140,127640,1,0
Sprite,Background,Centre,"sb\glow.png",360,250 S,0,127159,127159,0.5 C,0,127159,127159,255,0,255 F,0,127159,127659,1,0
Sprite,Background,Centre,"sb\glow.png",332,233 S,0,127177,127177,0.5 C,0,127177,127177,255,0,255 F,0,127177,127677,1,0
Sprite,Background,Centre,"sb\glow.png",307,217 S,0,127196,127196,0.5 C,0,127196,127196,255,0,255 F,0,127196,127696,1,0
Sprite,Background,Centre,"sb\glow.png",290,207 S,0,127215,127215,0.5 C,0,127215,127215,255,0,255 F,0,127215,127715,1,0
Sprite,Background,Centre,"sb\glow.png",283,203 S,0,127234,127234,0.5 C,0,127234,127234,255,0,255 F,0,127234,127734,1,0
Sprite,Background,Centre,"sb\glow.png",283,203 S,0,127252,127252,0.5 C,0,127252,127252,255,128,192 F,0,127252,127752,1,0
Sprite,Background,Centre,"sb\glow.png",283,203 S,0,127271,127271,0.5 C,0,127271,127271,255,128,192 F,0,127271,127771,1,0
Sprite,Background,Centre,"sb\glow.png",283,203 S,0,127290,127290,0.5 C,0,127290,127290,255,128,192 F,0,127290,127790,1,0
Sprite,Background,Centre,"sb\glow.png",283,203 S,0,127309,127309,0.5 C,0,127309,127309,255,128,192 F,0,127309,127809,1,0
Sprite,Background,Centre,"sb\glow.png",283,203 S,0,127327,127327,0.5 C,0,127327,127327,255,128,192 F,0,127327,127827,1,0
Sprite,Background,Centre,"sb\glow.png",283,203 S,0,127346,127346,0.5 C,0,127346,127346,255,128,192 F,0,127346,127846,1,0
Sprite,Background,Centre,"sb\glow.png",283,203 S,0,127365,127365,0.5 C,0,127365,127365,255,128,192 F,0,127365,127865,1,0
Sprite,Background,Centre,"sb\glow.png",283,203 S,0,127384,127384,0.5 C,0,127384,127384,255,128,192 F,0,127384,127884,1,0
Sprite,Background,Centre,"sb\glow.png",283,203 S,0,127402,127402,0.5 C,0,127402,127402,255,128,192 F,0,127402,127902,1,0
Sprite,Background,Centre,"sb\glow.png",283,203 S,0,127421,127421,0.5 C,0,127421,127421,255,128,192 F,0,127421,127921,1,0
Sprite,Background,Centre,"sb\glow.png",283,203 S,0,127440,127440,0.5 C,0,127440,127440,255,128,192 F,0,127440,127940,1,0
Sprite,Background,Centre,"sb\glow.png",283,203 S,0,127459,127459,0.5 C,0,127459,127459,255,128,192 F,0,127459,127959,1,0
Sprite,Background,Centre,"sb\glow.png",283,203 S,0,127477,127477,0.5 C,0,127477,127477,255,128,192 F,0,127477,127977,1,0
Sprite,Background,Centre,"sb\glow.png",283,203 S,0,127496,127496,0.5 C,0,127496,127496,255,128,192 F,0,127496,127996,1,0
Sprite,Background,Centre,"sb\glow.png",283,203 S,0,127515,127515,0.5 C,0,127515,127515,255,128,192 F,0,127515,128015,1,0
Sprite,Background,Centre,"sb\glow.png",283,203 S,0,127534,127534,0.5 C,0,127534,127534,255,128,192 F,0,127534,128034,1,0
Sprite,Background,Centre,"sb\glow.png",294,212 S,0,127552,127552,0.5 C,0,127552,127552,255,0,128 F,0,127552,128052,1,0
Sprite,Background,Centre,"sb\glow.png",304,223 S,0,127571,127571,0.5 C,0,127571,127571,255,0,128 F,0,127571,128071,1,0
Sprite,Background,Centre,"sb\glow.png",313,235 S,0,127590,127590,0.5 C,0,127590,127590,255,0,128 F,0,127590,128090,1,0
Sprite,Background,Centre,"sb\glow.png",320,248 S,0,127609,127609,0.5 C,0,127609,127609,255,0,128 F,0,127609,128109,1,0
Sprite,Background,Centre,"sb\glow.png",324,263 S,0,127627,127627,0.5 C,0,127627,127627,255,0,128 F,0,127627,128127,1,0
Sprite,Background,Centre,"sb\glow.png",325,277 S,0,127646,127646,0.5 C,0,127646,127646,255,0,128 F,0,127646,128146,1,0
Sprite,Background,Centre,"sb\glow.png",325,292 S,0,127665,127665,0.5 C,0,127665,127665,255,0,128 F,0,127665,128165,1,0
Sprite,Background,Centre,"sb\glow.png",322,307 S,0,127684,127684,0.5 C,0,127684,127684,255,0,128 F,0,127684,128184,1,0
Sprite,Background,Centre,"sb\glow.png",316,321 S,0,127702,127702,0.5 C,0,127702,127702,255,0,128 F,0,127702,128202,1,0
Sprite,Background,Centre,"sb\glow.png",309,334 S,0,127721,127721,0.5 C,0,127721,127721,255,0,128 F,0,127721,128221,1,0
Sprite,Background,Centre,"sb\glow.png",299,345 S,0,127740,127740,0.5 C,0,127740,127740,255,0,128 F,0,127740,128240,1,0
Sprite,Background,Centre,"sb\glow.png",288,355 S,0,127759,127759,0.5 C,0,127759,127759,255,0,128 F,0,127759,128259,1,0
Sprite,Background,Centre,"sb\glow.png",234,327 S,0,127777,127777,0.5 C,0,127777,127777,255,0,128 F,0,127777,128277,1,0
Sprite,Background,Centre,"sb\glow.png",185,301 S,0,127796,127796,0.5 C,0,127796,127796,255,0,128 F,0,127796,128296,1,0
Sprite,Background,Centre,"sb\glow.png",152,283 S,0,127815,127815,0.5 C,0,127815,127815,255,0,128 F,0,127815,128315,1,0
Sprite,Background,Centre,"sb\glow.png",140,276 S,0,127834,127834,0.5 C,0,127834,127834,255,0,128 F,0,127834,128334,1,0
Sprite,Background,Centre,"sb\glow.png",141,262 S,0,127852,127852,0.5 C,0,127852,127852,255,0,128 F,0,127852,128352,1,0
Sprite,Background,Centre,"sb\glow.png",144,247 S,0,127871,127871,0.5 C,0,127871,127871,255,0,128 F,0,127871,128371,1,0
Sprite,Background,Centre,"sb\glow.png",149,233 S,0,127890,127890,0.5 C,0,127890,127890,255,0,128 F,0,127890,128390,1,0
Sprite,Background,Centre,"sb\glow.png",157,221 S,0,127909,127909,0.5 C,0,127909,127909,255,0,128 F,0,127909,128409,1,0
Sprite,Background,Centre,"sb\glow.png",167,209 S,0,127927,127927,0.5 C,0,127927,127927,255,0,128 F,0,127927,128427,1,0
Sprite,Background,Centre,"sb\glow.png",178,200 S,0,127946,127946,0.5 C,0,127946,127946,255,0,128 F,0,127946,128446,1,0
Sprite,Background,Centre,"sb\glow.png",191,193 S,0,127965,127965,0.5 C,0,127965,127965,255,0,128 F,0,127965,128465,1,0
Sprite,Background,Centre,"sb\glow.png",205,188 S,0,127984,127984,0.5 C,0,127984,127984,255,0,128 F,0,127984,128484,1,0
Sprite,Background,Centre,"sb\glow.png",220,185 S,0,128002,128002,0.5 C,0,128002,128002,255,0,128 F,0,128002,128502,1,0
Sprite,Background,Centre,"sb\glow.png",235,185 S,0,128021,128021,0.5 C,0,128021,128021,255,0,128 F,0,128021,128521,1,0
Sprite,Background,Centre,"sb\glow.png",250,187 S,0,128040,128040,0.5 C,0,128040,128040,255,0,128 F,0,128040,128540,1,0
Sprite,Background,Centre,"sb\glow.png",264,193 S,0,128059,128059,0.5 C,0,128059,128059,255,0,128 F,0,128059,128559,1,0
Sprite,Background,Centre,"sb\glow.png",269,254 S,0,128077,128077,0.5 C,0,128077,128077,255,0,128 F,0,128077,128577,1,0
Sprite,Background,Centre,"sb\glow.png",273,310 S,0,128096,128096,0.5 C,0,128096,128096,255,0,128 F,0,128096,128596,1,0
Sprite,Background,Centre,"sb\glow.png",276,348 S,0,128115,128115,0.5 C,0,128115,128115,255,0,128 F,0,128115,128615,1,0
Sprite,Background,Centre,"sb\glow.png",277,362 S,0,128134,128134,0.5 C,0,128134,128134,255,0,128 F,0,128134,128634,1,0
Sprite,Background,Centre,"sb\glow.png",264,368 S,0,128152,128152,0.5 C,0,128152,128152,255,0,128 F,0,128152,128652,1,0
Sprite,Background,Centre,"sb\glow.png",250,372 S,0,128171,128171,0.5 C,0,128171,128171,255,0,128 F,0,128171,128671,1,0
Sprite,Background,Centre,"sb\glow.png",235,374 S,0,128190,128190,0.5 C,0,128190,128190,255,0,128 F,0,128190,128690,1,0
Sprite,Background,Centre,"sb\glow.png",220,374 S,0,128209,128209,0.5 C,0,128209,128209,255,0,128 F,0,128209,128709,1,0
Sprite,Background,Centre,"sb\glow.png",205,371 S,0,128227,128227,0.5 C,0,128227,128227,255,0,128 F,0,128227,128727,1,0
Sprite,Background,Centre,"sb\glow.png",191,366 S,0,128246,128246,0.5 C,0,128246,128246,255,0,128 F,0,128246,128746,1,0
Sprite,Background,Centre,"sb\glow.png",178,358 S,0,128265,128265,0.5 C,0,128265,128265,255,0,128 F,0,128265,128765,1,0
Sprite,Background,Centre,"sb\glow.png",167,349 S,0,128284,128284,0.5 C,0,128284,128284,255,0,128 F,0,128284,128784,1,0
Sprite,Background,Centre,"sb\glow.png",157,338 S,0,128302,128302,0.5 C,0,128302,128302,255,0,128 F,0,128302,128802,1,0
Sprite,Background,Centre,"sb\glow.png",148,326 S,0,128321,128321,0.5 C,0,128321,128321,255,0,128 F,0,128321,128821,1,0
Sprite,Background,Centre,"sb\glow.png",142,312 S,0,128340,128340,0.5 C,0,128340,128340,255,0,128 F,0,128340,128840,1,0
Sprite,Background,Centre,"sb\glow.png",139,297 S,0,128359,128359,0.5 C,0,128359,128359,255,0,128 F,0,128359,128859,1,0
Sprite,Background,Centre,"sb\glow.png",173,290 S,0,128377,128377,0.5 C,0,128377,128377,255,0,128 F,0,128377,128877,1,0
Sprite,Background,Centre,"sb\glow.png",203,284 S,0,128396,128396,0.5 C,0,128396,128396,255,0,128 F,0,128396,128896,1,0
Sprite,Background,Centre,"sb\glow.png",224,280 S,0,128415,128415,0.5 C,0,128415,128415,255,0,128 F,0,128415,128915,1,0
Sprite,Background,Centre,"sb\glow.png",232,279 S,0,128434,128434,0.5 C,0,128434,128434,255,0,128 F,0,128434,128934,1,0
Sprite,Background,Centre,"sb\glow.png",246,280 S,0,128452,128452,0.5 C,0,128452,128452,255,88,102 F,0,128452,128952,1,0
Sprite,Background,Centre,"sb\glow.png",261,280 S,0,128471,128471,0.5 C,0,128471,128471,255,88,102 F,0,128471,128971,1,0
Sprite,Background,Centre,"sb\glow.png",276,281 S,0,128490,128490,0.5 C,0,128490,128490,255,88,102 F,0,128490,128990,1,0
Sprite,Background,Centre,"sb\glow.png",291,282 S,0,128509,128509,0.5 C,0,128509,128509,255,88,102 F,0,128509,129009,1,0
Sprite,Background,Centre,"sb\glow.png",306,283 S,0,128527,128527,0.5 C,0,128527,128527,255,88,102 F,0,128527,129027,1,0
Sprite,Background,Centre,"sb\glow.png",320,288 S,0,128546,128546,0.5 C,0,128546,128546,255,88,102 F,0,128546,129046,1,0
Sprite,Background,Centre,"sb\glow.png",334,284 S,0,128565,128565,0.5 C,0,128565,128565,255,88,102 F,0,128565,129065,1,0
Sprite,Background,Centre,"sb\glow.png",349,285 S,0,128584,128584,0.5 C,0,128584,128584,255,88,102 F,0,128584,129084,1,0
Sprite,Background,Centre,"sb\glow.png",364,286 S,0,128602,128602,0.5 C,0,128602,128602,255,88,102 F,0,128602,129102,1,0
Sprite,Background,Centre,"sb\glow.png",379,287 S,0,128621,128621,0.5 C,0,128621,128621,255,88,102 F,0,128621,129121,1,0
Sprite,Background,Centre,"sb\glow.png",394,288 S,0,128640,128640,0.5 C,0,128640,128640,255,88,102 F,0,128640,129140,1,0
Sprite,Background,Centre,"sb\glow.png",409,288 S,0,128659,128659,0.5 C,0,128659,128659,255,88,102 F,0,128659,129159,1,0
Sprite,Background,Centre,"sb\glow.png",442,235 S,0,128677,128677,0.5 C,0,128677,128677,255,88,102 F,0,128677,129177,1,0
Sprite,Background,Centre,"sb\glow.png",471,186 S,0,128696,128696,0.5 C,0,128696,128696,255,88,102 F,0,128696,129196,1,0
Sprite,Background,Centre,"sb\glow.png",491,153 S,0,128715,128715,0.5 C,0,128715,128715,255,88,102 F,0,128715,129215,1,0
Sprite,Background,Centre,"sb\glow.png",499,141 S,0,128734,128734,0.5 C,0,128734,128734,255,88,102 F,0,128734,129234,1,0
Sprite,Background,Centre,"sb\glow.png",485,142 S,0,128752,128752,0.5 C,0,128752,128752,255,88,102 F,0,128752,129252,1,0
Sprite,Background,Centre,"sb\glow.png",470,142 S,0,128771,128771,0.5 C,0,128771,128771,255,88,102 F,0,128771,129271,1,0
Sprite,Background,Centre,"sb\glow.png",455,143 S,0,128790,128790,0.5 C,0,128790,128790,255,88,102 F,0,128790,129290,1,0
Sprite,Background,Centre,"sb\glow.png",440,144 S,0,128809,128809,0.5 C,0,128809,128809,255,88,102 F,0,128809,129309,1,0
Sprite,Background,Centre,"sb\glow.png",425,145 S,0,128827,128827,0.5 C,0,128827,128827,255,88,102 F,0,128827,129327,1,0
Sprite,Background,Centre,"sb\glow.png",410,142 S,0,128846,128846,0.5 C,0,128846,128846,255,88,102 F,0,128846,129346,1,0
Sprite,Background,Centre,"sb\glow.png",397,148 S,0,128865,128865,0.5 C,0,128865,128865,255,88,102 F,0,128865,129365,1,0
Sprite,Background,Centre,"sb\glow.png",382,149 S,0,128884,128884,0.5 C,0,128884,128884,255,88,102 F,0,128884,129384,1,0
Sprite,Background,Centre,"sb\glow.png",367,151 S,0,128902,128902,0.5 C,0,128902,128902,255,88,102 F,0,128902,129402,1,0
Sprite,Background,Centre,"sb\glow.png",352,152 S,0,128921,128921,0.5 C,0,128921,128921,255,88,102 F,0,128921,129421,1,0
Sprite,Background,Centre,"sb\glow.png",337,153 S,0,128940,128940,0.5 C,0,128940,128940,255,88,102 F,0,128940,129440,1,0
Sprite,Background,Centre,"sb\glow.png",322,154 S,0,128959,128959,0.5 C,0,128959,128959,255,88,102 F,0,128959,129459,1,0
Sprite,Background,Centre,"sb\glow.png",277,147 S,0,128977,128977,0.5 C,0,128977,128977,255,88,102 F,0,128977,129477,1,0
Sprite,Background,Centre,"sb\glow.png",237,140 S,0,128996,128996,0.5 C,0,128996,128996,255,88,102 F,0,128996,129496,1,0
Sprite,Background,Centre,"sb\glow.png",210,136 S,0,129015,129015,0.5 C,0,129015,129015,255,88,102 F,0,129015,129515,1,0
Sprite,Background,Centre,"sb\glow.png",200,134 S,0,129034,129034,0.5 C,0,129034,129034,255,88,102 F,0,129034,129534,1,0
Sprite,Background,Centre,"sb\glow.png",200,134 S,0,129052,129052,0.5 C,0,129052,129052,255,0,255 F,0,129052,129552,1,0
Sprite,Background,Centre,"sb\glow.png",200,134 S,0,129071,129071,0.5 C,0,129071,129071,255,0,255 F,0,129071,129571,1,0
Sprite,Background,Centre,"sb\glow.png",200,134 S,0,129090,129090,0.5 C,0,129090,129090,255,0,255 F,0,129090,129590,1,0
Sprite,Background,Centre,"sb\glow.png",200,134 S,0,129109,129109,0.5 C,0,129109,129109,255,0,255 F,0,129109,129609,1,0
Sprite,Background,Centre,"sb\glow.png",200,134 S,0,129127,129127,0.5 C,0,129127,129127,255,0,255 F,0,129127,129627,1,0
Sprite,Background,Centre,"sb\glow.png",200,134 S,0,129146,129146,0.5 C,0,129146,129146,255,0,255 F,0,129146,129646,1,0
Sprite,Background,Centre,"sb\glow.png",200,134 S,0,129165,129165,0.5 C,0,129165,129165,255,0,255 F,0,129165,129665,1,0
Sprite,Background,Centre,"sb\glow.png",200,134 S,0,129184,129184,0.5 C,0,129184,129184,255,0,255 F,0,129184,129684,1,0
Sprite,Background,Centre,"sb\glow.png",182,150 S,0,129202,129202,0.5 C,0,129202,129202,255,0,255 F,0,129202,129702,1,0
Sprite,Background,Centre,"sb\glow.png",165,167 S,0,129221,129221,0.5 C,0,129221,129221,255,0,255 F,0,129221,129721,1,0
Sprite,Background,Centre,"sb\glow.png",148,183 S,0,129240,129240,0.5 C,0,129240,129240,255,0,255 F,0,129240,129740,1,0
Sprite,Background,Centre,"sb\glow.png",134,196 S,0,129259,129259,0.5 C,0,129259,129259,255,0,255 F,0,129259,129759,1,0
Sprite,Background,Centre,"sb\glow.png",122,207 S,0,129277,129277,0.5 C,0,129277,129277,255,0,255 F,0,129277,129777,1,0
Sprite,Background,Centre,"sb\glow.png",113,216 S,0,129296,129296,0.5 C,0,129296,129296,255,0,255 F,0,129296,129796,1,0
Sprite,Background,Centre,"sb\glow.png",107,221 S,0,129315,129315,0.5 C,0,129315,129315,255,0,255 F,0,129315,129815,1,0
Sprite,Background,Centre,"sb\glow.png",105,223 S,0,129334,129334,0.5 C,0,129334,129334,255,0,255 F,0,129334,129834,1,0
Sprite,Background,Centre,"sb\glow.png",126,234 S,0,129352,129352,0.5 C,0,129352,129352,255,0,255 F,0,129352,129852,1,0
Sprite,Background,Centre,"sb\glow.png",146,245 S,0,129371,129371,0.5 C,0,129371,129371,255,0,255 F,0,129371,129871,1,0
Sprite,Background,Centre,"sb\glow.png",166,256 S,0,129390,129390,0.5 C,0,129390,129390,255,0,255 F,0,129390,129890,1,0
Sprite,Background,Centre,"sb\glow.png",183,265 S,0,129409,129409,0.5 C,0,129409,129409,255,0,255 F,0,129409,129909,1,0
Sprite,Background,Centre,"sb\glow.png",197,273 S,0,129427,129427,0.5 C,0,129427,129427,255,0,255 F,0,129427,129927,1,0
Sprite,Background,Centre,"sb\glow.png",207,278 S,0,129446,129446,0.5 C,0,129446,129446,255,0,255 F,0,129446,129946,1,0
Sprite,Background,Centre,"sb\glow.png",214,282 S,0,129465,129465,0.5 C,0,129465,129465,255,0,255 F,0,129465,129965,1,0
Sprite,Background,Centre,"sb\glow.png",216,283 S,0,129484,129484,0.5 C,0,129484,129484,255,0,255 F,0,129484,129984,1,0
Sprite,Background,Centre,"sb\glow.png",243,267 S,0,129502,129502,0.5 C,0,129502,129502,255,0,255 F,0,129502,130002,1,0
Sprite,Background,Centre,"sb\glow.png",271,250 S,0,129521,129521,0.5 C,0,129521,129521,255,0,255 F,0,129521,130021,1,0
Sprite,Background,Centre,"sb\glow.png",297,235 S,0,129540,129540,0.5 C,0,129540,129540,255,0,255 F,0,129540,130040,1,0
Sprite,Background,Centre,"sb\glow.png",320,221 S,0,129559,129559,0.5 C,0,129559,129559,255,0,255 F,0,129559,130059,1,0
Sprite,Background,Centre,"sb\glow.png",338,210 S,0,129577,129577,0.5 C,0,129577,129577,255,0,255 F,0,129577,130077,1,0
Sprite,Background,Centre,"sb\glow.png",352,202 S,0,129596,129596,0.5 C,0,129596,129596,255,0,255 F,0,129596,130096,1,0
Sprite,Background,Centre,"sb\glow.png",361,197 S,0,129615,129615,0.5 C,0,129615,129615,255,0,255 F,0,129615,130115,1,0
Sprite,Background,Centre,"sb\glow.png",364,195 S,0,129634,129634,0.5 C,0,129634,129634,255,0,255 F,0,129634,130134,1,0
Sprite,Background,Centre,"sb\glow.png",375,186 S,0,129652,129652,0.5 C,0,129652,129652,255,128,192 F,0,129652,130152,1,0
Sprite,Background,Centre,"sb\glow.png",386,176 S,0,129671,129671,0.5 C,0,129671,129671,255,128,192 F,0,129671,130171,1,0
Sprite,Background,Centre,"sb\glow.png",394,172 S,0,129690,129690,0.5 C,0,129690,129690,255,128,192 F,0,129690,130190,1,0
Sprite,Background,Centre,"sb\glow.png",393,186 S,0,129709,129709,0.5 C,0,129709,129709,255,128,192 F,0,129709,130209,1,0
Sprite,Background,Centre,"sb\glow.png",391,201 S,0,129727,129727,0.5 C,0,129727,129727,255,128,192 F,0,129727,130227,1,0
Sprite,Background,Centre,"sb\glow.png",389,216 S,0,129746,129746,0.5 C,0,129746,129746,255,128,192 F,0,129746,130246,1,0
Sprite,Background,Centre,"sb\glow.png",387,231 S,0,129765,129765,0.5 C,0,129765,129765,255,128,192 F,0,129765,130265,1,0
Sprite,Background,Centre,"sb\glow.png",385,245 S,0,129784,129784,0.5 C,0,129784,129784,255,128,192 F,0,129784,130284,1,0
Sprite,Background,Centre,"sb\glow.png",388,260 S,0,129802,129802,0.5 C,0,129802,129802,255,128,192 F,0,129802,130302,1,0
Sprite,Background,Centre,"sb\glow.png",386,275 S,0,129821,129821,0.5 C,0,129821,129821,255,128,192 F,0,129821,130321,1,0
Sprite,Background,Centre,"sb\glow.png",384,290 S,0,129840,129840,0.5 C,0,129840,129840,255,128,192 F,0,129840,130340,1,0
Sprite,Background,Centre,"sb\glow.png",382,305 S,0,129859,129859,0.5 C,0,129859,129859,255,128,192 F,0,129859,130359,1,0
Sprite,Background,Centre,"sb\glow.png",430,331 S,0,129877,129877,0.5 C,0,129877,129877,255,128,192 F,0,129877,130377,1,0
Sprite,Background,Centre,"sb\glow.png",474,354 S,0,129896,129896,0.5 C,0,129896,129896,255,128,192 F,0,129896,130396,1,0
Sprite,Background,Centre,"sb\glow.png",504,370 S,0,129915,129915,0.5 C,0,129915,129915,255,128,192 F,0,129915,130415,1,0
Sprite,Background,Centre,"sb\glow.png",515,376 S,0,129934,129934,0.5 C,0,129934,129934,255,128,192 F,0,129934,130434,1,0
Sprite,Background,Centre,"sb\glow.png",501,375 S,0,129952,129952,0.5 C,0,129952,129952,255,128,192 F,0,129952,130452,1,0
Sprite,Background,Centre,"sb\glow.png",486,374 S,0,129971,129971,0.5 C,0,129971,129971,255,128,192 F,0,129971,130471,1,0
Sprite,Background,Centre,"sb\glow.png",471,374 S,0,129990,129990,0.5 C,0,129990,129990,255,128,192 F,0,129990,130490,1,0
Sprite,Background,Centre,"sb\glow.png",456,373 S,0,130009,130009,0.5 C,0,130009,130009,255,128,192 F,0,130009,130509,1,0
Sprite,Background,Centre,"sb\glow.png",441,373 S,0,130027,130027,0.5 C,0,130027,130027,255,128,192 F,0,130027,130527,1,0
Sprite,Background,Centre,"sb\glow.png",429,381 S,0,130046,130046,0.5 C,0,130046,130046,255,128,192 F,0,130046,130546,1,0
Sprite,Background,Centre,"sb\glow.png",416,389 S,0,130065,130065,0.5 C,0,130065,130065,255,128,192 F,0,130065,130565,1,0
Sprite,Background,Centre,"sb\glow.png",403,394 S,0,130084,130084,0.5 C,0,130084,130084,255,128,192 F,0,130084,130584,1,0
Sprite,Background,Centre,"sb\glow.png",388,394 S,0,130102,130102,0.5 C,0,130102,130102,255,128,192 F,0,130102,130602,1,0
Sprite,Background,Centre,"sb\glow.png",373,393 S,0,130121,130121,0.5 C,0,130121,130121,255,128,192 F,0,130121,130621,1,0
Sprite,Background,Centre,"sb\glow.png",358,391 S,0,130140,130140,0.5 C,0,130140,130140,255,128,192 F,0,130140,130640,1,0
Sprite,Background,Centre,"sb\glow.png",343,390 S,0,130159,130159,0.5 C,0,130159,130159,255,128,192 F,0,130159,130659,1,0
Sprite,Background,Centre,"sb\glow.png",296,393 S,0,130177,130177,0.5 C,0,130177,130177,255,128,192 F,0,130177,130677,1,0
Sprite,Background,Centre,"sb\glow.png",254,396 S,0,130196,130196,0.5 C,0,130196,130196,255,128,192 F,0,130196,130696,1,0
Sprite,Background,Centre,"sb\glow.png",225,397 S,0,130215,130215,0.5 C,0,130215,130215,255,128,192 F,0,130215,130715,1,0
Sprite,Background,Centre,"sb\glow.png",214,398 S,0,130234,130234,0.5 C,0,130234,130234,255,128,192 F,0,130234,130734,1,0
Sprite,Background,Centre,"sb\glow.png",214,398 S,0,130252,130252,0.5 C,0,130252,130252,255,0,128 F,0,130252,130752,1,0
Sprite,Background,Centre,"sb\glow.png",214,398 S,0,130271,130271,0.5 C,0,130271,130271,255,0,128 F,0,130271,130771,1,0
Sprite,Background,Centre,"sb\glow.png",214,398 S,0,130290,130290,0.5 C,0,130290,130290,255,0,128 F,0,130290,130790,1,0
Sprite,Background,Centre,"sb\glow.png",214,398 S,0,130309,130309,0.5 C,0,130309,130309,255,0,128 F,0,130309,130809,1,0
Sprite,Background,Centre,"sb\glow.png",214,398 S,0,130327,130327,0.5 C,0,130327,130327,255,0,128 F,0,130327,130827,1,0
Sprite,Background,Centre,"sb\glow.png",214,398 S,0,130346,130346,0.5 C,0,130346,130346,255,0,128 F,0,130346,130846,1,0
Sprite,Background,Centre,"sb\glow.png",214,398 S,0,130365,130365,0.5 C,0,130365,130365,255,0,128 F,0,130365,130865,1,0
Sprite,Background,Centre,"sb\glow.png",214,398 S,0,130384,130384,0.5 C,0,130384,130384,255,0,128 F,0,130384,130884,1,0
Sprite,Background,Centre,"sb\glow.png",232,383 S,0,130402,130402,0.5 C,0,130402,130402,255,0,128 F,0,130402,130902,1,0
Sprite,Background,Centre,"sb\glow.png",249,367 S,0,130421,130421,0.5 C,0,130421,130421,255,0,128 F,0,130421,130921,1,0
Sprite,Background,Centre,"sb\glow.png",266,353 S,0,130440,130440,0.5 C,0,130440,130440,255,0,128 F,0,130440,130940,1,0
Sprite,Background,Centre,"sb\glow.png",280,341 S,0,130459,130459,0.5 C,0,130459,130459,255,0,128 F,0,130459,130959,1,0
Sprite,Background,Centre,"sb\glow.png",292,330 S,0,130477,130477,0.5 C,0,130477,130477,255,0,128 F,0,130477,130977,1,0
Sprite,Background,Centre,"sb\glow.png",301,323 S,0,130496,130496,0.5 C,0,130496,130496,255,0,128 F,0,130496,130996,1,0
Sprite,Background,Centre,"sb\glow.png",307,318 S,0,130515,130515,0.5 C,0,130515,130515,255,0,128 F,0,130515,131015,1,0
Sprite,Background,Centre,"sb\glow.png",309,316 S,0,130534,130534,0.5 C,0,130534,130534,255,0,128 F,0,130534,131034,1,0
Sprite,Background,Centre,"sb\glow.png",299,290 S,0,130552,130552,0.5 C,0,130552,130552,255,0,128 F,0,130552,131052,1,0
Sprite,Background,Centre,"sb\glow.png",288,263 S,0,130571,130571,0.5 C,0,130571,130571,255,0,128 F,0,130571,131071,1,0
Sprite,Background,Centre,"sb\glow.png",279,238 S,0,130590,130590,0.5 C,0,130590,130590,255,0,128 F,0,130590,131090,1,0
Sprite,Background,Centre,"sb\glow.png",271,217 S,0,130609,130609,0.5 C,0,130609,130609,255,0,128 F,0,130609,131109,1,0
Sprite,Background,Centre,"sb\glow.png",264,199 S,0,130627,130627,0.5 C,0,130627,130627,255,0,128 F,0,130627,131127,1,0
Sprite,Background,Centre,"sb\glow.png",258,185 S,0,130646,130646,0.5 C,0,130646,130646,255,0,128 F,0,130646,131146,1,0
Sprite,Background,Centre,"sb\glow.png",255,177 S,0,130665,130665,0.5 C,0,130665,130665,255,0,128 F,0,130665,131165,1,0
Sprite,Background,Centre,"sb\glow.png",254,174 S,0,130684,130684,0.5 C,0,130684,130684,255,0,128 F,0,130684,131184,1,0
Sprite,Background,Centre,"sb\glow.png",223,192 S,0,130702,130702,0.5 C,0,130702,130702,255,0,128 F,0,130702,131202,1,0
Sprite,Background,Centre,"sb\glow.png",192,211 S,0,130721,130721,0.5 C,0,130721,130721,255,0,128 F,0,130721,131221,1,0
Sprite,Background,Centre,"sb\glow.png",163,229 S,0,130740,130740,0.5 C,0,130740,130740,255,0,128 F,0,130740,131240,1,0
Sprite,Background,Centre,"sb\glow.png",138,244 S,0,130759,130759,0.5 C,0,130759,130759,255,0,128 F,0,130759,131259,1,0
Sprite,Background,Centre,"sb\glow.png",117,257 S,0,130777,130777,0.5 C,0,130777,130777,255,0,128 F,0,130777,131277,1,0
Sprite,Background,Centre,"sb\glow.png",101,266 S,0,130796,130796,0.5 C,0,130796,130796,255,0,128 F,0,130796,131296,1,0
Sprite,Background,Centre,"sb\glow.png",92,272 S,0,130815,130815,0.5 C,0,130815,130815,255,0,128 F,0,130815,131315,1,0
Sprite,Background,Centre,"sb\glow.png",88,274 S,0,130834,130834,0.5 C,0,130834,130834,255,0,128 F,0,130834,131334,1,0
Sprite,Background,Centre,"sb\glow.png",102,273 S,0,130852,130852,0.5 C,0,130852,130852,255,88,102 F,0,130852,131352,1,0
Sprite,Background,Centre,"sb\glow.png",117,272 S,0,130871,130871,0.5 C,0,130871,130871,255,88,102 F,0,130871,131371,1,0
Sprite,Background,Centre,"sb\glow.png",132,271 S,0,130890,130890,0.5 C,0,130890,130890,255,88,102 F,0,130890,131390,1,0
Sprite,Background,Centre,"sb\glow.png",138,274 S,0,130909,130909,0.5 C,0,130909,130909,255,88,102 F,0,130909,131409,1,0
Sprite,Background,Centre,"sb\glow.png",152,273 S,0,130927,130927,0.5 C,0,130927,130927,255,88,102 F,0,130927,131427,1,0
Sprite,Background,Centre,"sb\glow.png",167,271 S,0,130946,130946,0.5 C,0,130946,130946,255,88,102 F,0,130946,131446,1,0
Sprite,Background,Centre,"sb\glow.png",182,270 S,0,130965,130965,0.5 C,0,130965,130965,255,88,102 F,0,130965,131465,1,0
Sprite,Background,Centre,"sb\glow.png",197,269 S,0,130984,130984,0.5 C,0,130984,130984,255,88,102 F,0,130984,131484,1,0
Sprite,Background,Centre,"sb\glow.png",211,267 S,0,131002,131002,0.5 C,0,131002,131002,255,88,102 F,0,131002,131502,1,0
Sprite,Background,Centre,"sb\glow.png",220,264 S,0,131021,131021,0.5 C,0,131021,131021,255,88,102 F,0,131021,131521,1,0
Sprite,Background,Centre,"sb\glow.png",235,263 S,0,131040,131040,0.5 C,0,131040,131040,255,88,102 F,0,131040,131540,1,0
Sprite,Background,Centre,"sb\glow.png",250,261 S,0,131059,131059,0.5 C,0,131059,131059,255,88,102 F,0,131059,131559,1,0
Sprite,Background,Centre,"sb\glow.png",308,243 S,0,131077,131077,0.5 C,0,131077,131077,255,88,102 F,0,131077,131577,1,0
Sprite,Background,Centre,"sb\glow.png",360,227 S,0,131096,131096,0.5 C,0,131096,131096,255,88,102 F,0,131096,131596,1,0
Sprite,Background,Centre,"sb\glow.png",395,216 S,0,131115,131115,0.5 C,0,131115,131115,255,88,102 F,0,131115,131615,1,0
Sprite,Background,Centre,"sb\glow.png",408,212 S,0,131134,131134,0.5 C,0,131134,131134,255,88,102 F,0,131134,131634,1,0
Sprite,Background,Centre,"sb\glow.png",417,223 S,0,131152,131152,0.5 C,0,131152,131152,255,88,102 F,0,131152,131652,1,0
Sprite,Background,Centre,"sb\glow.png",426,235 S,0,131171,131171,0.5 C,0,131171,131171,255,88,102 F,0,131171,131671,1,0
Sprite,Background,Centre,"sb\glow.png",418,224 S,0,131190,131190,0.5 C,0,131190,131190,255,88,102 F,0,131190,131690,1,0
Sprite,Background,Centre,"sb\glow.png",408,213 S,0,131209,131209,0.5 C,0,131209,131209,255,88,102 F,0,131209,131709,1,0
Sprite,Background,Centre,"sb\glow.png",417,223 S,0,131227,131227,0.5 C,0,131227,131227,255,88,102 F,0,131227,131727,1,0
Sprite,Background,Centre,"sb\glow.png",426,235 S,0,131246,131246,0.5 C,0,131246,131246,255,88,102 F,0,131246,131746,1,0
Sprite,Background,Centre,"sb\glow.png",418,224 S,0,131265,131265,0.5 C,0,131265,131265,255,88,102 F,0,131265,131765,1,0
Sprite,Background,Centre,"sb\glow.png",408,213 S,0,131284,131284,0.5 C,0,131284,131284,255,88,102 F,0,131284,131784,1,0
Sprite,Background,Centre,"sb\glow.png",417,223 S,0,131302,131302,0.5 C,0,131302,131302,255,88,102 F,0,131302,131802,1,0
Sprite,Background,Centre,"sb\glow.png",426,235 S,0,131321,131321,0.5 C,0,131321,131321,255,88,102 F,0,131321,131821,1,0
Sprite,Background,Centre,"sb\glow.png",418,224 S,0,131340,131340,0.5 C,0,131340,131340,255,88,102 F,0,131340,131840,1,0
Sprite,Background,Centre,"sb\glow.png",408,213 S,0,131359,131359,0.5 C,0,131359,131359,255,88,102 F,0,131359,131859,1,0
Sprite,Background,Centre,"sb\glow.png",405,247 S,0,131377,131377,0.5 C,0,131377,131377,255,88,102 F,0,131377,131877,1,0
Sprite,Background,Centre,"sb\glow.png",402,278 S,0,131396,131396,0.5 C,0,131396,131396,255,88,102 F,0,131396,131896,1,0
Sprite,Background,Centre,"sb\glow.png",400,300 S,0,131415,131415,0.5 C,0,131415,131415,255,88,102 F,0,131415,131915,1,0
Sprite,Background,Centre,"sb\glow.png",399,308 S,0,131434,131434,0.5 C,0,131434,131434,255,88,102 F,0,131434,131934,1,0
Sprite,Background,Centre,"sb\glow.png",384,305 S,0,131452,131452,0.5 C,0,131452,131452,255,88,102 F,0,131452,131952,1,0
Sprite,Background,Centre,"sb\glow.png",369,300 S,0,131471,131471,0.5 C,0,131471,131471,255,88,102 F,0,131471,131971,1,0
Sprite,Background,Centre,"sb\glow.png",354,292 S,0,131490,131490,0.5 C,0,131490,131490,255,88,102 F,0,131490,131990,1,0
Sprite,Background,Centre,"sb\glow.png",342,282 S,0,131509,131509,0.5 C,0,131509,131509,255,88,102 F,0,131509,132009,1,0
Sprite,Background,Centre,"sb\glow.png",331,269 S,0,131527,131527,0.5 C,0,131527,131527,255,88,102 F,0,131527,132027,1,0
Sprite,Background,Centre,"sb\glow.png",322,256 S,0,131546,131546,0.5 C,0,131546,131546,255,88,102 F,0,131546,132046,1,0
Sprite,Background,Centre,"sb\glow.png",316,241 S,0,131565,131565,0.5 C,0,131565,131565,255,88,102 F,0,131565,132065,1,0
Sprite,Background,Centre,"sb\glow.png",313,225 S,0,131584,131584,0.5 C,0,131584,131584,255,88,102 F,0,131584,132084,1,0
Sprite,Background,Centre,"sb\glow.png",312,209 S,0,131602,131602,0.5 C,0,131602,131602,255,88,102 F,0,131602,132102,1,0
Sprite,Background,Centre,"sb\glow.png",314,193 S,0,131621,131621,0.5 C,0,131621,131621,255,88,102 F,0,131621,132121,1,0
Sprite,Background,Centre,"sb\glow.png",318,177 S,0,131640,131640,0.5 C,0,131640,131640,255,88,102 F,0,131640,132140,1,0
Sprite,Background,Centre,"sb\glow.png",325,163 S,0,131659,131659,0.5 C,0,131659,131659,255,88,102 F,0,131659,132159,1,0
Sprite,Background,Centre,"sb\glow.png",360,146 S,0,131677,131677,0.5 C,0,131677,131677,255,88,102 F,0,131677,132177,1,0
Sprite,Background,Centre,"sb\glow.png",391,131 S,0,131696,131696,0.5 C,0,131696,131696,255,88,102 F,0,131696,132196,1,0
Sprite,Background,Centre,"sb\glow.png",412,121 S,0,131715,131715,0.5 C,0,131715,131715,255,88,102 F,0,131715,132215,1,0
Sprite,Background,Centre,"sb\glow.png",420,117 S,0,131734,131734,0.5 C,0,131734,131734,255,88,102 F,0,131734,132234,1,0
Sprite,Background,Centre,"sb\glow.png",434,120 S,0,131752,131752,0.5 C,0,131752,131752,255,88,102 F,0,131752,132252,1,0
Sprite,Background,Centre,"sb\glow.png",448,125 S,0,131771,131771,0.5 C,0,131771,131771,255,88,102 F,0,131771,132271,1,0
Sprite,Background,Centre,"sb\glow.png",461,132 S,0,131790,131790,0.5 C,0,131790,131790,255,88,102 F,0,131790,132290,1,0
Sprite,Background,Centre,"sb\glow.png",473,141 S,0,131809,131809,0.5 C,0,131809,131809,255,88,102 F,0,131809,132309,1,0
Sprite,Background,Centre,"sb\glow.png",483,152 S,0,131827,131827,0.5 C,0,131827,131827,255,88,102 F,0,131827,132327,1,0
Sprite,Background,Centre,"sb\glow.png",491,165 S,0,131846,131846,0.5 C,0,131846,131846,255,88,102 F,0,131846,132346,1,0
Sprite,Background,Centre,"sb\glow.png",497,178 S,0,131865,131865,0.5 C,0,131865,131865,255,88,102 F,0,131865,132365,1,0
Sprite,Background,Centre,"sb\glow.png",501,193 S,0,131884,131884,0.5 C,0,131884,131884,255,88,102 F,0,131884,132384,1,0
Sprite,Background,Centre,"sb\glow.png",502,208 S,0,131902,131902,0.5 C,0,131902,131902,255,88,102 F,0,131902,132402,1,0
Sprite,Background,Centre,"sb\glow.png",501,223 S,0,131921,131921,0.5 C,0,131921,131921,255,88,102 F,0,131921,132421,1,0
Sprite,Background,Centre,"sb\glow.png",498,237 S,0,131940,131940,0.5 C,0,131940,131940,255,88,102 F,0,131940,132440,1,0
Sprite,Background,Centre,"sb\glow.png",492,251 S,0,131959,131959,0.5 C,0,131959,131959,255,88,102 F,0,131959,132459,1,0
Sprite,Background,Centre,"sb\glow.png",480,289 S,0,131977,131977,0.5 C,0,131977,131977,255,88,102 F,0,131977,132477,1,0
Sprite,Background,Centre,"sb\glow.png",470,322 S,0,131996,131996,0.5 C,0,131996,131996,255,88,102 F,0,131996,132496,1,0
Sprite,Background,Centre,"sb\glow.png",463,344 S,0,132015,132015,0.5 C,0,132015,132015,255,88,102 F,0,132015,132515,1,0
Sprite,Background,Centre,"sb\glow.png",460,353 S,0,132034,132034,0.5 C,0,132034,132034,255,88,102 F,0,132034,132534,1,0
Sprite,Background,Centre,"sb\glow.png",434,363 S,0,132052,132052,0.5 C,0,132052,132052,255,0,255 F,0,132052,132552,1,0
Sprite,Background,Centre,"sb\glow.png",407,373 S,0,132071,132071,0.5 C,0,132071,132071,255,0,255 F,0,132071,132571,1,0
Sprite,Background,Centre,"sb\glow.png",383,382 S,0,132090,132090,0.5 C,0,132090,132090,255,0,255 F,0,132090,132590,1,0
Sprite,Background,Centre,"sb\glow.png",361,390 S,0,132109,132109,0.5 C,0,132109,132109,255,0,255 F,0,132109,132609,1,0
Sprite,Background,Centre,"sb\glow.png",344,397 S,0,132127,132127,0.5 C,0,132127,132127,255,0,255 F,0,132127,132627,1,0
Sprite,Background,Centre,"sb\glow.png",330,402 S,0,132146,132146,0.5 C,0,132146,132146,255,0,255 F,0,132146,132646,1,0
Sprite,Background,Centre,"sb\glow.png",322,405 S,0,132165,132165,0.5 C,0,132165,132165,255,0,255 F,0,132165,132665,1,0
Sprite,Background,Centre,"sb\glow.png",319,406 S,0,132184,132184,0.5 C,0,132184,132184,255,0,255 F,0,132184,132684,1,0
Sprite,Background,Centre,"sb\glow.png",344,395 S,0,132202,132202,0.5 C,0,132202,132202,255,0,255 F,0,132202,132702,1,0
Sprite,Background,Centre,"sb\glow.png",370,383 S,0,132221,132221,0.5 C,0,132221,132221,255,0,255 F,0,132221,132721,1,0
Sprite,Background,Centre,"sb\glow.png",394,372 S,0,132240,132240,0.5 C,0,132240,132240,255,0,255 F,0,132240,132740,1,0
Sprite,Background,Centre,"sb\glow.png",415,363 S,0,132259,132259,0.5 C,0,132259,132259,255,0,255 F,0,132259,132759,1,0
Sprite,Background,Centre,"sb\glow.png",432,355 S,0,132277,132277,0.5 C,0,132277,132277,255,0,255 F,0,132277,132777,1,0
Sprite,Background,Centre,"sb\glow.png",445,349 S,0,132296,132296,0.5 C,0,132296,132296,255,0,255 F,0,132296,132796,1,0
Sprite,Background,Centre,"sb\glow.png",453,345 S,0,132315,132315,0.5 C,0,132315,132315,255,0,255 F,0,132315,132815,1,0
Sprite,Background,Centre,"sb\glow.png",456,344 S,0,132334,132334,0.5 C,0,132334,132334,255,0,255 F,0,132334,132834,1,0
Sprite,Background,Centre,"sb\glow.png",437,328 S,0,132352,132352,0.5 C,0,132352,132352,255,128,192 F,0,132352,132852,1,0
Sprite,Background,Centre,"sb\glow.png",418,311 S,0,132371,132371,0.5 C,0,132371,132371,255,128,192 F,0,132371,132871,1,0
Sprite,Background,Centre,"sb\glow.png",400,295 S,0,132390,132390,0.5 C,0,132390,132390,255,128,192 F,0,132390,132890,1,0
Sprite,Background,Centre,"sb\glow.png",385,282 S,0,132409,132409,0.5 C,0,132409,132409,255,128,192 F,0,132409,132909,1,0
Sprite,Background,Centre,"sb\glow.png",372,271 S,0,132427,132427,0.5 C,0,132427,132427,255,128,192 F,0,132427,132927,1,0
Sprite,Background,Centre,"sb\glow.png",362,262 S,0,132446,132446,0.5 C,0,132446,132446,255,128,192 F,0,132446,132946,1,0
Sprite,Background,Centre,"sb\glow.png",356,257 S,0,132465,132465,0.5 C,0,132465,132465,255,128,192 F,0,132465,132965,1,0
Sprite,Background,Centre,"sb\glow.png",354,255 S,0,132484,132484,0.5 C,0,132484,132484,255,128,192 F,0,132484,132984,1,0
Sprite,Background,Centre,"sb\glow.png",354,255 S,0,132502,132502,0.5 C,0,132502,132502,255,128,192 F,0,132502,133002,1,0
Sprite,Background,Centre,"sb\glow.png",354,255 S,0,132521,132521,0.5 C,0,132521,132521,255,128,192 F,0,132521,133021,1,0
Sprite,Background,Centre,"sb\glow.png",354,255 S,0,132540,132540,0.5 C,0,132540,132540,255,128,192 F,0,132540,133040,1,0
Sprite,Background,Centre,"sb\glow.png",354,255 S,0,132559,132559,0.5 C,0,132559,132559,255,128,192 F,0,132559,133059,1,0
Sprite,Background,Centre,"sb\glow.png",354,255 S,0,132577,132577,0.5 C,0,132577,132577,255,128,192 F,0,132577,133077,1,0
Sprite,Background,Centre,"sb\glow.png",354,255 S,0,132596,132596,0.5 C,0,132596,132596,255,128,192 F,0,132596,133096,1,0
Sprite,Background,Centre,"sb\glow.png",354,255 S,0,132615,132615,0.5 C,0,132615,132615,255,128,192 F,0,132615,133115,1,0
Sprite,Background,Centre,"sb\glow.png",354,255 S,0,132634,132634,0.5 C,0,132634,132634,255,128,192 F,0,132634,133134,1,0
Sprite,Background,Centre,"sb\glow.png",382,258 S,0,132652,132652,0.5 C,0,132652,132652,255,0,128 F,0,132652,133152,1,0
Sprite,Background,Centre,"sb\glow.png",411,260 S,0,132671,132671,0.5 C,0,132671,132671,255,0,128 F,0,132671,133171,1,0
Sprite,Background,Centre,"sb\glow.png",438,263 S,0,132690,132690,0.5 C,0,132690,132690,255,0,128 F,0,132690,133190,1,0
Sprite,Background,Centre,"sb\glow.png",462,265 S,0,132709,132709,0.5 C,0,132709,132709,255,0,128 F,0,132709,133209,1,0
Sprite,Background,Centre,"sb\glow.png",481,267 S,0,132727,132727,0.5 C,0,132727,132727,255,0,128 F,0,132727,133227,1,0
Sprite,Background,Centre,"sb\glow.png",496,268 S,0,132746,132746,0.5 C,0,132746,132746,255,0,128 F,0,132746,133246,1,0
Sprite,Background,Centre,"sb\glow.png",505,269 S,0,132765,132765,0.5 C,0,132765,132765,255,0,128 F,0,132765,133265,1,0
Sprite,Background,Centre,"sb\glow.png",508,269 S,0,132784,132784,0.5 C,0,132784,132784,255,0,128 F,0,132784,133284,1,0
Sprite,Background,Centre,"sb\glow.png",493,254 S,0,132802,132802,0.5 C,0,132802,132802,255,0,128 F,0,132802,133302,1,0
Sprite,Background,Centre,"sb\glow.png",478,239 S,0,132821,132821,0.5 C,0,132821,132821,255,0,128 F,0,132821,133321,1,0
Sprite,Background,Centre,"sb\glow.png",464,225 S,0,132840,132840,0.5 C,0,132840,132840,255,0,128 F,0,132840,133340,1,0
Sprite,Background,Centre,"sb\glow.png",451,212 S,0,132859,132859,0.5 C,0,132859,132859,255,0,128 F,0,132859,133359,1,0
Sprite,Background,Centre,"sb\glow.png",441,202 S,0,132877,132877,0.5 C,0,132877,132877,255,0,128 F,0,132877,133377,1,0
Sprite,Background,Centre,"sb\glow.png",433,194 S,0,132896,132896,0.5 C,0,132896,132896,255,0,128 F,0,132896,133396,1,0
Sprite,Background,Centre,"sb\glow.png",429,190 S,0,132915,132915,0.5 C,0,132915,132915,255,0,128 F,0,132915,133415,1,0
Sprite,Background,Centre,"sb\glow.png",427,188 S,0,132934,132934,0.5 C,0,132934,132934,255,0,128 F,0,132934,133434,1,0
Sprite,Background,Centre,"sb\glow.png",417,218 S,0,132952,132952,0.5 C,0,132952,132952,255,88,102 F,0,132952,133452,1,0
Sprite,Background,Centre,"sb\glow.png",407,249 S,0,132971,132971,0.5 C,0,132971,132971,255,88,102 F,0,132971,133471,1,0
Sprite,Background,Centre,"sb\glow.png",398,278 S,0,132990,132990,0.5 C,0,132990,132990,255,88,102 F,0,132990,133490,1,0
Sprite,Background,Centre,"sb\glow.png",390,303 S,0,133009,133009,0.5 C,0,133009,133009,255,88,102 F,0,133009,133509,1,0
Sprite,Background,Centre,"sb\glow.png",383,323 S,0,133027,133027,0.5 C,0,133027,133027,255,88,102 F,0,133027,133527,1,0
Sprite,Background,Centre,"sb\glow.png",378,339 S,0,133046,133046,0.5 C,0,133046,133046,255,88,102 F,0,133046,133546,1,0
Sprite,Background,Centre,"sb\glow.png",375,349 S,0,133065,133065,0.5 C,0,133065,133065,255,88,102 F,0,133065,133565,1,0
Sprite,Background,Centre,"sb\glow.png",374,352 S,0,133084,133084,0.5 C,0,133084,133084,255,88,102 F,0,133084,133584,1,0
Sprite,Background,Centre,"sb\glow.png",357,324 S,0,133102,133102,0.5 C,0,133102,133102,255,88,102 F,0,133102,133602,1,0
Sprite,Background,Centre,"sb\glow.png",339,296 S,0,133121,133121,0.5 C,0,133121,133121,255,88,102 F,0,133121,133621,1,0
Sprite,Background,Centre,"sb\glow.png",323,270 S,0,133140,133140,0.5 C,0,133140,133140,255,88,102 F,0,133140,133640,1,0
Sprite,Background,Centre,"sb\glow.png",308,247 S,0,133159,133159,0.5 C,0,133159,133159,255,88,102 F,0,133159,133659,1,0
Sprite,Background,Centre,"sb\glow.png",296,228 S,0,133177,133177,0.5 C,0,133177,133177,255,88,102 F,0,133177,133677,1,0
Sprite,Background,Centre,"sb\glow.png",288,214 S,0,133196,133196,0.5 C,0,133196,133196,255,88,102 F,0,133196,133696,1,0
Sprite,Background,Centre,"sb\glow.png",282,205 S,0,133215,133215,0.5 C,0,133215,133215,255,88,102 F,0,133215,133715,1,0
Sprite,Background,Centre,"sb\glow.png",280,202 S,0,133234,133234,0.5 C,0,133234,133234,255,88,102 F,0,133234,133734,1,0
Sprite,Background,Centre,"sb\glow.png",295,228 S,0,133252,133252,0.5 C,0,133252,133252,255,0,255 F,0,133252,133752,1,0
Sprite,Background,Centre,"sb\glow.png",309,255 S,0,133271,133271,0.5 C,0,133271,133271,255,0,255 F,0,133271,133771,1,0
Sprite,Background,Centre,"sb\glow.png",323,279 S,0,133290,133290,0.5 C,0,133290,133290,255,0,255 F,0,133290,133790,1,0
Sprite,Background,Centre,"sb\glow.png",335,301 S,0,133309,133309,0.5 C,0,133309,133309,255,0,255 F,0,133309,133809,1,0
Sprite,Background,Centre,"sb\glow.png",345,318 S,0,133327,133327,0.5 C,0,133327,133327,255,0,255 F,0,133327,133827,1,0
Sprite,Background,Centre,"sb\glow.png",353,332 S,0,133346,133346,0.5 C,0,133346,133346,255,0,255 F,0,133346,133846,1,0
Sprite,Background,Centre,"sb\glow.png",357,340 S,0,133365,133365,0.5 C,0,133365,133365,255,0,255 F,0,133365,133865,1,0
Sprite,Background,Centre,"sb\glow.png",359,343 S,0,133384,133384,0.5 C,0,133384,133384,255,0,255 F,0,133384,133884,1,0
Sprite,Background,Centre,"sb\glow.png",329,327 S,0,133402,133402,0.5 C,0,133402,133402,255,0,255 F,0,133402,133902,1,0
Sprite,Background,Centre,"sb\glow.png",299,310 S,0,133421,133421,0.5 C,0,133421,133421,255,0,255 F,0,133421,133921,1,0
Sprite,Background,Centre,"sb\glow.png",270,295 S,0,133440,133440,0.5 C,0,133440,133440,255,0,255 F,0,133440,133940,1,0
Sprite,Background,Centre,"sb\glow.png",246,281 S,0,133459,133459,0.5 C,0,133459,133459,255,0,255 F,0,133459,133959,1,0
Sprite,Background,Centre,"sb\glow.png",225,270 S,0,133477,133477,0.5 C,0,133477,133477,255,0,255 F,0,133477,133977,1,0
Sprite,Background,Centre,"sb\glow.png",210,262 S,0,133496,133496,0.5 C,0,133496,133496,255,0,255 F,0,133496,133996,1,0
Sprite,Background,Centre,"sb\glow.png",200,257 S,0,133515,133515,0.5 C,0,133515,133515,255,0,255 F,0,133515,134015,1,0
Sprite,Background,Centre,"sb\glow.png",197,255 S,0,133534,133534,0.5 C,0,133534,133534,255,0,255 F,0,133534,134034,1,0
Sprite,Background,Centre,"sb\glow.png",204,229 S,0,133552,133552,0.5 C,0,133552,133552,255,128,192 F,0,133552,134052,1,0
Sprite,Background,Centre,"sb\glow.png",211,203 S,0,133571,133571,0.5 C,0,133571,133571,255,128,192 F,0,133571,134071,1,0
Sprite,Background,Centre,"sb\glow.png",218,179 S,0,133590,133590,0.5 C,0,133590,133590,255,128,192 F,0,133590,134090,1,0
Sprite,Background,Centre,"sb\glow.png",224,158 S,0,133609,133609,0.5 C,0,133609,133609,255,128,192 F,0,133609,134109,1,0
Sprite,Background,Centre,"sb\glow.png",228,140 S,0,133627,133627,0.5 C,0,133627,133627,255,128,192 F,0,133627,134127,1,0
Sprite,Background,Centre,"sb\glow.png",232,127 S,0,133646,133646,0.5 C,0,133646,133646,255,128,192 F,0,133646,134146,1,0
Sprite,Background,Centre,"sb\glow.png",234,119 S,0,133665,133665,0.5 C,0,133665,133665,255,128,192 F,0,133665,134165,1,0
Sprite,Background,Centre,"sb\glow.png",235,116 S,0,133684,133684,0.5 C,0,133684,133684,255,128,192 F,0,133684,134184,1,0
Sprite,Background,Centre,"sb\glow.png",235,116 S,0,133702,133702,0.5 C,0,133702,133702,255,128,192 F,0,133702,134202,1,0
Sprite,Background,Centre,"sb\glow.png",235,116 S,0,133721,133721,0.5 C,0,133721,133721,255,128,192 F,0,133721,134221,1,0
Sprite,Background,Centre,"sb\glow.png",235,116 S,0,133740,133740,0.5 C,0,133740,133740,255,128,192 F,0,133740,134240,1,0
Sprite,Background,Centre,"sb\glow.png",235,116 S,0,133759,133759,0.5 C,0,133759,133759,255,128,192 F,0,133759,134259,1,0
Sprite,Background,Centre,"sb\glow.png",235,116 S,0,133777,133777,0.5 C,0,133777,133777,255,128,192 F,0,133777,134277,1,0
Sprite,Background,Centre,"sb\glow.png",235,116 S,0,133796,133796,0.5 C,0,133796,133796,255,128,192 F,0,133796,134296,1,0
Sprite,Background,Centre,"sb\glow.png",235,116 S,0,133815,133815,0.5 C,0,133815,133815,255,128,192 F,0,133815,134315,1,0
Sprite,Background,Centre,"sb\glow.png",235,116 S,0,133834,133834,0.5 C,0,133834,133834,255,128,192 F,0,133834,134334,1,0
Sprite,Background,Centre,"sb\glow.png",249,118 S,0,133852,133852,0.5 C,0,133852,133852,255,0,128 F,0,133852,134352,1,0
Sprite,Background,Centre,"sb\glow.png",264,120 S,0,133871,133871,0.5 C,0,133871,133871,255,0,128 F,0,133871,134371,1,0
Sprite,Background,Centre,"sb\glow.png",279,122 S,0,133890,133890,0.5 C,0,133890,133890,255,0,128 F,0,133890,134390,1,0
Sprite,Background,Centre,"sb\glow.png",292,116 S,0,133909,133909,0.5 C,0,133909,133909,255,0,128 F,0,133909,134409,1,0
Sprite,Background,Centre,"sb\glow.png",306,109 S,0,133927,133927,0.5 C,0,133927,133927,255,0,128 F,0,133927,134427,1,0
Sprite,Background,Centre,"sb\glow.png",319,105 S,0,133946,133946,0.5 C,0,133946,133946,255,0,128 F,0,133946,134446,1,0
Sprite,Background,Centre,"sb\glow.png",334,106 S,0,133965,133965,0.5 C,0,133965,133965,255,0,128 F,0,133965,134465,1,0
Sprite,Background,Centre,"sb\glow.png",349,107 S,0,133984,133984,0.5 C,0,133984,133984,255,0,128 F,0,133984,134484,1,0
Sprite,Background,Centre,"sb\glow.png",364,109 S,0,134002,134002,0.5 C,0,134002,134002,255,0,128 F,0,134002,134502,1,0
Sprite,Background,Centre,"sb\glow.png",379,110 S,0,134021,134021,0.5 C,0,134021,134021,255,0,128 F,0,134021,134521,1,0
Sprite,Background,Centre,"sb\glow.png",394,111 S,0,134040,134040,0.5 C,0,134040,134040,255,0,128 F,0,134040,134540,1,0
Sprite,Background,Centre,"sb\glow.png",409,113 S,0,134059,134059,0.5 C,0,134059,134059,255,0,128 F,0,134059,134559,1,0
Sprite,Background,Centre,"sb\glow.png",433,147 S,0,134077,134077,0.5 C,0,134077,134077,255,0,128 F,0,134077,134577,1,0
Sprite,Background,Centre,"sb\glow.png",453,179 S,0,134096,134096,0.5 C,0,134096,134096,255,0,128 F,0,134096,134596,1,0
Sprite,Background,Centre,"sb\glow.png",468,200 S,0,134115,134115,0.5 C,0,134115,134115,255,0,128 F,0,134115,134615,1,0
Sprite,Background,Centre,"sb\glow.png",473,208 S,0,134134,134134,0.5 C,0,134134,134134,255,0,128 F,0,134134,134634,1,0
Sprite,Background,Centre,"sb\glow.png",478,195 S,0,134152,134152,0.5 C,0,134152,134152,255,0,128 F,0,134152,134652,1,0
Sprite,Background,Centre,"sb\glow.png",481,180 S,0,134171,134171,0.5 C,0,134171,134171,255,0,128 F,0,134171,134671,1,0
Sprite,Background,Centre,"sb\glow.png",482,165 S,0,134190,134190,0.5 C,0,134190,134190,255,0,128 F,0,134190,134690,1,0
Sprite,Background,Centre,"sb\glow.png",482,150 S,0,134209,134209,0.5 C,0,134209,134209,255,0,128 F,0,134209,134709,1,0
Sprite,Background,Centre,"sb\glow.png",431,163 S,0,134227,134227,0.5 C,0,134227,134227,255,0,128 F,0,134227,134727,1,0
Sprite,Background,Centre,"sb\glow.png",385,175 S,0,134246,134246,0.5 C,0,134246,134246,255,0,128 F,0,134246,134746,1,0
Sprite,Background,Centre,"sb\glow.png",354,184 S,0,134265,134265,0.5 C,0,134265,134265,255,0,128 F,0,134265,134765,1,0
Sprite,Background,Centre,"sb\glow.png",342,187 S,0,134284,134284,0.5 C,0,134284,134284,255,0,128 F,0,134284,134784,1,0
Sprite,Background,Centre,"sb\glow.png",340,201 S,0,134302,134302,0.5 C,0,134302,134302,255,0,128 F,0,134302,134802,1,0
Sprite,Background,Centre,"sb\glow.png",339,216 S,0,134321,134321,0.5 C,0,134321,134321,255,0,128 F,0,134321,134821,1,0
Sprite,Background,Centre,"sb\glow.png",340,231 S,0,134340,134340,0.5 C,0,134340,134340,255,0,128 F,0,134340,134840,1,0
Sprite,Background,Centre,"sb\glow.png",344,245 S,0,134359,134359,0.5 C,0,134359,134359,255,0,128 F,0,134359,134859,1,0
Sprite,Background,Centre,"sb\glow.png",387,274 S,0,134377,134377,0.5 C,0,134377,134377,255,0,128 F,0,134377,134877,1,0
Sprite,Background,Centre,"sb\glow.png",425,300 S,0,134396,134396,0.5 C,0,134396,134396,255,0,128 F,0,134396,134896,1,0
Sprite,Background,Centre,"sb\glow.png",451,317 S,0,134415,134415,0.5 C,0,134415,134415,255,0,128 F,0,134415,134915,1,0
Sprite,Background,Centre,"sb\glow.png",461,324 S,0,134434,134434,0.5 C,0,134434,134434,255,0,128 F,0,134434,134934,1,0
Sprite,Background,Centre,"sb\glow.png",439,333 S,0,134452,134452,0.5 C,0,134452,134452,255,88,102 F,0,134452,134952,1,0
Sprite,Background,Centre,"sb\glow.png",417,342 S,0,134471,134471,0.5 C,0,134471,134471,255,88,102 F,0,134471,134971,1,0
Sprite,Background,Centre,"sb\glow.png",396,351 S,0,134490,134490,0.5 C,0,134490,134490,255,88,102 F,0,134490,134990,1,0
Sprite,Background,Centre,"sb\glow.png",378,358 S,0,134509,134509,0.5 C,0,134509,134509,255,88,102 F,0,134509,135009,1,0
Sprite,Background,Centre,"sb\glow.png",364,364 S,0,134527,134527,0.5 C,0,134527,134527,255,88,102 F,0,134527,135027,1,0
Sprite,Background,Centre,"sb\glow.png",352,369 S,0,134546,134546,0.5 C,0,134546,134546,255,88,102 F,0,134546,135046,1,0
Sprite,Background,Centre,"sb\glow.png",346,372 S,0,134565,134565,0.5 C,0,134565,134565,255,88,102 F,0,134565,135065,1,0
Sprite,Background,Centre,"sb\glow.png",343,373 S,0,134584,134584,0.5 C,0,134584,134584,255,88,102 F,0,134584,135084,1,0
Sprite,Background,Centre,"sb\glow.png",343,350 S,0,134602,134602,0.5 C,0,134602,134602,255,88,102 F,0,134602,135102,1,0
Sprite,Background,Centre,"sb\glow.png",343,326 S,0,134621,134621,0.5 C,0,134621,134621,255,88,102 F,0,134621,135121,1,0
Sprite,Background,Centre,"sb\glow.png",344,304 S,0,134640,134640,0.5 C,0,134640,134640,255,88,102 F,0,134640,135140,1,0
Sprite,Background,Centre,"sb\glow.png",344,285 S,0,134659,134659,0.5 C,0,134659,134659,255,88,102 F,0,134659,135159,1,0
Sprite,Background,Centre,"sb\glow.png",344,269 S,0,134677,134677,0.5 C,0,134677,134677,255,88,102 F,0,134677,135177,1,0
Sprite,Background,Centre,"sb\glow.png",344,257 S,0,134696,134696,0.5 C,0,134696,134696,255,88,102 F,0,134696,135196,1,0
Sprite,Background,Centre,"sb\glow.png",344,250 S,0,134715,134715,0.5 C,0,134715,134715,255,88,102 F,0,134715,135215,1,0
Sprite,Background,Centre,"sb\glow.png",344,247 S,0,134734,134734,0.5 C,0,134734,134734,255,88,102 F,0,134734,135234,1,0
Sprite,Background,Centre,"sb\glow.png",323,255 S,0,134752,134752,0.5 C,0,134752,134752,255,0,255 F,0,134752,135252,1,0
Sprite,Background,Centre,"sb\glow.png",303,264 S,0,134771,134771,0.5 C,0,134771,134771,255,0,255 F,0,134771,135271,1,0
Sprite,Background,Centre,"sb\glow.png",283,272 S,0,134790,134790,0.5 C,0,134790,134790,255,0,255 F,0,134790,135290,1,0
Sprite,Background,Centre,"sb\glow.png",266,278 S,0,134809,134809,0.5 C,0,134809,134809,255,0,255 F,0,134809,135309,1,0
Sprite,Background,Centre,"sb\glow.png",252,284 S,0,134827,134827,0.5 C,0,134827,134827,255,0,255 F,0,134827,135327,1,0
Sprite,Background,Centre,"sb\glow.png",242,288 S,0,134846,134846,0.5 C,0,134846,134846,255,0,255 F,0,134846,135346,1,0
Sprite,Background,Centre,"sb\glow.png",235,291 S,0,134865,134865,0.5 C,0,134865,134865,255,0,255 F,0,134865,135365,1,0
Sprite,Background,Centre,"sb\glow.png",233,292 S,0,134884,134884,0.5 C,0,134884,134884,255,0,255 F,0,134884,135384,1,0
Sprite,Background,Centre,"sb\glow.png",238,265 S,0,134902,134902,0.5 C,0,134902,134902,255,0,255 F,0,134902,135402,1,0
Sprite,Background,Centre,"sb\glow.png",243,238 S,0,134921,134921,0.5 C,0,134921,134921,255,0,255 F,0,134921,135421,1,0
Sprite,Background,Centre,"sb\glow.png",248,213 S,0,134940,134940,0.5 C,0,134940,134940,255,0,255 F,0,134940,135440,1,0
Sprite,Background,Centre,"sb\glow.png",253,191 S,0,134959,134959,0.5 C,0,134959,134959,255,0,255 F,0,134959,135459,1,0
Sprite,Background,Centre,"sb\glow.png",256,172 S,0,134977,134977,0.5 C,0,134977,134977,255,0,255 F,0,134977,135477,1,0
Sprite,Background,Centre,"sb\glow.png",259,159 S,0,134996,134996,0.5 C,0,134996,134996,255,0,255 F,0,134996,135496,1,0
Sprite,Background,Centre,"sb\glow.png",260,150 S,0,135015,135015,0.5 C,0,135015,135015,255,0,255 F,0,135015,135515,1,0
Sprite,Background,Centre,"sb\glow.png",261,147 S,0,135034,135034,0.5 C,0,135034,135034,255,0,255 F,0,135034,135534,1,0
Sprite,Background,Centre,"sb\glow.png",284,153 S,0,135052,135052,0.5 C,0,135052,135052,255,128,192 F,0,135052,135552,1,0
Sprite,Background,Centre,"sb\glow.png",307,159 S,0,135071,135071,0.5 C,0,135071,135071,255,128,192 F,0,135071,135571,1,0
Sprite,Background,Centre,"sb\glow.png",328,164 S,0,135090,135090,0.5 C,0,135090,135090,255,128,192 F,0,135090,135590,1,0
Sprite,Background,Centre,"sb\glow.png",346,169 S,0,135109,135109,0.5 C,0,135109,135109,255,128,192 F,0,135109,135609,1,0
Sprite,Background,Centre,"sb\glow.png",362,173 S,0,135127,135127,0.5 C,0,135127,135127,255,128,192 F,0,135127,135627,1,0
Sprite,Background,Centre,"sb\glow.png",373,176 S,0,135146,135146,0.5 C,0,135146,135146,255,128,192 F,0,135146,135646,1,0
Sprite,Background,Centre,"sb\glow.png",380,177 S,0,135165,135165,0.5 C,0,135165,135165,255,128,192 F,0,135165,135665,1,0
Sprite,Background,Centre,"sb\glow.png",383,178 S,0,135184,135184,0.5 C,0,135184,135184,255,128,192 F,0,135184,135684,1,0
Sprite,Background,Centre,"sb\glow.png",370,156 S,0,135202,135202,0.5 C,0,135202,135202,255,128,192 F,0,135202,135702,1,0
Sprite,Background,Centre,"sb\glow.png",356,133 S,0,135221,135221,0.5 C,0,135221,135221,255,128,192 F,0,135221,135721,1,0
Sprite,Background,Centre,"sb\glow.png",344,112 S,0,135240,135240,0.5 C,0,135240,135240,255,128,192 F,0,135240,135740,1,0
Sprite,Background,Centre,"sb\glow.png",333,93 S,0,135259,135259,0.5 C,0,135259,135259,255,128,192 F,0,135259,135759,1,0
Sprite,Background,Centre,"sb\glow.png",324,78 S,0,135277,135277,0.5 C,0,135277,135277,255,128,192 F,0,135277,135777,1,0
Sprite,Background,Centre,"sb\glow.png",317,67 S,0,135296,135296,0.5 C,0,135296,135296,255,128,192 F,0,135296,135796,1,0
Sprite,Background,Centre,"sb\glow.png",313,60 S,0,135315,135315,0.5 C,0,135315,135315,255,128,192 F,0,135315,135815,1,0
Sprite,Background,Centre,"sb\glow.png",311,57 S,0,135334,135334,0.5 C,0,135334,135334,255,128,192 F,0,135334,135834,1,0
Sprite,Background,Centre,"sb\glow.png",334,64 S,0,135352,135352,0.5 C,0,135352,135352,255,0,128 F,0,135352,135852,1,0
Sprite,Background,Centre,"sb\glow.png",357,70 S,0,135371,135371,0.5 C,0,135371,135371,255,0,128 F,0,135371,135871,1,0
Sprite,Background,Centre,"sb\glow.png",378,77 S,0,135390,135390,0.5 C,0,135390,135390,255,0,128 F,0,135390,135890,1,0
Sprite,Background,Centre,"sb\glow.png",397,82 S,0,135409,135409,0.5 C,0,135409,135409,255,0,128 F,0,135409,135909,1,0
Sprite,Background,Centre,"sb\glow.png",413,87 S,0,135427,135427,0.5 C,0,135427,135427,255,0,128 F,0,135427,135927,1,0
Sprite,Background,Centre,"sb\glow.png",424,90 S,0,135446,135446,0.5 C,0,135446,135446,255,0,128 F,0,135446,135946,1,0
Sprite,Background,Centre,"sb\glow.png",431,92 S,0,135465,135465,0.5 C,0,135465,135465,255,0,128 F,0,135465,135965,1,0
Sprite,Background,Centre,"sb\glow.png",434,93 S,0,135484,135484,0.5 C,0,135484,135484,255,0,128 F,0,135484,135984,1,0
Sprite,Background,Centre,"sb\glow.png",453,122 S,0,135502,135502,0.5 C,0,135502,135502,255,0,128 F,0,135502,136002,1,0
Sprite,Background,Centre,"sb\glow.png",472,152 S,0,135521,135521,0.5 C,0,135521,135521,255,0,128 F,0,135521,136021,1,0
Sprite,Background,Centre,"sb\glow.png",489,179 S,0,135540,135540,0.5 C,0,135540,135540,255,0,128 F,0,135540,136040,1,0
Sprite,Background,Centre,"sb\glow.png",505,203 S,0,135559,135559,0.5 C,0,135559,135559,255,0,128 F,0,135559,136059,1,0
Sprite,Background,Centre,"sb\glow.png",517,223 S,0,135577,135577,0.5 C,0,135577,135577,255,0,128 F,0,135577,136077,1,0
Sprite,Background,Centre,"sb\glow.png",527,237 S,0,135596,135596,0.5 C,0,135596,135596,255,0,128 F,0,135596,136096,1,0
Sprite,Background,Centre,"sb\glow.png",533,247 S,0,135615,135615,0.5 C,0,135615,135615,255,0,128 F,0,135615,136115,1,0
Sprite,Background,Centre,"sb\glow.png",535,250 S,0,135634,135634,0.5 C,0,135634,135634,255,0,128 F,0,135634,136134,1,0
Sprite,Background,Centre,"sb\glow.png",522,256 S,0,135652,135652,0.5 C,0,135652,135652,255,88,102 F,0,135652,136152,1,0
Sprite,Background,Centre,"sb\glow.png",508,261 S,0,135671,135671,0.5 C,0,135671,135671,255,88,102 F,0,135671,136171,1,0
Sprite,Background,Centre,"sb\glow.png",494,266 S,0,135690,135690,0.5 C,0,135690,135690,255,88,102 F,0,135690,136190,1,0
Sprite,Background,Centre,"sb\glow.png",479,269 S,0,135709,135709,0.5 C,0,135709,135709,255,88,102 F,0,135709,136209,1,0
Sprite,Background,Centre,"sb\glow.png",464,272 S,0,135727,135727,0.5 C,0,135727,135727,255,88,102 F,0,135727,136227,1,0
Sprite,Background,Centre,"sb\glow.png",450,273 S,0,135746,135746,0.5 C,0,135746,135746,255,88,102 F,0,135746,136246,1,0
Sprite,Background,Centre,"sb\glow.png",435,274 S,0,135765,135765,0.5 C,0,135765,135765,255,88,102 F,0,135765,136265,1,0
Sprite,Background,Centre,"sb\glow.png",420,273 S,0,135784,135784,0.5 C,0,135784,135784,255,88,102 F,0,135784,136284,1,0
Sprite,Background,Centre,"sb\glow.png",389,310 S,0,135802,135802,0.5 C,0,135802,135802,255,88,102 F,0,135802,136302,1,0
Sprite,Background,Centre,"sb\glow.png",362,344 S,0,135821,135821,0.5 C,0,135821,135821,255,88,102 F,0,135821,136321,1,0
Sprite,Background,Centre,"sb\glow.png",344,367 S,0,135840,135840,0.5 C,0,135840,135840,255,88,102 F,0,135840,136340,1,0
Sprite,Background,Centre,"sb\glow.png",337,376 S,0,135859,135859,0.5 C,0,135859,135859,255,88,102 F,0,135859,136359,1,0
Sprite,Background,Centre,"sb\glow.png",324,371 S,0,135877,135877,0.5 C,0,135877,135877,255,88,102 F,0,135877,136377,1,0
Sprite,Background,Centre,"sb\glow.png",310,366 S,0,135896,135896,0.5 C,0,135896,135896,255,88,102 F,0,135896,136396,1,0
Sprite,Background,Centre,"sb\glow.png",295,362 S,0,135915,135915,0.5 C,0,135915,135915,255,88,102 F,0,135915,136415,1,0
Sprite,Background,Centre,"sb\glow.png",280,359 S,0,135934,135934,0.5 C,0,135934,135934,255,88,102 F,0,135934,136434,1,0
Sprite,Background,Centre,"sb\glow.png",266,357 S,0,135952,135952,0.5 C,0,135952,135952,255,88,102 F,0,135952,136452,1,0
Sprite,Background,Centre,"sb\glow.png",251,357 S,0,135971,135971,0.5 C,0,135971,135971,255,88,102 F,0,135971,136471,1,0
Sprite,Background,Centre,"sb\glow.png",236,357 S,0,135990,135990,0.5 C,0,135990,135990,255,88,102 F,0,135990,136490,1,0
Sprite,Background,Centre,"sb\glow.png",221,358 S,0,136009,136009,0.5 C,0,136009,136009,255,88,102 F,0,136009,136509,1,0
Sprite,Background,Centre,"sb\glow.png",185,370 S,0,136027,136027,0.5 C,0,136027,136027,255,88,102 F,0,136027,136527,1,0
Sprite,Background,Centre,"sb\glow.png",153,381 S,0,136046,136046,0.5 C,0,136046,136046,255,88,102 F,0,136046,136546,1,0
Sprite,Background,Centre,"sb\glow.png",131,389 S,0,136065,136065,0.5 C,0,136065,136065,255,88,102 F,0,136065,136565,1,0
Sprite,Background,Centre,"sb\glow.png",123,392 S,0,136084,136084,0.5 C,0,136084,136084,255,88,102 F,0,136084,136584,1,0
Sprite,Background,Centre,"sb\glow.png",118,359 S,0,136102,136102,0.5 C,0,136102,136102,255,0,255 F,0,136102,136602,1,0
Sprite,Background,Centre,"sb\glow.png",113,326 S,0,136121,136121,0.5 C,0,136121,136121,255,0,255 F,0,136121,136621,1,0
Sprite,Background,Centre,"sb\glow.png",108,295 S,0,136140,136140,0.5 C,0,136140,136140,255,0,255 F,0,136140,136640,1,0
Sprite,Background,Centre,"sb\glow.png",104,268 S,0,136159,136159,0.5 C,0,136159,136159,255,0,255 F,0,136159,136659,1,0
Sprite,Background,Centre,"sb\glow.png",101,246 S,0,136177,136177,0.5 C,0,136177,136177,255,0,255 F,0,136177,136677,1,0
Sprite,Background,Centre,"sb\glow.png",98,229 S,0,136196,136196,0.5 C,0,136196,136196,255,0,255 F,0,136196,136696,1,0
Sprite,Background,Centre,"sb\glow.png",97,219 S,0,136215,136215,0.5 C,0,136215,136215,255,0,255 F,0,136215,136715,1,0
Sprite,Background,Centre,"sb\glow.png",96,215 S,0,136234,136234,0.5 C,0,136234,136234,255,0,255 F,0,136234,136734,1,0
Sprite,Background,Centre,"sb\glow.png",122,226 S,0,136252,136252,0.5 C,0,136252,136252,255,0,255 F,0,136252,136752,1,0
Sprite,Background,Centre,"sb\glow.png",148,237 S,0,136271,136271,0.5 C,0,136271,136271,255,0,255 F,0,136271,136771,1,0
Sprite,Background,Centre,"sb\glow.png",173,247 S,0,136290,136290,0.5 C,0,136290,136290,255,0,255 F,0,136290,136790,1,0
Sprite,Background,Centre,"sb\glow.png",194,256 S,0,136309,136309,0.5 C,0,136309,136309,255,0,255 F,0,136309,136809,1,0
Sprite,Background,Centre,"sb\glow.png",212,263 S,0,136327,136327,0.5 C,0,136327,136327,255,0,255 F,0,136327,136827,1,0
Sprite,Background,Centre,"sb\glow.png",225,268 S,0,136346,136346,0.5 C,0,136346,136346,255,0,255 F,0,136346,136846,1,0 C,0,136835,136835,0,0,0
Sprite,Background,Centre,"sb\glow.png",233,272 S,0,136365,136365,0.5 C,0,136365,136365,255,0,255 F,0,136365,136865,1,0 C,0,136835,136835,0,0,0
Sprite,Background,Centre,"sb\glow.png",236,273 S,0,136384,136384,0.5 C,0,136384,136384,255,0,255 F,0,136384,136884,1,0 C,0,136835,136835,0,0,0
Sprite,Background,Centre,"sb\glow.png",236,273 S,0,136402,136402,0.5 C,0,136402,136402,255,0,255 F,0,136402,136902,1,0 C,0,136835,136835,0,0,0
Sprite,Background,Centre,"sb\glow.png",236,273 S,0,136421,136421,0.5 C,0,136421,136421,255,0,255 F,0,136421,136921,1,0 C,0,136835,136835,0,0,0
Sprite,Background,Centre,"sb\glow.png",236,273 S,0,136440,136440,0.5 C,0,136440,136440,255,0,255 F,0,136440,136940,1,0 C,0,136835,136835,0,0,0
Sprite,Background,Centre,"sb\glow.png",236,273 S,0,136459,136459,0.5 C,0,136459,136459,255,0,255 F,0,136459,136959,1,0 C,0,136835,136835,0,0,0
Sprite,Background,Centre,"sb\glow.png",236,273 S,0,136477,136477,0.5 C,0,136477,136477,255,0,255 F,0,136477,136977,1,0 C,0,136835,136835,0,0,0
Sprite,Background,Centre,"sb\glow.png",236,273 S,0,136496,136496,0.5 C,0,136496,136496,255,0,255 F,0,136496,136996,1,0 C,0,136835,136835,0,0,0
Sprite,Background,Centre,"sb\glow.png",236,273 S,0,136515,136515,0.5 C,0,136515,136515,255,0,255 F,0,136515,137015,1,0 C,0,136835,136835,0,0,0
Sprite,Background,Centre,"sb\glow.png",236,273 S,0,136534,136534,0.5 C,0,136534,136534,255,0,255 F,0,136534,137034,1,0 C,0,136835,136835,0,0,0
Sprite,Background,Centre,"sb\glow.png",204,281 S,0,136552,136552,0.5 C,0,136552,136552,255,0,255 F,0,136552,137052,1,0 C,0,136835,136835,0,0,0
Sprite,Background,Centre,"sb\glow.png",172,289 S,0,136571,136571,0.5 C,0,136571,136571,255,0,255 F,0,136571,137071,1,0 C,0,136835,136835,0,0,0
Sprite,Background,Centre,"sb\glow.png",142,297 S,0,136590,136590,0.5 C,0,136590,136590,255,0,255 F,0,136590,137090,1,0 C,0,136835,136835,0,0,0
Sprite,Background,Centre,"sb\glow.png",116,303 S,0,136609,136609,0.5 C,0,136609,136609,255,0,255 F,0,136609,137109,1,0 C,0,136835,136835,0,0,0
Sprite,Background,Centre,"sb\glow.png",94,309 S,0,136627,136627,0.5 C,0,136627,136627,255,0,255 F,0,136627,137127,1,0 C,0,136835,136835,0,0,0
Sprite,Background,Centre,"sb\glow.png",78,313 S,0,136646,136646,0.5 C,0,136646,136646,255,0,255 F,0,136646,137146,1,0 C,0,136835,136835,0,0,0
Sprite,Background,Centre,"sb\glow.png",68,315 S,0,136665,136665,0.5 C,0,136665,136665,255,0,255 F,0,136665,137165,1,0 C,0,136835,136835,0,0,0
Sprite,Background,Centre,"sb\glow.png",64,316 S,0,136684,136684,0.5 C,0,136684,136684,255,0,255 F,0,136684,137184,1,0 C,0,136835,136835,0,0,0
Sprite,Background,Centre,"sb\glow.png",99,291 S,0,136702,136702,0.5 C,0,136702,136702,255,0,255 F,0,136702,137202,1,0 C,0,136835,136835,0,0,0
Sprite,Background,Centre,"sb\glow.png",136,266 S,0,136721,136721,0.5 C,0,136721,136721,255,0,255 F,0,136721,137221,1,0 C,0,136835,136835,0,0,0
Sprite,Background,Centre,"sb\glow.png",169,243 S,0,136740,136740,0.5 C,0,136740,136740,255,0,255 F,0,136740,137240,1,0 C,0,136835,136835,0,0,0
Sprite,Background,Centre,"sb\glow.png",198,223 S,0,136759,136759,0.5 C,0,136759,136759,255,0,255 F,0,136759,137259,1,0 C,0,136835,136835,0,0,0
Sprite,Background,Centre,"sb\glow.png",223,206 S,0,136777,136777,0.5 C,0,136777,136777,255,0,255 F,0,136777,137277,1,0 C,0,136835,136835,0,0,0
Sprite,Background,Centre,"sb\glow.png",241,194 S,0,136796,136796,0.5 C,0,136796,136796,255,0,255 F,0,136796,137296,1,0 C,0,136835,136835,0,0,0
Sprite,Background,Centre,"sb\glow.png",252,186 S,0,136815,136815,0.5 C,0,136815,136815,255,0,255 F,0,136815,137315,1,0 C,0,136835,136835,0,0,0
Sprite,Background,Centre,"sb\glow.png",256,183 S,0,136834,136834,0.5 C,0,136834,136834,255,0,255 F,0,136834,137334,1,0 C,0,136835,136835,0,0,0
//Storyboard Layer 1 (Fail)
//Storyboard Layer 2 (Pass)
//Storyboard Layer 3 (Foreground)
Sprite,Foreground,Centre,"SB\Pixel.jpg",0,0 F,0,15635,15635,0.3674484 S,0,15635,15635,12 M,19,15635,16334,322,241,385,294 M,18,16334,16834,385,294,144,177
Sprite,Foreground,Centre,"SB\Pixel.jpg",0,0 F,0,15635,15635,0.4932649 S,0,15635,15635,12 M,19,15635,16334,322,241,403,229 M,18,16334,16834,403,229,144,177
Sprite,Foreground,Centre,"SB\Pixel.jpg",0,0 F,0,15635,15635,0.3408536 S,0,15635,15635,19 M,19,15635,16334,322,241,315,267 M,18,16334,16834,315,267,144,177
Sprite,Foreground,Centre,"SB\Pixel.jpg",0,0 F,0,15635,15635,0.4031543 S,0,15635,15635,13 M,19,15635,16334,322,241,394,340 M,18,16334,16834,394,340,144,177
Sprite,Foreground,Centre,"SB\Pixel.jpg",0,0 F,0,15635,15635,0.2097876 S,0,15635,15635,16 M,19,15635,16334,322,241,391,339 M,18,16334,16834,391,339,144,177
Sprite,Foreground,Centre,"SB\Pixel.jpg",0,0 F,0,15635,15635,0.3640446 S,0,15635,15635,10 M,19,15635,16334,322,241,408,278 M,18,16334,16834,408,278,144,177
Sprite,Foreground,Centre,"SB\Pixel.jpg",0,0 F,0,15635,15635,0.4965631 S,0,15635,15635,16 M,19,15635,16334,322,241,312,200 M,18,16334,16834,312,200,144,177
Sprite,Foreground,Centre,"SB\Pixel.jpg",0,0 F,0,15635,15635,0.3029425 S,0,15635,15635,19 M,19,15635,16334,322,241,228,217 M,18,16334,16834,228,217,144,177
Sprite,Foreground,Centre,"SB\Pixel.jpg",0,0 F,0,15635,15635,0.2820354 S,0,15635,15635,19 M,19,15635,16334,322,241,365,164 M,18,16334,16834,365,164,144,177
Sprite,Foreground,Centre,"SB\Pixel.jpg",0,0 F,0,15635,15635,0.2440475 S,0,15635,15635,12 M,19,15635,16334,322,241,289,232 M,18,16334,16834,289,232,144,177
Sprite,Foreground,Centre,"SB\Pixel.jpg",0,0 F,0,15635,15635,0.3463904 S,0,15635,15635,11 M,19,15635,16334,322,241,365,264 M,18,16334,16834,365,264,144,177
Sprite,Foreground,Centre,"SB\Pixel.jpg",0,0 F,0,15635,15635,0.4574658 S,0,15635,15635,16 M,19,15635,16334,322,241,387,288 M,18,16334,16834,387,288,144,177
Sprite,Foreground,Centre,"SB\Pixel.jpg",0,0 F,0,15635,15635,0.4689319 S,0,15635,15635,10 M,19,15635,16334,322,241,265,320 M,18,16334,16834,265,320,144,177
Sprite,Foreground,Centre,"SB\Pixel.jpg",0,0 F,0,15635,15635,0.4480443 S,0,15635,15635,12 M,19,15635,16334,322,241,256,269 M,18,16334,16834,256,269,144,177
Sprite,Foreground,Centre,"SB\Pixel.jpg",0,0 F,0,15635,15635,0.4159178 S,0,15635,15635,18 M,19,15635,16334,322,241,318,271 M,18,16334,16834,318,271,144,177
Sprite,Foreground,Centre,"SB\Pixel.jpg",0,0 F,0,15635,15635,0.2376582 S,0,15635,15635,19 M,19,15635,16334,322,241,367,284 M,18,16334,16834,367,284,144,177
Sprite,Foreground,Centre,"SB\Pixel.jpg",0,0 F,0,15635,15635,0.2976502 S,0,15635,15635,16 M,19,15635,16334,322,241,317,249 M,18,16334,16834,317,249,144,177
Sprite,Foreground,Centre,"SB\Pixel.jpg",0,0 F,0,15635,15635,0.4380891 S,0,15635,15635,17 M,19,15635,16334,322,241,388,302 M,18,16334,16834,388,302,144,177
Sprite,Foreground,Centre,"SB\Pixel.jpg",0,0 F,0,15635,15635,0.3990178 S,0,15635,15635,13 M,19,15635,16334,322,241,280,245 M,18,16334,16834,280,245,144,177
Sprite,Foreground,Centre,"SB\Pixel.jpg",0,0 F,0,15635,15635,0.2560615 S,0,15635,15635,10 M,19,15635,16334,322,241,386,185 M,18,16334,16834,386,185,144,177
Sprite,Foreground,Centre,"SB\Pixel.jpg",0,0 F,0,15635,15635,0.4782912 S,0,15635,15635,12 M,19,15635,16334,322,241,360,267 M,18,16334,16834,360,267,144,177
Sprite,Foreground,Centre,"SB\Pixel.jpg",0,0 F,0,15635,15635,0.4035516 S,0,15635,15635,10 M,19,15635,16334,322,241,235,321 M,18,16334,16834,235,321,144,177
Sprite,Foreground,Centre,"SB\Pixel.jpg",0,0 F,0,15635,15635,0.4859129 S,0,15635,15635,14 M,19,15635,16334,322,241,243,262 M,18,16334,16834,243,262,144,177
Sprite,Foreground,Centre,"SB\Pixel.jpg",0,0 F,0,15635,15635,0.267621 S,0,15635,15635,16 M,19,15635,16334,322,241,357,254 M,18,16334,16834,357,254,144,177
Sprite,Foreground,Centre,"SB\Pixel.jpg",0,0 F,0,15635,15635,0.2186925 S,0,15635,15635,12 M,19,15635,16334,322,241,294,311 M,18,16334,16834,294,311,144,177
Sprite,Foreground,Centre,"SB\Pixel.jpg",0,0 F,0,15635,15635,0.3161411 S,0,15635,15635,15 M,19,15635,16334,322,241,413,338 M,18,16334,16834,413,338,144,177
Sprite,Foreground,Centre,"SB\Pixel.jpg",0,0 F,0,15635,15635,0.2171025 S,0,15635,15635,12 M,19,15635,16334,322,241,323,247 M,18,16334,16834,323,247,144,177
Sprite,Foreground,Centre,"SB\Pixel.jpg",0,0 F,0,15635,15635,0.2312476 S,0,15635,15635,17 M,19,15635,16334,322,241,391,263 M,18,16334,16834,391,263,144,177
Sprite,Foreground,Centre,"SB\Pixel.jpg",0,0 F,0,15635,15635,0.4098957 S,0,15635,15635,16 M,19,15635,16334,322,241,408,167 M,18,16334,16834,408,167,144,177
Sprite,Foreground,Centre,"SB\Pixel.jpg",0,0 F,0,15635,15635,0.2518303 S,0,15635,15635,11 M,19,15635,16334,322,241,359,254 M,18,16334,16834,359,254,144,177
Sprite,Foreground,Centre,"SB\Pixel.jpg",0,0 F,0,15635,15635,0.3706068 S,0,15635,15635,10 M,19,15635,16334,322,241,272,340 M,18,16334,16834,272,340,144,177
Sprite,Foreground,Centre,"SB\Pixel.jpg",0,0 F,0,15635,15635,0.393797 S,0,15635,15635,15 M,19,15635,16334,322,241,390,254 M,18,16334,16834,390,254,144,177
Sprite,Foreground,Centre,"SB\Pixel.jpg",0,0 F,0,15635,15635,0.2467296 S,0,15635,15635,18 M,19,15635,16334,322,241,237,243 M,18,16334,16834,237,243,144,177
Sprite,Foreground,Centre,"SB\Pixel.jpg",0,0 F,0,15635,15635,0.4017467 S,0,15635,15635,19 M,19,15635,16334,322,241,337,251 M,18,16334,16834,337,251,144,177
Sprite,Foreground,Centre,"SB\Pixel.jpg",0,0 F,0,15635,15635,0.3449222 S,0,15635,15635,12 M,19,15635,16334,322,241,234,234 M,18,16334,16834,234,234,144,177
Sprite,Foreground,Centre,"SB\Pixel.jpg",0,0 F,0,20434,20434,0.3166514 S,0,20434,20434,18 M,19,20434,21135,310,249,300,152 M,18,21135,21635,300,152,207,375
Sprite,Foreground,Centre,"SB\Pixel.jpg",0,0 F,0,20434,20434,0.3528384 S,0,20434,20434,19 M,19,20434,21135,310,249,392,154 M,18,21135,21635,392,154,207,375
Sprite,Foreground,Centre,"SB\Pixel.jpg",0,0 F,0,20434,20434,0.2834989 S,0,20434,20434,19 M,19,20434,21135,310,249,213,279 M,18,21135,21635,213,279,207,375
Sprite,Foreground,Centre,"SB\Pixel.jpg",0,0 F,0,20434,20434,0.3261276 S,0,20434,20434,19 M,19,20434,21135,310,249,364,213 M,18,21135,21635,364,213,207,375
Sprite,Foreground,Centre,"SB\Pixel.jpg",0,0 F,0,20434,20434,0.2396794 S,0,20434,20434,18 M,19,20434,21135,310,249,404,200 M,18,21135,21635,404,200,207,375
Sprite,Foreground,Centre,"SB\Pixel.jpg",0,0 F,0,20434,20434,0.4355136 S,0,20434,20434,15 M,19,20434,21135,310,249,386,257 M,18,21135,21635,386,257,207,375
Sprite,Foreground,Centre,"SB\Pixel.jpg",0,0 F,0,20434,20434,0.4075182 S,0,20434,20434,11 M,19,20434,21135,310,249,408,155 M,18,21135,21635,408,155,207,375
Sprite,Foreground,Centre,"SB\Pixel.jpg",0,0 F,0,20434,20434,0.2784993 S,0,20434,20434,13 M,19,20434,21135,310,249,309,265 M,18,21135,21635,309,265,207,375
Sprite,Foreground,Centre,"SB\Pixel.jpg",0,0 F,0,20434,20434,0.3837511 S,0,20434,20434,15 M,19,20434,21135,310,249,366,175 M,18,21135,21635,366,175,207,375
Sprite,Foreground,Centre,"SB\Pixel.jpg",0,0 F,0,20434,20434,0.2291858 S,0,20434,20434,18 M,19,20434,21135,310,249,278,153 M,18,21135,21635,278,153,207,375
Sprite,Foreground,Centre,"SB\Pixel.jpg",0,0 F,0,20434,20434,0.2765923 S,0,20434,20434,12 M,19,20434,21135,310,249,388,279 M,18,21135,21635,388,279,207,375
Sprite,Foreground,Centre,"SB\Pixel.jpg",0,0 F,0,20434,20434,0.3474754 S,0,20434,20434,16 M,19,20434,21135,310,249,249,326 M,18,21135,21635,249,326,207,375
Sprite,Foreground,Centre,"SB\Pixel.jpg",0,0 F,0,20434,20434,0.4986262 S,0,20434,20434,16 M,19,20434,21135,310,249,283,197 M,18,21135,21635,283,197,207,375
Sprite,Foreground,Centre,"SB\Pixel.jpg",0,0 F,0,20434,20434,0.247143 S,0,20434,20434,17 M,19,20434,21135,310,249,406,341 M,18,21135,21635,406,341,207,375
Sprite,Foreground,Centre,"SB\Pixel.jpg",0,0 F,0,20434,20434,0.2330186 S,0,20434,20434,17 M,19,20434,21135,310,249,248,161 M,18,21135,21635,248,161,207,375
Sprite,Foreground,Centre,"SB\Pixel.jpg",0,0 F,0,20434,20434,0.3718924 S,0,20434,20434,12 M,19,20434,21135,310,249,377,277 M,18,21135,21635,377,277,207,375
Sprite,Foreground,Centre,"SB\Pixel.jpg",0,0 F,0,20434,20434,0.4721404 S,0,20434,20434,18 M,19,20434,21135,310,249,381,238 M,18,21135,21635,381,238,207,375
Sprite,Foreground,Centre,"SB\Pixel.jpg",0,0 F,0,20434,20434,0.3280683 S,0,20434,20434,16 M,19,20434,21135,310,249,278,304 M,18,21135,21635,278,304,207,375
Sprite,Foreground,Centre,"SB\Pixel.jpg",0,0 F,0,20434,20434,0.3871523 S,0,20434,20434,19 M,19,20434,21135,310,249,331,166 M,18,21135,21635,331,166,207,375
Sprite,Foreground,Centre,"SB\Pixel.jpg",0,0 F,0,20434,20434,0.2005993 S,0,20434,20434,15 M,19,20434,21135,310,249,317,176 M,18,21135,21635,317,176,207,375
Sprite,Foreground,Centre,"SB\Pixel.jpg",0,0 F,0,20434,20434,0.2975087 S,0,20434,20434,17 M,19,20434,21135,310,249,285,322 M,18,21135,21635,285,322,207,375
Sprite,Foreground,Centre,"SB\Pixel.jpg",0,0 F,0,20434,20434,0.3567532 S,0,20434,20434,11 M,19,20434,21135,310,249,375,257 M,18,21135,21635,375,257,207,375
Sprite,Foreground,Centre,"SB\Pixel.jpg",0,0 F,0,20434,20434,0.2749852 S,0,20434,20434,18 M,19,20434,21135,310,249,320,211 M,18,21135,21635,320,211,207,375
Sprite,Foreground,Centre,"SB\Pixel.jpg",0,0 F,0,20434,20434,0.2576757 S,0,20434,20434,11 M,19,20434,21135,310,249,394,216 M,18,21135,21635,394,216,207,375
Sprite,Foreground,Centre,"SB\Pixel.jpg",0,0 F,0,20434,20434,0.352991 S,0,20434,20434,17 M,19,20434,21135,310,249,251,255 M,18,21135,21635,251,255,207,375
Sprite,Foreground,Centre,"SB\Pixel.jpg",0,0 F,0,20434,20434,0.2358233 S,0,20434,20434,18 M,19,20434,21135,310,249,230,236 M,18,21135,21635,230,236,207,375
Sprite,Foreground,Centre,"SB\Pixel.jpg",0,0 F,0,20434,20434,0.2046528 S,0,20434,20434,15 M,19,20434,21135,310,249,350,277 M,18,21135,21635,350,277,207,375
Sprite,Foreground,Centre,"SB\Pixel.jpg",0,0 F,0,20434,20434,0.2361499 S,0,20434,20434,12 M,19,20434,21135,310,249,408,173 M,18,21135,21635,408,173,207,375
Sprite,Foreground,Centre,"SB\Pixel.jpg",0,0 F,0,20434,20434,0.2791955 S,0,20434,20434,10 M,19,20434,21135,310,249,369,200 M,18,21135,21635,369,200,207,375
Sprite,Foreground,Centre,"SB\Pixel.jpg",0,0 F,0,20434,20434,0.4469632 S,0,20434,20434,15 M,19,20434,21135,310,249,268,316 M,18,21135,21635,268,316,207,375
Sprite,Foreground,Centre,"SB\Pixel.jpg",0,0 F,0,20434,20434,0.4555207 S,0,20434,20434,18 M,19,20434,21135,310,249,250,338 M,18,21135,21635,250,338,207,375
Sprite,Foreground,Centre,"SB\Pixel.jpg",0,0 F,0,20434,20434,0.3655334 S,0,20434,20434,13 M,19,20434,21135,310,249,378,220 M,18,21135,21635,378,220,207,375
Sprite,Foreground,Centre,"SB\Pixel.jpg",0,0 F,0,20434,20434,0.3988633 S,0,20434,20434,16 M,19,20434,21135,310,249,288,233 M,18,21135,21635,288,233,207,375
Sprite,Foreground,Centre,"SB\Pixel.jpg",0,0 F,0,20434,20434,0.4041527 S,0,20434,20434,13 M,19,20434,21135,310,249,392,208 M,18,21135,21635,392,208,207,375
Sprite,Foreground,Centre,"SB\Pixel.jpg",0,0 F,0,20434,20434,0.4727132 S,0,20434,20434,15 M,19,20434,21135,310,249,369,192 M,18,21135,21635,369,192,207,375
Sprite,Foreground,Centre,"SB\Pixel.jpg",0,0 F,0,20434,20434,0.3490945 S,0,20434,20434,13 M,19,20434,21135,310,249,399,203 M,18,21135,21635,399,203,207,375
Sprite,Foreground,Centre,"SB\Pixel.jpg",0,0 F,0,30034,30034,0.2358157 S,0,30034,30034,11 M,19,30034,30735,413,235,464,292 M,18,30735,31235,464,292,389,348
Sprite,Foreground,Centre,"SB\Pixel.jpg",0,0 F,0,30034,30034,0.4448625 S,0,30034,30034,18 M,19,30034,30735,413,235,440,249 M,18,30735,31235,440,249,389,348
Sprite,Foreground,Centre,"SB\Pixel.jpg",0,0 F,0,30034,30034,0.3990368 S,0,30034,30034,10 M,19,30034,30735,413,235,388,253 M,18,30735,31235,388,253,389,348
Sprite,Foreground,Centre,"SB\Pixel.jpg",0,0 F,0,30034,30034,0.3441612 S,0,30034,30034,10 M,19,30034,30735,413,235,512,166 M,18,30735,31235,512,166,389,348
Sprite,Foreground,Centre,"SB\Pixel.jpg",0,0 F,0,30034,30034,0.2996246 S,0,30034,30034,10 M,19,30034,30735,413,235,510,142 M,18,30735,31235,510,142,389,348
Sprite,Foreground,Centre,"SB\Pixel.jpg",0,0 F,0,30034,30034,0.2672896 S,0,30034,30034,11 M,19,30034,30735,413,235,427,306 M,18,30735,31235,427,306,389,348
Sprite,Foreground,Centre,"SB\Pixel.jpg",0,0 F,0,30034,30034,0.4264424 S,0,30034,30034,12 M,19,30034,30735,413,235,468,301 M,18,30735,31235,468,301,389,348
Sprite,Foreground,Centre,"SB\Pixel.jpg",0,0 F,0,30034,30034,0.3733906 S,0,30034,30034,17 M,19,30034,30735,413,235,337,170 M,18,30735,31235,337,170,389,348
Sprite,Foreground,Centre,"SB\Pixel.jpg",0,0 F,0,30034,30034,0.2133764 S,0,30034,30034,12 M,19,30034,30735,413,235,358,215 M,18,30735,31235,358,215,389,348
Sprite,Foreground,Centre,"SB\Pixel.jpg",0,0 F,0,30034,30034,0.3247973 S,0,30034,30034,17 M,19,30034,30735,413,235,384,256 M,18,30735,31235,384,256,389,348
Sprite,Foreground,Centre,"SB\Pixel.jpg",0,0 F,0,30034,30034,0.3575272 S,0,30034,30034,17 M,19,30034,30735,413,235,333,161 M,18,30735,31235,333,161,389,348
Sprite,Foreground,Centre,"SB\Pixel.jpg",0,0 F,0,30034,30034,0.2255972 S,0,30034,30034,15 M,19,30034,30735,413,235,457,226 M,18,30735,31235,457,226,389,348
Sprite,Foreground,Centre,"SB\Pixel.jpg",0,0 F,0,30034,30034,0.4099815 S,0,30034,30034,17 M,19,30034,30735,413,235,468,204 M,18,30735,31235,468,204,389,348
Sprite,Foreground,Centre,"SB\Pixel.jpg",0,0 F,0,30034,30034,0.3269479 S,0,30034,30034,19 M,19,30034,30735,413,235,421,302 M,18,30735,31235,421,302,389,348
Sprite,Foreground,Centre,"SB\Pixel.jpg",0,0 F,0,30034,30034,0.4254443 S,0,30034,30034,12 M,19,30034,30735,413,235,476,251 M,18,30735,31235,476,251,389,348
Sprite,Foreground,Centre,"SB\Pixel.jpg",0,0 F,0,30034,30034,0.2156184 S,0,30034,30034,15 M,19,30034,30735,413,235,429,333 M,18,30735,31235,429,333,389,348
Sprite,Foreground,Centre,"SB\Pixel.jpg",0,0 F,0,30034,30034,0.3290091 S,0,30034,30034,19 M,19,30034,30735,413,235,506,223 M,18,30735,31235,506,223,389,348
Sprite,Foreground,Centre,"SB\Pixel.jpg",0,0 F,0,30034,30034,0.4997129 S,0,30034,30034,18 M,19,30034,30735,413,235,441,196 M,18,30735,31235,441,196,389,348
Sprite,Foreground,Centre,"SB\Pixel.jpg",0,0 F,0,30034,30034,0.4977987 S,0,30034,30034,16 M,19,30034,30735,413,235,446,153 M,18,30735,31235,446,153,389,348
Sprite,Foreground,Centre,"SB\Pixel.jpg",0,0 F,0,30034,30034,0.3012295 S,0,30034,30034,18 M,19,30034,30735,413,235,489,275 M,18,30735,31235,489,275,389,348
Sprite,Foreground,Centre,"SB\Pixel.jpg",0,0 F,0,30034,30034,0.3530591 S,0,30034,30034,13 M,19,30034,30735,413,235,416,171 M,18,30735,31235,416,171,389,348
Sprite,Foreground,Centre,"SB\Pixel.jpg",0,0 F,0,30034,30034,0.287238 S,0,30034,30034,18 M,19,30034,30735,413,235,417,211 M,18,30735,31235,417,211,389,348
Sprite,Foreground,Centre,"SB\Pixel.jpg",0,0 F,0,30034,30034,0.3607502 S,0,30034,30034,14 M,19,30034,30735,413,235,458,215 M,18,30735,31235,458,215,389,348
Sprite,Foreground,Centre,"SB\Pixel.jpg",0,0 F,0,30034,30034,0.4329405 S,0,30034,30034,16 M,19,30034,30735,413,235,379,318 M,18,30735,31235,379,318,389,348
Sprite,Foreground,Centre,"SB\Pixel.jpg",0,0 F,0,30034,30034,0.367354 S,0,30034,30034,14 M,19,30034,30735,413,235,360,302 M,18,30735,31235,360,302,389,348
Sprite,Foreground,Centre,"SB\Pixel.jpg",0,0 F,0,30034,30034,0.2187841 S,0,30034,30034,11 M,19,30034,30735,413,235,457,252 M,18,30735,31235,457,252,389,348
Sprite,Foreground,Centre,"SB\Pixel.jpg",0,0 F,0,30034,30034,0.270845 S,0,30034,30034,16 M,19,30034,30735,413,235,489,265 M,18,30735,31235,489,265,389,348
Sprite,Foreground,Centre,"SB\Pixel.jpg",0,0 F,0,30034,30034,0.2136048 S,0,30034,30034,15 M,19,30034,30735,413,235,469,321 M,18,30735,31235,469,321,389,348
Sprite,Foreground,Centre,"SB\Pixel.jpg",0,0 F,0,30034,30034,0.2500668 S,0,30034,30034,10 M,19,30034,30735,413,235,364,138 M,18,30735,31235,364,138,389,348
Sprite,Foreground,Centre,"SB\Pixel.jpg",0,0 F,0,30034,30034,0.3703012 S,0,30034,30034,16 M,19,30034,30735,413,235,365,246 M,18,30735,31235,365,246,389,348
Sprite,Foreground,Centre,"SB\Pixel.jpg",0,0 F,0,30034,30034,0.4056099 S,0,30034,30034,19 M,19,30034,30735,413,235,506,319 M,18,30735,31235,506,319,389,348
Sprite,Foreground,Centre,"SB\Pixel.jpg",0,0 F,0,30034,30034,0.2177424 S,0,30034,30034,16 M,19,30034,30735,413,235,449,260 M,18,30735,31235,449,260,389,348
Sprite,Foreground,Centre,"SB\Pixel.jpg",0,0 F,0,30034,30034,0.2324001 S,0,30034,30034,17 M,19,30034,30735,413,235,499,199 M,18,30735,31235,499,199,389,348
Sprite,Foreground,Centre,"SB\Pixel.jpg",0,0 F,0,30034,30034,0.4778979 S,0,30034,30034,17 M,19,30034,30735,413,235,327,168 M,18,30735,31235,327,168,389,348
Sprite,Foreground,Centre,"SB\Pixel.jpg",0,0 F,0,30034,30034,0.2690876 S,0,30034,30034,11 M,19,30034,30735,413,235,393,309 M,18,30735,31235,393,309,389,348
Sprite,Foreground,Centre,"SB\Pixel.jpg",0,0 F,0,30034,30034,0.3448871 S,0,30034,30034,17 M,19,30034,30735,413,235,356,269 M,18,30735,31235,356,269,389,348
Sprite,Foreground,Centre,"SB\Pixel.jpg",0,0 F,0,30034,30034,0.3343889 S,0,30034,30034,14 M,19,30034,30735,413,235,345,139 M,18,30735,31235,345,139,389,348
Sprite,Foreground,Centre,"SB\Pixel.jpg",0,0 F,0,39634,39634,0.3210461 S,0,39634,39634,18 M,19,39634,40334,147,391,78,465 M,18,40334,40834,78,465,300,313
Sprite,Foreground,Centre,"SB\Pixel.jpg",0,0 F,0,39634,39634,0.3127754 S,0,39634,39634,11 M,19,39634,40334,147,391,234,472 M,18,40334,40834,234,472,300,313
Sprite,Foreground,Centre,"SB\Pixel.jpg",0,0 F,0,39634,39634,0.4352037 S,0,39634,39634,13 M,19,39634,40334,147,391,65,417 M,18,40334,40834,65,417,300,313
Sprite,Foreground,Centre,"SB\Pixel.jpg",0,0 F,0,39634,39634,0.3702384 S,0,39634,39634,14 M,19,39634,40334,147,391,66,429 M,18,40334,40834,66,429,300,313
Sprite,Foreground,Centre,"SB\Pixel.jpg",0,0 F,0,39634,39634,0.3002365 S,0,39634,39634,11 M,19,39634,40334,147,391,48,319 M,18,40334,40834,48,319,300,313
Sprite,Foreground,Centre,"SB\Pixel.jpg",0,0 F,0,39634,39634,0.3925813 S,0,39634,39634,17 M,19,39634,40334,147,391,229,465 M,18,40334,40834,229,465,300,313
Sprite,Foreground,Centre,"SB\Pixel.jpg",0,0 F,0,39634,39634,0.206006 S,0,39634,39634,18 M,19,39634,40334,147,391,68,475 M,18,40334,40834,68,475,300,313
Sprite,Foreground,Centre,"SB\Pixel.jpg",0,0 F,0,39634,39634,0.3020881 S,0,39634,39634,15 M,19,39634,40334,147,391,152,384 M,18,40334,40834,152,384,300,313
Sprite,Foreground,Centre,"SB\Pixel.jpg",0,0 F,0,39634,39634,0.294404 S,0,39634,39634,10 M,19,39634,40334,147,391,109,350 M,18,40334,40834,109,350,300,313
Sprite,Foreground,Centre,"SB\Pixel.jpg",0,0 F,0,39634,39634,0.237756 S,0,39634,39634,11 M,19,39634,40334,147,391,153,338 M,18,40334,40834,153,338,300,313
Sprite,Foreground,Centre,"SB\Pixel.jpg",0,0 F,0,39634,39634,0.445295 S,0,39634,39634,14 M,19,39634,40334,147,391,100,371 M,18,40334,40834,100,371,300,313
Sprite,Foreground,Centre,"SB\Pixel.jpg",0,0 F,0,39634,39634,0.2727409 S,0,39634,39634,13 M,19,39634,40334,147,391,49,398 M,18,40334,40834,49,398,300,313
Sprite,Foreground,Centre,"SB\Pixel.jpg",0,0 F,0,39634,39634,0.3979812 S,0,39634,39634,12 M,19,39634,40334,147,391,59,344 M,18,40334,40834,59,344,300,313
Sprite,Foreground,Centre,"SB\Pixel.jpg",0,0 F,0,39634,39634,0.4884808 S,0,39634,39634,11 M,19,39634,40334,147,391,80,413 M,18,40334,40834,80,413,300,313
Sprite,Foreground,Centre,"SB\Pixel.jpg",0,0 F,0,39634,39634,0.2154199 S,0,39634,39634,17 M,19,39634,40334,147,391,172,361 M,18,40334,40834,172,361,300,313
Sprite,Foreground,Centre,"SB\Pixel.jpg",0,0 F,0,39634,39634,0.2782276 S,0,39634,39634,17 M,19,39634,40334,147,391,189,456 M,18,40334,40834,189,456,300,313
Sprite,Foreground,Centre,"SB\Pixel.jpg",0,0 F,0,39634,39634,0.3472579 S,0,39634,39634,17 M,19,39634,40334,147,391,181,440 M,18,40334,40834,181,440,300,313
Sprite,Foreground,Centre,"SB\Pixel.jpg",0,0 F,0,39634,39634,0.3791448 S,0,39634,39634,18 M,19,39634,40334,147,391,187,312 M,18,40334,40834,187,312,300,313
Sprite,Foreground,Centre,"SB\Pixel.jpg",0,0 F,0,39634,39634,0.4831749 S,0,39634,39634,18 M,19,39634,40334,147,391,244,335 M,18,40334,40834,244,335,300,313
Sprite,Foreground,Centre,"SB\Pixel.jpg",0,0 F,0,39634,39634,0.2280465 S,0,39634,39634,15 M,19,39634,40334,147,391,55,418 M,18,40334,40834,55,418,300,313
Sprite,Foreground,Centre,"SB\Pixel.jpg",0,0 F,0,39634,39634,0.4823172 S,0,39634,39634,13 M,19,39634,40334,147,391,230,346 M,18,40334,40834,230,346,300,313
Sprite,Foreground,Centre,"SB\Pixel.jpg",0,0 F,0,39634,39634,0.2064582 S,0,39634,39634,12 M,19,39634,40334,147,391,229,361 M,18,40334,40834,229,361,300,313
Sprite,Foreground,Centre,"SB\Pixel.jpg",0,0 F,0,39634,39634,0.3406901 S,0,39634,39634,14 M,19,39634,40334,147,391,83,346 M,18,40334,40834,83,346,300,313
Sprite,Foreground,Centre,"SB\Pixel.jpg",0,0 F,0,39634,39634,0.4770921 S,0,39634,39634,15 M,19,39634,40334,147,391,110,446 M,18,40334,40834,110,446,300,313
Sprite,Foreground,Centre,"SB\Pixel.jpg",0,0 F,0,39634,39634,0.2277088 S,0,39634,39634,10 M,19,39634,40334,147,391,59,294 M,18,40334,40834,59,294,300,313
Sprite,Foreground,Centre,"SB\Pixel.jpg",0,0 F,0,39634,39634,0.2677425 S,0,39634,39634,12 M,19,39634,40334,147,391,127,372 M,18,40334,40834,127,372,300,313
Sprite,Foreground,Centre,"SB\Pixel.jpg",0,0 F,0,39634,39634,0.4200889 S,0,39634,39634,15 M,19,39634,40334,147,391,62,438 M,18,40334,40834,62,438,300,313
Sprite,Foreground,Centre,"SB\Pixel.jpg",0,0 F,0,39634,39634,0.2380723 S,0,39634,39634,13 M,19,39634,40334,147,391,126,452 M,18,40334,40834,126,452,300,313
Sprite,Foreground,Centre,"SB\Pixel.jpg",0,0 F,0,39634,39634,0.3040893 S,0,39634,39634,16 M,19,39634,40334,147,391,117,308 M,18,40334,40834,117,308,300,313
Sprite,Foreground,Centre,"SB\Pixel.jpg",0,0 F,0,39634,39634,0.3532496 S,0,39634,39634,18 M,19,39634,40334,147,391,188,442 M,18,40334,40834,188,442,300,313
Sprite,Foreground,Centre,"SB\Pixel.jpg",0,0 F,0,39634,39634,0.3661534 S,0,39634,39634,16 M,19,39634,40334,147,391,100,433 M,18,40334,40834,100,433,300,313
Sprite,Foreground,Centre,"SB\Pixel.jpg",0,0 F,0,39634,39634,0.4645524 S,0,39634,39634,15 M,19,39634,40334,147,391,227,327 M,18,40334,40834,227,327,300,313
Sprite,Foreground,Centre,"SB\Pixel.jpg",0,0 F,0,39634,39634,0.4375608 S,0,39634,39634,11 M,19,39634,40334,147,391,147,315 M,18,40334,40834,147,315,300,313
Sprite,Foreground,Centre,"SB\Pixel.jpg",0,0 F,0,49235,49235,0.3617361 S,0,49235,49235,17 M,19,49235,49935,406,414,408,443 M,18,49935,50435,408,443,386,297
Sprite,Foreground,Centre,"SB\Pixel.jpg",0,0 F,0,49235,49235,0.3392907 S,0,49235,49235,11 M,19,49235,49935,406,414,501,447 M,18,49935,50435,501,447,386,297
Sprite,Foreground,Centre,"SB\Pixel.jpg",0,0 F,0,49235,49235,0.324874 S,0,49235,49235,19 M,19,49235,49935,406,414,435,493 M,18,49935,50435,435,493,386,297
Sprite,Foreground,Centre,"SB\Pixel.jpg",0,0 F,0,49235,49235,0.2146424 S,0,49235,49235,13 M,19,49235,49935,406,414,378,350 M,18,49935,50435,378,350,386,297
Sprite,Foreground,Centre,"SB\Pixel.jpg",0,0 F,0,49235,49235,0.3685962 S,0,49235,49235,14 M,19,49235,49935,406,414,349,498 M,18,49935,50435,349,498,386,297
Sprite,Foreground,Centre,"SB\Pixel.jpg",0,0 F,0,49235,49235,0.2677377 S,0,49235,49235,14 M,19,49235,49935,406,414,351,372 M,18,49935,50435,351,372,386,297
Sprite,Foreground,Centre,"SB\Pixel.jpg",0,0 F,0,49235,49235,0.2368772 S,0,49235,49235,11 M,19,49235,49935,406,414,338,482 M,18,49935,50435,338,482,386,297
Sprite,Foreground,Centre,"SB\Pixel.jpg",0,0 F,0,49235,49235,0.4351726 S,0,49235,49235,11 M,19,49235,49935,406,414,429,348 M,18,49935,50435,429,348,386,297
Sprite,Foreground,Centre,"SB\Pixel.jpg",0,0 F,0,49235,49235,0.4295851 S,0,49235,49235,14 M,19,49235,49935,406,414,352,457 M,18,49935,50435,352,457,386,297
Sprite,Foreground,Centre,"SB\Pixel.jpg",0,0 F,0,49235,49235,0.4436534 S,0,49235,49235,12 M,19,49235,49935,406,414,426,455 M,18,49935,50435,426,455,386,297
Sprite,Foreground,Centre,"SB\Pixel.jpg",0,0 F,0,49235,49235,0.3554184 S,0,49235,49235,12 M,19,49235,49935,406,414,359,413 M,18,49935,50435,359,413,386,297
Sprite,Foreground,Centre,"SB\Pixel.jpg",0,0 F,0,49235,49235,0.2310197 S,0,49235,49235,15 M,19,49235,49935,406,414,423,331 M,18,49935,50435,423,331,386,297
Sprite,Foreground,Centre,"SB\Pixel.jpg",0,0 F,0,49235,49235,0.2004746 S,0,49235,49235,16 M,19,49235,49935,406,414,442,402 M,18,49935,50435,442,402,386,297
Sprite,Foreground,Centre,"SB\Pixel.jpg",0,0 F,0,49235,49235,0.2670805 S,0,49235,49235,12 M,19,49235,49935,406,414,467,469 M,18,49935,50435,467,469,386,297
Sprite,Foreground,Centre,"SB\Pixel.jpg",0,0 F,0,49235,49235,0.4557389 S,0,49235,49235,12 M,19,49235,49935,406,414,343,393 M,18,49935,50435,343,393,386,297
Sprite,Foreground,Centre,"SB\Pixel.jpg",0,0 F,0,49235,49235,0.2261035 S,0,49235,49235,11 M,19,49235,49935,406,414,405,345 M,18,49935,50435,405,345,386,297
Sprite,Foreground,Centre,"SB\Pixel.jpg",0,0 F,0,49235,49235,0.4898539 S,0,49235,49235,16 M,19,49235,49935,406,414,410,410 M,18,49935,50435,410,410,386,297
Sprite,Foreground,Centre,"SB\Pixel.jpg",0,0 F,0,49235,49235,0.463141 S,0,49235,49235,17 M,19,49235,49935,406,414,439,378 M,18,49935,50435,439,378,386,297
Sprite,Foreground,Centre,"SB\Pixel.jpg",0,0 F,0,49235,49235,0.2844862 S,0,49235,49235,19 M,19,49235,49935,406,414,412,327 M,18,49935,50435,412,327,386,297
Sprite,Foreground,Centre,"SB\Pixel.jpg",0,0 F,0,49235,49235,0.2431358 S,0,49235,49235,15 M,19,49235,49935,406,414,464,457 M,18,49935,50435,464,457,386,297
Sprite,Foreground,Centre,"SB\Pixel.jpg",0,0 F,0,49235,49235,0.3715704 S,0,49235,49235,10 M,19,49235,49935,406,414,471,410 M,18,49935,50435,471,410,386,297
Sprite,Foreground,Centre,"SB\Pixel.jpg",0,0 F,0,49235,49235,0.2912144 S,0,49235,49235,13 M,19,49235,49935,406,414,479,442 M,18,49935,50435,479,442,386,297
Sprite,Foreground,Centre,"SB\Pixel.jpg",0,0 F,0,49235,49235,0.4908385 S,0,49235,49235,18 M,19,49235,49935,406,414,391,314 M,18,49935,50435,391,314,386,297
Sprite,Foreground,Centre,"SB\Pixel.jpg",0,0 F,0,49235,49235,0.3022618 S,0,49235,49235,13 M,19,49235,49935,406,414,345,409 M,18,49935,50435,345,409,386,297
Sprite,Foreground,Centre,"SB\Pixel.jpg",0,0 F,0,49235,49235,0.3295181 S,0,49235,49235,10 M,19,49235,49935,406,414,402,493 M,18,49935,50435,402,493,386,297
Sprite,Foreground,Centre,"SB\Pixel.jpg",0,0 F,0,49235,49235,0.4745153 S,0,49235,49235,17 M,19,49235,49935,406,414,329,337 M,18,49935,50435,329,337,386,297
Sprite,Foreground,Centre,"SB\Pixel.jpg",0,0 F,0,49235,49235,0.3614812 S,0,49235,49235,16 M,19,49235,49935,406,414,462,317 M,18,49935,50435,462,317,386,297
Sprite,Foreground,Centre,"SB\Pixel.jpg",0,0 F,0,49235,49235,0.4849945 S,0,49235,49235,10 M,19,49235,49935,406,414,313,495 M,18,49935,50435,313,495,386,297
Sprite,Foreground,Centre,"SB\Pixel.jpg",0,0 F,0,49235,49235,0.3615533 S,0,49235,49235,18 M,19,49235,49935,406,414,310,317 M,18,49935,50435,310,317,386,297
Sprite,Foreground,Centre,"SB\Pixel.jpg",0,0 F,0,49235,49235,0.3331605 S,0,49235,49235,11 M,19,49235,49935,406,414,412,334 M,18,49935,50435,412,334,386,297
Sprite,Foreground,Centre,"SB\Pixel.jpg",0,0 F,0,49235,49235,0.4253693 S,0,49235,49235,12 M,19,49235,49935,406,414,369,389 M,18,49935,50435,369,389,386,297
Sprite,Foreground,Centre,"SB\Pixel.jpg",0,0 F,0,58834,58834,0.3772795 S,0,58834,58834,12 M,19,58834,59534,230,257,280,302 M,18,59534,60034,280,302,547,349
Sprite,Foreground,Centre,"SB\Pixel.jpg",0,0 F,0,58834,58834,0.2995103 S,0,58834,58834,10 M,19,58834,59534,230,257,212,249 M,18,59534,60034,212,249,547,349
Sprite,Foreground,Centre,"SB\Pixel.jpg",0,0 F,0,58834,58834,0.2876709 S,0,58834,58834,10 M,19,58834,59534,230,257,188,262 M,18,59534,60034,188,262,547,349
Sprite,Foreground,Centre,"SB\Pixel.jpg",0,0 F,0,58834,58834,0.362942 S,0,58834,58834,13 M,19,58834,59534,230,257,222,229 M,18,59534,60034,222,229,547,349
Sprite,Foreground,Centre,"SB\Pixel.jpg",0,0 F,0,58834,58834,0.4145207 S,0,58834,58834,14 M,19,58834,59534,230,257,133,291 M,18,59534,60034,133,291,547,349
Sprite,Foreground,Centre,"SB\Pixel.jpg",0,0 F,0,58834,58834,0.2745867 S,0,58834,58834,16 M,19,58834,59534,230,257,210,209 M,18,59534,60034,210,209,547,349
Sprite,Foreground,Centre,"SB\Pixel.jpg",0,0 F,0,58834,58834,0.3939133 S,0,58834,58834,15 M,19,58834,59534,230,257,326,242 M,18,59534,60034,326,242,547,349
Sprite,Foreground,Centre,"SB\Pixel.jpg",0,0 F,0,58834,58834,0.2943176 S,0,58834,58834,17 M,19,58834,59534,230,257,188,242 M,18,59534,60034,188,242,547,349
Sprite,Foreground,Centre,"SB\Pixel.jpg",0,0 F,0,58834,58834,0.3330694 S,0,58834,58834,14 M,19,58834,59534,230,257,143,310 M,18,59534,60034,143,310,547,349
Sprite,Foreground,Centre,"SB\Pixel.jpg",0,0 F,0,58834,58834,0.4157211 S,0,58834,58834,10 M,19,58834,59534,230,257,288,173 M,18,59534,60034,288,173,547,349
Sprite,Foreground,Centre,"SB\Pixel.jpg",0,0 F,0,58834,58834,0.2367855 S,0,58834,58834,11 M,19,58834,59534,230,257,243,258 M,18,59534,60034,243,258,547,349
Sprite,Foreground,Centre,"SB\Pixel.jpg",0,0 F,0,58834,58834,0.2536432 S,0,58834,58834,14 M,19,58834,59534,230,257,146,159 M,18,59534,60034,146,159,547,349
Sprite,Foreground,Centre,"SB\Pixel.jpg",0,0 F,0,58834,58834,0.4123574 S,0,58834,58834,10 M,19,58834,59534,230,257,159,199 M,18,59534,60034,159,199,547,349
Sprite,Foreground,Centre,"SB\Pixel.jpg",0,0 F,0,58834,58834,0.4207174 S,0,58834,58834,14 M,19,58834,59534,230,257,302,332 M,18,59534,60034,302,332,547,349
Sprite,Foreground,Centre,"SB\Pixel.jpg",0,0 F,0,58834,58834,0.4332319 S,0,58834,58834,10 M,19,58834,59534,230,257,136,166 M,18,59534,60034,136,166,547,349
Sprite,Foreground,Centre,"SB\Pixel.jpg",0,0 F,0,58834,58834,0.2646362 S,0,58834,58834,14 M,19,58834,59534,230,257,180,202 M,18,59534,60034,180,202,547,349
Sprite,Foreground,Centre,"SB\Pixel.jpg",0,0 F,0,58834,58834,0.2585095 S,0,58834,58834,10 M,19,58834,59534,230,257,194,265 M,18,59534,60034,194,265,547,349
Sprite,Foreground,Centre,"SB\Pixel.jpg",0,0 F,0,58834,58834,0.3574575 S,0,58834,58834,10 M,19,58834,59534,230,257,224,217 M,18,59534,60034,224,217,547,349
Sprite,Foreground,Centre,"SB\Pixel.jpg",0,0 F,0,58834,58834,0.466475 S,0,58834,58834,10 M,19,58834,59534,230,257,185,206 M,18,59534,60034,185,206,547,349
Sprite,Foreground,Centre,"SB\Pixel.jpg",0,0 F,0,58834,58834,0.3057531 S,0,58834,58834,17 M,19,58834,59534,230,257,301,169 M,18,59534,60034,301,169,547,349
Sprite,Foreground,Centre,"SB\Pixel.jpg",0,0 F,0,58834,58834,0.2884119 S,0,58834,58834,11 M,19,58834,59534,230,257,312,226 M,18,59534,60034,312,226,547,349
Sprite,Foreground,Centre,"SB\Pixel.jpg",0,0 F,0,58834,58834,0.2220172 S,0,58834,58834,10 M,19,58834,59534,230,257,234,303 M,18,59534,60034,234,303,547,349
Sprite,Foreground,Centre,"SB\Pixel.jpg",0,0 F,0,58834,58834,0.4332686 S,0,58834,58834,14 M,19,58834,59534,230,257,300,316 M,18,59534,60034,300,316,547,349
Sprite,Foreground,Centre,"SB\Pixel.jpg",0,0 F,0,58834,58834,0.390492 S,0,58834,58834,17 M,19,58834,59534,230,257,250,160 M,18,59534,60034,250,160,547,349
Sprite,Foreground,Centre,"SB\Pixel.jpg",0,0 F,0,58834,58834,0.3955762 S,0,58834,58834,18 M,19,58834,59534,230,257,242,227 M,18,59534,60034,242,227,547,349
Sprite,Foreground,Centre,"SB\Pixel.jpg",0,0 F,0,58834,58834,0.4191301 S,0,58834,58834,18 M,19,58834,59534,230,257,287,188 M,18,59534,60034,287,188,547,349
Sprite,Foreground,Centre,"SB\Pixel.jpg",0,0 F,0,58834,58834,0.3295564 S,0,58834,58834,12 M,19,58834,59534,230,257,167,332 M,18,59534,60034,167,332,547,349
Sprite,Foreground,Centre,"SB\Pixel.jpg",0,0 F,0,58834,58834,0.2250552 S,0,58834,58834,15 M,19,58834,59534,230,257,324,207 M,18,59534,60034,324,207,547,349
Sprite,Foreground,Centre,"SB\Pixel.jpg",0,0 F,0,58834,58834,0.3550864 S,0,58834,58834,18 M,19,58834,59534,230,257,278,202 M,18,59534,60034,278,202,547,349
Sprite,Foreground,Centre,"SB\Pixel.jpg",0,0 F,0,58834,58834,0.3409091 S,0,58834,58834,16 M,19,58834,59534,230,257,226,251 M,18,59534,60034,226,251,547,349
Sprite,Foreground,Centre,"SB\Pixel.jpg",0,0 F,0,58834,58834,0.3808647 S,0,58834,58834,15 M,19,58834,59534,230,257,297,242 M,18,59534,60034,297,242,547,349
Sprite,Foreground,Centre,"SB\Pixel.jpg",0,0 F,0,58834,58834,0.319287 S,0,58834,58834,14 M,19,58834,59534,230,257,241,296 M,18,59534,60034,241,296,547,349
Sprite,Foreground,Centre,"SB\Pixel.jpg",0,0 F,0,58834,58834,0.2564355 S,0,58834,58834,17 M,19,58834,59534,230,257,202,157 M,18,59534,60034,202,157,547,349
Sprite,Foreground,Centre,"SB\Pixel.jpg",0,0 F,0,82834,82834,0.3062088 S,0,82834,82834,19 M,19,82834,83535,263,242,227,227 M,18,83535,84035,227,227,471,208
Sprite,Foreground,Centre,"SB\Pixel.jpg",0,0 F,0,82834,82834,0.2999552 S,0,82834,82834,18 M,19,82834,83535,263,242,349,241 M,18,83535,84035,349,241,471,208
Sprite,Foreground,Centre,"SB\Pixel.jpg",0,0 F,0,82834,82834,0.2939119 S,0,82834,82834,16 M,19,82834,83535,263,242,207,178 M,18,83535,84035,207,178,471,208
Sprite,Foreground,Centre,"SB\Pixel.jpg",0,0 F,0,82834,82834,0.4290864 S,0,82834,82834,12 M,19,82834,83535,263,242,228,226 M,18,83535,84035,228,226,471,208
Sprite,Foreground,Centre,"SB\Pixel.jpg",0,0 F,0,82834,82834,0.2826934 S,0,82834,82834,18 M,19,82834,83535,263,242,297,250 M,18,83535,84035,297,250,471,208
Sprite,Foreground,Centre,"SB\Pixel.jpg",0,0 F,0,82834,82834,0.4222845 S,0,82834,82834,10 M,19,82834,83535,263,242,328,233 M,18,83535,84035,328,233,471,208
Sprite,Foreground,Centre,"SB\Pixel.jpg",0,0 F,0,82834,82834,0.2344358 S,0,82834,82834,19 M,19,82834,83535,263,242,328,281 M,18,83535,84035,328,281,471,208
Sprite,Foreground,Centre,"SB\Pixel.jpg",0,0 F,0,82834,82834,0.4705382 S,0,82834,82834,13 M,19,82834,83535,263,242,207,183 M,18,83535,84035,207,183,471,208
Sprite,Foreground,Centre,"SB\Pixel.jpg",0,0 F,0,82834,82834,0.4153286 S,0,82834,82834,19 M,19,82834,83535,263,242,171,192 M,18,83535,84035,171,192,471,208
Sprite,Foreground,Centre,"SB\Pixel.jpg",0,0 F,0,82834,82834,0.4028195 S,0,82834,82834,19 M,19,82834,83535,263,242,216,225 M,18,83535,84035,216,225,471,208
Sprite,Foreground,Centre,"SB\Pixel.jpg",0,0 F,0,82834,82834,0.4108606 S,0,82834,82834,14 M,19,82834,83535,263,242,228,195 M,18,83535,84035,228,195,471,208
Sprite,Foreground,Centre,"SB\Pixel.jpg",0,0 F,0,82834,82834,0.3504877 S,0,82834,82834,13 M,19,82834,83535,263,242,319,172 M,18,83535,84035,319,172,471,208
Sprite,Foreground,Centre,"SB\Pixel.jpg",0,0 F,0,82834,82834,0.2876368 S,0,82834,82834,10 M,19,82834,83535,263,242,257,293 M,18,83535,84035,257,293,471,208
Sprite,Foreground,Centre,"SB\Pixel.jpg",0,0 F,0,82834,82834,0.3089889 S,0,82834,82834,15 M,19,82834,83535,263,242,267,155 M,18,83535,84035,267,155,471,208
Sprite,Foreground,Centre,"SB\Pixel.jpg",0,0 F,0,82834,82834,0.3248236 S,0,82834,82834,16 M,19,82834,83535,263,242,186,246 M,18,83535,84035,186,246,471,208
Sprite,Foreground,Centre,"SB\Pixel.jpg",0,0 F,0,82834,82834,0.3108656 S,0,82834,82834,16 M,19,82834,83535,263,242,247,306 M,18,83535,84035,247,306,471,208
Sprite,Foreground,Centre,"SB\Pixel.jpg",0,0 F,0,82834,82834,0.4463456 S,0,82834,82834,11 M,19,82834,83535,263,242,244,297 M,18,83535,84035,244,297,471,208
Sprite,Foreground,Centre,"SB\Pixel.jpg",0,0 F,0,82834,82834,0.3912801 S,0,82834,82834,10 M,19,82834,83535,263,242,275,341 M,18,83535,84035,275,341,471,208
Sprite,Foreground,Centre,"SB\Pixel.jpg",0,0 F,0,82834,82834,0.3803026 S,0,82834,82834,10 M,19,82834,83535,263,242,177,282 M,18,83535,84035,177,282,471,208
Sprite,Foreground,Centre,"SB\Pixel.jpg",0,0 F,0,82834,82834,0.3942281 S,0,82834,82834,19 M,19,82834,83535,263,242,220,333 M,18,83535,84035,220,333,471,208
Sprite,Foreground,Centre,"SB\Pixel.jpg",0,0 F,0,82834,82834,0.2408418 S,0,82834,82834,10 M,19,82834,83535,263,242,203,152 M,18,83535,84035,203,152,471,208
Sprite,Foreground,Centre,"SB\Pixel.jpg",0,0 F,0,82834,82834,0.2307763 S,0,82834,82834,16 M,19,82834,83535,263,242,324,312 M,18,83535,84035,324,312,471,208
Sprite,Foreground,Centre,"SB\Pixel.jpg",0,0 F,0,82834,82834,0.4475131 S,0,82834,82834,19 M,19,82834,83535,263,242,354,298 M,18,83535,84035,354,298,471,208
Sprite,Foreground,Centre,"SB\Pixel.jpg",0,0 F,0,82834,82834,0.2341419 S,0,82834,82834,16 M,19,82834,83535,263,242,302,329 M,18,83535,84035,302,329,471,208
Sprite,Foreground,Centre,"SB\Pixel.jpg",0,0 F,0,82834,82834,0.2792209 S,0,82834,82834,11 M,19,82834,83535,263,242,268,227 M,18,83535,84035,268,227,471,208
Sprite,Foreground,Centre,"SB\Pixel.jpg",0,0 F,0,82834,82834,0.2965411 S,0,82834,82834,14 M,19,82834,83535,263,242,246,325 M,18,83535,84035,246,325,471,208
Sprite,Foreground,Centre,"SB\Pixel.jpg",0,0 F,0,82834,82834,0.3273524 S,0,82834,82834,10 M,19,82834,83535,263,242,255,177 M,18,83535,84035,255,177,471,208
Sprite,Foreground,Centre,"SB\Pixel.jpg",0,0 F,0,82834,82834,0.4283687 S,0,82834,82834,14 M,19,82834,83535,263,242,233,270 M,18,83535,84035,233,270,471,208
Sprite,Foreground,Centre,"SB\Pixel.jpg",0,0 F,0,82834,82834,0.2018397 S,0,82834,82834,16 M,19,82834,83535,263,242,304,320 M,18,83535,84035,304,320,471,208
Sprite,Foreground,Centre,"SB\Pixel.jpg",0,0 F,0,82834,82834,0.3996482 S,0,82834,82834,12 M,19,82834,83535,263,242,220,317 M,18,83535,84035,220,317,471,208
Sprite,Foreground,Centre,"SB\Pixel.jpg",0,0 F,0,82834,82834,0.2051823 S,0,82834,82834,15 M,19,82834,83535,263,242,232,310 M,18,83535,84035,232,310,471,208
Sprite,Foreground,Centre,"SB\Pixel.jpg",0,0 F,0,82834,82834,0.4891983 S,0,82834,82834,12 M,19,82834,83535,263,242,317,300 M,18,83535,84035,317,300,471,208
Sprite,Foreground,Centre,"SB\Pixel.jpg",0,0 F,0,82834,82834,0.4101789 S,0,82834,82834,10 M,19,82834,83535,263,242,340,248 M,18,83535,84035,340,248,471,208
Sprite,Foreground,Centre,"SB\Pixel.jpg",0,0 F,0,82834,82834,0.4405315 S,0,82834,82834,17 M,19,82834,83535,263,242,319,213 M,18,83535,84035,319,213,471,208
Sprite,Foreground,Centre,"SB\Pixel.jpg",0,0 F,0,82834,82834,0.4036192 S,0,82834,82834,19 M,19,82834,83535,263,242,173,177 M,18,83535,84035,173,177,471,208
Sprite,Foreground,Centre,"SB\Pixel.jpg",0,0 F,0,82834,82834,0.3782049 S,0,82834,82834,17 M,19,82834,83535,263,242,289,226 M,18,83535,84035,289,226,471,208
Sprite,Foreground,Centre,"SB\Pixel.jpg",0,0 F,0,82834,82834,0.2221703 S,0,82834,82834,18 M,19,82834,83535,263,242,270,192 M,18,83535,84035,270,192,471,208
Sprite,Foreground,Centre,"SB\Pixel.jpg",0,0 F,0,87635,87635,0.3682922 S,0,87635,87635,16 M,19,87635,88334,161,340,240,317 M,18,88334,88834,240,317,323,391
Sprite,Foreground,Centre,"SB\Pixel.jpg",0,0 F,0,87635,87635,0.2529537 S,0,87635,87635,11 M,19,87635,88334,161,340,82,388 M,18,88334,88834,82,388,323,391
Sprite,Foreground,Centre,"SB\Pixel.jpg",0,0 F,0,87635,87635,0.4799196 S,0,87635,87635,10 M,19,87635,88334,161,340,201,366 M,18,88334,88834,201,366,323,391
Sprite,Foreground,Centre,"SB\Pixel.jpg",0,0 F,0,87635,87635,0.2523157 S,0,87635,87635,11 M,19,87635,88334,161,340,211,330 M,18,88334,88834,211,330,323,391
Sprite,Foreground,Centre,"SB\Pixel.jpg",0,0 F,0,87635,87635,0.3057951 S,0,87635,87635,11 M,19,87635,88334,161,340,231,338 M,18,88334,88834,231,338,323,391
Sprite,Foreground,Centre,"SB\Pixel.jpg",0,0 F,0,87635,87635,0.3903862 S,0,87635,87635,14 M,19,87635,88334,161,340,215,398 M,18,88334,88834,215,398,323,391
Sprite,Foreground,Centre,"SB\Pixel.jpg",0,0 F,0,87635,87635,0.3865956 S,0,87635,87635,14 M,19,87635,88334,161,340,233,309 M,18,88334,88834,233,309,323,391
Sprite,Foreground,Centre,"SB\Pixel.jpg",0,0 F,0,87635,87635,0.3117694 S,0,87635,87635,16 M,19,87635,88334,161,340,138,426 M,18,88334,88834,138,426,323,391
Sprite,Foreground,Centre,"SB\Pixel.jpg",0,0 F,0,87635,87635,0.3317067 S,0,87635,87635,14 M,19,87635,88334,161,340,111,343 M,18,88334,88834,111,343,323,391
Sprite,Foreground,Centre,"SB\Pixel.jpg",0,0 F,0,87635,87635,0.3375897 S,0,87635,87635,13 M,19,87635,88334,161,340,87,353 M,18,88334,88834,87,353,323,391
Sprite,Foreground,Centre,"SB\Pixel.jpg",0,0 F,0,87635,87635,0.3358648 S,0,87635,87635,11 M,19,87635,88334,161,340,150,247 M,18,88334,88834,150,247,323,391
Sprite,Foreground,Centre,"SB\Pixel.jpg",0,0 F,0,87635,87635,0.3092194 S,0,87635,87635,14 M,19,87635,88334,161,340,141,246 M,18,88334,88834,141,246,323,391
Sprite,Foreground,Centre,"SB\Pixel.jpg",0,0 F,0,87635,87635,0.4158252 S,0,87635,87635,13 M,19,87635,88334,161,340,124,262 M,18,88334,88834,124,262,323,391
Sprite,Foreground,Centre,"SB\Pixel.jpg",0,0 F,0,87635,87635,0.3369413 S,0,87635,87635,11 M,19,87635,88334,161,340,132,241 M,18,88334,88834,132,241,323,391
Sprite,Foreground,Centre,"SB\Pixel.jpg",0,0 F,0,87635,87635,0.3467408 S,0,87635,87635,15 M,19,87635,88334,161,340,224,255 M,18,88334,88834,224,255,323,391
Sprite,Foreground,Centre,"SB\Pixel.jpg",0,0 F,0,87635,87635,0.4594398 S,0,87635,87635,13 M,19,87635,88334,161,340,127,251 M,18,88334,88834,127,251,323,391
Sprite,Foreground,Centre,"SB\Pixel.jpg",0,0 F,0,87635,87635,0.2819847 S,0,87635,87635,11 M,19,87635,88334,161,340,102,306 M,18,88334,88834,102,306,323,391
Sprite,Foreground,Centre,"SB\Pixel.jpg",0,0 F,0,87635,87635,0.3449519 S,0,87635,87635,14 M,19,87635,88334,161,340,226,418 M,18,88334,88834,226,418,323,391
Sprite,Foreground,Centre,"SB\Pixel.jpg",0,0 F,0,87635,87635,0.4688202 S,0,87635,87635,19 M,19,87635,88334,161,340,131,353 M,18,88334,88834,131,353,323,391
Sprite,Foreground,Centre,"SB\Pixel.jpg",0,0 F,0,87635,87635,0.2142641 S,0,87635,87635,14 M,19,87635,88334,161,340,89,399 M,18,88334,88834,89,399,323,391
Sprite,Foreground,Centre,"SB\Pixel.jpg",0,0 F,0,87635,87635,0.2860763 S,0,87635,87635,18 M,19,87635,88334,161,340,85,261 M,18,88334,88834,85,261,323,391
Sprite,Foreground,Centre,"SB\Pixel.jpg",0,0 F,0,87635,87635,0.4576358 S,0,87635,87635,13 M,19,87635,88334,161,340,134,349 M,18,88334,88834,134,349,323,391
Sprite,Foreground,Centre,"SB\Pixel.jpg",0,0 F,0,87635,87635,0.2171646 S,0,87635,87635,14 M,19,87635,88334,161,340,130,274 M,18,88334,88834,130,274,323,391
Sprite,Foreground,Centre,"SB\Pixel.jpg",0,0 F,0,87635,87635,0.3748379 S,0,87635,87635,10 M,19,87635,88334,161,340,257,407 M,18,88334,88834,257,407,323,391
Sprite,Foreground,Centre,"SB\Pixel.jpg",0,0 F,0,87635,87635,0.2027025 S,0,87635,87635,16 M,19,87635,88334,161,340,153,345 M,18,88334,88834,153,345,323,391
Sprite,Foreground,Centre,"SB\Pixel.jpg",0,0 F,0,87635,87635,0.3564549 S,0,87635,87635,13 M,19,87635,88334,161,340,111,276 M,18,88334,88834,111,276,323,391
Sprite,Foreground,Centre,"SB\Pixel.jpg",0,0 F,0,87635,87635,0.3347754 S,0,87635,87635,17 M,19,87635,88334,161,340,168,241 M,18,88334,88834,168,241,323,391
Sprite,Foreground,Centre,"SB\Pixel.jpg",0,0 F,0,87635,87635,0.3255571 S,0,87635,87635,16 M,19,87635,88334,161,340,80,249 M,18,88334,88834,80,249,323,391
Sprite,Foreground,Centre,"SB\Pixel.jpg",0,0 F,0,87635,87635,0.2335014 S,0,87635,87635,17 M,19,87635,88334,161,340,116,247 M,18,88334,88834,116,247,323,391
Sprite,Foreground,Centre,"SB\Pixel.jpg",0,0 F,0,87635,87635,0.347396 S,0,87635,87635,14 M,19,87635,88334,161,340,97,342 M,18,88334,88834,97,342,323,391
Sprite,Foreground,Centre,"SB\Pixel.jpg",0,0 F,0,87635,87635,0.2030909 S,0,87635,87635,11 M,19,87635,88334,161,340,122,282 M,18,88334,88834,122,282,323,391
Sprite,Foreground,Centre,"SB\Pixel.jpg",0,0 F,0,97235,97235,0.2558353 S,0,97235,97235,10 M,19,97235,97934,465,152,504,102 M,18,97934,98434,504,102,290,219
Sprite,Foreground,Centre,"SB\Pixel.jpg",0,0 F,0,97235,97235,0.3010307 S,0,97235,97235,17 M,19,97235,97934,465,152,514,83 M,18,97934,98434,514,83,290,219
Sprite,Foreground,Centre,"SB\Pixel.jpg",0,0 F,0,97235,97235,0.4806574 S,0,97235,97235,14 M,19,97235,97934,465,152,456,134 M,18,97934,98434,456,134,290,219
Sprite,Foreground,Centre,"SB\Pixel.jpg",0,0 F,0,97235,97235,0.327817 S,0,97235,97235,14 M,19,97235,97934,465,152,375,245 M,18,97934,98434,375,245,290,219
Sprite,Foreground,Centre,"SB\Pixel.jpg",0,0 F,0,97235,97235,0.421484 S,0,97235,97235,16 M,19,97235,97934,465,152,466,247 M,18,97934,98434,466,247,290,219
Sprite,Foreground,Centre,"SB\Pixel.jpg",0,0 F,0,97235,97235,0.2967624 S,0,97235,97235,19 M,19,97235,97934,465,152,377,115 M,18,97934,98434,377,115,290,219
Sprite,Foreground,Centre,"SB\Pixel.jpg",0,0 F,0,97235,97235,0.4991021 S,0,97235,97235,14 M,19,97235,97934,465,152,505,122 M,18,97934,98434,505,122,290,219
Sprite,Foreground,Centre,"SB\Pixel.jpg",0,0 F,0,97235,97235,0.2765221 S,0,97235,97235,15 M,19,97235,97934,465,152,442,211 M,18,97934,98434,442,211,290,219
Sprite,Foreground,Centre,"SB\Pixel.jpg",0,0 F,0,97235,97235,0.3379616 S,0,97235,97235,12 M,19,97235,97934,465,152,483,216 M,18,97934,98434,483,216,290,219
Sprite,Foreground,Centre,"SB\Pixel.jpg",0,0 F,0,97235,97235,0.4663184 S,0,97235,97235,12 M,19,97235,97934,465,152,373,119 M,18,97934,98434,373,119,290,219
Sprite,Foreground,Centre,"SB\Pixel.jpg",0,0 F,0,97235,97235,0.2553555 S,0,97235,97235,18 M,19,97235,97934,465,152,405,181 M,18,97934,98434,405,181,290,219
Sprite,Foreground,Centre,"SB\Pixel.jpg",0,0 F,0,97235,97235,0.3484295 S,0,97235,97235,19 M,19,97235,97934,465,152,509,154 M,18,97934,98434,509,154,290,219
Sprite,Foreground,Centre,"SB\Pixel.jpg",0,0 F,0,97235,97235,0.3016047 S,0,97235,97235,14 M,19,97235,97934,465,152,450,219 M,18,97934,98434,450,219,290,219
Sprite,Foreground,Centre,"SB\Pixel.jpg",0,0 F,0,97235,97235,0.3526971 S,0,97235,97235,16 M,19,97235,97934,465,152,385,135 M,18,97934,98434,385,135,290,219
Sprite,Foreground,Centre,"SB\Pixel.jpg",0,0 F,0,97235,97235,0.4734167 S,0,97235,97235,10 M,19,97235,97934,465,152,415,194 M,18,97934,98434,415,194,290,219
Sprite,Foreground,Centre,"SB\Pixel.jpg",0,0 F,0,97235,97235,0.3530047 S,0,97235,97235,16 M,19,97235,97934,465,152,501,155 M,18,97934,98434,501,155,290,219
Sprite,Foreground,Centre,"SB\Pixel.jpg",0,0 F,0,97235,97235,0.2164218 S,0,97235,97235,10 M,19,97235,97934,465,152,509,138 M,18,97934,98434,509,138,290,219
Sprite,Foreground,Centre,"SB\Pixel.jpg",0,0 F,0,97235,97235,0.2459109 S,0,97235,97235,13 M,19,97235,97934,465,152,376,85 M,18,97934,98434,376,85,290,219
Sprite,Foreground,Centre,"SB\Pixel.jpg",0,0 F,0,97235,97235,0.2885283 S,0,97235,97235,10 M,19,97235,97934,465,152,539,112 M,18,97934,98434,539,112,290,219
Sprite,Foreground,Centre,"SB\Pixel.jpg",0,0 F,0,97235,97235,0.2055946 S,0,97235,97235,16 M,19,97235,97934,465,152,516,148 M,18,97934,98434,516,148,290,219
Sprite,Foreground,Centre,"SB\Pixel.jpg",0,0 F,0,97235,97235,0.256721 S,0,97235,97235,17 M,19,97235,97934,465,152,490,218 M,18,97934,98434,490,218,290,219
Sprite,Foreground,Centre,"SB\Pixel.jpg",0,0 F,0,97235,97235,0.2408016 S,0,97235,97235,11 M,19,97235,97934,465,152,463,198 M,18,97934,98434,463,198,290,219
Sprite,Foreground,Centre,"SB\Pixel.jpg",0,0 F,0,97235,97235,0.4516623 S,0,97235,97235,19 M,19,97235,97934,465,152,406,52 M,18,97934,98434,406,52,290,219
Sprite,Foreground,Centre,"SB\Pixel.jpg",0,0 F,0,97235,97235,0.2897288 S,0,97235,97235,13 M,19,97235,97934,465,152,564,208 M,18,97934,98434,564,208,290,219
Sprite,Foreground,Centre,"SB\Pixel.jpg",0,0 F,0,97235,97235,0.2583987 S,0,97235,97235,17 M,19,97235,97934,465,152,552,104 M,18,97934,98434,552,104,290,219
Sprite,Foreground,Centre,"SB\Pixel.jpg",0,0 F,0,97235,97235,0.4564389 S,0,97235,97235,11 M,19,97235,97934,465,152,554,135 M,18,97934,98434,554,135,290,219
Sprite,Foreground,Centre,"SB\Pixel.jpg",0,0 F,0,97235,97235,0.4592479 S,0,97235,97235,17 M,19,97235,97934,465,152,405,151 M,18,97934,98434,405,151,290,219
Sprite,Foreground,Centre,"SB\Pixel.jpg",0,0 F,0,97235,97235,0.3042797 S,0,97235,97235,13 M,19,97235,97934,465,152,543,100 M,18,97934,98434,543,100,290,219
Sprite,Foreground,Centre,"SB\Pixel.jpg",0,0 F,0,97235,97235,0.4911308 S,0,97235,97235,18 M,19,97235,97934,465,152,429,58 M,18,97934,98434,429,58,290,219
Sprite,Foreground,Centre,"SB\Pixel.jpg",0,0 F,0,97235,97235,0.307149 S,0,97235,97235,13 M,19,97235,97934,465,152,539,145 M,18,97934,98434,539,145,290,219
Sprite,Foreground,Centre,"SB\Pixel.jpg",0,0 F,0,97235,97235,0.396002 S,0,97235,97235,11 M,19,97235,97934,465,152,560,88 M,18,97934,98434,560,88,290,219
Sprite,Foreground,Centre,"SB\Pixel.jpg",0,0 F,0,97235,97235,0.3458152 S,0,97235,97235,10 M,19,97235,97934,465,152,437,179 M,18,97934,98434,437,179,290,219
Sprite,Foreground,Centre,"SB\Pixel.jpg",0,0 F,0,97235,97235,0.2072563 S,0,97235,97235,12 M,19,97235,97934,465,152,380,227 M,18,97934,98434,380,227,290,219
Sprite,Foreground,Centre,"SB\Pixel.jpg",0,0 F,0,97235,97235,0.2340872 S,0,97235,97235,15 M,19,97235,97934,465,152,507,79 M,18,97934,98434,507,79,290,219
Sprite,Foreground,Centre,"SB\Pixel.jpg",0,0 F,0,97235,97235,0.4896588 S,0,97235,97235,17 M,19,97235,97934,465,152,516,138 M,18,97934,98434,516,138,290,219
Sprite,Foreground,Centre,"SB\Text\0030.png",289,260 S,0,60534,60534,0.25 C,0,60534,60534,255,255,255 F,0,60534,60634,0,1 F,0,62335,62435,1,0
Sprite,Foreground,Centre,"SB\Text\0039.png",304,260 S,0,60534,60534,0.25 C,0,60584,60584,255,255,255 F,0,60584,60684,0,1 F,0,62335,62435,1,0
Sprite,Foreground,Centre,"SB\Text\0032.png",320,260 S,0,60534,60534,0.25 C,0,60634,60634,255,255,255 F,0,60634,60734,0,1 F,0,62335,62435,1,0
Sprite,Foreground,Centre,"SB\Text\0032.png",335,260 S,0,60534,60534,0.25 C,0,60684,60684,255,255,255 F,0,60684,60784,0,1 F,0,62335,62435,1,0
Sprite,Foreground,Centre,"SB\Text\005f.png",351,260 S,0,60534,60534,0.25 C,0,60734,60734,255,255,255 F,0,60734,60834,0,1 F,0,62335,62435,1,0
//Storyboard Layer 4 (Overlay)
//Storyboard Sound Samples

[TimingPoints]
2435,300,4,2,1,70,1,0
7235,-100,4,2,2,80,0,0
10835,-33.3333333333333,4,2,3,80,0,0
11135,-40,4,2,1,80,0,0
12035,-40,4,2,2,65,0,0
12335,-40,4,2,1,65,0,0
12935,-33.3333333333333,4,2,1,65,0,0
13235,-33.3333333333333,4,2,1,75,0,0
13535,-40,4,2,1,75,0,0
14135,-36.3636363636364,4,2,1,75,0,0
14435,-33.3333333333333,4,2,1,85,0,0
15635,-66.6666666666667,4,2,1,85,0,0
16235,-100,4,2,1,85,0,0
16835,-83.3333333333333,4,2,3,90,0,0
16985,-83.3333333333333,4,2,2,90,0,0
17435,-62.5,4,2,2,90,0,0
18035,-50,4,2,2,90,0,0
18635,-41.6666666666667,4,2,2,90,0,0
19235,-41.6666666666667,4,2,3,90,0,0
19385,-41.6666666666667,4,2,2,90,0,0
19835,-41.6666666666667,4,2,3,90,0,0
19910,-41.6666666666667,4,2,9,90,0,0
20435,-41.6666666666667,4,2,4,90,0,0
21185,-41.6666666666667,4,2,1,90,0,0
21635,-31.25,4,2,2,90,0,1
21935,-33.3333333333333,4,2,1,90,0,1
22235,-41.6666666666667,4,2,4,90,0,1
22535,-38.4615384615385,4,2,2,90,0,1
22835,-50,4,2,2,90,0,1
22985,-38.4615384615385,4,2,2,90,0,1
23435,-38.4615384615385,4,2,5,90,0,1
23735,-38.4615384615385,4,2,1,90,0,1
23885,-38.4615384615385,4,2,2,90,0,1
24035,-50,4,2,2,90,0,1
24185,-45.4545454545455,4,2,1,90,0,1
24335,-41.6666666666667,4,2,2,90,0,1
24485,-38.4615384615385,4,2,2,90,0,1
24635,-33.3333333333333,4,2,6,90,0,1
24785,-33.3333333333333,4,2,2,90,0,1
24935,-38.4615384615385,4,2,2,90,0,1
25235,-50,4,2,2,90,0,1
25385,-50,4,2,1,90,0,1
25535,-38.4615384615385,4,2,4,90,0,1
25835,-50,4,2,4,90,0,1
25985,-50,4,2,2,90,0,1
26135,-35.7142857142857,4,2,2,90,0,1
26435,-35.7142857142857,4,2,2,90,0,1
26735,-35.7142857142857,4,2,2,90,0,1
27035,-38.4615384615385,4,2,6,90,0,1
27185,-38.4615384615385,4,2,2,90,0,1
27335,-38.4615384615385,4,2,2,90,0,1
28235,-38.4615384615385,4,2,5,90,0,1
28385,-38.4615384615385,4,2,1,90,0,1
28535,-38.4615384615385,4,2,2,90,0,1
28835,-38.4615384615385,4,2,1,90,0,1
29435,-38.4615384615385,4,2,5,90,0,1
29735,-38.4615384615385,4,2,2,90,0,1
30035,-50,4,2,4,90,0,0
31235,-33.3333333333333,4,2,2,90,0,1
31535,-38.4615384615385,4,2,1,90,0,1
31835,-33.3333333333333,4,2,5,90,0,1
32135,-38.4615384615385,4,2,2,90,0,1
32435,-45.4545454545455,4,2,2,90,0,1
32735,-38.4615384615385,4,2,1,90,0,1
33035,-38.4615384615385,4,2,5,90,0,1
33335,-33.3333333333333,4,2,2,90,0,1
33635,-38.4615384615385,4,2,2,90,0,1
33785,-38.4615384615385,4,2,1,90,0,1
34235,-38.4615384615385,4,2,5,90,0,1
34535,-33.3333333333333,4,2,2,90,0,1
34835,-38.4615384615385,4,2,1,90,0,1
35435,-38.4615384615385,4,2,6,90,0,1
35735,-35.7142857142857,4,2,1,90,0,1
36035,-33.3333333333333,4,2,6,90,0,1
36335,-33.3333333333333,4,2,1,90,0,1
36635,-33.3333333333333,4,2,5,90,0,1
36935,-38.4615384615385,4,2,2,90,0,1
37235,-45.4545454545455,4,2,1,90,0,1
37535,-38.4615384615385,4,2,1,90,0,1
37835,-38.4615384615385,4,2,5,90,0,1
38135,-38.4615384615385,4,2,2,90,0,1
38435,-38.4615384615385,4,2,1,90,0,1
39035,-33.3333333333333,4,2,6,90,0,1
39335,-38.4615384615385,4,2,2,90,0,1
39635,-50,4,2,2,80,0,0
39935,-50,4,2,4,80,0,0
40085,-50,4,2,1,80,0,0
40385,-50,4,2,2,80,0,0
40835,-38.4615384615385,4,2,2,90,0,1
41135,-38.4615384615385,4,2,1,90,0,1
41435,-33.3333333333333,4,2,4,90,0,1
41735,-38.4615384615385,4,2,4,90,0,1
42335,-33.3333333333333,4,2,4,90,0,1
42635,-38.4615384615385,4,2,5,90,0,1
42935,-38.4615384615385,4,2,2,90,0,1
43385,-38.4615384615385,4,2,1,90,0,1
43835,-33.3333333333333,4,2,4,90,0,1
44435,-38.4615384615385,4,2,4,90,0,1
44735,-33.3333333333333,4,2,4,90,0,1
45035,-38.4615384615385,4,2,5,90,0,1
45335,-35.7142857142857,4,2,2,90,0,1
45635,-33.3333333333333,4,2,2,90,0,1
45935,-38.4615384615385,4,2,2,90,0,1
46235,-38.4615384615385,4,2,5,90,0,1
46535,-38.4615384615385,4,2,4,90,0,1
46685,-38.4615384615385,4,2,1,90,0,1
47135,-38.4615384615385,4,2,2,90,0,1
47435,-35.7142857142857,4,2,5,90,0,1
47735,-35.7142857142857,4,2,4,90,0,1
47885,-35.7142857142857,4,2,1,90,0,1
48035,-38.4615384615385,4,2,1,90,0,1
48635,-35.7142857142857,4,2,5,90,0,1
48935,-35.7142857142857,4,2,4,90,0,1
49235,-50,4,2,5,90,0,0
49535,-50,4,2,2,90,0,0
50435,-38.4615384615385,4,2,2,90,0,1
50735,-50,4,2,1,90,0,1
51035,-33.3333333333333,4,2,4,90,0,1
51335,-38.4615384615385,4,2,4,90,0,1
51935,-33.3333333333333,4,2,4,90,0,1
52235,-33.3333333333333,4,2,5,90,0,1
52385,-38.4615384615385,4,2,5,90,0,1
52535,-38.4615384615385,4,2,2,90,0,1
52685,-38.4615384615385,4,2,4,90,0,1
52985,-38.4615384615385,4,2,1,90,0,1
53135,-38.4615384615385,4,2,1,90,0,1
53435,-33.3333333333333,4,2,4,90,0,1
54035,-38.4615384615385,4,2,4,90,0,1
54635,-38.4615384615385,4,2,5,90,0,1
54935,-35.7142857142857,4,2,2,90,0,1
55085,-35.7142857142857,4,2,1,90,0,1
55235,-33.3333333333333,4,2,2,90,0,1
55535,-38.4615384615385,4,2,2,90,0,1
55835,-38.4615384615385,4,2,5,90,0,1
56135,-38.4615384615385,4,2,2,90,0,1
56735,-38.4615384615385,4,2,4,90,0,1
57335,-35.7142857142857,4,2,4,90,0,1
57635,-38.4615384615385,4,2,4,90,0,1
57785,-38.4615384615385,4,2,2,90,0,1
58235,-38.4615384615385,4,2,4,90,0,1
58385,-38.4615384615385,4,2,1,90,0,1
58535,-38.4615384615385,4,2,1,90,0,1
58835,-100,4,2,5,90,0,0
59585,-100,4,2,1,90,0,0
60035,-100,4,2,7,80,0,0
69635,-50,4,2,8,80,0,0
70235,-50,4,2,4,80,0,0
73235,-66.6666666666667,4,2,4,80,0,0
74435,-50,4,2,8,80,0,0
75035,-50,4,2,4,80,0,0
76835,-66.6666666666667,4,2,4,80,0,0
79235,-66.6666666666667,4,2,4,70,0,0
82835,-40,4,2,3,70,0,0
83135,-40,4,2,2,70,0,0
83585,-40,4,2,1,70,0,0
84035,-40,4,2,9,75,0,0
84785,-40,4,2,1,75,0,0
85535,-40,4,2,2,75,0,0
85985,-40,4,2,1,75,0,0
86735,-50,4,2,2,75,0,0
87185,-50,4,2,1,75,0,0
87635,-38.4615384615385,4,2,1,75,0,0
87935,-38.4615384615385,4,2,2,75,0,0
88235,-35.7142857142857,4,2,7,75,0,0
88535,-35.7142857142857,4,2,2,75,0,0
88835,-50,4,2,2,80,0,0
90035,-50,4,2,9,80,0,0
93635,-83.3333333333333,4,2,3,85,0,0
93785,-83.3333333333333,4,2,2,85,0,0
94235,-62.5,4,2,2,85,0,0
94835,-50,4,2,9,85,0,0
95435,-41.6666666666667,4,2,9,85,0,0
97235,-41.6666666666667,4,2,3,85,0,0
97535,-41.6666666666667,4,2,4,85,0,0
98135,-41.6666666666667,4,2,10,85,0,0
98435,-38.4615384615385,4,2,2,90,0,1
98735,-38.4615384615385,4,2,4,90,0,1
99335,-38.4615384615385,4,2,6,90,0,1
99485,-38.4615384615385,4,2,1,90,0,1
99935,-38.4615384615385,4,2,6,90,0,1
100085,-38.4615384615385,4,2,1,90,0,1
100535,-38.4615384615385,4,2,6,90,0,1
100685,-38.4615384615385,4,2,2,90,0,1
101135,-38.4615384615385,4,2,4,90,0,1
101285,-38.4615384615385,4,2,2,90,0,1
101735,-38.4615384615385,4,2,5,90,0,1
101885,-38.4615384615385,4,2,2,90,0,1
102035,-38.4615384615385,4,2,1,90,0,1
102335,-38.4615384615385,4,2,4,90,0,1
102635,-38.4615384615385,4,2,1,90,0,1
102935,-38.4615384615385,4,2,6,90,0,1
103085,-38.4615384615385,4,2,3,90,0,1
103535,-38.4615384615385,4,2,6,90,0,1
103685,-38.4615384615385,4,2,1,90,0,1
104135,-38.4615384615385,4,2,6,90,0,1
104285,-38.4615384615385,4,2,1,90,0,1
104735,-38.4615384615385,4,2,6,90,0,1
104885,-38.4615384615385,4,2,1,90,0,1
105335,-38.4615384615385,4,2,4,90,0,1
106985,-38.4615384615385,4,2,2,90,0,1
107135,-38.4615384615385,4,2,4,90,0,1
107285,-38.4615384615385,4,2,2,90,0,1
107435,-38.4615384615385,4,2,4,90,0,1
108035,-100,4,2,4,90,0,0
108335,-38.4615384615385,4,2,6,90,0,1
108485,-38.4615384615385,4,2,4,90,0,1
108635,-33.3333333333333,4,2,4,90,0,1
108935,-38.4615384615385,4,2,4,90,0,1
109535,-33.3333333333333,4,2,4,90,0,1
109835,-33.3333333333333,4,2,1,90,0,1
110135,-33.3333333333333,4,2,6,90,0,1
110285,-33.3333333333333,4,2,1,90,0,1
110435,-38.4615384615385,4,2,1,90,0,1
110735,-38.4615384615385,4,2,6,90,0,1
110885,-38.4615384615385,4,2,4,90,0,1
111035,-33.3333333333333,4,2,4,90,0,1
111635,-38.4615384615385,4,2,4,90,0,1
111935,-33.3333333333333,4,2,4,90,0,1
112235,-38.4615384615385,4,2,1,90,0,1
112535,-33.3333333333333,4,2,4,90,0,1
112685,-33.3333333333333,4,2,1,90,0,1
112835,-66.6666666666667,4,2,2,90,0,1
113435,-50,4,2,11,90,0,1
113735,-50,4,2,2,90,0,1
114335,-50,4,2,1,90,0,1
114635,-50,4,2,12,90,0,1
114935,-50,4,2,13,90,0,1
115235,-45.4545454545455,4,2,4,90,0,1
115535,-41.6666666666667,4,2,4,90,0,1
115835,-38.4615384615385,4,2,4,90,0,1
116435,-38.4615384615385,4,2,14,90,0,1
117335,-38.4615384615385,4,2,10,90,0,1
117635,-41.6666666666667,4,2,15,95,0,0
117785,-41.6666666666667,4,2,1,95,0,0
117935,-41.6666666666667,4,2,8,95,0,0
121835,-38.4615384615385,4,2,8,95,0,0
122135,-41.6666666666667,4,2,8,95,0,0
122435,-41.6666666666667,4,2,4,95,0,0
122735,-41.6666666666667,4,2,8,95,0,0
126635,-45.4545454545455,4,2,8,95,0,0
126935,-50,4,2,8,95,0,0
127535,-41.6666666666667,4,2,16,95,0,0
127685,-41.6666666666667,4,2,4,95,0,0
128135,-41.6666666666667,4,2,8,95,0,0
131435,-38.4615384615385,4,2,10,95,0,0
131585,-38.4615384615385,4,2,1,95,0,0
131735,-41.6666666666667,4,2,8,95,0,0
132035,-41.6666666666667,4,2,17,95,0,0
132185,-41.6666666666667,4,2,5,95,0,0
132335,-41.6666666666667,4,2,8,95,0,0
132485,-41.6666666666667,4,2,5,95,0,0
132635,-41.6666666666667,4,2,4,95,0,0
132785,-41.6666666666667,4,2,5,95,0,0
132935,-41.6666666666667,4,2,8,95,0,0
133085,-41.6666666666667,4,2,5,95,0,0
133235,-41.6666666666667,4,2,4,95,0,0
133385,-41.6666666666667,4,2,5,95,0,0
133535,-41.6666666666667,4,2,8,95,0,0
133685,-41.6666666666667,4,2,5,95,0,0
133835,-41.6666666666667,4,2,4,95,0,0
133985,-41.6666666666667,4,2,5,95,0,0
134135,-41.6666666666667,4,2,8,95,0,0
134285,-41.6666666666667,4,2,5,95,0,0
134435,-41.6666666666667,4,2,14,95,0,0
134735,-41.6666666666667,4,2,8,95,0,0
134885,-41.6666666666667,4,2,14,95,0,0
135335,-41.6666666666667,4,2,8,95,0,0
135485,-41.6666666666667,4,2,14,95,0,0
136235,-41.6666666666667,4,2,18,95,0,0
136385,-41.6666666666667,4,2,1,95,0,0
136535,-41.6666666666667,4,2,15,95,0,0
136835,-41.6666666666667,4,2,11,95,0,0

[Colours]
Combo1 : 255,128,192
Combo2 : 255,0,128
Combo3 : 255,88,102
Combo4 : 255,0,255

[HitObjects]
256,192,2435,12,0,6635,0:0:0:0:
103,105,7235,5,4,3:2:0:0:
252,182,7835,1,8,2:0:0:0:
93,175,8435,5,0,0:0:0:0:
174,181,8735,1,0,0:0:0:0:
252,182,9035,1,8,2:0:0:0:
103,249,9635,5,0,0:0:0:0:
179,219,9935,1,0,0:0:0:0:
252,181,10235,1,8,2:0:0:0:
324,148,10535,1,0,0:0:0:0:
459,146,10835,6,0,B|479:147|509:161|509:161|477:92|423:67|376:64,1,225.000008583069,4|0,3:2|0:0,0:0:0:0:
225,1,11135,2,0,P|218:20|220:74,1,62.4999999999999,2|0,2:0|0:0,0:0:0:0:
324,148,11285,2,0,P|325:167|312:213,1,62.4999999999999,2|0,2:0|0:0,0:0:0:0:
248,291,11435,1,2,2:0:0:0:
122,206,11585,1,0,1:0:0:0:
122,206,11660,1,0,1:0:0:0:
122,206,11735,1,0,3:0:0:0:
228,163,11885,1,0,3:0:0:0:
109,95,12035,6,0,B|114:136|114:136|109:136|109:136|115:176|115:176|118:173|118:173|125:222,1,125,4|0,3:2|0:0,0:0:0:0:
5,59,12335,2,0,P|3:85|23:136,1,62.4999999999999,8|0,1:2|0:0,0:0:0:0:
228,163,12485,2,0,P|231:195|225:230,1,62.4999999999999,0|0,1:0|0:0,0:0:0:0:
144,308,12635,1,8,3:2:0:0:
144,308,12710,1,0,3:0:0:0:
144,308,12785,1,0,1:0:0:0:
199,74,12935,6,0,P|253:71|318:169,1,150.000005722046,8|0,1:2|1:0,0:0:0:0:
230,294,13235,2,0,P|200:248|256:147,1,150.000005722046,8|0,3:2|0:0,0:0:0:0:
320,230,13535,1,8,1:2:0:0:
320,230,13685,1,0,1:0:0:0:
430,70,13835,6,0,B|383:61|383:61|367:45|367:45|314:34,1,125,8|0,3:2|1:0,0:0:0:0:
447,188,14135,2,0,B|393:200|393:200|373:219|373:219|320:230,1,137.500001311302,8|0,1:2|1:0,0:0:0:0:
227,55,14435,2,0,P|246:105|228:203,1,150.000005722046,8|0,3:2|0:0,0:0:0:0:
100,127,14735,1,8,1:2:0:0:
100,127,14885,1,0,1:0:0:0:
27,213,15035,5,8,3:2:0:0:
62,323,15185,1,0,1:0:0:0:
16,210,15335,1,8,1:2:0:0:
71,320,15485,1,0,1:0:0:0:
258,185,15635,6,0,B|253:221|236:246|181:243|181:243|159:205|150:159|161:112|199:78,1,262.50001001358,8|0,3:2|0:0,0:0:0:0:
262,68,16235,2,0,L|199:73,1,50,10|0,2:0|0:0,0:0:0:0:
41,30,16535,2,0,L|102:22,1,50,10|0,2:0|0:0,0:0:0:0:
80,121,16835,6,0,L|86:197,1,59.9999981689453,4|2,2:0|2:0,0:0:0:0:
96,319,17135,2,0,L|102:249,1,59.9999981689453,0|2,1:0|2:0,0:0:0:0:
169,93,17435,6,0,L|177:186,1,79.9999999999999,0|2,1:0|2:0,0:0:0:0:
195,331,17735,2,0,L|205:243,1,79.9999999999999,0|2,1:0|2:0,0:0:0:0:
261,68,18035,6,0,L|273:169,1,99.9999999999999,0|2,1:0|2:0,0:0:0:0:
293,346,18335,2,0,L|305:242,1,99.9999999999999,0|2,1:0|2:0,0:0:0:0:
356,43,18635,6,0,L|372:164,1,119.999996337891,0|2,1:0|2:0,0:0:0:0:
396,364,18935,2,0,L|412:236,1,119.999996337891,0|2,1:0|2:0,0:0:0:0:
493,120,19235,5,2,1:2:0:0:
356,43,19385,1,2,1:2:0:0:
246,193,19535,1,2,1:2:0:0:
114,218,19685,1,2,1:2:0:0:
129,72,19835,5,2,1:2:0:0:
151,77,19910,1,2,1:2:0:0:
172,85,19985,1,2,1:2:0:0:
191,97,20060,1,2,1:2:0:0:
208,112,20135,1,2,1:2:0:0:
222,129,20210,1,2,1:2:0:0:
234,149,20285,1,2,1:2:0:0:
242,170,20360,1,2,1:2:0:0:
246,193,20435,6,0,B|276:216|322:203|322:203|319:213|319:213|371:193|409:216,1,179.999994506836,4|0,2:0|0:0,0:0:0:0:
512,268,20735,2,0,P|513:253|502:194,1,59.9999981689453,2|0,2:0|0:0,0:0:0:0:
364,297,20885,2,0,P|362:321|372:376,1,59.9999981689453,2|0,2:0|0:0,0:0:0:0:
472,373,21035,1,2,2:0:0:0:
512,268,21185,1,0,1:0:0:0:
512,238,21260,1,0,1:0:0:0:
507,208,21335,1,0,3:0:0:0:
472,373,21485,1,0,3:0:0:0:
143,319,21635,6,0,B|94:251|138:174|216:161|216:161|253:182,1,240,4|0,3:2|0:0,0:0:0:0:
390,196,21935,2,0,B|369:268|275:265|237:207|237:207|244:154,1,225.000008583069,10|0,2:0|0:0,0:0:0:0:
231,43,22235,2,0,B|277:57|301:108|269:167|269:167|219:181,1,179.999994506836,0|0,1:0|0:0,0:0:0:0:
180,355,22535,6,0,P|178:306|183:281,1,64.9999970245362,10|0,2:0|0:0,0:0:0:0:
71,265,22685,2,0,P|100:226|120:210,1,64.9999970245362,2|0,2:0|0:0,0:0:0:0:
240,174,22835,1,0,3:0:0:0:
71,265,22985,2,0,P|100:226|120:210,1,64.9999970245362,2|0,2:0|0:0,0:0:0:0:
45,125,23135,2,0,P|92:114|118:115,1,64.9999970245362,10|0,2:0|0:0,0:0:0:0:
115,2,23285,2,0,P|158:24|177:41,1,64.9999970245362,2|0,2:0|0:0,0:0:0:0:
277,84,23435,5,2,1:2:0:0:
277,84,23585,1,0,0:0:0:0:
423,42,23735,5,10,2:0:0:0:
338,164,23885,1,2,2:0:0:0:
422,284,24035,6,0,P|429:310|423:351,1,50,0|0,3:0|0:0,0:0:0:0:
285,295,24185,2,0,P|278:275|281:225,1,55.0000016784668,2|0,2:0|0:0,0:0:0:0:
337,76,24335,2,0,L|263:86,1,59.9999981689453,10|0,2:0|0:0,0:0:0:0:
180,234,24485,2,0,P|172:206|176:161,1,64.9999970245362,2|0,2:0|0:0,0:0:0:0:
252,5,24635,2,0,B|196:14|196:14|205:19|205:19|105:35|105:35|112:27|112:27|47:37,1,225.000008583069,2|0,1:2|0:0,0:0:0:0:
66,167,24935,6,0,P|54:139|71:88,1,64.9999970245362,10|0,2:0|0:0,0:0:0:0:
252,5,25085,2,0,P|268:38|263:70,1,64.9999970245362,2|0,2:0|0:0,0:0:0:0:
66,167,25235,2,0,B|214:142,1,150,2|0,3:2|0:0,0:0:0:0:
421,277,25535,6,0,B|440:310|440:310|371:298|371:298|341:301|341:301|275:293,1,194.999991073609,10|0,2:0|0:0,0:0:0:0:
278,215,25835,2,0,L|173:233,1,99.9999999999999,0|2,1:0|2:0,0:0:0:0:
13,128,26135,6,0,B|-5:99|-5:99|31:38|31:38|100:69|100:69|103:114,1,209.999993591309,10|0,2:0|0:0,0:0:0:0:
81,234,26435,2,0,B|73:311|73:311|192:372|192:372|280:274|280:274|244:206,1,419.999987182617,4|2,3:2|2:0,0:0:0:0:
162,219,27035,5,2,1:2:0:0:
162,219,27185,1,2,2:0:0:0:
128,62,27335,2,0,B|141:117|141:117|145:108|145:108|163:188|163:188|154:183|154:183|170:260,1,194.999991073609,10|0,2:0|0:0,0:0:0:0:
56,162,27635,5,2,3:2:0:0:
56,162,27785,1,0,0:0:0:0:
241,121,27935,1,10,2:0:0:0:
255,4,28085,1,2,2:0:0:0:
358,71,28235,6,0,P|361:117|352:148,1,64.9999970245362,2|0,1:2|0:0,0:0:0:0:
276,242,28385,2,0,P|278:276|296:312,1,64.9999970245362,2|0,2:0|0:0,0:0:0:0:
398,361,28535,2,0,P|418:360|464:339,1,64.9999970245362,10|0,2:0|0:0,0:0:0:0:
427,231,28685,2,0,P|407:233|357:255,1,64.9999970245362,2|0,2:0|0:0,0:0:0:0:
165,332,28835,6,0,B|171:340|172:369|172:369|209:321|212:261|168:216,1,194.999991073609,0|0,3:2|0:0,0:0:0:0:
36,124,29135,2,0,B|26:121|8:98|8:98|7:159|41:208|103:218,1,194.999991073609,8|0,2:0|0:0,0:0:0:0:
204,141,29435,2,0,L|269:136,1,64.9999970245362,0|0,1:0|0:0,0:0:0:0:
299,9,29585,2,0,L|235:0,1,64.9999970245362,2|0,2:0|0:0,0:0:0:0:
378,77,29735,2,0,P|455:134|431:240,1,194.999991073609,10|0,2:0|0:0,0:0:0:0:
349,179,30035,6,0,P|351:212|339:289,1,99.9999999999999,2|0,3:2|0:0,0:0:0:0:
267,341,30335,1,10,2:0:0:0:
159,324,30485,1,2,2:0:0:0:
85,161,30635,2,0,L|145:165,1,50,2|0,1:2|0:0,0:0:0:0:
169,174,30785,2,0,L|226:166,1,50,2|0,2:0|0:0,0:0:0:0:
251,142,30935,2,0,L|253:106,6,25,10|8|8|8|10|8|8,2:0|2:0|2:0|2:0|2:0|2:0|2:0,0:0:0:0:
325,292,31235,6,0,B|349:312|349:312|385:278|384:192|347:159|347:159|332:193,1,225.000008583069,4|0,3:2|0:0,0:0:0:0:
244,242,31535,1,10,2:0:0:0:
244,242,31685,1,2,2:0:0:0:
147,129,31835,6,0,P|121:122|67:119,1,75.000002861023,2|0,1:2|0:0,0:0:0:0:
54,290,31985,2,0,P|80:297|134:300,1,75.000002861023,2|0,2:0|0:0,0:0:0:0:
269,158,32135,2,0,B|268:135|284:112|284:112|236:140|222:211|261:291,1,194.999991073609,10|0,2:0|0:0,0:0:0:0:
325,321,32435,5,0,3:0:0:0:
325,321,32585,1,0,0:0:0:0:
482,186,32735,1,10,2:0:0:0:
462,317,32885,1,2,2:0:0:0:
365,91,33035,6,0,B|298:97|298:97|301:100|301:100|252:103|252:103|255:100|255:100|172:108,1,194.999991073609,2|2,1:2|2:0,0:0:0:0:
194,209,33335,2,0,B|170:209|170:209|122:185,1,75.000002861023,10|0,2:0|0:0,0:0:0:0:
176,6,33485,2,0,B|147:11|147:11|106:37,1,75.000002861023,2|0,2:0|0:0,0:0:0:0:
62,118,33635,5,0,3:0:0:0:
186,107,33785,2,0,B|263:98,1,64.9999970245362,2|0,2:0|0:0,0:0:0:0:
411,191,33935,2,0,B|413:144|413:144|421:152|421:152|427:87|427:87|417:98|417:98|422:34,1,194.999991073609,10|0,2:0|0:0,0:0:0:0:
271,121,34235,2,0,B|275:177|275:177|265:166|265:166|271:231|271:231|279:223|279:223|282:270,1,194.999991073609,2|0,1:2|0:0,0:0:0:0:
396,351,34535,6,0,B|433:355|433:355|444:360|444:360|481:365,1,75.000002861023,10|0,2:0|0:0,0:0:0:0:
480,271,34685,2,0,B|454:267|454:267|443:262|443:262|406:258,1,75.000002861023,2|0,2:0|0:0,0:0:0:0:
213,190,34835,2,0,B|189:218|189:218|256:202|256:202|265:206|265:206|352:185,1,194.999991073609,2|0,3:2|0:0,0:0:0:0:
374,103,35135,2,0,L|412:97,6,32.4999985122681,10|2|2|2|2|2|2,2:0|2:0|2:0|2:0|2:0|2:0|2:0,0:0:0:0:
314,31,35435,2,0,P|281:88|360:191,1,194.999991073609,2|0,1:2|0:0,0:0:0:0:
444,39,35735,6,0,B|475:13|475:13|396:18|396:18|384:10|384:10|369:21|369:21|277:36,1,209.999993591309,10|0,2:0|0:0,0:0:0:0:
84,123,36035,2,0,B|71:107|53:76|59:27|99:-2|159:-6|204:20|222:65|219:114|181:146|138:146|123:195|140:251|167:272|167:272|180:240,1,450.000017166138,4|0,3:2|0:0,0:0:0:0:
394,174,36635,6,0,B|360:178|360:178|356:185|356:185|315:191,1,75.000002861023,2|0,1:2|0:0,0:0:0:0:
348,293,36785,2,0,B|380:288|380:288|384:281|384:281|418:277,1,75.000002861023,2|0,2:0|0:0,0:0:0:0:
480,129,36935,2,0,B|482:123|468:91|468:91|512:122|520:190|505:233,1,194.999991073609,10|2,2:0|2:0,0:0:0:0:
438,357,37235,5,2,3:2:0:0:
438,357,37385,1,0,0:0:0:0:
250,258,37535,1,10,2:0:0:0:
291,371,37685,1,2,2:0:0:0:
377,153,37835,6,0,B|389:147|412:146|412:146|380:117|292:119|245:144,1,194.999991073609,2|0,1:2|0:0,0:0:0:0:
147,55,38135,2,0,P|159:87|190:121,1,64.9999970245362,10|0,2:0|0:0,0:0:0:0:
151,254,38285,2,0,P|174:224|184:189,1,64.9999970245362,2|2,2:0|2:0,0:0:0:0:
59,61,38435,6,0,B|31:36|31:36|45:119|45:119|42:130|42:130|52:202,1,194.999991073609,0|0,3:0|0:0,0:0:0:0:
51,62,38735,2,0,B|23:37|23:37|37:120|37:120|34:131|34:131|44:203,1,194.999991073609,8|0,2:0|0:0,0:0:0:0:
152,138,39035,6,0,L|228:147,1,75.000002861023,2|0,1:2|0:0,0:0:0:0:
236,257,39185,2,0,L|154:248,1,75.000002861023,2|0,2:0|0:0,0:0:0:0:
318,110,39335,2,0,P|370:159|309:276,1,194.999991073609,10|0,2:0|0:0,0:0:0:0:
83,335,39635,5,0,3:0:0:0:
83,335,39785,1,0,0:0:0:0:
236,257,39935,2,0,L|348:267,1,99.9999999999999,2|2,2:0|2:0,0:0:0:0:
296,364,40235,2,0,L|227:359,1,50,2|0,2:0|0:0,0:0:0:0:
83,335,40385,5,0,1:0:0:0:
80,299,40460,1,0,1:0:0:0:
78,265,40535,2,0,B|75:208|92:148|92:148|104:182,1,150,0|0,1:0|0:0,0:0:0:0:
236,257,40835,6,0,B|302:276|361:272|432:233|442:178|435:119|386:79|332:90|309:127|302:157|320:189,1,389.999982147217,4|0,3:2|0:0,0:0:0:0:
485,158,41435,6,0,L|476:67,1,75.000002861023,2|0,1:2|0:0,0:0:0:0:
471,87,41585,2,0,L|477:166,1,75.000002861023,2|0,2:0|0:0,0:0:0:0:
396,219,41735,2,0,B|325:248|292:150|205:189,1,194.999991073609,10|0,2:0|0:0,0:0:0:0:
213,180,42035,6,0,B|293:144|326:242|397:213,1,194.999991073609,2|0,3:2|0:0,0:0:0:0:
231,340,42335,2,0,P|241:302|238:244,1,75.000002861023,10|0,2:0|0:0,0:0:0:0:
247,267,42485,2,0,P|246:304|237:341,1,75.000002861023,2|0,2:0|0:0,0:0:0:0:
151,382,42635,5,2,1:2:0:0:
27,365,42785,1,2,2:0:0:0:
45,231,42935,1,10,2:0:0:0:
169,249,43085,1,2,2:0:0:0:
284,331,43235,6,0,B|326:308|335:256|335:256|361:315|387:328|427:336|427:336|466:296|475:240|446:174,1,389.999982147217,0|0,3:0|0:0,0:0:0:0:
408,23,43835,6,0,L|482:16,1,75.000002861023,2|0,1:2|0:0,0:0:0:0:
480,21,43985,2,0,L|406:28,1,75.000002861023,2|0,2:0|0:0,0:0:0:0:
360,110,44135,2,0,L|271:103,1,75.000002861023,10|0,2:0|0:0,0:0:0:0:
283,111,44285,2,0,L|357:116,1,75.000002861023,2|0,2:0|0:0,0:0:0:0:
413,211,44435,6,0,B|330:218|330:218|302:237|302:237|211:246,1,194.999991073609,2|0,3:2|0:0,0:0:0:0:
133,184,44735,2,0,P|125:133|129:104,1,75.000002861023,10|0,2:0|0:0,0:0:0:0:
122,109,44885,2,0,P|119:146|127:182,1,75.000002861023,2|0,2:0|0:0,0:0:0:0:
222,251,45035,2,0,B|299:243|299:243|327:224|327:224|410:217,1,194.999991073609,2|0,1:2|0:0,0:0:0:0:
261,67,45335,6,0,B|250:40|256:13|256:13|218:42|221:125|261:173,1,209.999993591309,10|0,2:0|0:0,0:0:0:0:
429,216,45635,2,0,B|458:217|480:234|480:234|469:187|390:148|320:172,1,225.000008583069,4|0,3:2|0:0,0:0:0:0:
365,287,45935,5,8,2:0:0:0:
365,287,46085,1,0,0:0:0:0:
251,224,46235,6,0,B|215:229|215:229|206:234|206:234|168:239,1,64.9999970245362,2|0,1:2|0:0,0:0:0:0:
169,111,46385,2,0,B|187:108|187:108|196:103|196:103|232:98,1,64.9999970245362,2|0,2:0|0:0,0:0:0:0:
101,265,46535,2,0,B|92:199|92:199|86:205|86:205|78:142|78:142|85:144|85:144|77:95,1,194.999991073609,10|0,2:0|0:0,0:0:0:0:
166,13,46835,5,0,3:0:0:0:
166,13,46985,1,0,0:0:0:0:
298,55,47135,1,10,2:0:0:0:
298,55,47285,1,2,2:0:0:0:
190,192,47435,6,0,L|199:114,1,69.9999978637695,2|0,1:2|0:0,0:0:0:0:
103,64,47585,2,0,L|110:139,1,69.9999978637695,2|0,2:0|0:0,0:0:0:0:
272,220,47735,2,0,L|281:142,1,69.9999978637695,10|0,2:0|0:0,0:0:0:0:
420,40,47885,2,0,L|427:115,1,69.9999978637695,2|0,2:0|0:0,0:0:0:0:
481,288,48035,6,0,B|494:256|494:256|320:284,1,194.999991073609,0|0,3:0|0:0,0:0:0:0:
475,294,48335,2,0,B|488:262|488:262|314:290,1,194.999991073609,8|0,2:0|0:0,0:0:0:0:
198,210,48635,6,0,B|201:169|201:169|205:161|205:161|209:122,1,69.9999978637695,2|0,1:2|0:0,0:0:0:0:
102,129,48785,2,0,B|99:148|99:148|95:156|95:156|92:197,1,69.9999978637695,2|0,2:0|0:0,0:0:0:0:
55,315,48935,2,0,B|33:290|33:290|111:299|111:299|132:293|132:293|211:302,1,209.999993591309,10|0,2:0|0:0,0:0:0:0:
342,358,49235,6,0,B|324:367|324:367|330:273,1,99.9999999999999,4|0,3:2|0:0,0:0:0:0:
337,148,49535,1,8,2:0:0:0:
337,148,49685,1,8,2:0:0:0:
154,72,49835,2,0,B|123:84|123:84|173:103|173:103|184:111|184:111|242:127,1,150,8|0,2:0|0:0,0:0:0:0:
337,148,50135,2,0,L|341:109,6,25,8|8|8|8|8|8|8,2:0|2:0|2:0|2:0|2:0|2:0|2:0,0:0:0:0:
322,241,50435,6,0,P|409:207|418:98,1,194.999991073609,4|0,3:2|0:0,0:0:0:0:
264,286,50735,2,0,L|246:395,1,99.9999999999999,10|0,2:0|0:0,0:0:0:0:
40,158,51035,6,0,L|38:69,1,75.000002861023,2|0,1:2|0:0,0:0:0:0:
45,84,51185,2,0,L|46:158,1,75.000002861023,2|0,2:0|0:0,0:0:0:0:
117,225,51335,2,0,B|220:264|205:178|313:205,1,194.999991073609,10|0,2:0|0:0,0:0:0:0:
303,199,51635,6,0,B|212:168|221:258|118:219,1,194.999991073609,2|0,3:2|0:0,0:0:0:0:
271,287,51935,2,0,P|271:326|280:367,1,75.000002861023,10|0,2:0|0:0,0:0:0:0:
284,361,52085,2,0,P|276:324|276:286,1,75.000002861023,2|0,2:0|0:0,0:0:0:0:
394,94,52235,6,0,P|402:136|396:175,1,75.000002861023,2|0,1:2|0:0,0:0:0:0:
342,227,52385,1,2,2:0:0:0:
251,176,52535,1,10,2:0:0:0:
172,234,52685,1,2,2:0:0:0:
65,178,52835,6,0,B|10:130|10:130|48:16|48:16|171:45|171:45|173:120,1,389.999982147217,0|0,3:0|0:0,0:0:0:0:
177,232,53435,6,0,P|176:270|183:307,1,75.000002861023,2|0,1:2|0:0,0:0:0:0:
177,308,53585,2,0,P|170:248|172:226,1,75.000002861023,2|0,2:0|0:0,0:0:0:0:
288,178,53735,2,0,P|289:215|283:252,1,75.000002861023,10|0,2:0|0:0,0:0:0:0:
289,250,53885,2,0,P|295:213|294:175,1,75.000002861023,2|0,2:0|0:0,0:0:0:0:
224,65,54035,2,0,B|210:34|210:34|380:64,1,194.999991073609,2|0,3:2|0:0,0:0:0:0:
413,145,54335,6,0,L|448:144,6,32.4999985122681,10|0|0|0|2|0|0,2:0|0:0|0:0|0:0|2:0|0:0|0:0,0:0:0:0:
355,220,54635,2,0,P|320:169|384:55,1,194.999991073609,2|0,1:2|0:0,0:0:0:0:
509,220,54935,6,0,B|515:261|515:261|459:249|459:249|420:226|420:226|344:218,1,209.999993591309,10|0,2:0|0:0,0:0:0:0:
203,56,55235,2,0,B|190:20|190:20|261:30|261:30|298:56|298:56|378:61,1,225.000008583069,4|0,3:2|0:0,0:0:0:0:
398,312,55535,2,0,P|436:257|390:134,1,194.999991073609,8|0,2:0|0:0,0:0:0:0:
334,226,55835,6,0,L|262:237,1,64.9999970245362,2|0,1:2|0:0,0:0:0:0:
141,362,55985,2,0,P|148:330|163:296,1,64.9999970245362,2|0,2:0|0:0,0:0:0:0:
332,218,56135,6,0,L|260:229,1,64.9999970245362,10|0,2:0|0:0,0:0:0:0:
134,107,56285,2,0,P|141:139|156:173,1,64.9999970245362,2|0,2:0|0:0,0:0:0:0:
334,226,56435,6,0,L|262:237,1,64.9999970245362,2|0,3:2|0:0,0:0:0:0:
141,362,56585,2,0,P|148:330|163:296,1,64.9999970245362,2|0,2:0|0:0,0:0:0:0:
398,312,56735,6,0,P|436:257|390:134,1,194.999991073609,10|0,2:0|0:0,0:0:0:0:
232,265,57035,2,0,P|272:312|416:296,1,194.999991073609,0|0,1:0|0:0,0:0:0:0:
401,142,57335,2,0,B|411:116|411:116|341:124|341:124|303:138|303:138|225:139,1,209.999993591309,10|0,2:0|0:0,0:0:0:0:
150,1,57635,2,0,P|140:69|239:138,1,194.999991073609,0|0,3:0|0:0,0:0:0:0:
398,312,57935,6,0,P|436:257|390:134,1,194.999991073609,10|0,2:0|0:0,0:0:0:0:
231,47,58235,5,0,1:0:0:0:
90,115,58385,1,2,2:0:0:0:
231,138,58535,2,0,B|243:132|243:132|187:122,1,64.9999970245362,10|0,2:0|0:0,0:0:0:0:
45,42,58685,2,0,B|40:30|40:30|114:36,1,64.9999970245362,2|0,2:0|0:0,0:0:0:0:
166,201,58835,6,0,P|159:238|166:289,1,74.9999999999999,4|0,3:2|0:0,0:0:0:0:
196,285,59135,2,0,P|202:315|195:369,1,74.9999999999999
109,328,59435,1,0,0:0:0:0:
292,276,59585,1,0,1:0:0:0:
292,276,59660,1,0,1:0:0:0:
292,276,59735,2,0,L|325:284,1,25,0|0,3:0|0:0,0:0:0:0:
348,318,59885,2,0,L|386:315,1,25,0|0,3:0|0:0,0:0:0:0:
483,293,60035,5,4,2:0:0:0:
108,88,69635,6,0,L|218:96,1,99.9999999999999,6|0,3:2|0:0,0:0:0:0:
244,204,69935,2,0,L|354:212,1,99.9999999999999,10|0,2:0|0:0,0:0:0:0:
101,75,70235,2,0,L|201:83,1,99.9999999999999,2|0,1:2|0:0,0:0:0:0:
237,191,70536,1,10,2:0:0:0:
336,198,70686,1,8,2:0:0:0:
307,24,70835,6,0,P|323:82|308:144,1,99.9999999999999,2|0,3:2|0:0,0:0:0:0:
141,232,71135,2,0,P|132:189|164:115,1,99.9999999999999,10|0,2:0|0:0,0:0:0:0:
292,35,71435,2,0,P|307:82|302:131,1,99.9999999999999,2|0,1:2|0:0,0:0:0:0:
156,223,71735,1,10,2:0:0:0:
161,126,71885,1,8,2:0:0:0:
214,367,72035,6,0,L|113:355,1,99.9999999999999,2|0,3:2|0:0,0:0:0:0:
29,251,72335,2,0,L|134:232,1,99.9999999999999,10|0,2:0|0:0,0:0:0:0:
202,358,72635,2,0,L|103:347,1,99.9999999999999,2|0,1:2|0:0,0:0:0:0:
17,242,72935,1,10,2:0:0:0:
115,225,73085,1,8,2:0:0:0:
217,157,73235,6,0,P|231:184|236:281,1,112.500004291534,2|0,3:2|0:0,0:0:0:0:
327,188,73535,2,0,P|323:154|329:69,1,112.500004291534,10|0,2:0|0:0,0:0:0:0:
217,157,73835,2,0,P|231:184|236:281,1,112.500004291534,2|0,1:2|0:0,0:0:0:0:
327,188,74135,2,0,P|323:154|329:69,1,112.500004291534,10|0,2:0|0:0,0:0:0:0:
235,45,74435,6,0,B|282:56|282:56|293:66|293:66|348:83,1,99.9999999999999,6|0,3:2|0:0,0:0:0:0:
433,234,74735,2,0,B|420:185|420:185|421:167|421:167|411:122,1,99.9999999999999,10|0,2:0|0:0,0:0:0:0:
226,32,75035,2,0,B|273:43|273:43|284:53|284:53|319:63,1,99.9999999999999,2|0,1:2|0:0,0:0:0:0:
424,221,75335,1,10,2:0:0:0:
405,123,75485,1,8,2:0:0:0:
116,153,75635,6,0,B|172:142|172:142|175:136|175:136|211:128,1,99.9999999999999,2|0,3:2|0:0,0:0:0:0:
248,276,75935,2,0,B|212:284|212:284|209:290|209:290|153:301,1,99.9999999999999,10|0,2:0|0:0,0:0:0:0:
120,163,76235,2,0,B|176:152|176:152|179:146|179:146|215:138,1,99.9999999999999,2|0,1:2|0:0,0:0:0:0:
245,264,76535,1,10,2:0:0:0:
150,290,76685,1,8,2:0:0:0:
295,64,76835,6,0,P|310:95|314:148,1,75.000002861023,2|0,3:2|0:0,0:0:0:0:
256,270,77135,2,0,P|251:235|260:191,1,75.000002861023,10|0,2:0|0:0,0:0:0:0:
283,59,77435,2,0,P|298:90|302:143,1,75.000002861023,2|0,1:2|0:0,0:0:0:0:
245,264,77735,1,10,2:0:0:0:
247,190,77885,1,8,2:0:0:0:
283,59,78035,6,0,P|257:59|203:78,1,75.000002861023,2|0,3:2|0:0,0:0:0:0:
174,203,78335,2,0,P|197:204|261:180,1,75.000002861023,10|0,2:0|0:0,0:0:0:0:
463,136,78635,6,0,B|486:120|486:120|472:152|465:208,1,112.500004291534,2|0,1:2|0:0,0:0:0:0:
368,228,78935,2,0,B|342:210|342:210|358:234|366:266|370:306,1,112.500004291534,10|0,2:0|0:0,0:0:0:0:
387,374,79235,6,0,B|317:366|317:366|276:346|276:346|201:335,1,187.500007152557,4|0,3:2|0:0,0:0:0:0:
186,325,79685,2,0,B|256:317|256:317|297:297|297:297|372:286,1,187.500007152557,0|0,3:0|0:0,0:0:0:0:
411,184,80135,1,0,3:0:0:0:
411,184,80285,2,0,L|471:195,1,37.5000014305115,0|0,3:0|3:0,0:0:0:0:
321,198,80435,6,0,B|295:220|295:220|309:61,1,187.500007152557,4|0,3:2|0:0,0:0:0:0:
308,67,80885,2,0,B|223:107|215:31|108:95,1,187.500007152557,0|0,3:0|0:0,0:0:0:0:
190,191,81335,1,0,3:0:0:0:
190,191,81485,2,0,L|186:145,1,37.5000014305115,0|0,3:0|3:0,0:0:0:0:
80,140,81635,6,0,B|35:171|35:171|101:180|101:180|97:185|97:185|135:190|135:190|136:185|136:185|215:193,1,225.000008583069,4|0,3:2|3:0,0:0:0:0:
308,67,82235,1,0,0:0:0:0:
308,67,82385,1,0,0:0:0:0:
148,85,82535,1,0,3:0:0:0:
230,17,82685,2,0,L|224:70,1,37.5000014305115,0|0,3:0|3:0,0:0:0:0:
199,186,82835,6,0,B|195:157|195:157|267:186|267:186|266:178|266:178|346:211,1,187.5,4|0,3:2|0:0,0:0:0:0:
427,293,83135,1,2,2:0:0:0:
402,297,83210,1,0,0:0:0:0:
377,302,83285,1,2,2:0:0:0:
352,305,83360,1,2,2:0:0:0:
327,311,83435,2,0,B|234:326|234:326|263:343,1,125,2|0,2:0|1:0,0:0:0:0:
496,355,83735,2,0,P|514:327|483:222,1,125,0|0,3:0|3:0,0:0:0:0:
407,152,84035,5,4,3:2:0:0:
407,152,84185,1,0,3:0:0:0:
202,146,84335,2,0,P|229:122|336:126,1,125,0|0,1:0|3:0,0:0:0:0:
281,220,84635,5,0,3:0:0:0:
281,220,84785,1,0,1:0:0:0:
427,358,84935,2,0,P|434:323|377:236,1,125,0|0,3:0|3:0,0:0:0:0:
326,327,85235,5,0,3:0:0:0:
281,220,85385,1,0,3:0:0:0:
181,295,85535,5,0,1:0:0:0:
220,157,85685,1,0,3:0:0:0:
132,186,85835,5,0,3:0:0:0:
305,141,85985,1,0,1:0:0:0:
175,36,86135,5,0,3:0:0:0:
353,68,86285,1,0,3:0:0:0:
426,213,86435,5,0,3:0:0:0:
401,216,86510,1,0,3:0:0:0:
376,219,86585,1,0,3:0:0:0:
351,222,86660,1,0,3:0:0:0:
326,225,86735,2,0,L|264:232,3,50,0|0|0|0,1:0|3:0|3:0|3:0,0:0:0:0:
298,325,87035,5,0,3:0:0:0:
273,320,87110,1,0,3:0:0:0:
248,315,87185,1,0,1:0:0:0:
223,310,87260,1,0,3:0:0:0:
198,305,87335,1,0,3:0:0:0:
173,300,87410,1,0,3:0:0:0:
148,295,87485,1,0,3:0:0:0:
123,290,87560,1,0,3:0:0:0:
97,284,87635,6,0,P|104:265|110:211,1,64.9999970245362,4|0,3:2|0:0,0:0:0:0:
234,93,87785,2,0,P|235:117|245:168,1,64.9999970245362
377,258,87935,1,0,1:0:0:0:
377,258,88085,1,0,1:0:0:0:
436,135,88235,2,0,P|382:134|396:264,1,209.999993591309,2|0,2:0|0:0,0:0:0:0:
424,282,88535,2,0,L|462:273,6,34.9999989318848,0|0|0|0|0|0|0,3:0|3:0|3:0|3:0|3:0|3:0|3:0,0:0:0:0:
259,335,88835,6,0,B|272:290|272:290|266:231,2,99.9999999999999,12|8|8,1:2|2:0|2:0,0:0:0:0:
106,329,89285,2,0,B|101:277|101:277|114:232,2,99.9999999999999,8|8|8,1:2|3:2|3:2,0:0:0:0:
185,284,89735,1,8,1:2:0:0:
185,284,89885,1,8,3:2:0:0:
298,205,90035,6,0,P|325:197|403:221,2,99.9999999999999,12|8|8,1:2|2:0|2:0,0:0:0:0:
195,164,90485,2,0,P|173:141|155:73,2,99.9999999999999,8|8|8,1:2|3:2|3:2,0:0:0:0:
251,85,90935,1,8,1:2:0:0:
251,85,91085,1,8,3:2:0:0:
397,203,91235,6,0,L|383:319,2,99.9999999999999,12|8|8,1:2|2:0|2:0,0:0:0:0:
171,246,91685,2,0,L|166:136,2,99.9999999999999,8|8|8,1:2|3:2|3:2,0:0:0:0:
264,378,92135,1,8,1:2:0:0:
264,378,92285,1,8,3:2:0:0:
475,309,92435,6,0,P|489:258|468:191,2,99.9999999999999,12|8|8,1:2|2:0|2:0,0:0:0:0:
330,145,92885,2,0,P|317:104|344:31,2,99.9999999999999,8|8|8,1:2|3:2|3:2,0:0:0:0:
410,95,93335,1,8,1:2:0:0:
330,145,93485,1,8,3:2:0:0:
330,145,93560,1,0,3:0:0:0:
330,145,93635,6,0,L|256:154,1,59.9999981689453,12|10,1:2|2:0,0:0:0:0:
137,145,93935,2,0,L|218:155,1,59.9999981689453,8|10,1:2|2:0,0:0:0:0:
360,194,94235,6,0,L|261:174,1,79.9999999999999,8|10,1:2|3:2,0:0:0:0:
100,188,94535,2,0,L|199:183,1,79.9999999999999,8|10,1:2|2:0,0:0:0:0:
396,151,94835,6,0,L|278:162,1,99.9999999999999,12|10,1:2|2:0,0:0:0:0:
63,149,95135,2,0,L|180:160,1,99.9999999999999,8|10,1:2|2:0,0:0:0:0:
440,183,95435,6,0,L|304:174,1,119.999996337891,8|10,1:2|3:2,0:0:0:0:
21,186,95735,2,0,L|153:176,1,119.999996337891,8|10,1:2|3:2,0:0:0:0:
224,87,96035,5,14,1:2:0:0:
201,280,96185,1,10,1:2:0:0:
201,78,96335,1,10,1:2:0:0:
221,266,96485,1,10,1:2:0:0:
289,33,96635,5,14,1:2:0:0:
305,33,96710,1,2,1:2:0:0:
322,37,96785,1,10,1:2:0:0:
338,42,96860,1,2,1:2:0:0:
353,49,96935,1,10,1:2:0:0:
367,58,97010,1,2,1:2:0:0:
380,69,97085,1,10,1:2:0:0:
391,82,97160,1,2,1:2:0:0:
401,96,97235,6,0,B|384:136|393:181|393:181|400:185|400:185|418:228|396:287,1,179.999994506836,4|0,3:2|0:0,0:0:0:0:
310,330,97535,2,0,B|290:336|290:336|233:331,1,59.9999981689453,2|0,2:0|0:0,0:0:0:0:
249,221,97685,2,0,B|287:217|287:217|307:223,1,59.9999981689453,2|0,2:0|0:0,0:0:0:0:
183,280,97835,1,2,2:0:0:0:
98,215,97985,1,0,3:2:0:0:
100,191,98060,1,0,3:2:0:0:
102,167,98135,1,4,3:2:0:0:
183,280,98285,1,0,3:0:0:0:
226,163,98435,6,0,B|249:130|249:130|368:101|368:101|404:121,1,194.999991073609,4|0,3:2|0:0,0:0:0:0:
446,316,98735,2,0,B|423:349|423:349|304:378|304:378|268:358,1,194.999991073609,0|0,1:0|0:0,0:0:0:0:
183,280,99035,6,0,P|182:247|187:212,1,64.9999970245362,0|0,3:0|0:0,0:0:0:0:
333,247,99185,2,0,P|325:216|308:181,1,64.9999970245362,8|0,2:0|0:0,0:0:0:0:
231,95,99335,2,0,B|207:68|207:68|275:79|275:79|289:77|289:77|389:93,1,194.999991073609,2|0,1:2|0:0,0:0:0:0:
475,197,99635,5,2,3:2:0:0:
333,247,99785,2,0,P|356:253|420:246,1,64.9999970245362,8|0,2:0|0:0,0:0:0:0:
475,188,99935,1,2,1:2:0:0:
363,88,100085,2,0,P|392:96|428:118,1,64.9999970245362,10|0,2:0|0:0,0:0:0:0:
367,172,100235,6,0,B|250:146|250:146|222:137|222:137|241:156|241:156|250:172,1,194.999991073609,2|0,3:2|0:0,0:0:0:0:
199,333,100535,2,0,B|228:312|228:312|252:262,1,64.9999970245362,2|0,1:2|0:0,0:0:0:0:
87,215,100685,1,8,3:2:0:0:
87,215,100760,1,0,3:0:0:0:
87,215,100835,6,0,B|58:191|58:191|65:255|65:255|61:254|61:254|66:308|66:308|70:307|70:307|76:360,1,194.999991073609,0|0,3:0|0:0,0:0:0:0:
202,16,101135,2,0,B|198:50|198:50|205:47|205:47|196:146|196:146|190:143|190:143|185:189,1,194.999991073609,0|0,1:0|0:0,0:0:0:0:
76,151,101435,6,0,P|78:192|88:217,1,64.9999970245362,2|0,3:2|0:0,0:0:0:0:
299,159,101585,2,0,P|293:197|277:230,1,64.9999970245362,10|0,2:0|0:0,0:0:0:0:
172,369,101735,2,0,B|175:321|175:321|171:323|171:323|176:237|176:237|181:240|181:240|187:162,1,194.999991073609,2|0,1:2|0:0,0:0:0:0:
197,63,102035,5,2,3:2:0:0:
109,5,102185,2,0,L|25:10,1,64.9999970245362,10|0,2:0|0:0,0:0:0:0:
194,75,102335,1,2,1:2:0:0:
289,22,102485,2,0,L|359:30,1,64.9999970245362,8|0,2:0|0:0,0:0:0:0:
456,99,102635,6,0,B|468:78|468:78|440:65|440:65|432:85|432:85|450:206,1,194.999991073609,2|0,3:2|0:0,0:0:0:0:
485,296,102935,2,0,B|517:319|517:319|454:327|454:327|431:336|431:336|340:349,1,194.999991073609,2|0,1:2|0:0,0:0:0:0:
240,347,103235,6,0,P|242:322|260:270,1,64.9999970245362,4|0,3:2|0:0,0:0:0:0:
228,51,103385,2,0,P|239:90|254:118,1,64.9999970245362,8|0,3:2|0:0,0:0:0:0:
310,193,103535,2,0,B|262:195|262:195|265:199|265:199|173:203|173:203|176:199|176:199|121:201,1,194.999991073609,2|0,1:2|0:0,0:0:0:0:
58,0,103835,6,0,L|126:9,1,64.9999970245362,0|0,3:0|0:0,0:0:0:0:
314,105,103985,2,0,L|233:113,1,64.9999970245362,8|0,2:0|0:0,0:0:0:0:
72,157,104135,2,0,P|21:99|75:-10,1,194.999991073609,2|0,1:2|0:0,0:0:0:0:
111,74,104435,5,2,3:2:0:0:
255,0,104585,2,0,P|225:1|170:22,1,64.9999970245362,8|0,2:0|0:0,0:0:0:0:
110,82,104735,1,2,1:2:0:0:
253,169,104885,2,0,P|227:169|179:157,1,64.9999970245362,10|0,2:0|0:0,0:0:0:0:
362,83,105035,6,0,B|357:62|357:62|383:57|383:57|362:219,1,194.999991073609,2|0,3:2|0:0,0:0:0:0:
512,258,105335,2,0,B|435:266|435:266|419:291|419:291|320:304,1,194.999991073609,0|0,1:0|0:0,0:0:0:0:
116,249,105635,6,0,P|105:213|105:176,1,64.9999970245362,2|0,3:2|0:0,0:0:0:0:
247,162,105785,2,0,P|258:198|258:235,1,64.9999970245362,8|0,2:0|0:0,0:0:0:0:
149,87,105935,2,0,B|131:63|131:63|207:70|207:70|221:64|221:64|300:72,1,194.999991073609,2|0,1:2|0:0,0:0:0:0:
466,79,106235,6,0,P|470:47|468:15,1,64.9999970245362,2|0,3:2|0:0,0:0:0:0:
350,145,106385,2,0,P|345:168|346:213,1,64.9999970245362,8|0,2:0|0:0,0:0:0:0:
432,312,106535,1,2,1:2:0:0:
397,200,106685,1,10,3:2:0:0:
371,204,106760,1,0,3:0:0:0:
345,209,106835,6,0,B|280:217|280:217|278:212|278:212|230:218|230:218|229:223|229:223|139:235,1,194.999991073609,2|0,3:2|0:0,0:0:0:0:
210,313,107135,2,0,P|246:271|167:137,1,194.999991073609,2|0,1:2|0:0,0:0:0:0:
86,58,107435,2,0,L|7:72,1,64.9999970245362,2|0,3:2|0:0,0:0:0:0:
33,182,107585,2,0,L|108:167,1,64.9999970245362
268,94,107735,2,0,L|271:50,6,32.4999985122681,10|8|8|8|8|8|8,2:0|2:0|2:0|2:0|2:0|2:0|2:0,0:0:0:0:
352,136,108035,6,0,P|359:117|353:52,1,74.9999999999999,0|0,3:0|0:0,0:0:0:0:
372,61,108335,6,0,P|379:110|338:284,1,194.999991073609,6|0,1:2|0:0,0:0:0:0:
216,298,108635,6,0,L|128:308,1,75.000002861023,2|0,3:2|0:0,0:0:0:0:
143,313,108785,2,0,L|217:304,1,75.000002861023,10|0,2:0|0:0,0:0:0:0:
372,344,108935,2,0,B|336:362|336:362|346:291|346:291|343:272|343:272|354:198,1,194.999991073609,2|0,1:2|0:0,0:0:0:0:
347,209,109235,6,0,B|337:273|337:273|340:292|340:292|330:363|330:363|366:345,1,194.999991073609,2|0,3:2|0:0,0:0:0:0:
432,152,109535,2,0,L|507:160,1,75.000002861023,2|0,1:2|0:0,0:0:0:0:
506,167,109685,2,0,L|431:159,1,75.000002861023,10|0,2:0|0:0,0:0:0:0:
280,52,109835,5,2,3:2:0:0:
400,26,109985,1,8,2:0:0:0:
282,37,110135,1,2,1:2:0:0:
416,60,110285,1,8,2:0:0:0:
327,175,110435,6,0,B|242:189|242:189|201:219|201:219|110:231|110:231|125:108|125:108|165:152,1,389.999982147217,0|8,3:0|2:0,0:0:0:0:
258,289,111035,6,0,L|341:295,1,75.000002861023,2|0,3:2|0:0,0:0:0:0:
333,289,111185,2,0,L|258:283,1,75.000002861023,10|0,2:0|0:0,0:0:0:0:
115,229,111335,2,0,L|34:239,1,75.000002861023,2|0,1:2|0:0,0:0:0:0:
41,232,111485,2,0,L|115:222,1,75.000002861023,10|0,2:0|0:0,0:0:0:0:
270,101,111635,6,0,B|372:90|361:194|471:154,1,194.999991073609,2|0,3:2|0:0,0:0:0:0:
430,74,111935,2,0,P|436:37|437:0,1,75.000002861023,2|0,1:2|0:0,0:0:0:0:
443,1,112085,2,0,P|442:38|436:75,1,75.000002861023,10|0,2:0|0:0,0:0:0:0:
445,166,112235,6,0,B|361:188|369:95|267:106,1,194.999991073609,2|0,3:2|0:0,0:0:0:0:
172,258,112535,2,0,P|294:254|257:153,1,225.000008583069,2|0,1:2|0:0,0:0:0:0:
105,81,112835,6,0,B|115:125|111:166|97:188|97:188|90:190|90:190|75:228|72:268|91:306,1,225.000008583069,4|0,3:2|0:0,0:0:0:0:
198,349,113435,5,2,3:2:0:0:
198,349,113585,1,2,2:0:0:0:
221,215,113735,2,0,P|237:261|198:350,1,150,10|0,2:0|0:0,0:0:0:0:
144,272,114035,6,0,L|301:309,1,150,2|0,3:2|0:0,0:0:0:0:
409,328,114335,1,10,2:0:0:0:
409,328,114485,1,2,3:2:0:0:
419,190,114635,6,0,P|436:230|403:335,1,150,6|0,3:2|0:0,0:0:0:0:
330,253,114935,2,0,P|311:182|339:114,1,150,6|0,3:2|0:0,0:0:0:0:
469,79,115235,5,2,3:2:0:0:
327,103,115385,1,0,3:0:0:0:
474,67,115535,5,2,1:2:0:0:
339,113,115685,1,0,3:0:0:0:
427,182,115835,5,2,3:2:0:0:
387,10,115985,1,0,3:0:0:0:
419,190,116135,5,2,1:2:0:0:
394,4,116285,1,0,3:0:0:0:
166,170,116435,6,0,P|155:236|169:298,1,129.999994049072,6|0,3:2|0:0,0:0:0:0:
320,377,116660,2,0,P|335:346|313:226,1,129.999994049072,0|0,3:0|0:0,0:0:0:0:
166,170,116885,1,0,3:0:0:0:
236,28,117035,6,0,L|375:42,1,129.999994049072,6|0,3:2|0:0,0:0:0:0:
419,190,117335,2,0,L|267:208,1,129.999994049072,4|0,1:2|0:0,0:0:0:0:
82,138,117635,6,0,B|48:116|48:116|77:266,1,179.999994506836,6|0,3:2|0:0,0:0:0:0:
216,310,117935,2,0,B|245:338|245:338|276:198,1,179.999994506836,2|0,1:2|0:0,0:0:0:0:
419,78,118235,5,2,3:2:0:0:
419,78,118385,1,8,2:0:0:0:
319,30,118535,1,2,1:2:0:0:
363,170,118685,1,8,2:0:0:0:
255,103,118835,6,0,B|243:81|244:63|244:63|223:79|211:136|233:197,1,179.999994506836,2|0,3:2|0:0,0:0:0:0:
347,329,119135,2,0,B|372:329|387:339|387:339|383:313|340:274|276:262,1,179.999994506836,2|0,1:2|0:0,0:0:0:0:
178,282,119435,5,2,3:2:0:0:
178,282,119585,1,8,2:0:0:0:
107,201,119735,1,2,1:2:0:0:
13,247,119885,1,8,2:0:0:0:
178,282,120035,6,0,P|209:235|173:115,1,179.999994506836,2|0,3:2|0:0,0:0:0:0:
43,39,120335,2,0,P|68:89|190:118,1,179.999994506836,2|0,1:2|0:0,0:0:0:0:
149,16,120635,5,2,3:2:0:0:
149,16,120785,1,8,2:0:0:0:
293,108,120935,1,2,1:2:0:0:
264,3,121085,1,8,2:0:0:0:
180,121,121235,6,0,P|222:166|174:295,1,179.999994506836,2|0,3:2|0:0,0:0:0:0:
137,207,121535,2,0,L|85:207,6,29.9999990844727,10|8|8|8|8|8|8,1:2|2:0|2:0|2:0|2:0|2:0|2:0,0:0:0:0:
202,275,121835,2,0,B|234:271|256:258|256:258|263:267|263:267|312:265|354:277|400:309,1,194.999991073609,2|0,3:2|0:0,0:0:0:0:
503,341,122135,2,0,B|478:356|478:356|460:326|465:257|491:200,1,179.999994506836,2|0,1:2|0:0,0:0:0:0:
474,63,122435,6,0,P|446:92|296:124,1,179.999994506836,6|0,3:2|0:0,0:0:0:0:
136,16,122735,2,0,P|172:45|206:196,1,179.999994506836,2|0,1:2|0:0,0:0:0:0:
189,280,123035,5,2,3:2:0:0:
189,280,123185,1,8,2:0:0:0:
296,287,123335,1,2,1:2:0:0:
211,168,123485,1,8,2:0:0:0:
414,115,123635,6,0,P|439:169|403:285,1,179.999994506836,2|0,3:2|0:0,0:0:0:0:
317,193,123935,2,0,P|291:130|348:9,1,179.999994506836,2|0,1:2|0:0,0:0:0:0:
421,0,124235,5,2,3:2:0:0:
421,0,124385,1,8,2:0:0:0:
414,115,124535,1,2,1:2:0:0:
511,177,124685,1,8,2:0:0:0:
396,278,124835,6,0,B|319:283|319:283|305:291|305:291|291:286|291:286|190:293,1,179.999994506836,2|0,3:2|0:0,0:0:0:0:
203,126,125135,2,0,P|238:184|206:305,1,179.999994506836,2|0,1:2|0:0,0:0:0:0:
120,219,125435,5,2,3:2:0:0:
120,219,125585,1,8,2:0:0:0:
113,83,125735,1,2,1:2:0:0:
10,149,125885,1,8,2:0:0:0:
120,219,126035,6,0,L|306:195,1,179.999994506836,2|0,3:2|0:0,0:0:0:0:
339,44,126335,2,0,P|289:91|317:216,1,179.999994506836,2|0,1:2|0:0,0:0:0:0:
403,295,126635,2,0,P|388:241|266:203,1,165.0000050354,2|0,3:2|0:0,0:0:0:0:
168,223,126935,2,0,P|213:240|306:164,1,150,2|0,1:2|0:0,0:0:0:0:
219,147,127235,5,0,3:0:0:0:
219,147,127535,6,0,P|258:199|214:306,1,179.999994506836,6|0,1:2|0:0,0:0:0:0:
76,220,127835,2,0,P|97:159|215:145,1,179.999994506836,2|0,3:2|0:0,0:0:0:0:
213,306,128135,2,0,P|156:318|73:224,1,179.999994506836,2|0,1:2|0:0,0:0:0:0:
168,223,128435,6,0,B|246:227|246:227|258:233|258:233|271:228|271:228|370:234,1,179.999994506836,2|0,3:2|0:0,0:0:0:0:
435,85,128735,2,0,B|356:89|356:89|346:86|346:86|337:92|337:92|235:100,1,179.999994506836,2|0,1:2|0:0,0:0:0:0:
136,78,129035,5,2,3:2:0:0:
136,78,129185,1,8,2:0:0:0:
41,167,129335,1,2,1:2:0:0:
152,227,129485,1,8,2:0:0:0:
300,139,129635,6,0,B|331:112|331:112|321:191|321:191|324:204|324:204|316:266,1,179.999994506836,2|0,3:2|0:0,0:0:0:0:
451,320,129935,2,0,B|378:316|378:316|344:339|344:339|273:334,1,179.999994506836,2|0,1:2|0:0,0:0:0:0:
150,342,130235,5,2,3:2:0:0:
150,342,130385,1,8,2:0:0:0:
245,260,130535,1,2,1:2:0:0:
190,118,130685,1,8,2:0:0:0:
24,218,130835,6,0,B|75:214|75:214|71:218|71:218|148:212|148:212|145:209|145:209|191:205,1,179.999994506836,2|0,3:2|0:0,0:0:0:0:
344,156,131135,2,0,L|375:195,6,29.9999990844727,10|8|8|8|8|8|8,1:2|2:0|2:0|2:0|2:0|2:0|2:0,0:0:0:0:
335,252,131435,2,0,P|258:199|261:106,1,194.999991073609,2|0,3:2|0:0,0:0:0:0:
356,61,131735,2,0,P|429:112|404:225,1,179.999994506836,2|0,1:2|3:2,0:0:0:0:
396,297,132035,5,6,3:2:0:0:
255,350,132185,1,8,2:0:0:0:
392,288,132335,5,2,1:2:0:0:
290,199,132485,1,8,3:2:0:0:
290,199,132560,1,0,3:0:0:0:
290,199,132635,5,2,3:2:0:0:
444,213,132785,1,8,2:0:0:0:
363,132,132935,5,2,1:2:0:0:
310,296,133085,1,8,3:2:0:0:
216,146,133235,5,2,3:2:0:0:
295,287,133385,1,8,3:2:0:0:
133,199,133535,5,2,1:2:0:0:
171,60,133685,1,8,3:2:0:0:
171,60,133760,1,0,3:0:0:0:
171,60,133835,6,0,B|218:66|218:66|251:48|251:48|346:57,1,179.999994506836,2|0,3:2|3:0,0:0:0:0:
409,152,134135,2,0,P|416:130|416:81,1,59.9999981689453,2|0,1:2|0:0,0:0:0:0:
278,131,134285,2,0,P|275:149|285:203,1,59.9999981689453,8|0,3:2|0:0,0:0:0:0:
397,268,134435,5,2,3:2:0:0:
279,317,134585,1,8,3:2:0:0:
280,191,134735,5,2,1:2:0:0:
169,236,134885,1,8,3:2:0:0:
197,91,135035,5,2,3:2:0:0:
319,122,135185,1,8,3:2:0:0:
247,1,135335,5,2,1:2:0:0:
370,37,135485,1,8,3:2:0:0:
471,194,135635,6,0,P|448:204|330:214,1,119.999996337891,6|0,3:2|0:0,0:0:0:0:
273,320,135860,2,0,P|239:308|135:305,1,119.999996337891,0|0,3:0|0:0,0:0:0:0:
59,336,136085,5,0,3:0:0:0:
32,159,136235,1,6,3:2:0:0:
172,217,136385,1,0,1:0:0:0:
172,217,136460,1,0,1:0:0:0:
172,217,136535,1,10,1:2:0:0:
0,260,136685,1,0,3:0:0:0:
192,127,136835,5,4,2:0:0:0:
