osu file format v14

[General]
AudioFilename: audio.mp3
AudioLeadIn: 0
PreviewTime: 59091
Countdown: 0
SampleSet: Normal
StackLeniency: 0.7
Mode: 1
LetterboxInBreaks: 0
WidescreenStoryboard: 0

[Editor]
DistanceSpacing: 2
BeatDivisor: 4
GridSize: 32
TimelineZoom: 2.5

[Metadata]
Title:Cthugha
TitleUnicode:Cthugha
Artist:USAO
ArtistUnicode:USAO
Creator:dtn
Version:Inner Oni
Source:Muse Dash
Tags:Dtnt0r Phigros electronic instrumental hardcore tano*c techno drumstep j-core jcore
BeatmapID:3463099
BeatmapSetID:1694843

[Difficulty]
HPDrainRate:6
CircleSize:5
OverallDifficulty:6.5
ApproachRate:5
SliderMultiplier:1.4
SliderTickRate:1

[Events]
//Background and Video events
0,0,"usaobg.png",0,-105
//Break Periods
2,79573,82680
2,84080,86905
//Storyboard Layer 0 (Background)
//Storyboard Layer 1 (Fail)
//Storyboard Layer 2 (Pass)
//Storyboard Layer 3 (Foreground)
//Storyboard Layer 4 (Overlay)
//Storyboard Sound Samples

[TimingPoints]
500,281.69014084507,4,1,0,60,1,0
500,-142.857142857143,4,1,0,60,0,0
5007,-111.111111111111,4,1,0,60,0,0
5147,-125,4,1,0,60,0,0
8316,-86.2068965517241,4,1,0,90,0,0
8457,-87.719298245614,4,1,0,90,0,0
8598,-89.2857142857143,4,1,0,90,0,0
8739,-90.9090909090909,4,1,0,90,0,0
8880,-92.5925925925926,4,1,0,90,0,0
9021,-94.3396226415094,4,1,0,90,0,0
9161,-96.1538461538461,4,1,0,90,0,0
9302,-98.0392156862745,4,1,0,90,0,0
9514,-100,4,1,0,90,0,0
14021,-111.111111111111,4,1,0,100,0,1
17964,-108.695652173913,4,1,0,100,0,1
18035,-106.382978723404,4,1,0,100,0,1
18105,-104.166666666667,4,1,0,100,0,1
18246,-102.040816326531,4,1,0,100,0,1
18528,-90.9090909090909,4,1,0,100,0,0
19584,-86.9565217391304,4,1,0,90,0,0
19866,-89.2857142857143,4,1,0,90,0,0
20007,-91.743119266055,4,1,0,90,0,0
20147,-94.3396226415094,4,1,0,90,0,0
20429,-97.0873786407767,4,1,0,90,0,0
20781,-100,4,1,0,90,0,0
28598,-90.9090909090909,4,1,0,90,0,0
28880,-100,4,1,0,90,0,0
29021,-90.9090909090909,4,1,0,90,0,0
29302,-100,4,1,0,90,0,0
36204,-100,4,1,0,90,0,0
36345,-99.009900990099,4,1,0,90,0,0
36485,-98.0392156862745,4,1,0,90,0,0
36626,-97.0873786407767,4,1,0,90,0,0
36697,-96.1538461538461,4,1,0,90,0,0
36767,-95.2380952380952,4,1,0,90,0,0
36908,-94.3396226415094,4,1,0,90,0,0
37049,-93.4579439252336,4,1,0,90,0,0
37119,-92.5925925925926,4,1,0,90,0,0
37190,-91.743119266055,4,1,0,90,0,0
37330,-90.9090909090909,4,1,0,90,0,0
37612,-86.9565217391304,4,1,0,90,0,0
37894,-83.3333333333333,4,1,0,90,0,0
38176,-80,4,1,0,90,0,0
38739,-100,4,1,0,90,0,0
43246,-90.9090909090909,4,1,0,90,0,0
43387,-100,4,1,0,90,0,0
45359,-90.9090909090909,4,1,0,90,0,0
46908,-92.5925925925926,4,1,0,90,0,0
47049,-94.3396226415094,4,1,0,90,0,0
47190,-96.1538461538461,4,1,0,90,0,0
47330,-98.0392156862745,4,1,0,90,0,0
47471,-100,4,1,0,90,0,0
54373,-86.9565217391304,4,1,0,90,0,0
55781,-100,4,1,0,90,0,0
57049,-125,4,1,0,70,0,0
61345,-111.111111111111,4,1,0,100,0,1
78457,-107.52688172043,4,1,0,100,0,1
78598,-104.166666666667,4,1,0,100,0,1
78739,-101.010101010101,4,1,0,100,0,1
79021,-99.9999999999999,4,1,0,100,0,1
79373,-100,4,1,0,100,0,0
79514,-100,4,1,0,60,0,0
88105,-111.111111111111,4,1,0,70,0,0
88316,-90.9090909090908,4,1,0,70,0,0
88457,-111.111111111111,4,1,0,70,0,0
92823,-90.9090909090908,4,1,0,80,0,0
92964,-111.111111111111,4,1,0,80,0,0
97049,-90.9090909090908,4,1,0,90,0,0
97190,-100,4,1,0,90,0,0
101838,-99.009900990099,4,1,0,90,0,0
101978,-98.0392156862745,4,1,0,90,0,0
102119,-97.0873786407767,4,1,0,90,0,0
102401,-96.1538461538461,4,1,0,90,0,0
102683,-95.2380952380952,4,1,0,90,0,0
102823,-94.3396226415094,4,1,0,90,0,0
102964,-93.4579439252336,4,1,0,90,0,0
103246,-92.5925925925926,4,1,0,90,0,0
103528,-91.743119266055,4,1,0,90,0,0
103669,-90.9090909090909,4,1,0,90,0,0
103809,-90.0900900900901,4,1,0,90,0,0
103950,-89.2857142857143,4,1,0,90,0,0
104091,-88.4955752212389,4,1,0,90,0,0
104232,-87.719298245614,4,1,0,90,0,0
104302,-86.9565217391304,4,1,0,90,0,0
104443,-86.2068965517241,4,1,0,90,0,0
104514,-85.4700854700855,4,1,0,90,0,0
104584,-84.7457627118644,4,1,0,90,0,0
104725,-84.0336134453781,4,1,0,90,0,0
104795,-83.3333333333333,4,1,0,90,0,0
104866,-82.6446280991736,4,1,0,90,0,0
105007,-81.9672131147541,4,1,0,90,0,0
105077,-81.3008130081301,4,1,0,90,0,0
105147,-80.6451612903226,4,1,0,90,0,0
106485,-81.3008130081301,4,1,0,90,0,0
106626,-81.9672131147541,4,1,0,90,0,0
106802,-82.6446280991736,4,1,0,90,0,0
106872,-83.3333333333333,4,1,0,90,0,0
106942,-84.0336134453781,4,1,0,90,0,0
107013,-84.7457627118644,4,1,0,90,0,0
107083,-85.4700854700855,4,1,0,90,0,0
107260,-86.2068965517241,4,1,0,90,0,0
107330,-86.9565217391304,4,1,0,90,0,0
107401,-87.719298245614,4,1,0,90,0,0
107471,-88.4955752212389,4,1,0,90,0,0
107542,-89.2857142857143,4,1,0,90,0,0
108035,-84.7457627118644,4,1,0,90,0,0
108176,-86.2068965517241,4,1,0,90,0,0
108316,-87.719298245614,4,1,0,90,0,0
108457,-89.2857142857143,4,1,0,90,0,0
108669,-90.9090909090909,4,1,0,100,0,1
117612,-83.3333333333333,4,1,0,100,0,1
118105,-90.9090909090909,4,1,0,100,0,1
124443,-90.9090909090909,4,1,0,100,0,1
125499,-83.3333333333333,4,1,0,100,0,1
125781,-90.9090909090909,4,1,0,100,0,1
125922,-83.3333333333333,4,1,0,100,0,1
126204,-90.9090909090909,4,1,0,100,0,1
126345,-95.2380952380952,4,1,0,100,0,1
126697,-92.5925925925926,4,1,0,80,0,0
126908,-94.3396226415094,4,1,0,80,0,0
127190,-96.1538461538461,4,1,0,80,0,0
127471,-98.0392156862745,4,1,0,80,0,0
127753,-100,4,1,0,80,0,0
128035,-102.040816326531,4,1,0,80,0,0
128316,-104.166666666667,4,1,0,80,0,0
128950,-90.9090909090909,4,1,0,100,0,1
130007,-83.3333333333333,4,1,0,100,0,1
131697,-90.9090909090909,4,1,0,100,0,1
134514,-83.3333333333333,4,1,0,100,0,1
134795,-90.9090909090909,4,1,0,100,0,1
134936,-83.3333333333333,4,1,0,100,0,1
135218,-90.9090909090909,4,1,0,100,0,1
135359,-83.3333333333333,4,1,0,100,0,1
135640,-90.9090909090909,4,1,0,100,0,1
143528,-83.3333333333333,4,1,0,100,0,1
143809,-90.9090909090909,4,1,0,100,0,1
143950,-83.3333333333333,4,1,0,100,0,1
144232,-90.9090909090909,4,1,0,100,0,1
144373,-83.3333333333333,4,1,0,100,0,1
144725,-90.9090909090909,4,1,0,90,0,0
145077,-100,4,1,0,90,0,0
149161,-90.9090909090909,4,1,0,90,0,0
149302,-100,4,1,0,90,0,0
150288,-90.9090909090909,4,1,0,90,0,0
150429,-100,4,1,0,90,0,0
151415,-90.9090909090909,4,1,0,90,0,0
151556,-100,4,1,0,90,0,0
153669,-83.3333333333333,4,1,0,100,0,0

[HitObjects]
256,192,500,5,12,0:0:0:0:
256,192,1063,1,8,0:0:0:0:
256,192,1626,1,8,0:0:0:0:
256,192,2190,1,8,0:0:0:0:
256,192,2753,1,8,0:0:0:0:
256,192,3316,1,8,0:0:0:0:
256,192,3880,1,8,0:0:0:0:
256,192,4443,1,8,0:0:0:0:
256,192,4725,1,8,0:0:0:0:
256,192,5007,1,4,0:0:0:0:
256,192,5570,1,8,0:0:0:0:
256,192,6133,1,8,0:0:0:0:
256,192,6697,1,8,0:0:0:0:
256,192,7260,1,8,0:0:0:0:
256,192,7823,1,8,0:0:0:0:
256,192,8387,1,12,0:0:0:0:
256,192,8528,1,0,0:0:0:0:
256,192,8669,1,8,0:0:0:0:
256,192,8809,1,8,0:0:0:0:
256,192,8950,1,0,0:0:0:0:
256,192,9091,1,8,0:0:0:0:
256,192,9232,1,0,0:0:0:0:
256,192,9373,1,0,0:0:0:0:
256,192,9514,1,12,0:0:0:0:
256,192,9654,1,0,0:0:0:0:
256,192,9795,1,8,0:0:0:0:
256,192,9936,1,8,0:0:0:0:
256,192,10077,1,0,0:0:0:0:
256,192,10218,1,0,0:0:0:0:
256,192,10359,1,8,0:0:0:0:
256,192,10499,1,8,0:0:0:0:
256,192,10640,1,0,0:0:0:0:
256,192,10852,1,8,0:0:0:0:
256,192,11063,1,0,0:0:0:0:
256,192,11204,1,8,0:0:0:0:
256,192,11345,1,0,0:0:0:0:
256,192,11485,1,8,0:0:0:0:
256,192,11626,1,8,0:0:0:0:
256,192,11767,1,0,0:0:0:0:
256,192,12049,1,8,0:0:0:0:
256,192,12190,1,8,0:0:0:0:
256,192,12330,1,0,0:0:0:0:
256,192,12471,1,0,0:0:0:0:
256,192,12612,1,8,0:0:0:0:
256,192,12753,1,0,0:0:0:0:
256,192,12894,1,8,0:0:0:0:
256,192,13457,8,4,13739,0:0:0:0:
256,192,14021,5,4,0:0:0:0:
256,192,14161,1,8,0:0:0:0:
256,192,14232,1,8,0:0:0:0:
256,192,14302,1,0,0:0:0:0:
256,192,14443,1,8,0:0:0:0:
256,192,14584,1,0,0:0:0:0:
256,192,14725,1,8,0:0:0:0:
256,192,14760,1,8,0:0:0:0:
256,192,14866,1,8,0:0:0:0:
256,192,14901,1,8,0:0:0:0:
256,192,15007,1,0,0:0:0:0:
256,192,15077,1,0,0:0:0:0:
256,192,15147,1,8,0:0:0:0:
256,192,15183,1,8,0:0:0:0:
256,192,15288,1,8,0:0:0:0:
256,192,15323,1,8,0:0:0:0:
256,192,15429,1,0,0:0:0:0:
256,192,15499,1,0,0:0:0:0:
256,192,15570,1,8,0:0:0:0:
256,192,15605,1,8,0:0:0:0:
256,192,15711,1,0,0:0:0:0:
256,192,15781,1,8,0:0:0:0:
256,192,15852,1,8,0:0:0:0:
256,192,15922,1,8,0:0:0:0:
256,192,15992,1,0,0:0:0:0:
256,192,16133,1,8,0:0:0:0:
256,192,16274,1,0,0:0:0:0:
256,192,16345,1,8,0:0:0:0:
256,192,16415,1,8,0:0:0:0:
256,192,16485,1,0,0:0:0:0:
256,192,16556,1,8,0:0:0:0:
256,192,16603,1,8,0:0:0:0:
256,192,16650,1,8,0:0:0:0:
256,192,16697,1,0,0:0:0:0:
256,192,16838,1,8,0:0:0:0:
256,192,16873,1,8,0:0:0:0:
256,192,16978,1,8,0:0:0:0:
256,192,17014,1,8,0:0:0:0:
256,192,17119,1,0,0:0:0:0:
256,192,17154,1,0,0:0:0:0:
256,192,17260,1,8,0:0:0:0:
256,192,17401,8,0,17823,0:0:0:0:
256,192,17964,5,0,0:0:0:0:
256,192,18035,1,8,0:0:0:0:
256,192,18105,1,0,0:0:0:0:
256,192,18246,1,8,0:0:0:0:
256,192,18528,1,4,0:0:0:0:
256,192,19654,1,0,0:0:0:0:
256,192,19936,1,8,0:0:0:0:
256,192,20077,1,8,0:0:0:0:
256,192,20218,1,0,0:0:0:0:
256,192,20499,1,0,0:0:0:0:
256,192,20781,1,12,0:0:0:0:
256,192,20922,1,0,0:0:0:0:
256,192,21063,1,8,0:0:0:0:
256,192,21133,1,8,0:0:0:0:
256,192,21204,1,0,0:0:0:0:
256,192,21345,1,8,0:0:0:0:
256,192,21485,1,0,0:0:0:0:
256,192,21556,1,0,0:0:0:0:
256,192,21626,1,8,0:0:0:0:
256,192,21767,1,0,0:0:0:0:
256,192,21908,1,8,0:0:0:0:
256,192,21978,1,8,0:0:0:0:
256,192,22049,1,0,0:0:0:0:
256,192,22119,1,0,0:0:0:0:
256,192,22190,1,8,0:0:0:0:
256,192,22330,1,0,0:0:0:0:
256,192,22471,1,8,0:0:0:0:
256,192,22612,1,0,0:0:0:0:
256,192,22683,1,0,0:0:0:0:
256,192,22753,1,8,0:0:0:0:
256,192,22894,1,8,0:0:0:0:
256,192,23035,1,0,0:0:0:0:
256,192,23176,1,8,0:0:0:0:
256,192,23246,1,8,0:0:0:0:
256,192,23316,1,0,0:0:0:0:
256,192,23457,1,8,0:0:0:0:
256,192,23598,1,0,0:0:0:0:
256,192,23669,1,0,0:0:0:0:
256,192,23739,1,0,0:0:0:0:
256,192,23809,1,0,0:0:0:0:
256,192,23880,1,8,0:0:0:0:
256,192,24021,1,8,0:0:0:0:
256,192,24161,1,0,0:0:0:0:
256,192,24302,1,8,0:0:0:0:
256,192,24373,1,8,0:0:0:0:
256,192,24443,1,8,0:0:0:0:
256,192,24584,1,0,0:0:0:0:
256,192,24725,1,8,0:0:0:0:
256,192,24866,1,8,0:0:0:0:
256,192,25007,1,0,0:0:0:0:
256,192,25147,1,0,0:0:0:0:
256,192,25288,1,12,0:0:0:0:
256,192,25429,1,0,0:0:0:0:
256,192,25570,1,0,0:0:0:0:
256,192,25711,1,8,0:0:0:0:
256,192,25781,1,8,0:0:0:0:
256,192,25852,1,0,0:0:0:0:
256,192,25992,1,8,0:0:0:0:
256,192,26133,1,0,0:0:0:0:
256,192,26274,1,8,0:0:0:0:
256,192,26345,1,8,0:0:0:0:
256,192,26415,1,0,0:0:0:0:
256,192,26556,1,8,0:0:0:0:
256,192,26697,1,0,0:0:0:0:
256,192,26767,1,8,0:0:0:0:
256,192,26838,1,0,0:0:0:0:
256,192,26908,1,0,0:0:0:0:
256,192,26978,1,8,0:0:0:0:
256,192,27119,1,0,0:0:0:0:
256,192,27260,1,8,0:0:0:0:
256,192,27401,1,8,0:0:0:0:
256,192,27471,1,8,0:0:0:0:
256,192,27542,1,0,0:0:0:0:
256,192,27683,1,0,0:0:0:0:
256,192,27823,1,8,0:0:0:0:
256,192,27894,1,8,0:0:0:0:
256,192,27964,1,0,0:0:0:0:
256,192,28035,1,0,0:0:0:0:
256,192,28105,1,8,0:0:0:0:
256,192,28176,1,8,0:0:0:0:
256,192,28246,1,0,0:0:0:0:
256,192,28316,1,8,0:0:0:0:
256,192,28387,1,0,0:0:0:0:
256,192,28457,1,0,0:0:0:0:
256,192,28528,1,8,0:0:0:0:
256,192,28669,1,4,0:0:0:0:
256,192,28950,1,8,0:0:0:0:
256,192,29091,1,4,0:0:0:0:
256,192,29373,1,0,0:0:0:0:
256,192,29514,1,8,0:0:0:0:
256,192,29654,1,8,0:0:0:0:
256,192,29725,1,8,0:0:0:0:
256,192,29795,1,4,0:0:0:0:
256,192,29936,1,0,0:0:0:0:
256,192,30077,1,8,0:0:0:0:
256,192,30218,1,0,0:0:0:0:
256,192,30359,1,8,0:0:0:0:
256,192,30429,1,8,0:0:0:0:
256,192,30499,1,0,0:0:0:0:
256,192,30640,1,8,0:0:0:0:
256,192,30781,1,0,0:0:0:0:
256,192,30922,1,8,0:0:0:0:
256,192,30992,1,0,0:0:0:0:
256,192,31063,1,0,0:0:0:0:
256,192,31133,1,0,0:0:0:0:
256,192,31204,1,8,0:0:0:0:
256,192,31345,1,0,0:0:0:0:
256,192,31485,1,8,0:0:0:0:
256,192,31556,1,8,0:0:0:0:
256,192,31626,1,0,0:0:0:0:
256,192,31767,1,8,0:0:0:0:
256,192,31908,1,0,0:0:0:0:
256,192,32049,1,8,0:0:0:0:
256,192,32119,1,8,0:0:0:0:
256,192,32190,1,0,0:0:0:0:
256,192,32330,1,8,0:0:0:0:
256,192,32471,1,0,0:0:0:0:
256,192,32542,1,0,0:0:0:0:
256,192,32612,1,8,0:0:0:0:
256,192,32753,1,0,0:0:0:0:
256,192,32894,1,8,0:0:0:0:
256,192,32964,1,8,0:0:0:0:
256,192,33035,1,0,0:0:0:0:
256,192,33105,1,0,0:0:0:0:
256,192,33176,1,8,0:0:0:0:
256,192,33316,1,0,0:0:0:0:
256,192,33457,1,8,0:0:0:0:
256,192,33598,1,8,0:0:0:0:
256,192,33739,1,0,0:0:0:0:
256,192,33880,1,0,0:0:0:0:
256,192,33950,1,0,0:0:0:0:
256,192,34021,1,8,0:0:0:0:
256,192,34161,1,8,0:0:0:0:
256,192,34302,1,4,0:0:0:0:
256,192,34443,1,8,0:0:0:0:
256,192,34514,1,8,0:0:0:0:
256,192,34584,1,8,0:0:0:0:
256,192,34725,1,0,0:0:0:0:
256,192,34866,1,8,0:0:0:0:
256,192,34936,1,8,0:0:0:0:
256,192,35007,1,8,0:0:0:0:
256,192,35147,1,0,0:0:0:0:
256,192,35288,1,8,0:0:0:0:
256,192,35429,1,0,0:0:0:0:
256,192,35499,1,0,0:0:0:0:
256,192,35570,1,0,0:0:0:0:
256,192,35711,1,8,0:0:0:0:
256,192,35852,1,0,0:0:0:0:
256,192,35992,1,8,0:0:0:0:
256,192,36063,1,8,0:0:0:0:
256,192,36133,1,0,0:0:0:0:
256,192,36274,1,8,0:0:0:0:
256,192,36415,1,0,0:0:0:0:
256,192,36556,1,8,0:0:0:0:
256,192,36626,1,8,0:0:0:0:
256,192,36697,1,0,0:0:0:0:
256,192,36838,1,8,0:0:0:0:
256,192,36978,1,0,0:0:0:0:
256,192,37049,1,0,0:0:0:0:
256,192,37119,1,8,0:0:0:0:
256,192,37260,1,0,0:0:0:0:
256,192,37401,1,8,0:0:0:0:
256,192,37683,1,12,0:0:0:0:
256,192,37964,1,12,0:0:0:0:
256,192,38246,1,12,0:0:0:0:
256,192,38387,1,0,0:0:0:0:
256,192,38457,1,8,0:0:0:0:
256,192,38528,1,0,0:0:0:0:
256,192,38809,1,12,0:0:0:0:
256,192,38950,1,0,0:0:0:0:
256,192,39091,1,0,0:0:0:0:
256,192,39232,1,8,0:0:0:0:
256,192,39302,1,8,0:0:0:0:
256,192,39373,1,0,0:0:0:0:
256,192,39514,1,0,0:0:0:0:
256,192,39654,1,8,0:0:0:0:
256,192,39725,1,8,0:0:0:0:
256,192,39795,1,0,0:0:0:0:
256,192,39936,1,0,0:0:0:0:
256,192,40077,1,8,0:0:0:0:
256,192,40218,1,0,0:0:0:0:
256,192,40288,1,8,0:0:0:0:
256,192,40359,1,0,0:0:0:0:
256,192,40499,1,8,0:0:0:0:
256,192,40570,1,8,0:0:0:0:
256,192,40640,1,0,0:0:0:0:
256,192,40781,1,8,0:0:0:0:
256,192,40922,1,0,0:0:0:0:
256,192,41063,1,8,0:0:0:0:
256,192,41133,1,8,0:0:0:0:
256,192,41204,1,0,0:0:0:0:
256,192,41345,1,8,0:0:0:0:
256,192,41485,1,0,0:0:0:0:
256,192,41556,1,0,0:0:0:0:
256,192,41626,1,8,0:0:0:0:
256,192,41767,1,0,0:0:0:0:
256,192,41908,1,8,0:0:0:0:
256,192,41978,1,8,0:0:0:0:
256,192,42049,1,0,0:0:0:0:
256,192,42119,1,0,0:0:0:0:
256,192,42190,1,8,0:0:0:0:
256,192,42330,1,0,0:0:0:0:
256,192,42471,1,8,0:0:0:0:
256,192,42542,1,0,0:0:0:0:
256,192,42612,1,8,0:0:0:0:
256,192,42683,1,8,0:0:0:0:
256,192,42753,1,0,0:0:0:0:
256,192,42894,1,8,0:0:0:0:
256,192,42964,1,8,0:0:0:0:
256,192,43035,1,8,0:0:0:0:
256,192,43176,1,8,0:0:0:0:
256,192,43316,1,4,0:0:0:0:
256,192,43598,1,8,0:0:0:0:
256,192,43739,1,8,0:0:0:0:
256,192,43880,1,0,0:0:0:0:
256,192,44021,1,0,0:0:0:0:
256,192,44161,1,8,0:0:0:0:
256,192,44302,1,0,0:0:0:0:
256,192,44373,1,0,0:0:0:0:
256,192,44443,1,0,0:0:0:0:
256,192,44584,1,0,0:0:0:0:
256,192,44725,1,8,0:0:0:0:
256,192,44866,1,0,0:0:0:0:
256,192,45007,1,8,0:0:0:0:
256,192,45147,1,0,0:0:0:0:
256,192,45218,1,0,0:0:0:0:
256,192,45288,1,0,0:0:0:0:
256,192,45429,1,0,0:0:0:0:
256,192,45499,1,0,0:0:0:0:
256,192,45570,1,8,0:0:0:0:
256,192,45711,1,0,0:0:0:0:
256,192,45781,1,0,0:0:0:0:
256,192,45852,1,8,0:0:0:0:
256,192,45992,1,0,0:0:0:0:
256,192,46063,1,0,0:0:0:0:
256,192,46133,1,8,0:0:0:0:
256,192,46274,1,0,0:0:0:0:
256,192,46415,1,8,0:0:0:0:
256,192,46556,1,8,0:0:0:0:
256,192,46697,1,0,0:0:0:0:
256,192,46978,1,8,0:0:0:0:
256,192,47119,1,0,0:0:0:0:
256,192,47260,1,0,0:0:0:0:
256,192,47401,1,0,0:0:0:0:
256,192,47542,1,12,0:0:0:0:
256,192,47823,1,4,0:0:0:0:
256,192,47964,1,0,0:0:0:0:
256,192,48035,1,0,0:0:0:0:
256,192,48105,1,8,0:0:0:0:
256,192,48246,1,0,0:0:0:0:
256,192,48387,1,8,0:0:0:0:
256,192,48457,1,0,0:0:0:0:
256,192,48528,1,0,0:0:0:0:
256,192,48669,1,8,0:0:0:0:
256,192,48809,1,8,0:0:0:0:
256,192,48950,1,0,0:0:0:0:
256,192,49021,1,0,0:0:0:0:
256,192,49091,1,0,0:0:0:0:
256,192,49161,1,0,0:0:0:0:
256,192,49232,1,8,0:0:0:0:
256,192,49373,1,0,0:0:0:0:
256,192,49514,1,8,0:0:0:0:
256,192,49584,1,8,0:0:0:0:
256,192,49654,1,0,0:0:0:0:
256,192,49795,1,8,0:0:0:0:
256,192,49936,1,0,0:0:0:0:
256,192,50077,1,8,0:0:0:0:
256,192,50147,1,8,0:0:0:0:
256,192,50218,1,0,0:0:0:0:
256,192,50359,1,8,0:0:0:0:
256,192,50499,1,0,0:0:0:0:
256,192,50570,1,0,0:0:0:0:
256,192,50640,1,8,0:0:0:0:
256,192,50781,1,0,0:0:0:0:
256,192,50922,1,8,0:0:0:0:
256,192,50992,1,8,0:0:0:0:
256,192,51063,1,0,0:0:0:0:
256,192,51133,1,0,0:0:0:0:
256,192,51204,1,8,0:0:0:0:
256,192,51345,1,0,0:0:0:0:
256,192,51485,1,8,0:0:0:0:
256,192,51626,1,8,0:0:0:0:
256,192,51767,1,0,0:0:0:0:
256,192,51908,1,0,0:0:0:0:
256,192,52049,1,8,0:0:0:0:
256,192,52190,1,8,0:0:0:0:
256,192,52330,1,4,0:0:0:0:
256,192,52471,1,8,0:0:0:0:
256,192,52542,1,8,0:0:0:0:
256,192,52612,1,0,0:0:0:0:
256,192,52683,1,0,0:0:0:0:
256,192,52753,1,8,0:0:0:0:
256,192,52894,1,0,0:0:0:0:
256,192,52964,1,0,0:0:0:0:
256,192,53035,1,0,0:0:0:0:
256,192,53105,1,0,0:0:0:0:
256,192,53176,1,8,0:0:0:0:
256,192,53316,1,0,0:0:0:0:
256,192,53457,1,8,0:0:0:0:
256,192,53528,1,8,0:0:0:0:
256,192,53598,1,0,0:0:0:0:
256,192,53669,1,0,0:0:0:0:
256,192,53739,1,8,0:0:0:0:
256,192,53880,1,0,0:0:0:0:
256,192,54021,1,8,0:0:0:0:
256,192,54091,1,8,0:0:0:0:
256,192,54161,1,0,0:0:0:0:
256,192,54302,1,8,0:0:0:0:
256,192,54443,1,0,0:0:0:0:
256,192,54514,1,0,0:0:0:0:
256,192,54584,1,8,0:0:0:0:
256,192,54725,1,8,0:0:0:0:
256,192,54795,1,8,0:0:0:0:
256,192,54866,1,8,0:0:0:0:
256,192,55007,1,8,0:0:0:0:
256,192,55077,1,8,0:0:0:0:
256,192,55147,1,0,0:0:0:0:
256,192,55288,1,8,0:0:0:0:
256,192,55429,1,0,0:0:0:0:
256,192,55570,1,0,0:0:0:0:
256,192,55711,1,8,0:0:0:0:
256,192,55992,1,8,0:0:0:0:
256,192,56133,1,0,0:0:0:0:
256,192,56274,1,8,0:0:0:0:
256,192,56556,1,8,0:0:0:0:
256,192,56603,1,8,0:0:0:0:
256,192,56650,1,8,0:0:0:0:
256,192,56697,1,8,0:0:0:0:
256,192,56744,1,8,0:0:0:0:
256,192,56791,1,8,0:0:0:0:
256,192,56838,1,0,0:0:0:0:
256,192,57119,1,8,0:0:0:0:
256,192,57683,1,8,0:0:0:0:
256,192,58246,1,8,0:0:0:0:
256,192,58669,1,0,0:0:0:0:
256,192,58809,1,8,0:0:0:0:
256,192,58950,1,8,0:0:0:0:
256,192,59091,1,0,0:0:0:0:
256,192,59373,1,8,0:0:0:0:
256,192,59654,1,0,0:0:0:0:
256,192,59795,1,0,0:0:0:0:
256,192,59936,1,8,0:0:0:0:
256,192,60218,8,0,60781,0:0:0:0:
256,192,61063,5,8,0:0:0:0:
256,192,61345,5,4,0:0:0:0:
256,192,61485,1,8,0:0:0:0:
256,192,61556,1,8,0:0:0:0:
256,192,61626,1,8,0:0:0:0:
256,192,61767,1,8,0:0:0:0:
256,192,61908,1,0,0:0:0:0:
256,192,62049,1,8,0:0:0:0:
256,192,62084,1,8,0:0:0:0:
256,192,62190,1,8,0:0:0:0:
256,192,62225,1,8,0:0:0:0:
256,192,62330,1,0,0:0:0:0:
256,192,62401,1,0,0:0:0:0:
256,192,62471,1,8,0:0:0:0:
256,192,62507,1,8,0:0:0:0:
256,192,62612,1,8,0:0:0:0:
256,192,62647,1,8,0:0:0:0:
256,192,62753,1,0,0:0:0:0:
256,192,62823,1,0,0:0:0:0:
256,192,62894,1,8,0:0:0:0:
256,192,62929,1,8,0:0:0:0:
256,192,63035,1,0,0:0:0:0:
256,192,63105,1,8,0:0:0:0:
256,192,63176,1,8,0:0:0:0:
256,192,63246,1,8,0:0:0:0:
256,192,63316,1,0,0:0:0:0:
256,192,63457,1,0,0:0:0:0:
256,192,63598,1,8,0:0:0:0:
256,192,63669,1,8,0:0:0:0:
256,192,63739,1,0,0:0:0:0:
256,192,63809,1,0,0:0:0:0:
256,192,63880,1,8,0:0:0:0:
256,192,63950,1,8,0:0:0:0:
256,192,64021,1,8,0:0:0:0:
256,192,64091,1,8,0:0:0:0:
256,192,64161,1,0,0:0:0:0:
256,192,64302,1,8,0:0:0:0:
256,192,64338,1,8,0:0:0:0:
256,192,64443,1,8,0:0:0:0:
256,192,64478,1,8,0:0:0:0:
256,192,64584,1,0,0:0:0:0:
256,192,64654,1,0,0:0:0:0:
256,192,64725,1,8,0:0:0:0:
256,192,64760,1,8,0:0:0:0:
256,192,64866,1,8,0:0:0:0:
256,192,64901,1,8,0:0:0:0:
256,192,65007,1,0,0:0:0:0:
256,192,65077,1,0,0:0:0:0:
256,192,65147,1,8,0:0:0:0:
256,192,65183,1,8,0:0:0:0:
256,192,65288,1,0,0:0:0:0:
256,192,65359,1,0,0:0:0:0:
256,192,65429,1,0,0:0:0:0:
256,192,65499,1,0,0:0:0:0:
256,192,65570,1,8,0:0:0:0:
256,192,65640,1,8,0:0:0:0:
256,192,65711,1,8,0:0:0:0:
256,192,65781,1,8,0:0:0:0:
256,192,65852,1,0,0:0:0:0:
256,192,66133,1,8,0:0:0:0:
256,192,66169,1,8,0:0:0:0:
256,192,66274,1,8,0:0:0:0:
256,192,66309,1,8,0:0:0:0:
256,192,66415,1,0,0:0:0:0:
256,192,66485,1,0,0:0:0:0:
256,192,66556,1,8,0:0:0:0:
256,192,66591,1,8,0:0:0:0:
256,192,66697,1,0,0:0:0:0:
261,186,66732,1,0,0:0:0:0:
256,192,66838,1,0,0:0:0:0:
224,192,66908,1,0,0:0:0:0:
256,192,66978,1,8,0:0:0:0:
256,192,67014,1,8,0:0:0:0:
256,192,67119,1,0,0:0:0:0:
224,192,67190,1,0,0:0:0:0:
256,192,67260,1,8,0:0:0:0:
256,192,67295,1,8,0:0:0:0:
256,192,67401,1,8,0:0:0:0:
256,192,67436,1,8,0:0:0:0:
256,192,67542,1,0,0:0:0:0:
256,192,67612,1,0,0:0:0:0:
256,192,67683,1,8,0:0:0:0:
256,192,67753,1,0,0:0:0:0:
256,192,67823,1,8,0:0:0:0:
256,192,67894,1,8,0:0:0:0:
256,192,67964,1,0,0:0:0:0:
256,192,68035,1,0,0:0:0:0:
256,192,68105,1,8,0:0:0:0:
256,192,68246,1,0,0:0:0:0:
256,192,68387,1,8,0:0:0:0:
256,192,68528,1,8,0:0:0:0:
256,192,68669,1,0,0:0:0:0:
224,192,68739,1,0,0:0:0:0:
256,192,68809,1,8,0:0:0:0:
256,192,68845,1,8,0:0:0:0:
256,192,68950,1,8,0:0:0:0:
256,192,68985,1,8,0:0:0:0:
256,192,69091,1,8,0:0:0:0:
256,192,69126,1,8,0:0:0:0:
256,192,69232,1,0,0:0:0:0:
256,192,69373,1,8,0:0:0:0:
256,192,69443,1,8,0:0:0:0:
256,192,69514,1,0,0:0:0:0:
256,192,69654,1,8,0:0:0:0:
256,192,69795,1,0,0:0:0:0:
256,192,69936,1,0,0:0:0:0:
256,192,70077,1,8,0:0:0:0:
256,192,70359,1,4,0:0:0:0:
256,192,70499,1,8,0:0:0:0:
256,192,70570,1,8,0:0:0:0:
256,192,70640,1,0,0:0:0:0:
256,192,70781,1,8,0:0:0:0:
256,192,70922,1,0,0:0:0:0:
256,192,71063,1,8,0:0:0:0:
256,192,71098,1,8,0:0:0:0:
256,192,71204,1,0,0:0:0:0:
256,192,71239,1,0,0:0:0:0:
256,192,71345,1,0,0:0:0:0:
224,192,71415,1,0,0:0:0:0:
256,192,71485,1,8,0:0:0:0:
256,192,71521,1,8,0:0:0:0:
256,192,71626,1,8,0:0:0:0:
256,192,71661,1,8,0:0:0:0:
256,192,71767,1,0,0:0:0:0:
224,192,71838,1,0,0:0:0:0:
256,192,71908,1,8,0:0:0:0:
256,192,71943,1,8,0:0:0:0:
256,192,72049,1,0,0:0:0:0:
256,192,72119,1,0,0:0:0:0:
256,192,72190,1,0,0:0:0:0:
256,192,72260,1,0,0:0:0:0:
256,192,72330,1,8,0:0:0:0:
256,192,72366,1,8,0:0:0:0:
256,192,72471,1,0,0:0:0:0:
256,192,72507,1,0,0:0:0:0:
256,192,72612,1,8,0:0:0:0:
256,192,72683,1,8,0:0:0:0:
256,192,72753,1,0,0:0:0:0:
256,192,72823,1,0,0:0:0:0:
256,192,72894,1,8,0:0:0:0:
256,192,72964,1,8,0:0:0:0:
256,192,73035,1,0,0:0:0:0:
256,192,73105,1,0,0:0:0:0:
256,192,73176,1,8,0:0:0:0:
256,192,73316,1,0,0:0:0:0:
256,192,73352,1,0,0:0:0:0:
256,192,73457,1,8,0:0:0:0:
256,192,73492,1,8,0:0:0:0:
256,192,73598,1,0,0:0:0:0:
256,192,73669,1,0,0:0:0:0:
256,192,73739,1,8,0:0:0:0:
256,192,74021,1,8,0:0:0:0:
256,192,74091,1,0,0:0:0:0:
256,192,74161,1,8,0:0:0:0:
256,192,74232,1,8,0:0:0:0:
256,192,74302,1,0,0:0:0:0:
256,192,74373,1,8,0:0:0:0:
256,192,74443,1,0,0:0:0:0:
256,192,74514,1,0,0:0:0:0:
256,192,74584,1,8,0:0:0:0:
256,192,74654,1,8,0:0:0:0:
256,192,74725,1,8,0:0:0:0:
256,192,74795,1,8,0:0:0:0:
256,192,74866,1,0,0:0:0:0:
256,192,75007,1,0,0:0:0:0:
256,192,75147,1,8,0:0:0:0:
256,192,75288,1,8,0:0:0:0:
256,192,75429,1,0,0:0:0:0:
256,192,75570,1,8,0:0:0:0:
256,192,75605,1,8,0:0:0:0:
256,192,75711,1,0,0:0:0:0:
256,192,75852,1,0,0:0:0:0:
256,192,75992,1,8,0:0:0:0:
256,192,76028,1,8,0:0:0:0:
256,192,76133,1,0,0:0:0:0:
256,192,76204,1,0,0:0:0:0:
256,192,76274,1,8,0:0:0:0:
256,192,76309,1,8,0:0:0:0:
256,192,76415,1,8,0:0:0:0:
256,192,76450,1,8,0:0:0:0:
256,192,76556,1,0,0:0:0:0:
256,192,76697,1,0,0:0:0:0:
256,192,76732,1,0,0:0:0:0:
256,192,76838,1,8,0:0:0:0:
256,192,76873,1,8,0:0:0:0:
256,192,76978,1,0,0:0:0:0:
256,192,77049,1,0,0:0:0:0:
256,192,77119,1,8,0:0:0:0:
256,192,77190,1,8,0:0:0:0:
256,192,77260,1,0,0:0:0:0:
256,192,77401,1,8,0:0:0:0:
256,192,77436,1,8,0:0:0:0:
256,192,77542,1,8,0:0:0:0:
256,192,77577,1,8,0:0:0:0:
256,192,77683,1,0,0:0:0:0:
256,192,77753,1,0,0:0:0:0:
256,192,77823,1,0,0:0:0:0:
256,192,77894,1,0,0:0:0:0:
256,192,77964,1,8,0:0:0:0:
256,192,77999,1,8,0:0:0:0:
256,192,78105,1,8,0:0:0:0:
256,192,78140,1,8,0:0:0:0:
256,192,78246,1,0,0:0:0:0:
256,192,78528,1,8,0:0:0:0:
256,192,78669,1,8,0:0:0:0:
256,192,78809,1,0,0:0:0:0:
256,192,79091,1,8,0:0:0:0:
256,192,79138,1,8,0:0:0:0:
256,192,79185,1,8,0:0:0:0:
256,192,79232,1,8,0:0:0:0:
256,192,79279,1,8,0:0:0:0:
256,192,79326,1,8,0:0:0:0:
256,192,79373,1,0,0:0:0:0:
256,192,83880,5,4,0:0:0:0:
256,192,88105,5,8,0:0:0:0:
256,192,88387,1,4,0:0:0:0:
256,192,88669,1,8,0:0:0:0:
256,192,89091,1,0,0:0:0:0:
256,192,89232,1,8,0:0:0:0:
256,192,89514,1,0,0:0:0:0:
256,192,89654,1,0,0:0:0:0:
256,192,89795,1,8,0:0:0:0:
256,192,90218,1,0,0:0:0:0:
256,192,90359,1,8,0:0:0:0:
256,192,90499,1,0,0:0:0:0:
256,192,90640,1,0,0:0:0:0:
256,192,90922,1,8,0:0:0:0:
256,192,91345,1,0,0:0:0:0:
256,192,91485,1,8,0:0:0:0:
256,192,91767,1,0,0:0:0:0:
256,192,91908,1,0,0:0:0:0:
256,192,92049,1,8,0:0:0:0:
256,192,92190,1,8,0:0:0:0:
256,192,92330,1,0,0:0:0:0:
256,192,92471,1,8,0:0:0:0:
256,192,92612,1,0,0:0:0:0:
256,192,92894,1,4,0:0:0:0:
256,192,93176,1,8,0:0:0:0:
256,192,93598,1,0,0:0:0:0:
256,192,93739,1,8,0:0:0:0:
256,192,94021,1,0,0:0:0:0:
256,192,94302,1,8,0:0:0:0:
256,192,94725,1,0,0:0:0:0:
256,192,94866,1,8,0:0:0:0:
256,192,95007,1,0,0:0:0:0:
256,192,95147,1,0,0:0:0:0:
256,192,95429,1,8,0:0:0:0:
256,192,95852,1,0,0:0:0:0:
256,192,95992,1,8,0:0:0:0:
256,192,96274,8,0,96838,0:0:0:0:
256,192,96978,5,0,0:0:0:0:
256,192,97119,1,12,0:0:0:0:
256,192,97401,1,0,0:0:0:0:
256,192,97683,1,8,0:0:0:0:
256,192,97964,1,0,0:0:0:0:
256,192,98246,1,8,0:0:0:0:
256,192,98387,1,8,0:0:0:0:
256,192,98528,1,0,0:0:0:0:
256,192,98809,1,8,0:0:0:0:
256,192,99091,1,0,0:0:0:0:
256,192,99232,1,0,0:0:0:0:
256,192,99373,1,8,0:0:0:0:
256,192,99443,1,8,0:0:0:0:
256,224,99514,1,8,0:0:0:0:
256,192,99654,1,0,0:0:0:0:
256,192,99795,1,0,0:0:0:0:
256,192,99936,1,8,0:0:0:0:
256,192,100218,1,0,0:0:0:0:
256,192,100499,1,8,0:0:0:0:
256,192,100640,1,8,0:0:0:0:
256,192,100781,1,0,0:0:0:0:
256,192,101063,1,8,0:0:0:0:
256,192,101345,1,0,0:0:0:0:
256,192,101485,1,0,0:0:0:0:
256,192,101626,1,8,0:0:0:0:
256,192,101767,1,8,0:0:0:0:
256,192,101908,1,4,0:0:0:0:
256,192,102049,1,0,0:0:0:0:
256,192,102190,1,8,0:0:0:0:
256,192,102471,1,0,0:0:0:0:
256,192,102753,1,8,0:0:0:0:
256,192,102894,1,8,0:0:0:0:
256,192,103035,1,4,0:0:0:0:
256,192,103316,1,8,0:0:0:0:
256,192,103598,1,0,0:0:0:0:
256,192,103739,1,0,0:0:0:0:
256,192,103880,1,8,0:0:0:0:
256,192,104021,1,8,0:0:0:0:
256,192,104161,1,0,0:0:0:0:
256,192,104232,1,0,0:0:0:0:
256,192,104302,1,0,0:0:0:0:
256,192,104443,1,8,0:0:0:0:
256,192,104514,1,8,0:0:0:0:
256,192,104584,1,8,0:0:0:0:
256,192,104725,1,0,0:0:0:0:
256,192,104795,1,0,0:0:0:0:
256,192,104866,1,0,0:0:0:0:
256,192,105007,1,8,0:0:0:0:
256,192,105077,1,8,0:0:0:0:
256,192,105147,1,8,0:0:0:0:
256,192,105288,1,0,0:0:0:0:
256,192,105359,1,0,0:0:0:0:
256,192,105429,1,0,0:0:0:0:
256,192,105499,1,0,0:0:0:0:
256,192,105570,1,8,0:0:0:0:
256,192,105640,1,8,0:0:0:0:
256,192,105711,1,8,0:0:0:0:
256,192,105781,1,8,0:0:0:0:
256,192,105852,1,0,0:0:0:0:
256,192,105922,1,8,0:0:0:0:
256,192,105992,1,0,0:0:0:0:
256,192,106063,1,0,0:0:0:0:
256,192,106133,1,8,0:0:0:0:
256,192,106204,1,8,0:0:0:0:
256,192,106274,1,8,0:0:0:0:
256,192,106345,1,8,0:0:0:0:
256,192,106415,1,0,0:0:0:0:
256,192,106556,1,0,0:0:0:0:
256,192,106697,1,8,0:0:0:0:
256,192,106838,1,0,0:0:0:0:
256,192,106908,1,8,0:0:0:0:
256,192,106978,1,0,0:0:0:0:
256,192,107049,1,0,0:0:0:0:
256,192,107119,1,8,0:0:0:0:
256,192,107260,1,0,0:0:0:0:
256,192,107330,1,0,0:0:0:0:
256,192,107401,1,8,0:0:0:0:
256,192,107471,1,8,0:0:0:0:
256,192,107542,1,0,0:0:0:0:
256,192,108105,1,0,0:0:0:0:
256,192,108246,1,8,0:0:0:0:
256,192,108387,1,8,0:0:0:0:
256,192,108528,1,8,0:0:0:0:
256,192,108669,1,4,0:0:0:0:
256,192,108809,1,0,0:0:0:0:
256,192,108950,1,8,0:0:0:0:
256,192,109021,1,8,0:0:0:0:
256,192,109091,1,0,0:0:0:0:
256,192,109232,1,0,0:0:0:0:
256,192,109373,1,8,0:0:0:0:
256,192,109514,1,0,0:0:0:0:
256,192,109584,1,0,0:0:0:0:
256,192,109654,1,8,0:0:0:0:
256,192,109725,1,0,0:0:0:0:
256,192,109795,1,8,0:0:0:0:
256,192,109936,1,0,0:0:0:0:
256,192,110077,1,8,0:0:0:0:
256,192,110147,1,0,0:0:0:0:
256,192,110218,1,8,0:0:0:0:
256,192,110288,1,8,0:0:0:0:
256,192,110359,1,0,0:0:0:0:
256,192,110499,1,8,0:0:0:0:
256,192,110640,1,0,0:0:0:0:
256,192,110711,1,0,0:0:0:0:
256,192,110781,1,8,0:0:0:0:
256,192,110852,1,8,0:0:0:0:
256,192,110922,1,0,0:0:0:0:
256,192,111063,1,0,0:0:0:0:
256,192,111204,1,8,0:0:0:0:
256,192,111274,1,0,0:0:0:0:
256,192,111345,1,8,0:0:0:0:
256,192,111415,1,8,0:0:0:0:
256,192,111485,1,0,0:0:0:0:
256,192,111556,1,8,0:0:0:0:
256,192,111626,1,0,0:0:0:0:
256,192,111767,1,8,0:0:0:0:
256,192,111838,1,8,0:0:0:0:
256,192,111908,1,0,0:0:0:0:
261,191,111978,1,0,0:0:0:0:
256,192,112049,1,8,0:0:0:0:
256,192,112190,1,0,0:0:0:0:
256,192,112330,1,8,0:0:0:0:
256,192,112401,1,0,0:0:0:0:
256,192,112471,1,8,0:0:0:0:
256,192,112612,1,0,0:0:0:0:
256,192,112683,1,0,0:0:0:0:
256,192,112753,1,0,0:0:0:0:
256,192,112894,1,8,0:0:0:0:
256,192,113035,1,8,0:0:0:0:
256,192,113176,1,4,0:0:0:0:
256,192,113316,1,0,0:0:0:0:
256,192,113457,1,8,0:0:0:0:
256,192,113528,1,8,0:0:0:0:
256,192,113598,1,0,0:0:0:0:
256,192,113739,1,0,0:0:0:0:
256,192,113880,1,8,0:0:0:0:
256,192,114021,1,0,0:0:0:0:
256,192,114091,1,0,0:0:0:0:
256,192,114161,1,8,0:0:0:0:
256,192,114232,1,0,0:0:0:0:
256,192,114302,1,8,0:0:0:0:
256,192,114443,1,0,0:0:0:0:
256,192,114584,1,8,0:0:0:0:
256,192,114654,1,0,0:0:0:0:
256,192,114725,1,8,0:0:0:0:
256,192,114795,1,8,0:0:0:0:
256,192,114866,1,0,0:0:0:0:
256,192,115007,1,8,0:0:0:0:
256,192,115147,1,0,0:0:0:0:
260,195,115218,1,0,0:0:0:0:
256,192,115288,1,8,0:0:0:0:
256,192,115359,1,8,0:0:0:0:
256,192,115429,1,8,0:0:0:0:
256,192,115570,1,0,0:0:0:0:
256,192,115711,1,8,0:0:0:0:
256,192,115781,1,8,0:0:0:0:
256,192,115852,1,8,0:0:0:0:
256,192,115922,1,8,0:0:0:0:
256,192,115992,1,0,0:0:0:0:
256,192,116063,1,8,0:0:0:0:
256,192,116133,1,0,0:0:0:0:
260,195,116204,1,0,0:0:0:0:
256,192,116274,1,8,0:0:0:0:
256,192,116415,1,0,0:0:0:0:
256,192,116485,1,0,0:0:0:0:
256,192,116556,1,8,0:0:0:0:
256,192,116697,1,0,0:0:0:0:
256,192,116838,1,8,0:0:0:0:
256,192,116908,1,8,0:0:0:0:
256,192,116978,1,0,0:0:0:0:
256,192,117119,1,8,0:0:0:0:
256,192,117260,1,0,0:0:0:0:
256,192,117401,1,8,0:0:0:0:
256,192,117683,1,4,0:0:0:0:
256,192,117823,1,4,0:0:0:0:
256,192,117964,1,12,0:0:0:0:
256,192,118246,1,0,0:0:0:0:
256,192,118387,1,8,0:0:0:0:
256,192,118528,1,0,0:0:0:0:
256,192,118598,1,0,0:0:0:0:
256,192,118669,1,8,0:0:0:0:
256,192,118739,1,0,0:0:0:0:
256,192,118809,1,8,0:0:0:0:
256,192,118950,1,0,0:0:0:0:
256,192,119091,1,8,0:0:0:0:
256,192,119161,1,0,0:0:0:0:
256,192,119232,1,8,0:0:0:0:
256,192,119302,1,8,0:0:0:0:
256,192,119373,1,0,0:0:0:0:
256,192,119514,1,8,0:0:0:0:
256,192,119654,1,0,0:0:0:0:
256,192,119725,1,0,0:0:0:0:
256,192,119795,1,8,0:0:0:0:
256,192,119866,1,8,0:0:0:0:
256,192,119936,1,0,0:0:0:0:
256,192,120077,1,0,0:0:0:0:
256,192,120218,1,8,0:0:0:0:
256,192,120288,1,0,0:0:0:0:
256,192,120359,1,8,0:0:0:0:
256,192,120429,1,8,0:0:0:0:
256,192,120499,1,0,0:0:0:0:
256,192,120570,1,8,0:0:0:0:
256,192,120640,1,0,0:0:0:0:
256,192,120781,1,8,0:0:0:0:
256,192,120852,1,8,0:0:0:0:
256,192,120922,1,0,0:0:0:0:
260,195,120992,1,0,0:0:0:0:
256,192,121063,1,8,0:0:0:0:
256,192,121204,1,0,0:0:0:0:
256,192,121345,1,8,0:0:0:0:
256,192,121415,1,0,0:0:0:0:
256,192,121485,1,8,0:0:0:0:
256,192,121626,1,0,0:0:0:0:
256,192,121767,1,0,0:0:0:0:
256,192,121838,1,0,0:0:0:0:
256,192,121908,1,8,0:0:0:0:
256,192,122049,1,8,0:0:0:0:
256,192,122190,1,4,0:0:0:0:
256,192,122330,1,0,0:0:0:0:
256,192,122471,1,8,0:0:0:0:
256,192,122542,1,8,0:0:0:0:
256,192,122612,1,0,0:0:0:0:
256,192,122753,1,0,0:0:0:0:
256,192,122894,1,8,0:0:0:0:
256,192,123035,1,0,0:0:0:0:
256,192,123105,1,0,0:0:0:0:
256,192,123176,1,8,0:0:0:0:
256,192,123246,1,0,0:0:0:0:
256,192,123316,1,8,0:0:0:0:
256,192,123457,1,0,0:0:0:0:
256,192,123598,1,8,0:0:0:0:
256,192,123669,1,0,0:0:0:0:
256,192,123739,1,8,0:0:0:0:
256,192,123809,1,8,0:0:0:0:
256,192,123880,1,0,0:0:0:0:
256,192,124021,1,0,0:0:0:0:
256,192,124161,1,8,0:0:0:0:
256,192,124232,1,0,0:0:0:0:
256,192,124302,1,0,0:0:0:0:
256,192,124373,1,0,0:0:0:0:
256,192,124443,1,12,0:0:0:0:
256,192,124584,1,0,0:0:0:0:
256,192,124725,1,8,0:0:0:0:
256,192,124866,1,8,0:0:0:0:
256,192,125007,1,0,0:0:0:0:
256,192,125147,1,8,0:0:0:0:
256,192,125288,1,0,0:0:0:0:
256,192,125429,1,0,0:0:0:0:
256,192,125570,1,12,0:0:0:0:
256,192,125852,1,0,0:0:0:0:
256,192,125992,1,12,0:0:0:0:
256,192,126274,1,8,0:0:0:0:
256,192,126415,1,0,0:0:0:0:
256,192,126697,1,4,0:0:0:0:
256,192,126978,1,0,0:0:0:0:
256,192,127260,1,0,0:0:0:0:
256,192,127542,1,0,0:0:0:0:
256,192,127823,1,0,0:0:0:0:
256,192,128105,1,0,0:0:0:0:
256,192,128387,1,0,0:0:0:0:
256,192,128528,1,8,0:0:0:0:
256,192,128598,1,8,0:0:0:0:
256,192,128669,1,0,0:0:0:0:
256,192,128809,1,8,0:0:0:0:
256,192,128950,1,4,0:0:0:0:
256,192,129091,1,0,0:0:0:0:
256,192,129161,1,0,0:0:0:0:
256,192,129232,1,8,0:0:0:0:
256,192,129373,1,0,0:0:0:0:
256,192,129514,1,8,0:0:0:0:
256,192,129584,1,8,0:0:0:0:
256,192,129654,1,0,0:0:0:0:
256,192,129725,1,0,0:0:0:0:
256,192,129795,1,8,0:0:0:0:
256,192,129936,1,8,0:0:0:0:
256,192,130077,1,0,0:0:0:0:
256,192,130359,1,0,0:0:0:0:
256,192,130640,1,0,0:0:0:0:
256,192,130781,1,0,0:0:0:0:
256,192,130852,1,0,0:0:0:0:
256,192,130922,1,8,0:0:0:0:
256,192,131063,1,8,0:0:0:0:
256,192,131204,1,4,0:0:0:0:
256,192,131345,1,4,0:0:0:0:
256,192,131485,1,12,0:0:0:0:
256,192,131767,1,0,0:0:0:0:
256,192,131908,1,8,0:0:0:0:
256,192,131978,1,8,0:0:0:0:
256,192,132049,1,0,0:0:0:0:
256,192,132190,1,8,0:0:0:0:
256,192,132330,1,0,0:0:0:0:
256,192,132401,1,0,0:0:0:0:
256,192,132471,1,0,0:0:0:0:
256,192,132542,1,0,0:0:0:0:
256,192,132612,1,8,0:0:0:0:
256,192,132753,1,0,0:0:0:0:
256,192,132823,1,0,0:0:0:0:
256,192,132894,1,8,0:0:0:0:
256,192,133035,1,0,0:0:0:0:
256,192,133176,1,8,0:0:0:0:
256,192,133246,1,0,0:0:0:0:
256,192,133316,1,0,0:0:0:0:
256,192,133457,1,12,0:0:0:0:
256,192,133598,1,0,0:0:0:0:
256,192,133669,1,0,0:0:0:0:
256,192,133739,1,8,0:0:0:0:
256,192,133880,1,0,0:0:0:0:
256,192,134021,1,8,0:0:0:0:
256,192,134091,1,8,0:0:0:0:
256,192,134161,1,0,0:0:0:0:
256,192,134232,1,0,0:0:0:0:
256,192,134302,1,8,0:0:0:0:
256,192,134443,1,0,0:0:0:0:
256,192,134584,1,12,0:0:0:0:
256,192,134866,1,0,0:0:0:0:
256,192,135007,1,12,0:0:0:0:
256,192,135288,1,8,0:0:0:0:
256,192,135429,1,4,0:0:0:0:
256,192,135711,1,12,0:0:0:0:
256,192,135852,1,4,0:0:0:0:
256,192,135992,1,12,0:0:0:0:
256,192,136274,1,0,0:0:0:0:
256,192,136345,1,0,0:0:0:0:
256,192,136415,1,8,0:0:0:0:
256,192,136485,1,0,0:0:0:0:
256,192,136556,1,8,0:0:0:0:
256,192,136697,1,0,0:0:0:0:
256,192,136838,1,8,0:0:0:0:
256,192,136908,1,8,0:0:0:0:
256,192,136978,1,0,0:0:0:0:
256,192,137049,1,0,0:0:0:0:
256,192,137119,1,8,0:0:0:0:
256,192,137260,1,0,0:0:0:0:
256,192,137401,1,8,0:0:0:0:
256,192,137471,1,0,0:0:0:0:
256,192,137542,1,0,0:0:0:0:
256,192,137612,1,0,0:0:0:0:
256,192,137683,1,8,0:0:0:0:
256,192,137823,1,8,0:0:0:0:
256,192,137964,1,0,0:0:0:0:
256,192,138105,1,0,0:0:0:0:
256,192,138176,1,0,0:0:0:0:
256,192,138246,1,8,0:0:0:0:
256,192,138387,1,0,0:0:0:0:
256,192,138528,1,8,0:0:0:0:
256,192,138598,1,0,0:0:0:0:
256,192,138669,1,8,0:0:0:0:
256,192,138809,1,0,0:0:0:0:
256,192,138880,1,0,0:0:0:0:
256,192,138950,1,8,0:0:0:0:
256,192,139021,1,0,0:0:0:0:
256,192,139091,1,8,0:0:0:0:
256,192,139232,1,0,0:0:0:0:
256,192,139373,1,8,0:0:0:0:
256,192,139443,1,0,0:0:0:0:
256,192,139514,1,8,0:0:0:0:
256,192,139584,1,0,0:0:0:0:
256,192,139654,1,8,0:0:0:0:
256,192,139725,1,8,0:0:0:0:
256,192,139795,1,0,0:0:0:0:
256,192,139866,1,0,0:0:0:0:
256,192,139936,1,8,0:0:0:0:
256,192,140077,1,8,0:0:0:0:
256,192,140218,1,4,0:0:0:0:
256,192,140359,1,4,0:0:0:0:
256,192,140499,1,12,0:0:0:0:
256,192,140781,1,8,0:0:0:0:
256,192,140852,1,8,0:0:0:0:
256,192,140922,1,0,0:0:0:0:
256,192,140992,1,0,0:0:0:0:
256,192,141063,1,8,0:0:0:0:
256,192,141204,1,8,0:0:0:0:
256,192,141345,1,0,0:0:0:0:
256,192,141485,1,0,0:0:0:0:
256,192,141626,1,8,0:0:0:0:
256,192,141697,1,8,0:0:0:0:
256,192,141767,1,0,0:0:0:0:
256,192,141908,1,8,0:0:0:0:
256,192,142049,1,8,0:0:0:0:
256,192,142190,1,0,0:0:0:0:
256,192,142260,1,8,0:0:0:0:
256,192,142330,1,0,0:0:0:0:
256,192,142401,1,0,0:0:0:0:
256,192,142471,1,8,0:0:0:0:
256,192,142612,1,0,0:0:0:0:
256,192,142753,1,8,0:0:0:0:
256,192,142823,1,8,0:0:0:0:
256,192,142894,1,8,0:0:0:0:
256,192,143035,1,0,0:0:0:0:
256,192,143105,1,0,0:0:0:0:
256,192,143176,1,8,0:0:0:0:
256,192,143316,1,0,0:0:0:0:
256,192,143457,1,8,0:0:0:0:
256,192,143598,1,4,0:0:0:0:
256,192,143880,1,8,0:0:0:0:
256,192,144021,1,4,0:0:0:0:
256,192,144302,1,8,0:0:0:0:
256,192,144443,1,4,0:0:0:0:
256,192,144725,1,12,0:0:0:0:
256,192,145147,1,8,0:0:0:0:
256,192,145288,1,0,0:0:0:0:
256,192,145499,1,0,0:0:0:0:
256,192,145711,1,0,0:0:0:0:
256,192,145922,1,0,0:0:0:0:
256,192,146133,1,0,0:0:0:0:
256,192,146274,1,0,0:0:0:0:
256,192,146415,1,8,0:0:0:0:
256,192,146556,1,0,0:0:0:0:
256,192,146626,1,0,0:0:0:0:
256,192,146767,1,8,0:0:0:0:
256,192,146838,1,8,0:0:0:0:
256,192,146978,1,0,0:0:0:0:
256,192,147401,1,0,0:0:0:0:
256,192,147542,1,0,0:0:0:0:
256,192,147753,1,0,0:0:0:0:
256,192,147964,1,0,0:0:0:0:
256,192,148176,1,0,0:0:0:0:
256,192,148387,1,0,0:0:0:0:
256,192,148528,1,0,0:0:0:0:
256,192,148669,1,8,0:0:0:0:
256,192,148809,1,0,0:0:0:0:
256,192,148950,1,8,0:0:0:0:
256,192,149021,1,8,0:0:0:0:
256,192,149091,1,0,0:0:0:0:
256,192,149232,1,12,0:0:0:0:
256,192,149654,1,0,0:0:0:0:
256,192,150077,1,0,0:0:0:0:
256,192,150359,1,12,0:0:0:0:
256,192,150781,1,0,0:0:0:0:
256,192,150922,1,8,0:0:0:0:
256,192,150992,1,8,0:0:0:0:
256,192,151063,1,0,0:0:0:0:
256,192,151133,1,0,0:0:0:0:
256,192,151204,1,8,0:0:0:0:
256,192,151345,1,0,0:0:0:0:
256,192,151485,1,12,0:0:0:0:
256,192,151767,1,0,0:0:0:0:
256,192,152049,1,8,0:0:0:0:
256,192,152190,1,0,0:0:0:0:
256,192,152330,1,8,0:0:0:0:
256,192,152401,1,8,0:0:0:0:
256,192,152471,1,8,0:0:0:0:
256,192,152542,1,8,0:0:0:0:
256,192,152612,1,0,0:0:0:0:
256,192,152753,1,0,0:0:0:0:
256,192,152894,1,8,0:0:0:0:
256,192,153035,1,0,0:0:0:0:
256,192,153316,1,0,0:0:0:0:
256,192,153457,1,8,0:0:0:0:
256,192,153739,1,4,0:0:0:0:
