osu file format v14

[General]
AudioFilename: audio.mp3
AudioLeadIn: 0
PreviewTime: 59091
Countdown: 0
SampleSet: Normal
StackLeniency: 0.7
Mode: 1
LetterboxInBreaks: 0
WidescreenStoryboard: 1

[Editor]
DistanceSpacing: 2
BeatDivisor: 4
GridSize: 32
TimelineZoom: 2.1

[Metadata]
Title:Cthugha
TitleUnicode:Cthugha
Artist:USAO
ArtistUnicode:USAO
Creator:dtn
Version:Futsuu
Source:Muse Dash
Tags:Dtnt0r Phigros electronic instrumental hardcore tano*c techno drumstep j-core jcore
BeatmapID:3480152
BeatmapSetID:1694843

[Difficulty]
HPDrainRate:6
CircleSize:5
OverallDifficulty:4
ApproachRate:5
SliderMultiplier:1.4
SliderTickRate:1

[Events]
//Background and Video events
0,0,"usaobg.png",0,-105
//Break Periods
2,79573,82680
2,84080,86905
//Storyboard Layer 0 (Background)
//Storyboard Layer 1 (Fail)
//Storyboard Layer 2 (Pass)
//Storyboard Layer 3 (Foreground)
//Storyboard Layer 4 (Overlay)
//Storyboard Sound Samples

[TimingPoints]
500,281.69014084507,4,1,0,60,1,0
500,-100,4,1,0,60,0,0
8316,-100,4,1,0,90,0,0
14021,-111.111111111111,4,1,0,100,0,1
18528,-100,4,1,0,100,0,0
19584,-100,4,1,0,90,0,0
57049,-100,4,1,0,70,0,0
61345,-111.111111111111,4,1,0,100,0,1
78457,-111.111111111111,4,1,0,100,0,1
78598,-111.111111111111,4,1,0,100,0,1
78739,-111.111111111111,4,1,0,100,0,1
79021,-111.111111111111,4,1,0,100,0,1
79373,-111.111111111111,4,1,0,100,0,0
79514,-100,4,1,0,60,0,0
88105,-100,4,1,0,70,0,0
92823,-100,4,1,0,80,0,0
97049,-100,4,1,0,90,0,0
108669,-100,4,1,0,100,0,1
126697,-100,4,1,0,80,0,0
128950,-100,4,1,0,100,0,1
144725,-100,4,1,0,90,0,0
153669,-100,4,1,0,100,0,0

[HitObjects]
256,192,500,5,12,0:0:0:0:
256,192,1063,1,8,0:0:0:0:
256,192,1626,1,8,0:0:0:0:
256,192,2190,1,8,0:0:0:0:
256,192,2753,1,8,0:0:0:0:
256,192,3316,1,8,0:0:0:0:
256,192,3880,1,8,0:0:0:0:
256,192,4443,1,8,0:0:0:0:
256,192,4725,1,8,0:0:0:0:
256,192,5007,1,4,0:0:0:0:
256,192,5570,1,8,0:0:0:0:
256,192,6133,1,8,0:0:0:0:
256,192,6697,1,8,0:0:0:0:
256,192,7260,1,8,0:0:0:0:
256,192,7823,1,8,0:0:0:0:
256,192,8387,1,12,0:0:0:0:
256,192,8669,1,8,0:0:0:0:
256,192,8809,1,8,0:0:0:0:
256,192,8950,1,0,0:0:0:0:
256,192,9232,1,0,0:0:0:0:
256,192,9514,1,12,0:0:0:0:
256,192,9795,1,0,0:0:0:0:
256,192,9936,1,8,0:0:0:0:
256,192,10077,1,0,0:0:0:0:
256,192,10359,1,8,0:0:0:0:
256,192,10640,1,0,0:0:0:0:
256,192,11063,1,0,0:0:0:0:
256,192,11204,1,8,0:0:0:0:
256,192,11485,1,8,0:0:0:0:
256,192,11767,1,0,0:0:0:0:
256,192,12049,1,8,0:0:0:0:
256,192,12330,1,0,0:0:0:0:
256,192,12471,1,0,0:0:0:0:
256,192,12612,1,8,0:0:0:0:
256,192,12894,1,8,0:0:0:0:
256,192,13457,8,4,13739,0:0:0:0:
256,192,14021,5,4,0:0:0:0:
256,192,14302,1,8,0:0:0:0:
256,192,14443,1,8,0:0:0:0:
256,192,14584,1,0,0:0:0:0:
256,192,14866,1,0,0:0:0:0:
256,192,15007,1,8,0:0:0:0:
256,192,15288,1,8,0:0:0:0:
256,192,15429,1,0,0:0:0:0:
256,192,15711,1,8,0:0:0:0:
256,192,16274,1,0,0:0:0:0:
256,192,16556,1,8,0:0:0:0:
256,192,16838,1,8,0:0:0:0:
256,192,16978,1,8,0:0:0:0:
256,192,17119,1,0,0:0:0:0:
256,192,17401,8,0,17823,0:0:0:0:
256,192,17964,5,0,0:0:0:0:
256,192,18246,1,8,0:0:0:0:
256,192,18528,1,4,0:0:0:0:
256,192,19654,1,0,0:0:0:0:
256,192,19936,1,8,0:0:0:0:
256,192,20077,1,8,0:0:0:0:
256,192,20218,1,0,0:0:0:0:
256,192,20499,1,0,0:0:0:0:
256,192,20781,1,12,0:0:0:0:
256,192,21345,1,8,0:0:0:0:
256,192,21626,1,0,0:0:0:0:
256,192,21767,1,0,0:0:0:0:
256,192,21908,1,8,0:0:0:0:
256,192,22190,1,8,0:0:0:0:
256,192,22330,1,0,0:0:0:0:
256,192,22471,1,8,0:0:0:0:
256,192,22753,1,8,0:0:0:0:
256,192,23035,1,0,0:0:0:0:
256,192,23316,1,8,0:0:0:0:
256,192,23457,1,8,0:0:0:0:
256,192,23598,1,0,0:0:0:0:
256,192,23880,1,8,0:0:0:0:
256,192,24161,1,0,0:0:0:0:
256,192,24443,1,8,0:0:0:0:
256,192,24584,1,0,0:0:0:0:
256,192,24725,1,8,0:0:0:0:
256,192,25288,1,12,0:0:0:0:
256,192,25852,1,0,0:0:0:0:
256,192,25992,1,8,0:0:0:0:
256,192,26274,1,8,0:0:0:0:
256,192,26415,1,0,0:0:0:0:
256,192,26697,1,8,0:0:0:0:
256,192,26838,1,0,0:0:0:0:
256,192,26978,1,8,0:0:0:0:
256,192,27260,1,8,0:0:0:0:
256,192,27401,1,8,0:0:0:0:
256,192,27542,1,0,0:0:0:0:
256,192,27823,1,8,0:0:0:0:
256,192,28105,1,0,0:0:0:0:
256,192,28246,1,0,0:0:0:0:
256,192,28387,1,8,0:0:0:0:
256,192,28669,1,4,0:0:0:0:
256,192,29091,1,4,0:0:0:0:
256,192,29795,1,4,0:0:0:0:
256,192,30077,1,8,0:0:0:0:
256,192,30218,1,0,0:0:0:0:
256,192,30359,1,8,0:0:0:0:
256,192,30640,1,8,0:0:0:0:
256,192,30922,1,8,0:0:0:0:
256,192,31204,1,0,0:0:0:0:
256,192,31345,1,0,0:0:0:0:
256,192,31485,1,8,0:0:0:0:
256,192,31767,1,0,0:0:0:0:
256,192,32049,1,8,0:0:0:0:
256,192,32330,1,8,0:0:0:0:
256,192,32471,1,0,0:0:0:0:
256,192,32753,1,0,0:0:0:0:
256,192,32894,1,8,0:0:0:0:
256,192,33176,1,8,0:0:0:0:
256,192,33739,1,0,0:0:0:0:
256,192,33880,1,0,0:0:0:0:
256,192,34021,1,8,0:0:0:0:
256,192,34302,1,0,0:0:0:0:
256,192,34866,1,8,0:0:0:0:
256,192,35007,1,8,0:0:0:0:
256,192,35147,1,0,0:0:0:0:
256,192,35429,1,0,0:0:0:0:
256,192,35711,1,8,0:0:0:0:
256,192,35992,1,8,0:0:0:0:
256,192,36133,1,0,0:0:0:0:
256,192,36274,1,8,0:0:0:0:
256,192,36556,1,8,0:0:0:0:
256,192,36838,1,8,0:0:0:0:
256,192,36978,1,0,0:0:0:0:
256,192,37260,1,0,0:0:0:0:
256,192,37401,1,8,0:0:0:0:
256,192,37683,1,12,0:0:0:0:
256,192,37964,1,12,0:0:0:0:
256,192,38246,1,12,0:0:0:0:
256,192,38809,1,12,0:0:0:0:
256,192,39232,1,8,0:0:0:0:
256,192,39373,1,8,0:0:0:0:
256,192,39514,1,0,0:0:0:0:
256,192,39654,1,8,0:0:0:0:
256,192,39936,1,0,0:0:0:0:
256,192,40218,1,0,0:0:0:0:
256,192,40359,1,0,0:0:0:0:
256,192,40499,1,8,0:0:0:0:
256,192,40781,1,8,0:0:0:0:
256,192,41063,1,8,0:0:0:0:
256,192,41345,1,8,0:0:0:0:
256,192,41485,1,0,0:0:0:0:
256,192,41767,1,0,0:0:0:0:
256,192,41908,1,8,0:0:0:0:
256,192,42190,1,8,0:0:0:0:
256,192,42753,1,0,0:0:0:0:
256,192,42894,1,8,0:0:0:0:
256,192,43035,1,8,0:0:0:0:
256,192,43316,1,4,0:0:0:0:
256,192,43880,1,0,0:0:0:0:
256,192,44161,1,8,0:0:0:0:
256,192,44302,1,0,0:0:0:0:
256,192,44443,1,0,0:0:0:0:
256,192,44725,1,8,0:0:0:0:
256,192,45007,1,8,0:0:0:0:
256,192,45288,1,0,0:0:0:0:
256,192,45429,1,0,0:0:0:0:
256,192,45570,1,8,0:0:0:0:
256,192,45852,1,8,0:0:0:0:
256,192,46133,1,8,0:0:0:0:
256,192,46274,1,8,0:0:0:0:
256,192,46415,1,8,0:0:0:0:
256,192,46697,1,0,0:0:0:0:
256,192,47542,1,8,0:0:0:0:
256,192,47823,1,4,0:0:0:0:
256,192,48387,1,0,0:0:0:0:
256,192,48528,1,0,0:0:0:0:
256,192,48669,1,8,0:0:0:0:
256,192,48950,1,0,0:0:0:0:
256,192,49232,1,8,0:0:0:0:
256,192,49514,1,8,0:0:0:0:
256,192,49654,1,0,0:0:0:0:
256,192,49795,1,8,0:0:0:0:
256,192,50077,1,8,0:0:0:0:
256,192,50359,1,8,0:0:0:0:
256,192,50499,1,0,0:0:0:0:
256,192,50781,1,0,0:0:0:0:
256,192,50922,1,8,0:0:0:0:
256,192,51204,1,8,0:0:0:0:
256,192,51767,1,0,0:0:0:0:
256,192,51908,1,0,0:0:0:0:
256,192,52049,1,8,0:0:0:0:
256,192,52330,1,4,0:0:0:0:
256,192,52753,1,8,0:0:0:0:
256,192,53035,1,0,0:0:0:0:
256,192,53176,1,8,0:0:0:0:
256,192,53457,1,8,0:0:0:0:
256,192,53739,1,8,0:0:0:0:
256,192,53880,1,0,0:0:0:0:
256,192,54021,1,8,0:0:0:0:
256,192,54302,1,8,0:0:0:0:
256,192,54443,1,8,0:0:0:0:
256,192,54584,1,8,0:0:0:0:
256,192,54866,1,8,0:0:0:0:
256,192,55147,1,8,0:0:0:0:
256,192,55288,1,8,0:0:0:0:
256,192,55429,1,0,0:0:0:0:
256,192,55711,1,8,0:0:0:0:
256,192,56556,1,8,0:0:0:0:
256,192,56838,1,0,0:0:0:0:
256,192,57119,1,8,0:0:0:0:
256,192,57683,1,8,0:0:0:0:
256,192,58246,1,8,0:0:0:0:
256,192,58669,1,0,0:0:0:0:
256,192,58809,1,8,0:0:0:0:
256,192,59091,1,0,0:0:0:0:
256,192,59373,1,8,0:0:0:0:
256,192,59654,1,0,0:0:0:0:
256,192,59795,1,0,0:0:0:0:
256,192,59936,1,8,0:0:0:0:
256,192,60218,8,0,60781,0:0:0:0:
256,192,61345,5,4,0:0:0:0:
256,192,61626,1,8,0:0:0:0:
256,192,61908,1,0,0:0:0:0:
256,192,62049,1,8,0:0:0:0:
256,192,62190,1,0,0:0:0:0:
256,192,62330,1,0,0:0:0:0:
256,192,62612,1,8,0:0:0:0:
256,192,62753,1,0,0:0:0:0:
256,192,63035,1,8,0:0:0:0:
256,192,63598,1,8,0:0:0:0:
256,192,63880,1,8,0:0:0:0:
256,192,64161,1,0,0:0:0:0:
256,192,64302,1,0,0:0:0:0:
256,192,64443,1,8,0:0:0:0:
256,192,64584,1,0,0:0:0:0:
256,192,64866,1,8,0:0:0:0:
256,192,65007,1,0,0:0:0:0:
256,192,65288,1,8,0:0:0:0:
256,192,65852,1,0,0:0:0:0:
256,192,66133,1,8,0:0:0:0:
256,192,66415,1,0,0:0:0:0:
256,192,66556,1,8,0:0:0:0:
256,192,66697,1,0,0:0:0:0:
256,192,66838,1,0,0:0:0:0:
256,192,66978,1,8,0:0:0:0:
256,192,67260,1,8,0:0:0:0:
256,192,67401,1,8,0:0:0:0:
256,192,67542,1,0,0:0:0:0:
256,192,67823,1,8,0:0:0:0:
256,192,67964,1,0,0:0:0:0:
256,192,68105,1,8,0:0:0:0:
256,192,68387,1,8,0:0:0:0:
256,192,68669,1,8,0:0:0:0:
256,192,68950,1,8,0:0:0:0:
256,192,69091,1,8,0:0:0:0:
256,192,69232,1,0,0:0:0:0:
256,192,69373,1,8,0:0:0:0:
256,192,69654,1,8,0:0:0:0:
256,192,69795,1,0,0:0:0:0:
256,192,70077,1,8,0:0:0:0:
256,192,70359,1,4,0:0:0:0:
256,192,70922,1,0,0:0:0:0:
256,192,71063,1,8,0:0:0:0:
256,192,71204,1,0,0:0:0:0:
256,192,71345,1,0,0:0:0:0:
256,192,71626,1,8,0:0:0:0:
256,192,71767,1,0,0:0:0:0:
256,192,72049,1,8,0:0:0:0:
256,192,72612,1,8,0:0:0:0:
256,192,72894,1,0,0:0:0:0:
256,192,73176,1,8,0:0:0:0:
256,192,73316,1,0,0:0:0:0:
256,192,73457,1,8,0:0:0:0:
256,192,73598,1,0,0:0:0:0:
256,192,73880,1,8,0:0:0:0:
256,192,74021,1,0,0:0:0:0:
256,192,74302,1,8,0:0:0:0:
256,192,74866,1,0,0:0:0:0:
256,192,75147,1,8,0:0:0:0:
256,192,75429,1,0,0:0:0:0:
256,192,75570,1,8,0:0:0:0:
256,192,75711,1,0,0:0:0:0:
256,192,75852,1,0,0:0:0:0:
256,192,75992,1,8,0:0:0:0:
256,192,76274,1,0,0:0:0:0:
256,192,76415,1,8,0:0:0:0:
256,192,76556,1,0,0:0:0:0:
256,192,76838,1,8,0:0:0:0:
256,192,76978,1,8,0:0:0:0:
256,192,77119,1,0,0:0:0:0:
256,192,77542,1,8,0:0:0:0:
256,192,77683,1,0,0:0:0:0:
256,192,77823,1,0,0:0:0:0:
257,191,77964,1,8,0:0:0:0:
256,192,78246,1,0,0:0:0:0:
256,192,79091,1,8,0:0:0:0:
256,192,79373,1,4,0:0:0:0:
256,192,83880,5,4,0:0:0:0:
256,192,88105,5,8,0:0:0:0:
256,192,88387,1,4,0:0:0:0:
256,192,88669,1,8,0:0:0:0:
256,192,89091,1,0,0:0:0:0:
256,192,89232,1,8,0:0:0:0:
256,192,89514,1,0,0:0:0:0:
256,192,89654,1,0,0:0:0:0:
256,192,89795,1,8,0:0:0:0:
256,192,90218,1,0,0:0:0:0:
256,192,90359,1,8,0:0:0:0:
256,192,90499,1,0,0:0:0:0:
256,192,90640,1,0,0:0:0:0:
256,192,90922,1,8,0:0:0:0:
256,192,91345,1,0,0:0:0:0:
256,192,91485,1,8,0:0:0:0:
256,192,91767,1,0,0:0:0:0:
256,192,92049,1,8,0:0:0:0:
256,192,92190,1,8,0:0:0:0:
256,192,92330,1,0,0:0:0:0:
256,192,92894,1,4,0:0:0:0:
256,192,93176,1,8,0:0:0:0:
256,192,93598,1,0,0:0:0:0:
256,192,93739,1,8,0:0:0:0:
256,192,94021,1,0,0:0:0:0:
256,192,94302,1,8,0:0:0:0:
256,192,94725,1,0,0:0:0:0:
256,192,94866,1,8,0:0:0:0:
256,192,95007,1,0,0:0:0:0:
256,192,95147,1,0,0:0:0:0:
256,192,95429,1,8,0:0:0:0:
256,192,95852,1,0,0:0:0:0:
256,192,95992,1,8,0:0:0:0:
256,192,96274,8,0,96838,0:0:0:0:
256,192,97119,5,12,0:0:0:0:
256,192,97401,1,0,0:0:0:0:
256,192,97683,1,8,0:0:0:0:
256,192,98246,1,8,0:0:0:0:
256,192,98387,1,8,0:0:0:0:
256,192,98528,1,0,0:0:0:0:
256,192,98809,1,8,0:0:0:0:
256,192,99091,1,0,0:0:0:0:
256,192,99232,1,0,0:0:0:0:
256,192,99373,1,8,0:0:0:0:
256,192,99654,1,0,0:0:0:0:
256,192,99936,1,8,0:0:0:0:
256,192,100499,1,8,0:0:0:0:
256,192,100640,1,8,0:0:0:0:
256,192,100781,1,0,0:0:0:0:
256,192,101345,1,0,0:0:0:0:
256,192,101485,1,0,0:0:0:0:
256,192,101626,1,8,0:0:0:0:
256,192,101908,1,4,0:0:0:0:
256,192,102471,1,0,0:0:0:0:
256,192,102753,1,8,0:0:0:0:
256,192,102894,1,8,0:0:0:0:
256,192,103035,1,4,0:0:0:0:
256,192,103316,1,8,0:0:0:0:
256,192,103598,1,0,0:0:0:0:
256,192,104161,1,0,0:0:0:0:
256,192,104443,1,8,0:0:0:0:
256,192,104725,1,0,0:0:0:0:
256,192,105007,1,8,0:0:0:0:
256,192,105288,1,0,0:0:0:0:
256,192,105429,1,0,0:0:0:0:
256,192,105570,1,8,0:0:0:0:
256,192,105852,1,0,0:0:0:0:
256,192,105992,1,0,0:0:0:0:
256,192,106133,1,8,0:0:0:0:
256,192,106415,1,0,0:0:0:0:
256,192,107542,1,0,0:0:0:0:
256,192,108105,1,0,0:0:0:0:
256,192,108387,1,8,0:0:0:0:
256,192,108669,1,4,0:0:0:0:
256,192,108950,1,8,0:0:0:0:
256,192,109091,1,0,0:0:0:0:
256,192,109373,1,8,0:0:0:0:
256,192,109654,1,0,0:0:0:0:
256,192,109795,1,8,0:0:0:0:
256,192,110077,1,8,0:0:0:0:
256,192,110218,1,8,0:0:0:0:
256,192,110499,1,0,0:0:0:0:
256,192,110781,1,0,0:0:0:0:
256,192,110922,1,8,0:0:0:0:
256,192,111204,1,8,0:0:0:0:
256,192,111345,1,8,0:0:0:0:
256,192,111485,1,0,0:0:0:0:
256,192,112049,1,8,0:0:0:0:
256,192,112330,1,0,0:0:0:0:
256,192,112471,1,8,0:0:0:0:
256,192,112753,1,0,0:0:0:0:
256,192,112894,1,8,0:0:0:0:
256,192,113176,1,4,0:0:0:0:
256,192,113457,1,8,0:0:0:0:
256,192,113598,1,0,0:0:0:0:
256,192,113880,1,8,0:0:0:0:
256,192,114161,1,0,0:0:0:0:
256,192,114302,1,8,0:0:0:0:
256,192,114584,1,8,0:0:0:0:
256,192,114725,1,8,0:0:0:0:
256,192,115007,1,0,0:0:0:0:
256,192,115147,1,8,0:0:0:0:
256,192,115288,1,0,0:0:0:0:
256,192,115429,1,8,0:0:0:0:
256,192,115992,1,0,0:0:0:0:
256,192,116274,1,8,0:0:0:0:
256,192,116556,1,0,0:0:0:0:
256,192,116838,1,8,0:0:0:0:
256,192,117119,1,8,0:0:0:0:
256,192,117260,1,0,0:0:0:0:
256,192,117401,1,8,0:0:0:0:
256,192,117683,1,4,0:0:0:0:
256,192,117964,1,0,0:0:0:0:
256,192,118105,1,8,0:0:0:0:
256,192,118246,1,0,0:0:0:0:
256,192,118387,1,0,0:0:0:0:
256,192,118669,1,0,0:0:0:0:
256,192,118809,1,8,0:0:0:0:
256,192,119091,1,8,0:0:0:0:
256,192,119232,1,8,0:0:0:0:
256,192,119514,1,0,0:0:0:0:
256,192,119795,1,0,0:0:0:0:
256,192,119936,1,8,0:0:0:0:
256,192,120218,1,8,0:0:0:0:
256,192,120359,1,8,0:0:0:0:
256,192,120499,1,0,0:0:0:0:
256,192,120781,1,8,0:0:0:0:
256,192,120922,1,0,0:0:0:0:
256,192,121063,1,8,0:0:0:0:
256,192,121345,1,8,0:0:0:0:
256,192,121485,1,0,0:0:0:0:
256,192,122190,1,4,0:0:0:0:
256,192,122471,1,8,0:0:0:0:
256,192,122612,1,0,0:0:0:0:
256,192,122894,1,8,0:0:0:0:
256,192,123176,1,0,0:0:0:0:
256,192,123316,1,8,0:0:0:0:
256,192,123598,1,8,0:0:0:0:
256,192,123739,1,8,0:0:0:0:
256,192,124021,1,8,0:0:0:0:
256,192,124161,1,0,0:0:0:0:
256,192,124443,1,12,0:0:0:0:
256,192,125007,1,0,0:0:0:0:
256,192,125288,1,0,0:0:0:0:
256,192,125429,1,0,0:0:0:0:
256,192,125570,1,12,0:0:0:0:
256,192,125992,1,12,0:0:0:0:
256,192,126415,1,0,0:0:0:0:
256,192,126697,1,4,0:0:0:0:
256,192,128387,1,0,0:0:0:0:
256,192,128669,1,8,0:0:0:0:
256,192,128950,1,4,0:0:0:0:
256,192,129232,1,8,0:0:0:0:
256,192,129514,1,8,0:0:0:0:
256,192,129654,1,8,0:0:0:0:
256,192,129795,1,0,0:0:0:0:
256,192,130077,1,0,0:0:0:0:
256,192,130359,1,8,0:0:0:0:
256,192,130922,1,8,0:0:0:0:
256,192,131204,1,4,0:0:0:0:
256,192,131485,1,8,0:0:0:0:
256,192,131626,1,0,0:0:0:0:
256,192,131908,1,8,0:0:0:0:
256,192,132190,1,8,0:0:0:0:
256,192,132330,1,0,0:0:0:0:
256,192,132612,1,8,0:0:0:0:
256,192,132753,1,0,0:0:0:0:
256,192,133035,1,0,0:0:0:0:
256,192,133316,1,8,0:0:0:0:
256,192,133457,1,12,0:0:0:0:
256,192,133739,1,0,0:0:0:0:
256,192,134021,1,8,0:0:0:0:
256,192,134584,1,12,0:0:0:0:
256,192,135007,1,12,0:0:0:0:
256,192,135429,1,4,0:0:0:0:
256,192,135711,1,12,0:0:0:0:
256,192,135992,1,8,0:0:0:0:
256,192,136133,1,8,0:0:0:0:
256,192,136274,1,0,0:0:0:0:
256,192,136415,1,0,0:0:0:0:
256,192,136556,1,8,0:0:0:0:
256,192,136697,1,0,0:0:0:0:
256,192,137119,1,8,0:0:0:0:
256,192,137401,1,0,0:0:0:0:
256,192,137683,1,8,0:0:0:0:
256,192,137823,1,8,0:0:0:0:
256,192,137964,1,0,0:0:0:0:
256,192,138246,1,8,0:0:0:0:
256,192,138528,1,8,0:0:0:0:
256,192,138809,1,0,0:0:0:0:
256,192,138950,1,0,0:0:0:0:
256,192,139091,1,8,0:0:0:0:
256,192,139373,1,8,0:0:0:0:
256,192,139936,1,8,0:0:0:0:
256,192,140218,1,4,0:0:0:0:
256,192,140499,1,0,0:0:0:0:
256,192,140640,1,0,0:0:0:0:
256,192,140781,1,8,0:0:0:0:
256,192,140922,1,8,0:0:0:0:
256,192,141063,1,0,0:0:0:0:
256,192,141204,1,8,0:0:0:0:
256,192,141626,1,0,0:0:0:0:
256,192,141767,1,0,0:0:0:0:
256,192,141908,1,8,0:0:0:0:
256,192,142049,1,8,0:0:0:0:
256,192,142190,1,0,0:0:0:0:
256,192,142471,1,8,0:0:0:0:
256,192,142753,1,8,0:0:0:0:
256,192,142894,1,8,0:0:0:0:
256,192,143316,1,8,0:0:0:0:
256,192,143598,1,4,0:0:0:0:
256,192,144021,1,4,0:0:0:0:
256,192,144725,1,12,0:0:0:0:
256,192,145147,1,8,0:0:0:0:
256,192,145288,1,0,0:0:0:0:
256,192,145570,1,0,0:0:0:0:
256,192,145852,1,0,0:0:0:0:
256,192,146063,1,0,0:0:0:0:
256,192,146274,1,0,0:0:0:0:
256,192,146415,1,8,0:0:0:0:
256,192,146978,1,0,0:0:0:0:
256,192,147401,1,0,0:0:0:0:
256,192,147542,1,8,0:0:0:0:
256,192,147823,1,0,0:0:0:0:
256,192,148105,1,0,0:0:0:0:
256,192,148316,1,0,0:0:0:0:
256,160,148528,1,0,0:0:0:0:
256,192,148669,1,8,0:0:0:0:
256,192,149232,1,12,0:0:0:0:
256,192,149654,1,0,0:0:0:0:
256,192,150077,1,0,0:0:0:0:
256,192,150359,1,12,0:0:0:0:
256,192,150781,1,0,0:0:0:0:
256,192,150922,1,8,0:0:0:0:
256,192,151204,1,0,0:0:0:0:
256,192,151345,1,0,0:0:0:0:
256,192,151485,1,12,0:0:0:0:
256,192,151767,1,0,0:0:0:0:
256,192,152049,1,8,0:0:0:0:
256,192,152190,1,8,0:0:0:0:
256,192,152330,1,0,0:0:0:0:
256,192,152471,1,8,0:0:0:0:
256,192,152612,1,0,0:0:0:0:
256,192,152894,1,8,0:0:0:0:
256,192,153035,1,0,0:0:0:0:
256,192,153316,1,0,0:0:0:0:
256,192,153457,1,8,0:0:0:0:
256,192,153739,1,4,0:0:0:0:
