osu file format v14

[General]
AudioFilename: audio.mp3
AudioLeadIn: 0
PreviewTime: 106500
Countdown: 0
SampleSet: Soft
StackLeniency: 0.2
Mode: 0
LetterboxInBreaks: 0
WidescreenStoryboard: 1

[Editor]
DistanceSpacing: 0.8
BeatDivisor: 4
GridSize: 16
TimelineZoom: 3.400001

[Metadata]
Title:Cthugha
TitleUnicode:Cthugha
Artist:USAO
ArtistUnicode:USAO
Creator:Nakano Itsuki
Version:Velocity
Source:Muse Dash
Tags:corsace closed cc23 2023 sf hr1 Suzuki_1112 Otosaka-Yu StarrStyx arf rfandomization hanori Mimilie Suzuhara Lulu Hitsukuya Hojo Karen Mimiliaa nik nikolomara mir electronic instrumental english HARDCORE TANO*C Hardtek Frenchcore Moonbahcore PeroPeroGames 喵斯快跑
BeatmapID:4113673
BeatmapSetID:1981085

[Difficulty]
HPDrainRate:6
CircleSize:4.2
OverallDifficulty:9
ApproachRate:9.6
SliderMultiplier:2.4
SliderTickRate:1

[Events]
//Background and Video events
0,0,"bg.jpg",0,0
//Break Periods
2,79806,82337
//Storyboard Layer 0 (Background)
//Storyboard Layer 1 (Fail)
//Storyboard Layer 2 (Pass)
//Storyboard Layer 3 (Foreground)
//Storyboard Layer 4 (Overlay)
//Storyboard Sound Samples

[TimingPoints]
593,281.69014084507,4,2,1,50,1,0
593,-200,4,2,1,50,0,0
5100,-76.9230769230769,4,2,1,50,0,0
5663,-166.666666666667,4,2,1,50,0,0
8480,-62.5,4,2,2,50,0,0
9607,-62.5,4,2,1,50,0,0
9888,-62.5,4,2,2,50,0,0
10733,-100,4,2,2,50,0,0
14114,-62.5,4,2,1,50,0,0
17494,-76.9230769230769,4,2,2,50,0,0
18339,-76.9230769230769,4,2,1,50,0,0
18621,-66.6666666666667,4,2,1,50,0,0
20592,-142.857142857143,4,2,1,50,0,0
20874,-83.3333333333334,4,2,1,50,0,0
25381,-71.4285714285714,4,2,1,50,0,0
27212,-83.3333333333333,4,2,1,50,0,0
27635,-125,4,2,1,50,0,0
27916,-83.3333333333333,4,2,1,50,0,0
28762,-62.5,4,2,1,50,0,0
29043,-76.9230769230769,4,2,1,50,0,0
29184,-50,4,2,1,50,0,0
29466,-55.5555555555556,4,2,1,50,0,0
29888,-71.4285714285714,4,2,1,50,0,0
33269,-58.8235294117647,4,2,1,50,0,0
34395,-71.4285714285714,4,2,1,50,0,0
37776,-62.5,4,2,1,50,0,0
38902,-71.4285714285714,4,2,1,50,0,0
42283,-62.5,4,2,1,50,0,0
43409,-71.4285714285714,4,2,1,50,0,0
45663,-58.8235294117647,4,2,1,50,0,0
46790,-58.8235294117647,4,2,2,50,0,0
47916,-71.4285714285714,4,2,1,50,0,0
51297,-62.5,4,2,1,50,0,0
52423,-71.4285714285714,4,2,1,50,0,0
54677,-58.8235294117647,4,2,1,50,0,0
56085,-71.4285714285714,4,2,2,50,0,0
56649,-58.8235294117647,4,2,2,50,0,0
56931,-58.8235294117647,4,2,1,50,0,0
57212,-58.8235294117647,4,2,2,50,0,0
58057,-100,4,2,2,50,0,0
59184,-100,4,2,1,50,0,0
59466,-100,4,2,2,50,0,0
60311,-142.857142857143,4,2,1,50,0,0
61156,-83.3333333333334,4,2,1,50,0,0
61719,-71.4285714285714,4,2,1,50,0,0
63409,-62.5,4,2,1,50,0,0
63973,-55.5555555555556,4,2,1,50,0,0
64254,-71.4285714285714,4,2,1,50,0,0
65381,-58.8235294117647,4,2,1,50,0,0
67071,-50,4,2,1,50,0,0
67353,-58.8235294117647,4,2,1,50,0,0
67635,-71.4285714285714,4,2,1,50,0,0
67916,-58.8235294117647,4,2,1,50,0,0
68198,-52.6315789473684,4,2,1,50,0,0
69325,-47.6190476190476,4,2,1,50,0,0
69888,-58.8235294117647,4,2,1,50,0,0
70170,-52.6315789473684,4,2,1,50,0,0
70452,-58.8235294117647,4,2,1,50,0,0
70874,-71.4285714285714,4,2,1,50,0,0
71015,-62.5,4,2,1,50,0,0
71438,-71.4285714285714,4,2,1,50,0,0
71719,-62.5,4,2,1,50,0,0
72001,-71.4285714285714,4,2,1,50,0,0
72142,-58.8235294117647,4,2,1,50,0,0
72987,-71.4285714285714,4,2,1,50,0,0
73409,-62.5,4,2,1,50,0,0
73832,-58.8235294117647,4,2,1,50,0,0
74254,-71.4285714285714,4,2,1,50,0,0
74395,-58.8235294117647,4,2,1,50,0,0
74677,-52.6315789473684,4,2,1,50,0,0
74959,-58.8235294117647,4,2,1,50,0,0
75240,-50,4,2,1,50,0,0
75522,-58.8235294117647,4,2,1,50,0,0
75804,-50,4,2,1,50,0,0
77212,-62.5,4,2,1,50,0,0
77776,-71.4285714285714,4,2,1,50,0,0
79466,-62.5,4,2,1,50,0,0
82846,-100,4,2,1,50,0,0
83691,-76.9230769230769,4,2,1,50,0,0
87353,-71.4285714285714,4,2,1,50,0,0
88198,-62.5,4,2,1,50,0,0
88480,-71.4285714285714,4,2,1,50,0,0
88762,-71.4285714285714,4,2,2,50,0,0
92987,-71.4285714285714,4,2,1,50,0,0
93269,-71.4285714285714,4,2,2,50,0,0
97212,-62.5,4,2,1,50,0,0
97494,-71.4285714285714,4,2,1,50,0,0
101156,-100,4,2,1,50,0,0
101438,-71.4285714285714,4,2,1,50,0,0
101719,-62.5,4,2,1,50,0,0
102001,-71.4285714285714,4,2,1,50,0,0
104254,-58.8235294117647,4,2,1,50,0,0
106508,-71.4285714285715,4,2,1,50,0,0
106790,-71.4285714285715,4,2,2,50,0,0
107635,-166.666666666667,4,2,1,50,0,0
108198,-71.4285714285715,4,2,1,50,0,0
108762,-62.5,4,2,1,50,0,1
109184,-71.4285714285714,4,2,1,50,0,1
109888,-62.5,4,2,1,50,0,1
110311,-71.4285714285714,4,2,1,50,0,1
110592,-64.5161290322581,4,2,1,50,0,1
111297,-58.8235294117647,4,2,1,50,0,1
111578,-66.6666666666667,4,2,1,50,0,1
111860,-55.5555555555556,4,2,1,50,0,1
112142,-62.5,4,2,1,50,0,1
112423,-55.5555555555556,4,2,1,50,0,1
112846,-50,4,2,1,50,0,1
113269,-62.5,4,2,1,50,0,1
113691,-71.4285714285714,4,2,1,50,0,1
114395,-62.5,4,2,1,50,0,1
114818,-71.4285714285714,4,2,1,50,0,1
115100,-64.5161290322581,4,2,1,50,0,1
115522,-58.8235294117647,4,2,1,50,0,1
115804,-66.6666666666667,4,2,1,50,0,1
116085,-58.8235294117647,4,2,1,50,0,1
116649,-71.4285714285714,4,2,1,50,0,1
117071,-62.5,4,2,1,50,0,1
117212,-55.5555555555556,4,2,1,50,0,1
117776,-62.5,4,2,1,50,0,1
118057,-71.4285714285714,4,2,1,50,0,1
118902,-62.5,4,2,1,50,0,1
119466,-71.4285714285714,4,2,1,50,0,1
120311,-58.8235294117647,4,2,1,50,0,1
120592,-66.6666666666667,4,2,1,50,0,1
120874,-55.5555555555556,4,2,1,50,0,1
121156,-62.5,4,2,1,50,0,1
121438,-55.5555555555556,4,2,1,50,0,1
122001,-71.4285714285714,4,2,1,50,0,1
122283,-62.5,4,2,1,50,0,1
122846,-71.4285714285714,4,2,1,50,0,1
124536,-83.3333333333333,4,2,1,50,0,1
124818,-71.4285714285714,4,2,1,50,0,1
125663,-62.5,4,2,1,50,0,1
126085,-50,4,2,1,50,0,1
126508,-41.6666666666667,4,2,1,50,0,1
126790,-83.3333333333333,4,2,1,50,0,0
127071,-95.2380952380952,4,2,1,50,0,0
127353,-125,4,2,1,50,0,0
127916,-166.666666666667,4,2,1,50,0,0
128902,-62.5,4,2,1,50,0,0
129043,-71.4285714285714,4,2,1,50,0,1
130170,-58.8235294117647,4,2,1,50,0,1
131578,-71.4285714285714,4,2,1,50,0,1
133269,-83.3333333333333,4,2,1,50,0,1
133550,-71.4285714285714,4,2,1,50,0,1
134114,-62.5,4,2,1,50,0,1
134677,-52.6315789473684,4,2,1,50,0,1
134959,-71.4285714285714,4,2,1,50,0,1
135100,-47.6190476190476,4,2,1,50,0,1
135381,-71.4285714285714,4,2,1,50,0,1
135522,-43.4782608695652,4,2,1,50,0,1
135804,-62.5,4,2,1,50,0,1
136367,-71.4285714285714,4,2,1,50,0,1
137776,-62.5,4,2,1,50,0,1
138057,-71.4285714285714,4,2,1,50,0,1
138902,-58.8235294117647,4,2,1,50,0,1
139466,-47.6190476190476,4,2,1,50,0,1
140029,-58.8235294117647,4,2,1,50,0,1
143691,-52.6315789473684,4,2,1,50,0,1
143973,-71.4285714285714,4,2,1,50,0,1
144114,-52.6315789473684,4,2,1,50,0,1
144395,-71.4285714285714,4,2,1,50,0,1
144536,-58.8235294117647,4,2,1,50,0,1
144818,-71.4285714285714,4,2,1,50,0,0
145381,-83.3333333333333,4,2,1,50,0,0
145592,-100,4,2,1,50,0,0
145804,-125,4,2,1,50,0,0
146015,-166.666666666667,4,2,1,50,0,0
146226,-71.4285714285714,4,2,1,50,0,0
147635,-83.3333333333333,4,2,1,50,0,0
147846,-100,4,2,1,50,0,0
148057,-125,4,2,1,50,0,0
148269,-166.666666666667,4,2,1,50,0,0
148480,-62.5,4,2,1,50,0,0
149325,-71.4285714285714,4,2,1,50,0,0
150452,-83.3333333333333,4,2,1,50,0,0
151297,-71.4285714285714,4,2,1,50,0,0
153832,-55.5555555555556,4,2,1,50,0,0

[Colours]
Combo1 : 255,111,40
Combo2 : 128,255,0
Combo3 : 255,207,17
Combo4 : 79,255,255

[HitObjects]
58,285,593,5,12,0:3:0:0:
85,329,733,2,0,B|37:350|37:350|64:269,1,120
158,248,1156,2,0,B|206:269|206:269|179:188,1,120,8|0,0:3|0:0,0:0:0:0:
73,145,1578,2,0,L|-9:138,1,60,0|8,0:0|0:3,0:0:0:0:
127,48,1860,1,0,0:0:0:0:
115,57,2001,2,0,L|211:66,1,90
280,27,2283,2,0,B|313:47|313:47|399:39,1,120,8|0,0:3|0:0,0:0:0:0:
429,357,2846,6,0,P|452:313|435:266,1,90,8|0,0:3|0:0,0:0:0:0:
375,178,3128,2,0,B|377:237,1,60
459,127,3409,1,8,0:3:0:0:
377,237,3550,2,0,B|375:178,1,60
308,105,3832,2,0,B|306:46,1,60,0|8,0:0|0:3,0:0:0:0:
209,177,4114,5,0,0:0:0:0:
118,201,4254,1,0,0:0:0:0:
49,134,4395,1,0,0:0:0:0:
43,118,4466,1,0,0:0:0:0:
47,98,4536,1,8,0:3:0:0:
113,31,4677,1,0,0:0:0:0:
209,177,4818,2,0,B|211:215|211:215|221:233|221:233|227:284,1,90
244,275,5100,6,0,L|256:108,1,155.999992858887,4|0,1:2|0:0,0:0:0:0:
455,345,5522,1,0,0:0:0:0:
447,356,5663,2,0,B|430:287|430:287|446:246,1,107.999996704102,8|0,0:3|0:0,0:0:0:0:
507,209,5945,2,0,L|500:130,1,71.9999978027344
264,14,6226,2,0,B|246:87|246:87|261:143,1,107.999996704102,8|0,0:3|0:0,0:0:0:0:
299,190,6508,2,0,L|292:261,1,71.9999978027344
500,137,6790,2,0,B|435:128|435:128|424:134|424:134|349:125,1,143.999995605469,8|0,0:3|0:0,0:0:0:0:
299,190,7353,6,0,L|284:337,1,143.999995605469,8|0,0:3|0:0,0:0:0:0:
265,31,7776,1,0,0:0:0:0:
299,190,7916,2,0,L|218:202,1,71.9999978027344,8|0,0:3|0:0,0:0:0:0:
35,191,8198,2,0,B|29:237|29:237|48:270,1,71.9999978027344
114,348,8480,6,0,B|141:109|141:109|110:67,1,288,4|0,0:3|0:0,0:0:0:0:
93,78,8762,1,8,0:3:0:0:
259,218,8902,1,4,0:3:0:0:
478,56,9043,1,4,0:3:0:0:
478,56,9114,1,4,0:3:0:0:
478,56,9184,2,0,L|374:47,1,96,8|0,0:3|0:0,0:0:0:0:
209,23,9325,6,0,B|193:58|193:58|211:124,1,96,4|0,0:3|0:0,0:0:0:0:
273,152,9466,2,0,B|289:117|289:117|271:51,1,96,4|0,0:3|0:0,0:0:0:0:
21,175,9607,5,4,1:2:0:0:
31,272,9747,1,0,0:0:0:0:
152,290,9888,1,8,0:3:0:0:
162,163,10028,1,0,0:0:0:0:
94,208,10170,5,0,0:0:0:0:
97,222,10311,1,4,0:3:0:0:
235,298,10452,1,8,0:3:0:0:
238,284,10593,1,0,0:0:0:0:
343,156,10733,6,0,P|421:175|399:253,1,180,4|0,0:3|0:0,0:0:0:0:
387,243,11015,1,8,0:3:0:0:
308,153,11156,2,0,L|315:299,1,120
411,368,11438,1,4,0:3:0:0:
230,309,11578,2,0,L|224:189,1,120,8|0,0:3|0:0,0:0:0:0:
407,29,11860,6,0,P|451:60|431:126,1,120,4|0,0:3|0:0,0:0:0:0:
385,194,12142,1,8,0:3:0:0:
386,206,12283,1,0,0:0:0:0:
216,97,12423,6,0,L|354:108,1,120
159,37,12705,1,8,0:3:0:0:
153,26,12846,1,0,0:0:0:0:
40,192,12987,5,0,0:3:0:0:
256,192,13057,12,0,13972,0:0:0:0:
477,345,14114,6,0,B|411:334|411:334|376:371|376:371|291:356,1,192,4|0,1:2|0:0,0:0:0:0:
303,359,14395,6,0,P|285:319|295:263,1,96,2|0,0:0|0:0,0:0:0:0:
190,282,14536,2,0,P|194:238|231:194,1,96,2|0,0:0|0:0,0:0:0:0:
485,97,14677,6,0,P|459:132|405:151,1,96,8|0,0:0|0:0,0:0:0:0:
477,236,14818,2,0,P|436:254|380:244,1,96,2|0,0:0|0:0,0:0:0:0:
169,71,14959,6,0,P|212:75|256:112,1,96,2|0,0:0|0:0,0:0:0:0:
291,11,15100,2,0,P|326:36|345:90,1,96,0|0,1:0|0:0,0:0:0:0:
205,334,15240,6,0,L|107:347,1,96,2|0,0:0|0:0,0:0:0:0:
36,250,15381,2,0,B|230:225,1,192,0|0,0:0|1:0,0:0:0:0:
207,343,15663,6,0,B|164:366|164:366|104:353,1,96
58,103,15804,2,0,B|-3:72|-3:72|186:48|186:48|158:84,1,288,8|0,0:0|0:0,0:0:0:0:
4,236,16085,2,0,P|44:208|109:214,1,96,2|0,0:0|0:0,0:0:0:0:
203,161,16226,2,0,P|243:189|308:183,1,96,2|0,0:0|0:0,0:0:0:0:
479,109,16367,6,0,B|491:84|491:84|476:17,1,96,0|0,1:0|0:0,0:0:0:0:
333,25,16508,2,0,B|320:49|320:49|335:116,1,96,2|0,0:0|0:0,0:0:0:0:
270,306,16649,2,0,B|326:267|326:267|377:308|377:308|379:332|379:332|435:379|435:379|482:343,1,288,2|0,0:0|0:0,0:0:0:0:
483,183,16931,2,0,B|434:175|434:175|397:204,1,96,8|0,0:0|0:0,0:0:0:0:
335,116,17071,2,0,B|295:144|295:144|289:191,1,96,2|0,0:0|0:0,0:0:0:0:
171,325,17212,2,0,B|54:349|54:349|80:256,1,192
44,58,17494,6,0,L|53:136,3,77.9999964294435,2|0|2|0,0:3|0:0|0:3|0:0,0:0:0:0:
4,255,17776,6,0,P|36:278|96:267,1,77.9999964294435,4|0,0:3|0:0,0:0:0:0:
105,357,17916,2,0,P|143:350|178:300,1,77.9999964294435,4|0,0:3|0:0,0:0:0:0:
380,150,18057,6,0,P|348:127|288:138,1,77.9999964294435,8|0,0:3|0:0,0:0:0:0:
279,48,18197,2,0,P|240:54|205:104,1,77.9999964294435,8|0,0:3|0:0,0:0:0:0:
150,206,18339,6,0,B|172:204|172:204|191:216|191:216|216:210|216:210|242:225|242:225|271:219|271:219|297:235|297:235|331:228|331:228|371:252,1,233.999989288331,8|0,0:0|0:0,0:0:0:0:
258,371,18621,6,0,L|253:191,1,180.000006866455,0|0,1:0|0:0,0:0:0:0:
253,191,19747,5,0,1:0:0:0:
407,33,20029,1,2,0:3:0:0:
423,127,20170,1,2,0:3:0:0:
335,90,20311,1,2,0:3:0:0:
414,137,20592,2,0,B|471:123|471:123|490:221,1,125.999996154785,0|0,1:0|0:0,0:0:0:0:
497,328,20874,6,0,B|398:339|398:339|379:333|379:333|283:343,1,215.999993408203,4|0,1:2|0:0,0:0:0:0:
278,353,21156,2,0,B|270:261,1,71.9999978027344,8|0,0:0|0:0,0:0:0:0:
400,48,21297,2,0,B|387:68|387:68|404:131,1,71.9999978027344
488,248,21438,1,0,1:0:0:0:
181,88,21578,2,0,B|273:80,1,71.9999978027344
497,238,21719,2,0,B|315:255,1,143.999995605469,8|0,0:0|0:0,0:0:0:0:
76,323,22001,5,0,1:0:0:0:
254,148,22142,2,0,B|267:117|267:117|244:62,1,71.9999978027344
55,34,22283,2,0,L|67:189,1,143.999995605469,8|0,0:0|0:0,0:0:0:0:
456,350,22564,6,0,L|444:194,1,143.999995605469,0|0,1:0|0:0,0:0:0:0:
207,161,22846,2,0,P|237:180|288:181,1,71.9999978027344,8|0,0:0|0:0,0:0:0:0:
276,264,22987,2,0,P|311:262|353:233,1,71.9999978027344,0|0,1:0|0:0,0:0:0:0:
464,73,23128,6,0,B|437:31|437:31|341:49,1,143.999995605469,0|0,1:0|0:0,0:0:0:0:
59,22,23409,1,8,0:0:0:0:
196,232,23550,2,0,L|206:160,1,71.9999978027344
59,22,23691,2,0,L|37:182,1,143.999995605469,0|0,1:0|0:0,0:0:0:0:
158,355,23973,6,0,P|192:348|218:323,1,71.9999978027344,8|0,0:0|0:0,0:0:0:0:
289,383,24114,2,0,P|308:353|309:318,1,71.9999978027344
339,221,24254,1,0,1:0:0:0:
445,74,24395,2,0,L|370:78,1,71.9999978027344
196,232,24536,2,0,L|362:220,1,143.999995605469,8|0,0:0|0:0,0:0:0:0:
511,98,24818,6,0,B|474:99|436:66,1,71.9999978027344,0|0,1:0|0:0,0:0:0:0:
398,172,24959,2,0,B|368:146|331:147,1,71.9999978027344,0|0,1:0|0:0,0:0:0:0:
270,19,25100,6,0,B|249:67|249:67|260:99,1,71.9999978027344,8|0,0:0|0:0,0:0:0:0:
165,160,25240,2,0,B|144:112|144:112|151:94,1,71.9999978027344,0|0,1:0|0:0,0:0:0:0:
15,367,25381,6,0,B|73:358|73:358|92:244,1,167.999994873047,4|0,1:2|0:0,0:0:0:0:
5,43,25663,6,0,L|90:30,1,83.9999974365235,8|0,0:0|0:0,0:0:0:0:
68,106,25804,2,0,L|153:93,1,83.9999974365235
176,252,25945,6,0,L|261:265,1,83.9999974365235,0|0,1:0|0:0,0:0:0:0:
239,189,26086,2,0,L|324:202,1,83.9999974365235
360,43,26226,6,0,L|445:30,1,83.9999974365235,8|0,0:0|0:0,0:0:0:0:
423,106,26367,2,0,L|508:93,1,83.9999974365235
490,321,26508,6,0,P|409:358|339:304,1,167.999994873047,0|0,1:0|0:0,0:0:0:0:
284,356,26719,1,0,0:0:0:0:
285,372,26790,1,8,0:0:0:0:
261,30,26931,2,0,L|267:117,1,83.9999974365235
273,222,27071,1,0,1:0:0:0:
114,142,27212,2,0,P|152:145|188:174,1,71.9999978027344
429,132,27353,2,0,P|389:132|352:158,1,71.9999978027344,8|0,0:0|0:0,0:0:0:0:
273,222,27494,5,0,1:0:0:0:
278,297,27564,1,0,1:0:0:0:
285,372,27635,2,0,L|291:323,1,48,0|0,3:0|0:0,0:0:0:0:
337,146,27776,2,0,L|342:98,1,48,0|0,3:0|0:0,0:0:0:0:
490,207,27916,2,0,P|433:256|352:239,1,143.999995605469,8|0,0:0|0:0,0:0:0:0:
22,207,28198,2,0,P|79:256|160:239,1,143.999995605469,0|0,3:0|0:0,0:0:0:0:
281,56,28480,2,0,P|310:29|360:30,1,71.9999978027344,8|0,0:0|0:0,0:0:0:0:
471,51,28621,1,0,0:0:0:0:
481,127,28691,1,0,3:0:0:0:
490,207,28762,6,0,B|443:232|443:232|402:205|402:205|205:182,1,288,4|0,1:2|0:0,0:0:0:0:
78,83,29043,6,0,B|115:64|115:64|159:75,1,77.9999964294435,8|0,0:0|0:0,0:0:0:0:
490,207,29184,2,0,B|441:231|441:231|401:204|401:204|325:196|325:196|291:157|291:157|249:186|249:186|158:176,1,360,4|0,1:2|0:0,0:0:0:0:
101,323,29466,6,0,B|70:344|70:344|90:272,1,107.999996704102,8|0,0:0|0:0,0:0:0:0:
262,47,29607,2,0,B|231:26|231:26|251:98,1,107.999996704102,0|0,1:0|0:0,0:0:0:0:
335,336,29747,5,0,1:0:0:0:
407,313,29818,1,0,1:0:0:0:
479,290,29888,2,0,L|490:203,1,83.9999974365235,4|0,1:2|0:0,0:0:0:0:
339,17,30029,2,0,L|318:204,1,167.999994873047,0|8,0:0|0:0,0:0:0:0:
471,114,30311,2,0,P|423:47|343:71,2,167.999994873047,2|0|0,0:0|0:0|0:0,0:0:0:0:
328,266,30733,6,0,P|287:260|254:235,1,83.9999974365235,10|0,0:0|0:0,0:0:0:0:
348,64,30874,2,0,P|426:48|471:114,1,167.999994873047,0|0,0:0|1:0,0:0:0:0:
271,16,31156,1,2,0:0:0:0:
505,223,31297,2,0,B|400:231|400:231|382:226|382:226|254:235,1,251.999992309571,10|0,0:0|0:0,0:0:0:0:
214,109,31578,2,0,B|275:137|275:137|244:279,1,167.999994873047,2|0,1:2|0:0,0:0:0:0:
39,359,31860,6,0,L|134:355,1,83.9999974365235,10|0,0:0|0:0,0:0:0:0:
207,350,32001,2,0,L|302:346,1,83.9999974365235,0|0,1:0|0:0,0:0:0:0:
391,193,32142,2,0,P|498:191|455:290,1,251.999992309571,2|0,1:2|0:0,0:0:0:0:
371,280,32423,2,0,L|365:108,1,167.999994873047,10|2,0:0|0:0,0:0:0:0:
468,32,32705,1,0,0:0:0:0:
269,201,32846,2,0,L|263:29,2,167.999994873047,2|10|0,0:0|0:0|0:0,0:0:0:0:
484,155,33269,6,0,B|321:183|378:59|192:102,1,306.000005836487,2|0,3:2|0:0,0:0:0:0:
464,56,33550,2,0,B|301:78|393:179|203:195,1,306.000005836487,8|0,3:2|0:0,0:0:0:0:
129,152,33832,1,0,3:0:0:0:
303,301,33973,5,0,3:0:0:0:
383,328,34043,1,0,3:0:0:0:
458,289,34114,2,0,B|440:241|440:241|461:194,1,102.000001945496,8|0,3:2|0:0,0:0:0:0:
346,22,34254,2,0,B|367:69|367:69|349:116,1,102.000001945496,0|0,3:0|0:0,0:0:0:0:
506,353,34395,5,4,3:2:0:0:
369,251,34536,2,0,B|299:255|299:255|284:249|284:249|200:254,1,167.999994873047,0|8,0:0|0:0,0:0:0:0:
43,109,34818,2,0,P|94:47|173:62,2,167.999994873047,2|0|0,0:0|0:0|0:0,0:0:0:0:
206,337,35240,2,0,L|202:253,1,83.9999974365235,10|0,0:0|0:0,0:0:0:0:
8,15,35381,2,0,L|17:199,1,167.999994873047,0|0,0:0|3:0,0:0:0:0:
257,162,35663,6,0,B|227:140|227:140|173:150,1,83.9999974365235,2|0,0:0|0:0,0:0:0:0:
9,331,35804,2,0,B|294:356,1,251.999992309571,10|0,0:0|0:0,0:0:0:0:
415,298,36085,2,0,B|451:257|451:257|293:231|293:231|331:298,1,251.999992309571,2|0,3:2|0:0,0:0:0:0:
350,130,36367,2,0,B|342:105|342:105|369:36,1,83.9999974365235,10|0,0:0|0:0,0:0:0:0:
472,28,36508,2,0,B|480:53|480:53|453:122,1,83.9999974365235,0|0,3:0|0:0,0:0:0:0:
260,353,36649,6,0,B|191:371|191:371|164:287|164:287|222:215,1,251.999992309571,2|0,3:2|0:0,0:0:0:0:
292,192,36931,1,10,3:2:0:0:
79,38,37071,1,0,0:0:0:0:
79,38,37142,1,0,3:0:0:0:
79,38,37212,2,0,L|86:134,1,83.9999974365235,0|0,3:0|0:0,0:0:0:0:
186,265,37353,2,0,L|193:349,1,83.9999974365235,2|0,3:2|0:0,0:0:0:0:
9,263,37494,2,0,B|71:273|71:273|150:173|150:173|237:187,1,251.999992309571,10|0,0:0|0:0,0:0:0:0:
453,217,37776,6,0,P|474:97|343:159,1,288,4|0,3:2|0:0,0:0:0:0:
327,16,38057,2,0,L|335:303,1,288,12|0,3:2|0:0,0:0:0:0:
458,377,38339,2,0,B|481:337|481:337|461:291,1,96,0|0,3:2|0:0,0:0:0:0:
244,156,38480,5,0,3:0:0:0:
165,165,38550,1,0,3:0:0:0:
86,174,38620,1,0,3:0:0:0:
75,168,38902,6,0,B|53:52|53:52|6:110,2,167.999994873047,0|0|8,1:0|0:0|0:0,0:0:0:0:
180,88,39325,1,2,0:0:0:0:
137,359,39466,2,0,B|51:354|51:354|109:247|109:247|168:281,1,251.999992309571
262,343,39747,2,0,B|287:312|287:312|281:268,1,83.9999974365235,10|0,0:0|0:0,0:0:0:0:
173,195,39888,2,0,L|135:364,1,167.999994873047,0|0,0:0|1:0,0:0:0:0:
112,42,40170,6,0,P|106:87|135:129,1,83.9999974365235,2|0,0:0|0:0,0:0:0:0:
290,141,40311,2,0,P|294:34|192:68,1,251.999992309571,8|0,0:0|0:0,0:0:0:0:
38,160,40592,2,0,L|322:138,1,251.999992309571,2|0,1:2|0:0,0:0:0:0:
445,330,40874,2,0,P|409:351|368:346,1,83.9999974365235,10|0,0:0|0:0,0:0:0:0:
354,271,41015,2,0,P|389:249|430:254,1,83.9999974365235,0|0,1:0|0:0,0:0:0:0:
236,256,41156,6,0,B|183:246|183:246|134:271|134:271|77:259,1,167.999994873047,2|0,1:2|0:0,0:0:0:0:
132,171,41438,1,10,0:0:0:0:
262,343,41578,2,0,B|204:330|204:330|155:355|155:355|102:345,2,167.999994873047,2|0|2,0:0|0:0|0:0,0:0:0:0:
424,113,42001,2,0,B|488:99|488:99|473:200|473:200|391:181,1,251.999992309571,10|0,0:0|0:0,0:0:0:0:
337,22,42283,6,0,B|391:67|391:67|361:288,1,288,0|0,1:0|0:0,0:0:0:0:
505,379,42564,2,0,B|466:326|466:326|230:286,1,288,8|0,0:0|0:0,0:0:0:0:
100,342,42846,6,0,B|160:332|160:332|204:204,1,192,0|0,1:0|0:0,0:0:0:0:
224,131,43057,1,0,1:0:0:0:
245,53,43128,2,0,L|256:163,1,96,8|0,0:0|0:0,0:0:0:0:
361,282,43269,2,0,L|372:392,1,96,0|0,1:0|0:0,0:0:0:0:
487,151,43409,6,0,B|459:124|459:124|371:109|371:109|327:73,2,167.999994873047,4|0|8,3:2|0:0|0:0,0:0:0:0:
254,229,43832,2,0,B|242:190|242:190|254:148,1,83.9999974365235,2|0,0:0|0:0,0:0:0:0:
474,52,43973,2,0,L|457:225,1,167.999994873047,0|0,3:0|0:0,0:0:0:0:
45,350,44254,6,0,L|61:182,1,167.999994873047,10|0,0:0|0:0,0:0:0:0:
95,63,44466,1,0,3:0:0:0:
18,51,44536,2,0,B|55:72|55:72|116:59,1,83.9999974365235,2|0,3:2|0:0,0:0:0:0:
176,160,44677,2,0,B|213:139|213:139|274:152,1,83.9999974365235,0|0,3:0|0:0,0:0:0:0:
427,96,44818,2,0,B|377:50|377:50|416:231,1,251.999992309571,10|0,0:0|0:0,0:0:0:0:
496,359,45100,6,0,B|439:332|439:332|413:221,1,167.999994873047,2|0,3:2|3:0,0:0:0:0:
478,164,45311,1,0,3:0:0:0:
478,164,45381,2,0,L|488:73,1,83.9999974365235,10|0,0:0|0:0,0:0:0:0:
342,154,45522,5,0,3:0:0:0:
342,154,45592,1,0,3:0:0:0:
342,154,45663,2,0,B|316:160|316:160|226:146,1,102.000001945496,2|0,3:2|0:0,0:0:0:0:
133,282,45804,5,0,3:0:0:0:
133,282,45874,1,0,3:0:0:0:
133,282,45945,2,0,B|107:288|107:288|32:276,1,102.000001945496,10|0,0:0|0:0,0:0:0:0:
243,51,46085,5,2,3:2:0:0:
243,51,46155,1,0,3:0:0:0:
243,51,46226,2,0,B|226:93|226:93|246:165,1,102.000001945496,0|0,3:0|0:0,0:0:0:0:
134,378,46367,2,0,B|149:323|149:323|132:281,1,102.000001945496,2|0,3:2|0:0,0:0:0:0:
23,93,46508,6,0,B|73:111|73:111|144:103,1,102.000001945496,10|0,0:0|0:0,0:0:0:0:
226,297,46649,2,0,B|276:279|276:279|325:284,1,102.000001945496,0|0,3:0|0:0,0:0:0:0:
467,120,46790,6,0,B|492:71|492:71|422:41|422:41|452:225,1,306.000005836487,4|0,3:0|0:0,0:0:0:0:
506,306,47071,1,8,0:3:0:0:
319,71,47212,1,4,0:3:0:0:
506,306,47353,2,0,P|455:307|414:278,1,102.000001945496,4|0,0:3|0:0,0:0:0:0:
376,363,47494,2,0,P|336:331|324:283,1,102.000001945496
384,117,47635,2,0,P|471:75|443:212,1,306.000005836487,0|0,0:3|0:0,0:0:0:0:
216,103,47916,6,0,L|397:118,1,167.999994873047,4|0,1:2|0:0,0:0:0:0:
253,7,48198,1,8,0:0:0:0:
223,367,48339,2,0,B|244:319|244:319|235:266|235:266|268:190,2,167.999994873047,0|0|0,0:0|1:0|0:0,0:0:0:0:
383,116,48762,2,0,B|395:158|395:158|369:226,1,83.9999974365235,10|0,0:0|0:0,0:0:0:0:
125,297,48902,2,0,L|114:116,1,167.999994873047,0|0,0:0|1:0,0:0:0:0:
213,28,49184,1,2,0:0:0:0:
11,190,49325,6,0,B|119:207|119:207|152:195|152:195|258:208,1,251.999992309571,10|0,0:0|0:0,0:0:0:0:
321,295,49607,2,0,B|351:246|351:246|469:227,1,167.999994873047,2|0,1:2|0:0,0:0:0:0:
336,125,49888,6,0,B|322:97|322:97|333:27,1,83.9999974365235,10|0,0:0|0:0,0:0:0:0:
414,39,50029,2,0,B|428:67|428:67|417:137,1,83.9999974365235,0|0,1:0|0:0,0:0:0:0:
501,296,50170,2,0,B|470:344|470:344|353:363,1,167.999994873047,2|0,1:2|0:0,0:0:0:0:
6,83,50452,2,0,B|36:34|36:34|154:15,1,167.999994873047,10|2,0:0|0:0,0:0:0:0:
251,131,50733,2,0,B|271:169|271:169|255:214,1,83.9999974365235
57,342,50874,2,0,L|46:161,2,167.999994873047,2|10|0,0:0|0:0|0:0,0:0:0:0:
382,322,51297,6,0,P|420:295|437:236,1,96,2|0,1:2|0:0,0:0:0:0:
354,242,51438,2,0,P|361:196|332:142,1,96
183,185,51578,6,0,P|164:142|172:96,1,96,8|0,0:0|0:0,0:0:0:0:
88,86,51719,2,0,P|106:42|145:16,1,96
254,58,51860,1,0,1:0:0:0:
187,325,52001,5,0,1:0:0:0:
114,361,52071,1,0,1:0:0:0:
42,324,52142,2,0,B|49:274|49:274|19:215,1,96,8|0,0:0|0:0,0:0:0:0:
254,58,52283,2,0,B|247:108|247:108|277:167,1,96
489,334,52423,6,0,B|431:325|431:325|389:353|389:353|306:340,2,167.999994873047,4|0|10,1:2|0:0|0:0,0:0:0:0:
281,223,52846,2,0,B|259:200|259:200|267:146,1,83.9999974365235
472,34,52987,2,0,L|445:212,1,167.999994873047,0|0,1:0|0:0,0:0:0:0:
176,35,53269,2,0,P|218:32|264:75,1,83.9999974365235,10|0,0:0|0:0,0:0:0:0:
214,209,53409,2,0,P|171:211|126:169,1,83.9999974365235
41,73,53550,6,0,B|86:110|86:110|196:120,1,167.999994873047,0|0,1:0|0:0,0:0:0:0:
503,57,53832,2,0,B|428:17|428:17|353:54,1,167.999994873047,10|0,0:0|0:0,0:0:0:0:
277,358,54114,6,0,B|308:190|308:190|361:265,1,251.999992309571,0|0,1:0|0:0,0:0:0:0:
423,297,54395,2,0,L|508:290,1,83.9999974365235,10|0,0:0|0:0,0:0:0:0:
297,112,54536,5,0,0:0:0:0:
297,112,54607,1,0,1:0:0:0:
297,112,54677,2,0,L|182:121,1,102.000001945496,2|0,3:2|0:0,0:0:0:0:
131,330,54818,5,0,3:0:0:0:
131,330,54889,1,0,3:0:0:0:
131,330,54959,2,0,L|16:339,1,102.000001945496,10|0,0:0|0:0,0:0:0:0:
354,256,55100,5,2,3:2:0:0:
354,256,55171,1,0,3:0:0:0:
354,256,55241,2,0,B|377:286|377:286|369:367,1,102.000001945496,0|0,3:0|0:0,0:0:0:0:
137,112,55381,2,0,B|114:81|114:81|122:0,1,102.000001945496,2|0,3:2|0:0,0:0:0:0:
346,83,55522,2,0,B|376:60|376:60|457:68,1,102.000001945496,10|0,0:0|0:0,0:0:0:0:
141,297,55663,2,0,B|111:320|111:320|30:312,1,102.000001945496,0|0,3:0|0:0,0:0:0:0:
28,216,55804,6,0,L|242:197,1,204.000003890991,0|0,1:0|0:0,0:0:0:0:
448,174,56085,6,0,P|458:216|429:260,1,83.9999974365235,8|0,0:3|0:0,0:0:0:0:
364,243,56226,2,0,P|354:200|383:156,1,83.9999974365235
345,20,56367,2,0,B|297:31|297:31|269:69|269:69|195:86,1,167.999994873047,4|0,0:3|0:0,0:0:0:0:
125,87,56649,6,0,B|220:67|220:67|227:61|227:61|305:115|305:115|313:106|313:106|415:85,1,306.000005836487,4|0,0:3|0:0,0:0:0:0:
481,70,56931,5,4,1:2:0:0:
471,167,57071,1,0,0:0:0:0:
350,185,57212,1,8,0:3:0:0:
340,58,57352,1,0,0:0:0:0:
408,108,57494,5,0,0:0:0:0:
405,122,57635,1,4,0:3:0:0:
267,193,57776,1,8,0:3:0:0:
264,179,57917,1,0,0:0:0:0:
62,11,58057,6,0,B|98:39|98:39|124:188,1,180,4|0,0:3|0:0,0:0:0:0:
43,204,58339,2,0,L|26:327,1,120,8|0,0:3|0:0,0:0:0:0:
342,254,58621,6,0,B|288:281|288:281|226:271,1,120
267,44,58902,2,0,B|378:32|378:32|430:76,1,180,8|0,0:3|0:0,0:0:0:0:
474,149,59184,6,0,L|458:279,1,120,0|0,1:0|0:0,0:0:0:0:
189,19,59466,2,0,L|319:35,1,120,8|0,0:3|0:0,0:0:0:0:
203,350,59747,2,0,L|323:364,1,120
52,115,60029,2,0,L|38:234,1,120,8|0,0:3|0:0,0:0:0:0:
194,208,60311,6,0,B|232:195|232:195|276:212|276:212|320:200,1,125.999996154785,0|0,1:0|0:0,0:0:0:0:
412,216,60592,6,0,L|103:236,1,293.999991027832
39,89,61156,6,0,B|1:55|1:55|141:39|141:39|128:70,1,215.999993408203,8|0,0:0|0:0,0:0:0:0:
215,5,61438,6,0,B|229:52|229:52|186:145,1,143.999995605469,4|0,1:2|0:0,0:0:0:0:
189,138,61719,6,0,P|152:157|111:155,1,83.9999974365235,2|0,0:0|0:0,0:0:0:0:
97,253,61860,2,0,P|57:240|29:209,1,83.9999974365235,2|0,0:0|0:0,0:0:0:0:
236,18,62001,6,0,P|256:54|255:95,1,83.9999974365235,8|0,0:0|0:0,0:0:0:0:
354,105,62142,2,0,P|342:145|313:173,1,83.9999974365235,2|0,0:0|0:0,0:0:0:0:
239,356,62283,6,0,P|204:333|185:296,1,83.9999974365235,2|0,0:0|0:0,0:0:0:0:
93,333,62424,2,0,P|84:292|96:253,1,83.9999974365235,0|0,1:0|0:0,0:0:0:0:
495,21,62564,6,0,B|443:38|443:38|422:161,1,167.999994873047,2|0,0:0|0:0,0:0:0:0:
327,365,62846,2,0,B|275:348|275:348|254:225,1,167.999994873047,0|0,1:0|0:0,0:0:0:0:
148,39,63128,2,0,B|226:44|226:44|193:159|193:159|141:131,1,251.999992309571,8|0,0:0|0:0,0:0:0:0:
40,169,63409,6,0,L|28:73,1,96,2|0,0:0|0:0,0:0:0:0:
124,48,63550,2,0,L|136:144,1,96,2|0,0:0|0:0,0:0:0:0:
144,349,63691,6,0,B|100:372|100:372|35:363,1,96,0|0,1:0|0:0,0:0:0:0:
42,270,63832,2,0,B|86:247|86:247|150:256,1,96,2|0,0:0|0:0,0:0:0:0:
358,346,63973,2,0,B|470:363|470:363|456:218|456:218|431:250|372:242,1,323.999990112305,2|0,0:0|0:0,0:0:0:0:
273,286,64254,6,0,B|263:251|263:251|286:210,1,83.9999974365235,8|0,0:0|0:0,0:0:0:0:
400,164,64395,2,0,B|379:220|379:220|387:279|387:279|368:330,2,167.999994873047,2|0|0,0:0|0:0|1:0,0:0:0:0:
453,11,64818,6,0,P|478:44|479:88,1,83.9999974365235,2|0,0:0|0:0,0:0:0:0:
286,209,64959,2,0,B|229:177|229:177|272:63,1,167.999994873047,0|0,0:0|1:0,0:0:0:0:
400,164,65240,2,0,B|409:205|409:205|380:258,1,83.9999974365235
3,71,65381,6,0,B|80:111|80:111|184:38|184:38|290:94,1,306.000005836487,8|0,0:0|0:0,0:0:0:0:
508,239,65663,2,0,B|441:268|441:268|368:256|368:256|299:293|299:293|195:276,1,306.000005836487,2|0,0:0|0:0,0:0:0:0:
14,195,65945,2,0,B|82:97|199:183|199:183|151:190|127:240,1,306.000005836487,4|0,1:2|0:0,0:0:0:0:
193,371,66226,6,0,P|222:327|217:275,1,102.000001945496,2|0,0:0|0:0,0:0:0:0:
301,308,66367,2,0,P|304:258|277:215,1,102.000001945496,2|0,0:0|0:0,0:0:0:0:
14,70,66508,6,0,P|37:117|84:138,1,102.000001945496,8|0,0:0|0:0,0:0:0:0:
14,195,66649,2,0,P|55:223|105:221,1,102.000001945496,2|0,0:0|0:0,0:0:0:0:
457,93,66790,6,0,P|404:89|363:119,1,102.000001945496,2|0,0:0|0:0,0:0:0:0:
348,31,66931,2,0,P|303:52|279:96,1,102.000001945496,0|0,1:0|0:0,0:0:0:0:
456,378,67071,6,0,B|383:322|383:322|431:182,1,240,2|0,0:0|0:0,0:0:0:0:
431,182,67353,6,0,B|381:192|381:192|316:164,1,102.000001945496,2|0,0:0|0:0,0:0:0:0:
267,279,67494,2,0,B|217:269|217:269|152:297,1,102.000001945496
81,100,67635,2,0,P|197:116|133:190,1,251.999992309571,8|0,0:0|0:0,0:0:0:0:
36,27,67916,6,0,P|90:15|143:42,1,102.000001945496,2|0,0:0|0:0,0:0:0:0:
214,86,68057,2,0,P|268:98|321:71,1,102.000001945496,2|0,0:0|0:0,0:0:0:0:
479,230,68198,6,0,B|474:184|474:184|463:169|463:169|458:119,1,113.999996955872,0|0,1:0|0:0,0:0:0:0:
419,53,68339,2,0,B|424:102|424:102|434:117|434:117|439:163,1,113.999996955872
374,332,68480,2,0,B|369:286|369:286|358:271|358:271|353:221,1,113.999996955872,2|0,0:0|0:0,0:0:0:0:
314,155,68621,2,0,B|319:204|319:204|329:219|329:219|334:265,1,113.999996955872
169,364,68762,6,0,P|117:352|123:271,1,113.999996955872,8|0,0:0|0:0,0:0:0:0:
22,275,68902,2,0,P|20:221|99:206,1,113.999996955872,2|0,0:0|0:0,0:0:0:0:
351,25,69043,6,0,P|390:61|344:128,1,113.999996955872,2|0,0:0|0:0,0:0:0:0:
433,176,69183,2,0,P|407:223|331:196,1,113.999996955872,2|0,0:0|0:0,0:0:0:0:
17,57,69325,6,0,B|161:108|161:108|275:70,1,251.999992309571,0|0,1:0|0:0,0:0:0:0:
245,202,69536,2,0,P|133:177|189:132,1,251.999992309571
323,13,69747,5,0,0:0:0:0:
394,31,69818,1,0,0:0:0:0:
465,49,69888,2,0,L|474:168,1,102.000001945496,8|0,0:0|0:0,0:0:0:0:
309,279,70029,2,0,L|318:398,1,102.000001945496,0|0,1:0|0:0,0:0:0:0:
458,290,70170,2,0,B|409:204|409:204|155:149,1,341.999990867615,2|0,0:0|0:0,0:0:0:0:
79,172,70452,6,0,B|120:143|120:143|171:152,1,102.000001945496,4|0,1:2|0:0,0:0:0:0:
208,370,70592,2,0,L|6:348,1,204.000003890991
258,127,70874,6,0,B|271:165|271:165|243:226,1,83.9999974365235,2|0,0:0|0:0,0:0:0:0:
44,248,71015,2,0,L|32:48,2,192,8|0|0,0:0|0:0|0:0,0:0:0:0:
276,49,71438,6,0,P|233:51|184:95,1,83.9999974365235,0|0,1:0|0:0,0:0:0:0:
226,298,71578,2,0,P|269:296|318:252,1,83.9999974365235,2|0,0:0|0:0,0:0:0:0:
143,139,71719,2,0,B|122:130|122:130|132:246|132:246|169:210,1,192,0|0,0:0|1:0,0:0:0:0:
283,128,72001,6,0,B|292:94|292:94|272:41,1,83.9999974365235
55,100,72142,2,0,B|22:47|22:47|81:26|81:26|46:242,1,306.000005836487,8|0,0:0|0:0,0:0:0:0:
6,336,72423,6,0,B|50:341|50:341|56:347|56:347|61:342|61:342|115:349,1,102.000001945496,2|0,0:0|0:0,0:0:0:0:
184,245,72564,2,0,B|228:250|228:250|234:256|234:256|239:251|239:251|293:258,1,102.000001945496,2|0,0:0|0:0,0:0:0:0:
503,183,72705,6,0,B|514:198|514:198|498:300,1,102.000001945496,0|0,1:0|0:0,0:0:0:0:
279,354,72846,2,0,B|268:339|268:339|284:237,1,102.000001945496,2|0,0:0|0:0,0:0:0:0:
344,37,72987,6,0,B|376:15|376:15|417:38|417:38|390:219,1,251.999992309571,2|0,0:0|0:0,0:0:0:0:
184,245,73269,6,0,B|192:193|192:193|220:176,1,83.9999974365235,8|0,0:0|0:0,0:0:0:0:
482,85,73409,2,0,B|471:157|471:157|440:192|440:192|428:279,2,192,2|0|0,0:0|0:0|1:0,0:0:0:0:
512,300,73832,6,0,B|441:260|378:313|378:313|375:302|375:302|315:371|218:319,1,306.000005836487,2|0,0:0|0:0,0:0:0:0:
167,367,74114,1,0,1:0:0:0:
141,106,74254,6,0,L|184:124,1,41.9999987182618,2|0,0:0|0:0,0:0:0:0:
160,94,74325,2,0,L|121:78,1,41.9999987182618,2|0,0:0|0:0,0:0:0:0:
152,80,74395,6,0,B|173:23|173:23|-16:44|-16:44|35:95,1,306.000005836487,8|0,0:0|0:0,0:0:0:0:
0,206,74677,6,0,B|142:231|142:231|179:195|179:195|341:220,1,341.999990867615,2|0,0:0|0:0,0:0:0:0:
479,135,74959,6,0,P|481:46|393:60,1,204.000003890991,4|0,1:2|0:0,0:0:0:0:
376,72,75240,6,0,B|379:100|379:100|392:116|392:116|400:198,1,120,2|0,0:0|0:0,0:0:0:0:
390,267,75381,2,0,B|386:238|386:238|373:222|373:222|365:140,1,120
222,48,75522,6,0,P|123:63|171:142,1,204.000003890991,8|0,0:0|0:0,0:0:0:0:
168,141,75804,6,0,B|143:165|143:165|161:269,1,120,0|0,1:0|0:0,0:0:0:0:
163,330,75945,2,0,B|187:307|187:307|170:202,1,120,0|0,1:0|0:0,0:0:0:0:
268,76,76085,6,0,B|294:35|294:35|427:28|427:28|477:80,1,240,0|0,0:0|1:0,0:0:0:0:
512,232,76297,2,0,B|486:273|486:273|353:280|353:280|303:228,1,240
452,66,76508,6,0,B|446:100|446:100|452:116|452:116|436:193,1,120,2|0,0:0|0:0,0:0:0:0:
298,354,76649,2,0,B|304:320|304:320|298:304|298:304|314:226,1,120,8|0,0:0|0:0,0:0:0:0:
175,14,76790,2,0,B|168:47|168:47|175:63|175:63|159:141,1,120
0,317,76931,2,0,B|59:310|59:310|110:330|110:330|156:296|156:296|245:287,1,240,2|0,0:0|0:0,0:0:0:0:
362,83,77212,6,0,P|444:58|424:143,1,192,0|0,1:0|0:0,0:0:0:0:
436,151,77494,6,0,L|318:163,1,96,2|0,0:0|0:0,0:0:0:0:
276,107,77635,2,0,L|158:119,1,96,2|0,0:0|0:0,0:0:0:0:
22,70,77776,6,0,B|51:19|51:19|189:35,1,167.999994873047,8|0,0:0|0:0,0:0:0:0:
172,33,78058,2,0,L|181:129,1,83.9999974365235,2|0,0:0|0:0,0:0:0:0:
99,185,78198,2,0,L|108:281,1,83.9999974365235,2|0,0:0|0:0,0:0:0:0:
50,355,78339,1,0,1:0:0:0:
468,365,78621,5,2,0:3:0:0:
440,282,78762,1,2,0:3:0:0:
376,344,78903,1,2,0:3:0:0:
366,356,79184,2,0,L|353:293,6,41.9999987182618,0|0|0|0|0|0|0,1:0|0:0|0:0|0:0|0:0|0:0|0:0,0:0:0:0:
348,191,79466,6,0,B|232:172|272:238|144:219,1,192,4|0,1:2|0:0,0:0:0:0:
271,93,82846,6,0,P|338:121|270:189,1,180
255,82,83128,1,0,0:0:0:0:
206,191,83269,1,0,0:0:0:0:
207,205,83339,1,0,0:0:0:0:
208,220,83409,1,0,0:0:0:0:
135,131,83550,1,0,0:0:0:0:
403,232,83691,6,0,L|75:256,1,311.999985717774,0|4,0:0|1:2,0:0:0:0:
256,192,84043,12,0,87212,0:0:0:0:
256,192,87353,5,0,0:0:0:0:
140,25,87635,5,0,0:0:0:0:
268,29,87776,1,0,0:0:0:0:
150,34,87916,2,0,P|148:86|173:122,1,83.9999974365235
259,37,88057,2,0,P|259:78|238:114,1,83.9999974365235
92,283,88198,2,0,B|138:218|138:218|355:159,1,288,0|0,1:0|0:0,0:0:0:0:
339,163,88480,6,0,B|406:143|406:143|441:44,1,167.999994873047,4|0,1:2|0:0,0:0:0:0:
329,24,88762,1,8,0:3:0:0:
495,253,88902,2,0,B|385:236|385:236|361:250|361:250|232:228,1,251.999992309571
221,157,89184,2,0,P|145:171|144:249,1,167.999994873047,4|8,0:3|0:3,0:0:0:0:
193,69,89466,1,0,0:0:0:0:
174,358,89607,6,0,B|232:334|232:334|251:219,1,167.999994873047,4|0,0:3|0:0,0:0:0:0:
88,25,89888,2,0,B|29:48|29:48|10:163,1,167.999994873047,8|0,0:3|0:0,0:0:0:0:
174,358,90170,1,0,0:0:0:0:
341,101,90311,1,4,0:3:0:0:
433,265,90452,2,0,B|446:359|446:359|345:316|345:316|408:285,1,251.999992309571,8|0,0:3|0:0,0:0:0:0:
350,104,90733,6,0,B|337:10|337:10|438:53|438:53|375:83,1,251.999992309571,4|0,0:3|0:0,0:0:0:0:
467,180,91015,2,0,L|299:188,1,167.999994873047,8|0,0:3|0:0,0:0:0:0:
433,265,91297,2,0,L|350:270,1,83.9999974365235
147,161,91438,2,0,P|167:86|244:95,1,167.999994873047,4|8,0:3|0:3,0:0:0:0:
299,188,91719,1,0,0:0:0:0:
178,325,91860,6,0,L|168:158,1,167.999994873047,4|0,0:3|0:0,0:0:0:0:
72,202,92071,1,0,0:0:0:0:
79,188,92142,2,0,L|90:356,1,167.999994873047,0|4,0:0|0:3,0:0:0:0:
145,20,92423,1,4,0:3:0:0:
212,253,92564,1,0,0:0:0:0:
28,80,92705,2,0,B|62:113|62:113|205:128|205:128|254:177,1,251.999992309571,8|0,0:3|0:0,0:0:0:0:
312,241,92987,6,0,B|344:200|344:200|331:64,1,167.999994873047,4|0,1:2|0:0,0:0:0:0:
499,103,93269,1,8,0:3:0:0:
444,31,93409,2,0,B|412:71|412:71|425:208,1,167.999994873047
232,22,93691,1,4,0:3:0:0:
397,304,93832,6,0,P|372:336|332:344,1,83.9999974365235,8|0,0:3|0:0,0:0:0:0:
183,211,93973,2,0,P|207:178|247:170,1,83.9999974365235
507,272,94114,6,0,L|256:255,1,251.999992309571,4|0,0:3|0:0,0:0:0:0:
156,252,94395,2,0,P|172:173|249:171,1,167.999994873047,8|0,0:3|0:0,0:0:0:0:
352,126,94677,2,0,L|343:209,1,83.9999974365235
247,338,94818,2,0,L|255:254,1,83.9999974365235,12|0,0:3|0:0,0:0:0:0:
414,24,94959,2,0,B|458:69|458:69|440:276,1,251.999992309571,8|0,0:3|0:0,0:0:0:0:
100,104,95240,6,0,L|355:126,1,251.999992309571,4|0,0:3|0:0,0:0:0:0:
366,110,95522,1,8,0:3:0:0:
207,192,95663,1,0,0:0:0:0:
392,30,95804,2,0,P|433:30|460:61,1,83.9999974365235
347,276,95945,2,0,L|366:110,1,167.999994873047,4|8,0:3|0:3,0:0:0:0:
217,97,96226,6,0,L|208:181,1,83.9999974365235
430,237,96367,2,0,B|474:273|474:273|489:136|489:136|438:164,1,251.999992309571,4|0,0:3|0:0,0:0:0:0:
361,26,96649,2,0,L|366:110,1,83.9999974365235,8|0,0:3|0:0,0:0:0:0:
291,36,96790,2,0,L|296:120,1,83.9999974365235,0|4,0:0|0:3,0:0:0:0:
269,372,96931,2,0,L|274:289,1,83.9999974365235
199,362,97072,2,0,L|204:279,1,83.9999974365235,4|0,0:3|0:0,0:0:0:0:
124,139,97212,6,0,B|119:98|56:78|56:78|216:65|151:192,1,288,0|0,1:0|0:0,0:0:0:0:
28,198,97494,6,0,L|296:181,1,251.999992309571,4|0,1:2|0:0,0:0:0:0:
448,144,97776,2,0,B|478:68|478:68|402:28,1,167.999994873047,8|0,0:0|0:0,0:0:0:0:
278,181,98057,2,0,B|249:258|249:258|325:298,1,167.999994873047,0|0,1:0|0:0,0:0:0:0:
458,227,98339,2,0,L|448:144,1,83.9999974365235,8|0,0:0|0:0,0:0:0:0:
266,98,98480,2,0,L|278:182,1,83.9999974365235,0|0,1:0|0:0,0:0:0:0:
320,11,98621,5,0,1:0:0:0:
199,175,98762,2,0,L|187:91,1,83.9999974365235
455,38,98902,2,0,P|482:136|372:98,1,251.999992309571,8|0,0:0|0:0,0:0:0:0:
512,212,99184,2,0,P|473:195|431:195,1,83.9999974365235,0|0,1:0|0:0,0:0:0:0:
398,341,99325,2,0,P|359:357|317:357,1,83.9999974365235,0|0,1:0|0:0,0:0:0:0:
220,227,99466,1,8,0:0:0:0:
220,227,99536,1,0,1:0:0:0:
220,227,99607,2,0,P|181:210|139:210,1,83.9999974365235,0|0,1:0|0:0,0:0:0:0:
81,53,99747,6,0,B|100:82|100:82|87:152,1,83.9999974365235,0|0,1:0|0:0,0:0:0:0:
175,371,99888,2,0,B|156:341|156:341|168:271,1,83.9999974365235,0|0,1:0|0:0,0:0:0:0:
241,59,100029,2,0,B|204:36|204:36|66:55,1,167.999994873047,8|0,0:0|0:0,0:0:0:0:
4,299,100311,2,0,B|127:315|127:315|164:292,1,167.999994873047,0|0,1:0|0:0,0:0:0:0:
164,43,100592,2,0,L|80:52,1,83.9999974365235,8|0,0:0|0:0,0:0:0:0:
4,299,100733,2,0,L|87:308,1,83.9999974365235,0|0,1:0|0:0,0:0:0:0:
471,309,100874,6,0,P|459:232|386:248,1,167.999994873047,0|0,1:0|0:0,0:0:0:0:
360,139,101156,2,0,L|369:341,1,180,8|0,0:0|0:0,0:0:0:0:
270,330,101438,6,0,P|229:336|180:310,1,83.9999974365235,0|0,1:0|0:0,0:0:0:0:
111,244,101578,2,0,P|72:228|31:234,1,83.9999974365235,8|0,0:0|0:0,0:0:0:0:
100,332,101719,6,0,P|143:339|204:306,1,96,0|0,1:0|0:0,0:0:0:0:
302,242,101860,2,0,P|345:235|406:268,1,96,8|0,0:0|0:0,0:0:0:0:
475,34,102001,6,0,B|490:91|490:91|477:132,1,83.9999974365235,4|0,1:2|0:0,0:0:0:0:
399,173,102142,2,0,B|406:196|406:196|391:253,1,83.9999974365235,0|0,1:0|0:0,0:0:0:0:
450,349,102283,2,0,P|499:284|489:203,1,167.999994873047,8|0,0:0|0:0,0:0:0:0:
246,23,102564,2,0,P|235:104|285:168,1,167.999994873047,0|0,1:0|0:0,0:0:0:0:
403,57,102846,6,0,P|368:81|321:77,1,83.9999974365235,8|0,0:0|0:0,0:0:0:0:
286,169,102987,2,0,P|251:144|204:148,1,83.9999974365235,0|0,1:0|0:0,0:0:0:0:
46,121,103128,2,0,P|49:42|129:72,1,167.999994873047,4|0,1:2|0:0,0:0:0:0:
118,333,103409,2,0,P|44:337|46:263,1,167.999994873047,8|0,0:0|0:0,0:0:0:0:
211,145,103691,6,0,L|206:61,1,83.9999974365235,0|0,1:0|0:0,0:0:0:0:
291,115,103832,2,0,L|286:31,1,83.9999974365235,8|0,0:0|0:0,0:0:0:0:
374,258,103973,6,0,L|369:341,1,83.9999974365235,0|0,1:0|0:0,0:0:0:0:
454,288,104114,2,0,L|449:371,1,83.9999974365235,8|0,0:0|0:0,0:0:0:0:
487,174,104254,6,0,P|433:174|383:137,1,102.000001945496,4|0,1:2|0:0,0:0:0:0:
456,98,104395,2,0,P|417:59|408:-1,1,102.000001945496,0|0,1:0|0:0,0:0:0:0:
374,258,104536,6,0,P|335:296|274:305,1,102.000001945496,8|0,0:0|0:0,0:0:0:0:
298,227,104677,2,0,P|243:227|194:190,1,102.000001945496,0|0,1:0|0:0,0:0:0:0:
131,16,104818,6,0,P|178:42|202:99,1,102.000001945496,4|0,1:2|0:0,0:0:0:0:
271,33,104959,2,0,P|284:85|262:143,1,102.000001945496,0|0,1:0|0:0,0:0:0:0:
120,354,105100,6,0,P|92:307|99:245,1,102.000001945496,8|0,0:0|0:0,0:0:0:0:
7,268,105241,2,0,P|20:215|69:177,1,102.000001945496,0|0,1:0|0:0,0:0:0:0:
271,33,105381,5,4,1:2:0:0:
270,44,105451,1,0,1:0:0:0:
269,56,105521,1,0,1:0:0:0:
268,67,105592,1,0,1:0:0:0:
267,79,105662,1,8,0:0:0:0:
266,90,105733,1,0,1:0:0:0:
265,102,105803,1,0,1:0:0:0:
264,113,105873,1,0,1:0:0:0:
190,153,105945,5,4,1:2:0:0:
191,182,106015,1,0,1:0:0:0:
194,215,106085,1,0,1:0:0:0:
197,245,106156,1,0,1:0:0:0:
199,279,106226,1,8,0:0:0:0:
202,309,106297,1,0,1:0:0:0:
205,342,106367,1,0,1:0:0:0:
208,373,106437,1,0,1:0:0:0:
130,372,106508,6,0,B|255:342|255:342|390:372,1,251.999992309571,4|0,1:2|0:0,0:0:0:0:
447,284,106790,1,8,0:3:0:0:
315,143,106931,1,4,0:3:0:0:
302,130,107001,1,4,0:3:0:0:
291,119,107071,2,0,L|303:219,1,83.9999974365235,4|0,0:3|0:0,0:0:0:0:
243,278,107212,1,8,0:3:0:0:
474,50,107353,5,4,0:3:0:0:
487,37,107423,1,4,0:3:0:0:
498,26,107493,2,0,L|486:126,1,83.9999974365235,8|0,0:3|0:0,0:0:0:0:
359,44,107635,6,0,B|208:-4|242:102|103:46,1,251.999992309571,0|0,1:0|0:0,0:0:0:0:
29,16,108198,6,0,P|23:42|38:16,1,83.9999974365235
232,20,108339,5,2,0:0:0:0:
321,351,108480,1,10,0:0:0:0:
438,124,108621,1,2,0:0:0:0:
503,272,108762,6,0,B|415:264|415:264|338:173|338:173|233:164,1,288,4|0,1:2|0:0,0:0:0:0:
47,315,109043,2,0,B|71:351|71:351|134:340,1,96,10|0,0:0|0:0,0:0:0:0:
122,342,109184,2,0,L|151:161,1,167.999994873047,0|0,0:0|1:0,0:0:0:0:
348,15,109466,6,0,P|313:43|254:44,1,83.9999974365235,2|0,0:0|0:0,0:0:0:0:
45,126,109607,2,0,P|79:102|120:98,1,83.9999974365235,8|0,0:0|0:0,0:0:0:0:
246,241,109747,2,0,P|280:264|321:268,1,83.9999974365235
443,168,109888,6,0,P|368:117|379:253,1,288,2|0,1:2|0:0,0:0:0:0:
442,167,110170,2,0,P|399:187|376:227,1,96,10|0,0:0|0:0,0:0:0:0:
434,377,110311,2,0,B|500:334|500:334|461:255,1,167.999994873047,0|0,0:0|1:0,0:0:0:0:
100,37,110592,6,0,B|69:74|69:74|95:138,1,93.0000007095337
32,215,110733,1,10,0:0:0:0:
114,224,110804,1,2,0:0:0:0:
195,231,110874,1,2,1:2:0:0:
277,239,110945,1,2,0:0:0:0:
358,247,111015,2,0,B|539:192|539:192|439:125,1,279.000002128601,2|0,1:2|0:0,0:0:0:0:
366,32,111297,6,0,B|340:75|340:75|372:137,1,102.000001945496,10|0,0:0|0:0,0:0:0:0:
446,124,111438,2,0,B|472:81|472:81|440:19,1,102.000001945496
259,107,111578,2,0,B|206:127|206:127|137:93|137:93|69:117|69:117|1:84,1,270.000010299683,2|0,1:2|0:0,0:0:0:0:
164,255,111860,6,0,B|183:283|183:283|177:319|177:319|133:350,1,107.999996704102,10|0,0:0|0:0,0:0:0:0:
70,325,112001,2,0,B|51:297|51:297|57:261|57:261|100:230,1,107.999996704102
278,53,112142,2,0,B|324:109|324:109|285:335,1,288,2|0,1:2|0:0,0:0:0:0:
164,255,112423,6,0,B|140:220|140:220|154:136,1,107.999996704102,10|0,0:0|0:0,0:0:0:0:
278,53,112564,2,0,B|305:17|305:17|408:17|408:17|451:70,1,215.999993408203,2|0,0:0|1:0,0:0:0:0:
450,69,112846,6,0,L|437:202,1,120,2|0,1:2|0:0,0:0:0:0:
282,356,112987,2,0,L|270:236,1,120,10|0,0:0|0:0,0:0:0:0:
155,18,113128,2,0,L|142:151,1,120,2|0,0:0|0:0,0:0:0:0:
60,322,113269,6,0,B|43:374|43:374|151:351|151:351|100:197,1,288,4|0,1:2|0:0,0:0:0:0:
67,26,113550,2,0,B|18:47|18:47|7:92,1,96,10|0,0:0|0:0,0:0:0:0:
9,88,113691,2,0,B|87:93|87:93|95:87|95:87|195:93,1,167.999994873047,0|0,0:0|1:0,0:0:0:0:
454,330,113973,2,0,B|419:347|419:347|376:336,1,83.9999974365235,2|0,0:0|0:0,0:0:0:0:
481,252,114114,2,0,B|438:230|438:230|366:234|366:234|325:274,1,167.999994873047,8|0,0:0|0:0,0:0:0:0:
291,106,114395,6,0,B|372:71|372:71|328:282,1,288,2|0,1:2|0:0,0:0:0:0:
18,284,114677,2,0,P|64:284|91:322,1,96,10|0,0:0|0:0,0:0:0:0:
153,242,114818,2,0,P|74:227|17:285,1,167.999994873047,0|0,0:0|1:0,0:0:0:0:
361,113,115100,6,0,B|415:103|415:103|445:127,1,93.0000007095337
227,38,115240,1,10,0:0:0:0:
234,118,115311,1,2,0:0:0:0:
241,198,115381,1,2,1:2:0:0:
248,278,115452,1,2,1:2:0:0:
255,358,115522,6,0,B|305:343|305:343|367:353,1,102.000001945496,2|0,1:2|0:0,0:0:0:0:
443,216,115663,2,0,B|393:223|393:223|343:208,1,102.000001945496,0|0,1:2|0:0,0:0:0:0:
26,79,115804,2,0,P|138:46|91:144,1,270.000010299683,10|0,0:0|0:0,0:0:0:0:
43,185,116085,6,0,B|51:226|51:226|62:235|62:235|70:281,1,102.000001945496,2|0,1:2|0:0,0:0:0:0:
231,38,116226,2,0,B|238:83|238:83|249:92|249:92|256:133,1,102.000001945496,2|0,0:0|0:0,0:0:0:0:
431,155,116367,2,0,B|439:196|439:196|450:205|450:205|458:251,1,102.000001945496,8|0,0:0|0:0,0:0:0:0:
205,334,116508,5,2,1:2:0:0:
124,333,116578,1,0,1:0:0:0:
47,308,116649,2,0,B|85:234|85:234|195:217|195:217|253:256,1,251.999992309571,2|0,1:2|0:0,0:0:0:0:
208,322,116931,5,10,0:0:0:0:
126,321,117001,1,0,1:0:0:0:
46,297,117071,2,0,B|71:250|71:250|53:195,1,96,0|0,1:0|0:0,0:0:0:0:
122,48,117212,6,0,B|154:40|154:40|233:60,1,107.999996704102,2|0,1:2|0:0,0:0:0:0:
223,339,117353,2,0,B|255:347|255:347|334:327,1,107.999996704102,2|0,1:2|0:0,0:0:0:0:
506,120,117494,2,0,B|415:91|415:91|483:250|483:250|504:189,1,323.999990112305,10|0,0:0|0:0,0:0:0:0:
318,33,117776,6,0,B|309:76|309:76|337:139,1,96,4|0,1:2|0:0,0:0:0:0:
425,367,117916,2,0,B|434:324|434:324|406:261,1,96,0|0,1:0|0:0,0:0:0:0:
225,139,118057,2,0,B|146:122|146:122|49:168|49:168|89:94,1,251.999992309571,10|0,0:0|0:0,0:0:0:0:
141,25,118339,2,0,B|147:95|147:95|156:102|156:102|149:108|149:108|165:291,1,251.999992309571,0|0,1:0|0:0,0:0:0:0:
42,317,118621,2,0,B|57:278|57:278|32:212,1,83.9999974365235,8|0,0:0|0:0,0:0:0:0:
163,268,118762,2,0,B|148:307|148:307|173:373,1,83.9999974365235
430,348,118902,6,0,P|496:289|371:275,1,288,2|0,1:2|0:0,0:0:0:0:
430,348,119184,2,0,B|453:215|453:215|413:167,1,192,10|0,0:0|0:0,0:0:0:0:
220,153,119466,2,0,B|243:109|243:109|390:65|390:65|418:12,1,251.999992309571,0|0,1:0|0:0,0:0:0:0:
435,163,119747,5,8,0:0:0:0:
348,175,119818,1,0,0:0:0:0:
284,231,119888,1,2,1:2:0:0:
200,233,119959,1,2,1:2:0:0:
127,275,120029,2,0,B|50:234|50:234|19:52,1,251.999992309571,2|0,1:2|0:0,0:0:0:0:
213,57,120311,6,0,B|233:92|233:92|216:166,1,102.000001945496,10|0,0:0|0:0,0:0:0:0:
121,371,120452,2,0,B|141:336|141:336|124:262,1,102.000001945496
244,340,120592,2,0,B|396:370|349:249|508:280,1,270.000010299683,2|0,1:2|0:0,0:0:0:0:
494,381,120874,6,0,B|507:353|507:353|492:262,1,107.999996704102,10|0,0:0|0:0,0:0:0:0:
306,155,121015,2,0,B|293:182|293:182|308:274,1,107.999996704102
507,63,121156,2,0,B|417:90|417:90|307:46|307:46|214:75,1,288,2|0,1:2|0:0,0:0:0:0:
397,274,121438,6,0,B|410:246|410:246|395:155,1,107.999996704102,10|0,0:0|0:0,0:0:0:0:
234,68,121578,2,0,B|199:114|199:114|227:276,1,215.999993408203,2|0,0:0|0:0,0:0:0:0:
24,366,121860,5,2,1:2:0:0:
37,292,121931,1,0,1:0:0:0:
50,220,122001,2,0,B|76:66|76:66|27:89|27:89|54:145,1,251.999992309571,10|0,0:0|0:0,0:0:0:0:
132,282,122283,6,0,B|170:274|170:274|184:278|184:278|225:269,1,96,4|0,1:2|0:0,0:0:0:0:
250,64,122423,2,0,B|288:71|288:71|302:67|302:67|343:76,1,96,0|0,1:0|0:0,0:0:0:0:
458,295,122564,2,0,B|507:333|507:333|434:398|350:346|350:346|392:290,1,288,10|0,0:0|0:0,0:0:0:0:
495,212,122846,2,0,B|411:186|411:186|342:230,1,167.999994873047,0|0,1:0|0:0,0:0:0:0:
468,113,123128,6,0,B|492:78|492:78|474:26,1,83.9999974365235,8|0,0:0|0:0,0:0:0:0:
397,28,123269,2,0,B|373:63|373:63|391:115,1,83.9999974365235,2|0,0:0|0:0,0:0:0:0:
510,227,123409,2,0,B|394:209|394:209|383:218|383:218|244:194,1,251.999992309571,2|0,1:2|0:0,0:0:0:0:
259,97,123691,2,0,B|304:83|304:83|259:212,1,167.999994873047,10|0,0:0|0:0,0:0:0:0:
43,357,123973,6,0,P|12:330|5:290,1,83.9999974365235,0|0,1:0|0:0,0:0:0:0:
199,285,124114,2,0,P|192:326|161:353,1,83.9999974365235,2|0,1:2|0:0,0:0:0:0:
62,197,124254,2,0,P|100:183|139:198,1,83.9999974365235,10|0,0:0|0:0,0:0:0:0:
295,331,124395,5,2,1:2:0:0:
374,347,124466,1,2,1:2:0:0:
453,364,124536,2,0,B|488:188|488:188|502:239,1,215.999993408203,4|0,1:2|0:0,0:0:0:0:
397,186,124818,2,0,B|529:211|529:211|477:230,1,167.999994873047,2|2,0:0|0:0,0:0:0:0:
138,197,125100,6,0,B|166:230|166:230|154:268,1,83.9999974365235,2|0,0:0|0:0,0:0:0:0:
80,283,125240,2,0,B|51:249|51:249|63:211,1,83.9999974365235,8|0,0:0|0:0,0:0:0:0:
332,30,125381,6,0,B|335:70|335:70|299:96,1,83.9999974365235,2|0,1:2|0:0,0:0:0:0:
229,66,125522,2,0,B|226:26|226:26|261:0,1,83.9999974365235,2|0,1:2|0:0,0:0:0:0:
263,227,125663,6,0,B|248:363|248:363|253:378|270:369|270:369|284:231,1,288,4|0,1:2|0:0,0:0:0:0:
299,17,125945,6,0,B|273:55|273:55|303:102,1,96,8|0,0:0|0:0,0:0:0:0:
285,228,126085,2,0,B|369:276|369:276|185:344|185:344|222:287,1,360,4|0,1:2|0:0,0:0:0:0:
83,230,126367,5,8,0:0:0:0:
479,221,126508,2,0,B|250:81|314:385|43:205,1,431.999986816407,0|0,1:0|0:0,0:0:0:0:
88,244,126790,6,0,B|37:220|37:220|50:121,1,143.999995605469,4|0,3:2|0:0,0:0:0:0:
452,124,127071,2,0,B|501:150|501:150|486:234,1,125.999996154785,0|0,3:0|0:0,0:0:0:0:
177,125,127353,6,0,B|147:91|147:91|176:31,1,96,0|0,3:0|0:0,0:0:0:0:
335,250,127635,2,0,B|364:284|364:284|335:344,1,96,0|0,3:0|0:0,0:0:0:0:
291,94,127916,6,0,B|299:58|299:58|307:70|307:70|299:108,1,71.9999978027344,0|0,3:0|0:0,0:0:0:0:
226,297,128198,2,0,B|217:332|217:332|209:320|209:320|217:282,1,71.9999978027344,0|0,3:0|0:0,0:0:0:0:
256,192,128480,5,0,3:0:0:0:
337,332,128621,1,0,3:0:0:0:
337,332,128691,1,0,3:0:0:0:
337,332,128762,1,0,3:0:0:0:
397,65,128902,2,0,B|422:18|422:18|465:16,1,96,0|0,3:0|0:0,0:0:0:0:
509,91,129043,6,0,L|243:104,1,251.999992309571,4|0,1:2|0:0,0:0:0:0:
166,40,129325,2,0,P|241:28|257:102,1,167.999994873047,10|0,0:0|0:0,0:0:0:0:
90,198,129607,6,0,L|0:189,1,83.9999974365235,2|0,1:2|0:0,0:0:0:0:
256,181,129747,2,0,B|269:130|269:130|256:102,1,83.9999974365235,2|0,0:0|0:0,0:0:0:0:
89,35,129888,2,0,B|76:86|76:86|90:115,1,83.9999974365235,8|0,0:0|0:0,0:0:0:0:
194,279,130029,2,0,L|277:287,1,83.9999974365235
475,249,130170,6,0,P|392:175|404:309,1,306.000005836487,0|0,3:0|0:0,0:0:0:0:
508,352,130452,2,0,B|364:339|364:339|350:344|350:344|192:330,1,306.000005836487,8|0,0:0|0:0,0:0:0:0:
125,371,130733,1,0,3:0:0:0:
278,288,130874,1,0,0:0:0:0:
270,213,130944,1,0,3:0:0:0:
262,139,131015,2,0,L|152:124,1,102.000001945496,8|0,0:0|0:0,0:0:0:0:
39,261,131156,2,0,L|140:274,1,102.000001945496
262,139,131297,6,0,B|281:102|281:102|275:26,1,102.000001945496,4|0,1:2|0:0,0:0:0:0:
140,274,131438,2,0,B|121:311|121:311|127:387,1,102.000001945496,0|0,1:0|0:0,0:0:0:0:
405,339,131578,2,0,B|482:306|482:306|476:198|476:198|463:240|421:260,1,251.999992309571,10|0,0:0|0:0,0:0:0:0:
388,171,131860,2,0,L|406:353,1,167.999994873047,0|0,1:0|0:0,0:0:0:0:
409,23,132142,1,8,0:0:0:0:
288,289,132283,1,0,0:0:0:0:
499,186,132423,2,0,B|458:141|458:141|324:114|324:114|272:62,1,251.999992309571,2|0,1:2|0:0,0:0:0:0:
231,197,132705,2,0,P|303:221|332:151,1,167.999994873047,10|0,0:0|0:0,0:0:0:0:
119,268,132987,6,0,P|149:296|200:307,1,83.9999974365235,0|0,1:0|0:0,0:0:0:0:
294,350,133128,2,0,P|334:338|364:310,1,83.9999974365235,2|0,1:2|0:0,0:0:0:0:
285,75,133269,2,0,B|305:38|305:38|167:57|167:57|212:78,1,215.999993408203,10|0,0:0|0:0,0:0:0:0:
331,149,133550,6,0,L|426:135,1,83.9999974365235,4|0,1:2|0:0,0:0:0:0:
489,238,133691,2,0,B|508:273|508:273|495:341,1,83.9999974365235
209,150,133832,6,0,B|189:114|189:114|203:46,1,83.9999974365235,10|0,0:0|0:0,0:0:0:0:
376,226,133973,2,0,L|362:321,1,83.9999974365235,2|0,0:0|0:0,0:0:0:0:
175,288,134114,6,0,L|270:278,1,96,0|0,1:0|0:0,0:0:0:0:
413,136,134254,2,0,P|416:89|391:50,1,96,2|0,0:0|0:0,0:0:0:0:
197,72,134395,6,0,L|92:57,1,96,8|0,0:0|0:0,0:0:0:0:
23,189,134536,2,0,P|-2:228|0:275,1,96,2|0,0:0|0:0,0:0:0:0:
163,363,134677,6,0,B|207:307|207:307|486:236,1,341.999990867615,4|0,1:2|0:0,0:0:0:0:
468,239,134959,2,0,B|488:199|488:199|473:163,1,83.9999974365235
304,27,135100,6,0,B|373:49|373:49|334:376,1,377.999988464356,4|0,1:2|0:0,0:0:0:0:
336,352,135382,2,0,B|246:375,1,83.9999974365235
54,209,135522,6,0,L|474:253,1,414.000007896423,0|0,1:0|0:0,0:0:0:0:
366,159,135804,6,0,P|319:158|283:198,1,96,4|0,1:2|0:0,0:0:0:0:
317,270,135945,2,0,P|363:270|399:230,1,96,0|0,1:0|0:0,0:0:0:0:
292,47,136085,2,0,B|170:9|215:101|56:57,1,192,10|0,0:0|0:0,0:0:0:0:
159,228,136367,2,0,P|242:228|244:142,1,167.999994873047,2|0,1:2|0:0,0:0:0:0:
46,9,136649,2,0,P|-8:57|17:149,1,167.999994873047,10|0,0:0|0:0,0:0:0:0:
23,359,136931,6,0,P|65:346|145:363,1,83.9999974365235,0|0,1:0|0:0,0:0:0:0:
159,228,137071,2,0,P|201:241|281:224,1,83.9999974365235
439,67,137212,2,0,P|344:30|375:134,1,251.999992309571,10|0,0:0|0:0,0:0:0:0:
457,186,137494,2,0,L|452:2,1,167.999994873047,2|0,1:2|0:0,0:0:0:0:
497,274,137776,6,0,P|458:297|401:291,1,96,10|0,0:0|0:0,0:0:0:0:
341,376,137916,2,0,P|297:364|261:320,1,96,2|0,1:2|0:0,0:0:0:0:
365,132,138057,5,2,1:2:0:0:
245,73,138198,2,0,L|252:241,1,167.999994873047,2|10,0:0|0:0,0:0:0:0:
375,121,138480,1,2,0:0:0:0:
165,203,138621,2,0,L|159:36,1,167.999994873047,0|0,1:0|0:0,0:0:0:0:
367,254,138902,6,0,P|403:284|464:261,1,102.000001945496,8|0,0:0|0:0,0:0:0:0:
467,198,139043,2,0,P|431:168|370:191,1,102.000001945496
379,357,139184,6,0,B|421:111|421:111|393:53,1,306.000005836487,0|0,3:0|0:0,0:0:0:0:
141,135,139466,6,0,B|249:123|249:123|260:117|260:117|349:219|349:219|359:211|359:211|486:195,1,377.999988464356,8|0,0:0|0:0,0:0:0:0:
512,124,139747,1,0,3:0:0:0:
284,267,139888,1,0,0:0:0:0:
204,285,139959,1,0,3:0:0:0:
146,233,140029,2,0,B|156:197|156:197|137:122,1,102.000001945496,8|0,0:0|0:0,0:0:0:0:
301,26,140170,2,0,B|290:60|290:60|309:135,1,102.000001945496
400,341,140311,6,0,P|459:335|475:291,1,102.000001945496,4|0,1:2|0:0,0:0:0:0:
382,86,140452,2,0,P|322:92|307:135,1,102.000001945496,0|0,1:0|0:0,0:0:0:0:
263,223,140592,6,0,L|466:197,1,204.000003890991,10|0,0:0|0:0,0:0:0:0:
317,28,140874,2,0,B|226:3|226:3|152:98,1,204.000003890991,2|0,1:2|0:0,0:0:0:0:
31,325,141156,2,0,B|84:319|84:319|135:350,1,102.000001945496,10|0,0:0|0:0,0:0:0:0:
158,89,141297,2,0,B|116:114|116:114|63:108,1,102.000001945496
259,196,141438,2,0,B|287:142|287:142|275:53|275:53|230:25,1,204.000003890991,0|0,1:0|0:0,0:0:0:0:
125,344,141719,2,0,B|160:298|160:298|303:268,1,204.000003890991,10|0,0:0|0:0,0:0:0:0:
457,38,142001,6,0,B|491:72|491:72|486:126,1,102.000001945496,0|0,1:0|0:0,0:0:0:0:
273,355,142142,2,0,B|268:301|268:301|302:268,1,102.000001945496,0|0,1:0|0:0,0:0:0:0:
507,289,142283,2,0,B|470:233|470:233|322:183,1,204.000003890991,10|0,0:0|0:0,0:0:0:0:
285,75,142494,1,0,1:0:0:0:
298,63,142564,2,0,L|303:281,1,204.000003890991,2|0,1:2|0:0,0:0:0:0:
71,208,142846,2,0,B|130:220|130:220|185:168|185:168|261:182,1,204.000003890991,10|0,0:0|0:0,0:0:0:0:
201,355,143128,2,0,L|208:246,1,102.000001945496,2|0,1:2|0:0,0:0:0:0:
102,128,143269,2,0,L|109:19,1,102.000001945496
0,245,143409,2,0,B|136:232|136:232|146:221|146:221|303:205,1,306.000005836487,10|0,0:0|0:0,0:0:0:0:
407,48,143691,6,0,P|517:63|389:132,1,341.999990867615,4|0,1:2|0:0,0:0:0:0:
427,58,143973,2,0,P|445:90|421:141,1,83.9999974365235,8|0,0:0|0:0,0:0:0:0:
450,347,144114,6,0,B|388:282|388:282|137:252,1,341.999990867615,4|0,1:2|0:0,0:0:0:0:
137,252,144395,2,0,B|99:247|99:247|50:197,1,83.9999974365235
296,33,144536,6,0,B|344:94|344:94|281:329,1,306.000005836487,0|0,1:0|0:0,0:0:0:0:
450,347,144818,6,0,L|180:361,1,251.999992309571,4|0,1:2|0:0,0:0:0:0:
67,214,145100,2,0,P|43:247|48:292,1,83.9999974365235
117,326,145240,2,0,P|140:293|135:248,1,83.9999974365235,0|0,1:0|0:0,0:0:0:0:
220,17,145381,6,0,B|194:67|194:67|205:161,1,143.999995605469,0|0,1:0|0:0,0:0:0:0:
293,43,145592,2,0,B|272:83|272:83|284:179,1,120,0|0,1:0|0:0,0:0:0:0:
367,64,145804,2,0,B|350:98|350:98|359:169,1,96,0|0,1:0|0:0,0:0:0:0:
439,85,146015,2,0,B|426:110|426:110|433:161,1,71.9999978027344,0|0,1:0|0:0,0:0:0:0:
473,365,146226,6,0,L|379:357,1,83.9999974365235,0|0,1:0|0:0,0:0:0:0:
297,350,146367,2,0,L|203:342,1,83.9999974365235,0|0,1:0|0:0,0:0:0:0:
121,335,146508,2,0,L|27:327,1,83.9999974365235,0|0,1:0|0:0,0:0:0:0:
219,170,146649,1,0,1:0:0:0:
289,135,146719,1,0,1:0:0:0:
359,100,146790,2,0,L|369:14,1,83.9999974365235,0|0,0:0|1:0,0:0:0:0:
479,67,146931,2,0,L|469:150,1,83.9999974365235,0|0,1:0|0:0,0:0:0:0:
505,283,147071,6,0,B|411:268|411:268|403:273|403:273|326:180|326:180|319:185|319:185|197:166,1,335.999989746094,0|0,1:0|0:0,0:0:0:0:
50,333,147494,1,0,1:0:0:0:
273,81,147635,6,0,B|305:161|305:161|279:230,1,143.999995605469,0|0,1:0|0:0,0:0:0:0:
201,105,147846,2,0,B|224:163|224:163|201:224,1,120,0|0,1:0|0:0,0:0:0:0:
124,113,148057,2,0,B|144:162|144:162|128:205,1,96,0|0,1:0|0:0,0:0:0:0:
52,129,148269,2,0,B|66:164|66:164|54:196,1,71.9999978027344,0|0,1:0|0:0,0:0:0:0:
50,333,148480,6,0,L|164:325,1,96,0|0,1:0|0:0,0:0:0:0:
284,215,148621,2,0,B|306:168|306:168|283:114,1,96,0|0,1:0|0:0,0:0:0:0:
118,17,148762,6,0,L|124:122,1,96,0|0,1:0|0:0,0:0:0:0:
342,330,148902,2,0,B|389:352|389:352|443:329,1,96,0|0,1:0|0:0,0:0:0:0:
482,115,149043,1,0,1:0:0:0:
482,115,149114,1,0,1:0:0:0:
482,115,149184,2,0,B|441:97|441:97|394:119,1,96,0|0,1:0|0:0,0:0:0:0:
505,311,149325,6,0,B|449:233|449:233|201:191,1,335.999989746094,4|0,1:2|0:0,0:0:0:0:
93,229,149747,2,0,B|29:201|29:201|-7:338|-7:338|137:313,1,335.999989746094,0|0,1:0|0:0,0:0:0:0:
133,149,150170,2,0,L|112:347,1,167.999994873047,0|0,1:0|0:0,0:0:0:0:
500,287,150452,6,0,B|406:249|406:249|336:294|336:294|222:252,1,287.999991210938,4|0,1:2|0:0,0:0:0:0:
463,74,150874,2,0,P|470:108|442:169,1,71.9999978027344,0|0,1:0|0:0,0:0:0:0:
193,72,151015,2,0,B|238:58|238:58|264:79|264:79|290:70|290:70|319:92|319:92|352:86|352:86|381:111,1,215.999993408203
369,209,151297,6,0,L|286:216,1,83.9999974365235,0|0,1:0|0:0,0:0:0:0:
210,161,151438,2,0,L|126:167,1,83.9999974365235,0|0,1:0|0:0,0:0:0:0:
16,321,151578,6,0,B|128:351|128:351|192:304,1,167.999994873047,4|0,1:2|0:0,0:0:0:0:
309,66,151860,2,0,B|421:36|421:36|462:66,1,167.999994873047,8|0,0:0|0:0,0:0:0:0:
469,244,152142,6,0,B|432:254|432:254|382:240,1,83.9999974365235,4|0,1:2|0:0,0:0:0:0:
290,158,152283,2,0,B|253:148|253:148|203:162,1,83.9999974365235,0|0,1:0|0:0,0:0:0:0:
26,303,152423,5,8,0:0:0:0:
96,311,152493,1,0,1:0:0:0:
169,320,152563,1,0,1:0:0:0:
240,330,152634,1,0,1:0:0:0:
313,339,152705,6,0,B|361:170|361:170|439:141,1,251.999992309571,4|0,1:2|0:0,0:0:0:0:
408,296,152987,2,0,L|383:380,1,83.9999974365235,8|0,0:0|0:0,0:0:0:0:
188,200,153128,6,0,B|269:171|269:171|297:104|297:104|386:72,1,251.999992309571,0|0,1:0|0:0,0:0:0:0:
202,26,153410,2,0,B|186:49|186:49|193:105,1,83.9999974365235,8|0,0:0|0:0,0:0:0:0:
384,376,153550,2,0,B|425:239|425:239|403:197,1,167.999994873047,0|0,1:0|0:0,0:0:0:0:
2,34,153832,6,0,B|72:61|72:61|92:208,1,215.999993408203,0|0,1:0|0:0,0:0:0:0:
