osu file format v14

[General]
AudioFilename: audio.mp3
AudioLeadIn: 0
PreviewTime: 108258
Countdown: 0
SampleSet: Soft
StackLeniency: 0.7
Mode: 3
LetterboxInBreaks: 0
SpecialStyle: 0
WidescreenStoryboard: 1

[Editor]
Bookmarks: 15723,63047
DistanceSpacing: 0.8
BeatDivisor: 4
GridSize: 4
TimelineZoom: 3.150001

[Metadata]
Title:Cthugha
TitleUnicode:Cthugha
Artist:USAO
ArtistUnicode:USAO
Creator:Draftnell
Version:Rhezie's Future
Source:Muse Dash
Tags:frenchcore hardstyle phigros RESPECT V fire Cthulhu Mythos god Great Old One うさお electronic instrumental video game videogame donotmess rhezie agayers angki syadow- DenYi hardcore tano*c tanoc tokyo techno jcore j-core vocal sample tcdr-0068
BeatmapID:2869256
BeatmapSetID:1381405

[Difficulty]
HPDrainRate:8
CircleSize:4
OverallDifficulty:8
ApproachRate:5
SliderMultiplier:1.4
SliderTickRate:1

[Events]
//Background and Video events
0,0,"BG.jpg",0,0
//Break Periods
//Storyboard Layer 0 (Background)
//Storyboard Layer 1 (Fail)
//Storyboard Layer 2 (Pass)
//Storyboard Layer 3 (Foreground)
//Storyboard Layer 4 (Overlay)
//Storyboard Sound Samples

[TimingPoints]
498,281.69014084507,4,2,1,50,1,0
108667,-100,4,2,1,50,0,1
144723,-100,4,2,1,50,0,0

[HitObjects]
320,192,75,5,0,0:0:0:0:
64,192,498,1,4,0:0:0:0:
320,192,498,1,0,0:0:0:50:clap2.wav
448,192,498,1,0,0:0:0:0:
320,192,638,1,0,0:0:0:0:
320,192,920,1,0,0:0:0:0:
64,192,1061,1,0,0:0:0:50:clap2.wav
320,192,1061,1,0,0:0:0:0:
320,192,1343,1,0,0:0:0:0:
320,192,1483,1,0,0:0:0:0:
64,192,1624,1,0,0:0:0:50:clap2.wav
448,192,1624,1,0,0:0:0:0:
192,192,1765,1,0,0:0:0:0:
192,192,1906,1,0,0:0:0:0:
64,192,2188,1,0,0:0:0:50:clap2.wav
448,192,2188,1,0,0:0:0:0:
320,192,2469,1,0,0:0:0:0:
64,192,2751,1,0,0:0:0:50:clap2.wav
448,192,2751,1,0,0:0:0:0:
192,192,3033,1,0,0:0:0:0:
192,192,3174,1,0,0:0:0:0:
64,192,3314,1,0,0:0:0:50:clap2.wav
448,192,3314,1,0,0:0:0:0:
192,192,3455,1,0,0:0:0:0:
192,192,3596,1,0,0:0:0:0:
64,192,3878,1,0,0:0:0:50:clap2.wav
448,192,3878,1,0,0:0:0:0:
320,192,4019,1,0,0:0:0:0:
320,192,4159,1,0,0:0:0:0:
320,192,4300,1,0,0:0:0:0:
64,192,4441,1,0,0:0:0:50:clap2.wav
448,192,4441,1,0,0:0:0:0:
64,192,4582,1,0,0:0:0:0:
64,192,4723,128,0,4934:0:0:0:0:
320,192,4723,128,0,4934:0:0:0:0:
64,192,5005,1,4,0:0:0:0:
192,192,5005,1,2,0:0:0:0:
448,192,5005,128,0,5145:0:0:0:50:clap2.wav
192,192,5145,128,0,5286:0:0:0:0:
320,192,5145,1,0,0:0:0:0:
192,192,5427,1,0,0:0:0:0:
320,192,5427,128,0,5568:0:0:0:0:
64,192,5568,1,0,0:0:0:50:clap2.wav
448,192,5568,128,0,5709:0:0:0:0:
192,192,5709,1,0,0:0:0:0:
64,192,5850,1,0,0:0:0:0:
448,192,5850,128,0,5990:0:0:0:0:
192,192,5990,1,0,0:0:0:0:
64,192,6131,128,0,6272:0:0:0:50:clap2.wav
320,192,6131,1,0,0:0:0:0:
192,192,6413,128,0,6554:0:0:0:0:
448,192,6413,1,0,0:0:0:0:
64,192,6695,1,0,0:0:0:50:clap2.wav
320,192,6695,128,0,6836:0:0:0:0:
192,192,6976,1,0,0:0:0:0:
448,192,6976,128,0,7117:0:0:0:0:
64,192,7258,128,0,7399:0:0:0:50:clap2.wav
448,192,7258,1,0,0:0:0:0:
320,192,7540,128,0,7681:0:0:0:0:
448,192,7540,1,0,0:0:0:0:
64,192,7681,128,0,7821:0:0:0:0:
192,192,7681,1,0,0:0:0:0:
192,192,7821,1,0,0:0:0:50:clap2.wav
448,192,7821,1,0,0:0:0:0:
320,192,7962,128,0,8103:0:0:0:0:
448,192,7962,1,0,0:0:0:0:
64,192,8103,128,0,8244:0:0:0:0:
192,192,8103,1,0,0:0:0:0:
448,192,8244,1,0,0:0:0:0:
64,192,8385,1,4,0:0:0:0:
192,192,8385,128,2,8526:0:0:0:0:
320,192,8385,1,0,0:0:0:0:
320,192,8526,128,0,8667:0:0:0:0:
448,192,8526,1,0,0:0:0:0:
64,192,8667,1,8,0:0:0:0:
192,192,8667,1,0,0:0:0:0:
64,192,8807,1,2,0:0:0:0:
448,192,8807,1,0,0:0:0:0:
192,192,8948,1,0,0:0:0:45:Tom1.wav
448,192,8948,1,0,0:0:0:0:
320,192,9019,1,0,0:0:0:45:Tom1.wav
64,192,9089,1,0,0:0:0:45:Tom1.wav
192,192,9089,1,0,0:0:0:0:
64,192,9230,1,0,0:0:0:45:Tom1.wav
320,192,9230,1,0,0:0:0:0:
64,192,9371,1,0,0:0:0:45:Tom1.wav
448,192,9371,1,0,0:0:0:0:
64,192,9512,1,2,0:0:0:0:
320,192,9512,1,4,0:0:0:0:
448,192,9512,1,0,0:0:0:0:
320,192,9652,1,0,0:0:0:0:
64,192,9793,1,8,0:0:0:0:
192,192,9793,1,0,0:0:0:0:
320,192,9793,1,0,0:0:0:0:
192,192,9934,1,0,0:0:0:0:
192,192,10075,1,0,0:0:0:0:
192,192,10216,1,2,0:0:0:0:
448,192,10216,1,0,0:0:0:0:
64,192,10357,1,8,0:0:0:0:
320,192,10357,1,0,0:0:0:0:
448,192,10357,1,0,0:0:0:0:
448,192,10497,1,0,0:0:0:0:
64,192,10638,128,2,10709:0:0:0:0:
192,192,10638,1,0,0:0:0:0:
448,192,10779,1,0,0:0:0:0:
192,192,10850,128,0,10920:0:0:0:0:
64,192,10920,1,8,0:0:0:0:
320,192,10920,1,0,0:0:0:0:
448,192,10920,1,0,0:0:0:0:
320,192,11061,128,0,11131:0:0:0:0:
448,192,11202,128,0,11343:0:0:0:0:
64,192,11343,1,2,0:0:0:0:
320,192,11343,1,0,0:0:0:50:clap2.wav
64,192,11483,128,8,11624:0:0:0:0:
448,192,11483,128,0,11624:0:0:0:50:clap2.wav
192,192,11624,1,0,0:0:0:50:clap2.wav
320,192,11624,1,0,0:0:0:0:
64,192,11765,128,2,11836:0:0:0:0:
192,192,11765,128,0,11836:0:0:0:0:
448,192,11906,1,0,0:0:0:0:
64,192,12047,1,8,0:0:0:0:
192,192,12047,1,0,0:0:0:0:
448,192,12047,1,0,0:0:0:0:
192,192,12188,1,0,0:0:0:0:
192,192,12328,128,0,12399:0:0:0:0:
320,192,12328,128,0,12399:0:0:0:0:
64,192,12469,1,2,0:0:0:0:
448,192,12469,1,0,0:0:0:0:
64,192,12610,1,8,0:0:0:0:
192,192,12610,1,0,0:0:0:0:
320,192,12610,1,0,0:0:0:0:
320,192,12751,1,0,0:0:0:0:
64,192,12892,1,2,0:0:0:0:
320,192,12892,128,0,12962:0:0:0:0:
448,192,12892,128,0,13878:0:0:0:0:
64,192,13455,1,2,0:0:0:0:
192,192,13455,1,0,0:0:0:0:
64,192,13737,1,0,0:0:0:60:snare pop.wav
320,192,13737,1,0,0:0:0:0:
64,192,14019,1,4,0:0:0:0:
320,192,14019,128,2,14277:0:0:0:0:
448,192,14019,1,0,0:0:0:0:
192,192,14089,128,0,14253:0:0:0:0:
448,192,14159,128,0,14300:0:0:0:0:
64,192,14300,1,0,0:0:0:0:
64,192,14441,128,0,14512:0:0:0:0:
192,192,14441,128,0,14512:0:0:0:0:
64,192,14582,1,0,0:0:0:70:clap1.wav
192,192,14582,1,0,0:0:0:0:
448,192,14582,1,0,0:0:0:0:
64,192,14723,128,0,14793:0:0:0:0:
192,192,14723,128,0,14793:0:0:0:0:
320,192,14864,1,2,0:0:0:0:
448,192,14864,1,0,0:0:0:0:
320,192,15005,1,2,0:0:0:0:
448,192,15005,1,0,0:0:0:0:
64,192,15145,128,0,15216:0:0:0:0:
448,192,15145,128,0,15216:0:0:0:0:
64,192,15286,128,0,15357:0:0:0:0:
448,192,15286,128,0,15357:0:0:0:0:
192,192,15427,1,2,0:0:0:0:
320,192,15427,1,0,0:0:0:0:
64,192,15568,128,0,15638:0:0:0:0:
448,192,15568,128,0,15638:0:0:0:0:
64,192,15709,1,0,0:0:0:70:clap1.wav
192,192,15709,128,0,15944:0:0:0:0:
320,192,15709,1,0,0:0:0:0:
320,192,15850,128,0,15990:0:0:0:0:
448,192,15990,128,0,16061:0:0:0:0:
64,192,16061,1,0,0:0:0:0:
448,192,16131,128,0,16202:0:0:0:0:
64,192,16202,1,0,0:0:0:0:
192,192,16272,1,2,0:0:0:0:
320,192,16272,128,0,16413:0:0:0:0:
448,192,16343,128,0,16448:0:0:0:0:
64,192,16378,128,0,16466:0:0:0:0:
192,192,16413,128,0,16501:0:0:0:0:
448,192,16554,128,0,16742:0:0:0:0:
320,192,16601,128,0,16765:0:0:0:0:
192,192,16648,128,0,16789:0:0:0:0:
64,192,16695,128,0,16812:0:0:0:0:
320,192,16836,1,0,0:0:0:70:clap1.wav
448,192,16836,1,0,0:0:0:0:
192,192,16976,128,0,17047:0:0:0:0:
448,192,16976,128,0,17047:0:0:0:0:
192,192,17117,128,0,17188:0:0:0:0:
448,192,17117,128,0,17188:0:0:0:0:
64,192,17258,1,2,0:0:0:0:
320,192,17258,1,0,0:0:0:0:
192,192,17399,1,2,0:0:0:0:
448,192,17399,1,0,0:0:0:0:
64,192,17469,1,0,0:0:0:0:
448,192,17540,1,2,0:0:0:0:
64,192,17610,1,0,0:0:0:0:
320,192,17681,1,2,0:0:0:0:
448,192,17681,1,0,0:0:0:0:
192,192,17751,1,0,0:0:0:0:
64,192,17821,1,2,0:0:0:0:
320,192,17892,1,0,0:0:0:0:
64,192,17962,1,0,0:0:0:45:Tom2.wav
192,192,17962,1,0,0:0:0:0:
320,192,18033,1,0,0:0:0:0:
448,192,18033,1,0,0:0:0:0:
64,192,18103,1,0,0:0:0:45:Tom2.wav
192,192,18103,1,0,0:0:0:0:
448,192,18244,1,0,0:0:0:0:
320,192,18279,1,0,0:0:0:0:
64,192,18314,1,0,0:0:0:0:
192,192,18350,1,0,0:0:0:0:
448,192,18385,1,0,0:0:0:0:
320,192,18420,1,0,0:0:0:0:
64,192,18455,1,0,0:0:0:0:
192,192,18490,1,0,0:0:0:0:
320,192,18526,128,2,18667:0:0:0:0:
448,192,18526,128,0,18667:0:0:0:70:cymbal_short.wav
192,192,18948,128,0,19089:0:0:0:0:
448,192,19089,128,0,19230:0:0:0:0:
64,192,19230,128,0,19371:0:0:0:0:
320,192,19371,128,0,19512:0:0:0:0:
192,192,19512,128,0,19652:0:0:0:0:
64,192,19652,128,2,19793:0:0:0:0:
448,192,19652,1,0,0:0:0:50:Tom1.wav
320,192,19793,128,0,19934:0:0:0:0:
192,192,19934,1,0,0:0:0:50:snare hat.wav
448,192,19934,1,0,0:0:0:0:
192,192,20075,128,0,20216:0:0:0:50:snare hat.wav
448,192,20075,1,0,0:0:0:0:
64,192,20216,128,0,20357:0:0:0:50:snare hat.wav
448,192,20216,128,0,20638:0:0:0:40:Tom2.wav
64,192,20497,128,2,20638:0:0:0:0:
192,192,20497,128,0,20638:0:0:0:60:snare pop.wav
64,192,20779,128,2,20920:0:0:0:0:
192,192,20779,1,4,0:0:0:0:
448,192,20779,128,0,20920:0:0:0:0:
320,192,20920,128,0,21061:0:0:0:0:
64,192,21061,1,8,0:0:0:0:
192,192,21061,1,2,0:0:0:0:
448,192,21061,1,0,0:0:0:0:
320,192,21202,128,0,21343:0:0:0:0:
64,192,21343,1,2,0:0:0:0:
448,192,21343,1,0,0:0:0:0:
320,192,21483,128,0,21624:0:0:0:0:
64,192,21624,1,8,0:0:0:0:
192,192,21624,1,2,0:0:0:0:
448,192,21624,1,0,0:0:0:0:
64,192,21765,128,0,21906:0:0:0:0:
192,192,21906,1,2,0:0:0:0:
320,192,21906,1,0,0:0:0:0:
64,192,22047,128,0,22188:0:0:0:0:
192,192,22188,1,8,0:0:0:0:
320,192,22188,1,2,0:0:0:0:
448,192,22188,1,0,0:0:0:0:
64,192,22328,128,0,22469:0:0:0:0:
192,192,22469,1,2,0:0:0:0:
320,192,22469,1,0,0:0:0:0:
64,192,22610,128,0,22751:0:0:0:0:
192,192,22751,1,8,0:0:0:0:
320,192,22751,1,2,0:0:0:0:
448,192,22751,1,0,0:0:0:0:
64,192,22892,1,2,0:0:0:0:
448,192,22892,1,0,0:0:0:0:
64,192,23033,1,2,0:0:0:0:
448,192,23033,1,0,0:0:0:0:
192,192,23174,128,0,23314:0:0:0:0:
64,192,23314,1,8,0:0:0:0:
320,192,23314,1,2,0:0:0:0:
448,192,23314,1,0,0:0:0:0:
192,192,23455,128,0,23596:0:0:0:0:
64,192,23596,1,2,0:0:0:0:
448,192,23596,1,0,0:0:0:0:
192,192,23737,128,0,23878:0:0:0:0:
64,192,23878,1,8,0:0:0:0:
320,192,23878,1,2,0:0:0:0:
448,192,23878,1,0,0:0:0:0:
448,192,24019,128,0,24159:0:0:0:0:
192,192,24159,1,2,0:0:0:0:
320,192,24159,1,0,0:0:0:0:
448,192,24300,128,0,24441:0:0:0:0:
64,192,24441,1,8,0:0:0:0:
192,192,24441,1,2,0:0:0:0:
320,192,24441,1,0,0:0:0:0:
448,192,24582,128,0,24723:0:0:0:0:
192,192,24723,1,2,0:0:0:0:
320,192,24723,1,0,0:0:0:0:
64,192,24864,1,2,0:0:0:0:
192,192,24864,1,0,0:0:0:0:
64,192,25005,1,2,0:0:0:0:
192,192,25005,1,8,0:0:0:0:
448,192,25005,1,0,0:0:0:0:
320,192,25145,1,2,0:0:0:0:
448,192,25145,1,0,0:0:0:0:
192,192,25286,1,2,0:0:0:0:
320,192,25286,1,4,0:0:0:0:
448,192,25286,1,0,0:0:0:0:
192,192,25427,1,0,0:0:0:0:
64,192,25568,1,8,0:0:0:0:
192,192,25568,1,2,0:0:0:0:
448,192,25568,1,0,0:0:0:0:
448,192,25709,1,0,0:0:0:0:
64,192,25850,1,2,0:0:0:0:
448,192,25850,1,0,0:0:0:0:
64,192,25990,1,0,0:0:0:0:
64,192,26131,1,8,0:0:0:0:
320,192,26131,1,2,0:0:0:0:
448,192,26131,1,0,0:0:0:0:
320,192,26272,1,0,0:0:0:0:
64,192,26413,128,2,26483:0:0:0:0:
320,192,26413,1,0,0:0:0:0:
448,192,26554,1,0,0:0:0:0:
192,192,26624,128,0,26695:0:0:0:0:
64,192,26695,1,8,0:0:0:0:
320,192,26695,1,2,0:0:0:0:
448,192,26695,1,0,0:0:0:0:
320,192,26836,128,0,26906:0:0:0:0:
64,192,26976,1,2,0:0:0:0:
448,192,26976,128,0,27117:0:0:0:0:
192,192,27117,1,0,0:0:0:0:
64,192,27258,1,8,0:0:0:0:
320,192,27258,1,2,0:0:0:0:
448,192,27258,1,0,0:0:0:0:
192,192,27399,1,2,0:0:0:0:
448,192,27399,1,0,0:0:0:0:
320,192,27469,1,2,0:0:0:0:
64,192,27540,1,2,0:0:0:0:
192,192,27540,1,0,0:0:0:50:Tom1.wav
64,192,27681,1,2,0:0:0:0:
448,192,27681,1,0,0:0:0:50:Tom1.wav
192,192,27821,1,2,0:0:0:0:
320,192,27821,1,8,0:0:0:0:
448,192,27821,1,0,0:0:0:50:Tom1.wav
64,192,27962,128,0,28103:0:0:0:0:
192,192,28103,1,2,0:0:0:0:
448,192,28103,128,0,28244:0:0:0:50:Tom1.wav
192,192,28244,128,0,28385:0:0:0:0:
64,192,28385,1,2,0:0:0:0:
320,192,28385,128,8,28526:0:0:0:0:
448,192,28385,1,0,0:0:0:50:Tom1.wav
64,192,28526,1,2,0:0:0:0:
192,192,28526,1,0,0:0:0:50:Tom1.wav
320,192,28596,1,2,0:0:0:0:
448,192,28596,1,0,0:0:0:50:Tom1.wav
64,192,28667,1,2,0:0:0:0:
192,192,28667,1,0,0:0:0:70:cymbal_short.wav
64,192,28948,1,8,0:0:0:0:
320,192,28948,1,0,0:0:0:0:
448,192,28948,1,0,0:0:0:0:
64,192,29089,1,2,0:0:0:0:
192,192,29089,1,0,0:0:0:70:cymbal_short.wav
64,192,29371,1,2,0:0:0:0:
320,192,29371,1,0,0:0:0:0:
192,192,29512,1,2,0:0:0:0:
448,192,29512,1,0,0:0:0:0:
192,192,29652,1,2,0:0:0:0:
448,192,29652,1,0,0:0:0:0:
320,192,29723,1,2,0:0:0:0:
64,192,29793,128,2,29864:0:0:0:0:
192,192,29793,1,4,0:0:0:0:
448,192,29793,1,0,0:0:0:0:
64,192,29934,128,0,30005:0:0:0:0:
192,192,30075,1,8,0:0:0:0:
320,192,30075,1,2,0:0:0:0:
448,192,30075,1,0,0:0:0:0:
64,192,30216,128,0,30286:0:0:0:0:
64,192,30357,128,2,30427:0:0:0:0:
320,192,30357,1,0,0:0:0:0:
192,192,30497,1,0,0:0:0:0:
64,192,30638,128,8,30709:0:0:0:0:
320,192,30638,1,2,0:0:0:0:
448,192,30638,1,0,0:0:0:0:
64,192,30779,128,0,30850:0:0:0:0:
192,192,30920,1,2,0:0:0:0:
448,192,30920,1,0,0:0:0:0:
64,192,31061,128,0,31131:0:0:0:0:
192,192,31202,1,8,0:0:0:0:
320,192,31202,128,2,31272:0:0:0:0:
448,192,31202,1,0,0:0:0:0:
64,192,31343,1,0,0:0:0:0:
192,192,31483,128,2,31554:0:0:0:0:
320,192,31483,1,0,0:0:0:0:
448,192,31624,1,0,0:0:0:0:
64,192,31765,1,8,0:0:0:0:
192,192,31765,1,2,0:0:0:0:
320,192,31765,1,0,0:0:0:0:
320,192,31906,1,2,0:0:0:0:
448,192,31906,1,0,0:0:0:0:
320,192,32047,128,2,32117:0:0:0:0:
448,192,32047,1,0,0:0:0:0:
192,192,32188,1,0,0:0:0:0:
64,192,32328,1,8,0:0:0:0:
320,192,32328,128,2,32399:0:0:0:0:
448,192,32328,1,0,0:0:0:0:
320,192,32469,128,0,32540:0:0:0:0:
64,192,32610,1,2,0:0:0:0:
192,192,32610,1,0,0:0:0:0:
320,192,32751,128,0,32821:0:0:0:0:
192,192,32892,1,8,0:0:0:0:
320,192,32892,128,2,32962:0:0:0:0:
448,192,32892,1,0,0:0:0:0:
64,192,33033,1,0,0:0:0:0:
192,192,33174,1,2,0:0:0:0:
320,192,33174,1,0,0:0:0:50:Tom1.wav
448,192,33174,1,0,0:0:0:0:
448,192,33314,1,0,0:0:0:0:
64,192,33455,1,8,0:0:0:0:
192,192,33455,1,2,0:0:0:0:
320,192,33455,1,0,0:0:0:50:Tom1.wav
64,192,33596,1,0,0:0:0:0:
192,192,33737,1,2,0:0:0:0:
320,192,33737,1,0,0:0:0:50:Tom1.wav
64,192,33878,1,2,0:0:0:0:
448,192,33878,1,0,0:0:0:50:Tom1.wav
192,192,33948,1,2,0:0:0:0:
64,192,34019,1,2,0:0:0:0:
320,192,34019,1,8,0:0:0:0:
448,192,34019,1,0,0:0:0:50:Tom1.wav
192,192,34159,1,2,0:0:0:0:
320,192,34159,1,0,0:0:0:50:Tom1.wav
64,192,34300,1,2,0:0:0:0:
192,192,34300,1,4,0:0:0:0:
448,192,34300,128,0,34371:0:0:0:50:Tom1.wav
448,192,34441,128,0,34512:0:0:0:0:
64,192,34582,1,2,0:0:0:0:
192,192,34582,1,8,0:0:0:0:
320,192,34582,1,0,0:0:0:45:snare1.wav
448,192,34723,128,0,34793:0:0:0:0:
64,192,34864,1,2,0:0:0:0:
320,192,34864,1,0,0:0:0:50:Tom1.wav
448,192,34864,128,0,34934:0:0:0:0:
192,192,35005,1,0,0:0:0:0:
64,192,35145,1,2,0:0:0:0:
320,192,35145,1,8,0:0:0:0:
448,192,35145,128,0,35216:0:0:0:45:snare1.wav
448,192,35286,128,0,35357:0:0:0:0:
64,192,35427,1,2,0:0:0:0:
192,192,35427,1,0,0:0:0:50:Tom1.wav
320,192,35427,1,0,0:0:0:0:
448,192,35568,128,0,35638:0:0:0:0:
64,192,35709,1,2,0:0:0:0:
192,192,35709,1,8,0:0:0:0:
320,192,35709,128,0,35779:0:0:0:45:snare1.wav
64,192,35850,1,0,0:0:0:0:
192,192,35990,128,2,36061:0:0:0:0:
320,192,35990,1,0,0:0:0:50:Tom1.wav
448,192,35990,1,0,0:0:0:0:
448,192,36131,1,0,0:0:0:0:
64,192,36272,1,2,0:0:0:0:
192,192,36272,1,8,0:0:0:0:
320,192,36272,1,0,0:0:0:0:
64,192,36413,1,2,0:0:0:0:
320,192,36413,1,0,0:0:0:0:
192,192,36554,128,2,36624:0:0:0:0:
448,192,36554,1,0,0:0:0:50:Tom1.wav
320,192,36695,1,0,0:0:0:0:
64,192,36836,1,2,0:0:0:0:
192,192,36836,128,8,36906:0:0:0:0:
448,192,36836,1,0,0:0:0:0:
192,192,36976,128,2,37047:0:0:0:0:
320,192,36976,1,0,0:0:0:0:
64,192,37047,1,2,0:0:0:0:
320,192,37117,1,2,0:0:0:0:
448,192,37117,1,0,0:0:0:50:Tom1.wav
192,192,37258,128,2,37328:0:0:0:0:
448,192,37258,1,0,0:0:0:50:Tom1.wav
64,192,37399,1,2,0:0:0:0:
192,192,37399,128,8,37469:0:0:0:0:
320,192,37399,1,0,0:0:0:50:Tom1.wav
448,192,37540,1,0,0:0:0:0:
64,192,37681,1,2,0:0:0:0:
192,192,37681,1,0,0:0:0:70:cymbal_short.wav
448,192,37681,1,0,0:0:0:0:
192,192,37821,1,0,0:0:0:0:
64,192,37962,1,2,0:0:0:0:
320,192,37962,1,8,0:0:0:0:
448,192,37962,1,0,0:0:0:70:cymbal_short.wav
320,192,38103,1,0,0:0:0:0:
64,192,38244,1,2,0:0:0:0:
192,192,38244,1,0,0:0:0:70:cymbal_short.wav
448,192,38244,1,0,0:0:0:0:
64,192,38385,1,2,0:0:0:0:
448,192,38385,1,0,0:0:0:0:
192,192,38455,1,2,0:0:0:0:
320,192,38455,1,0,0:0:0:0:
64,192,38526,1,2,0:0:0:0:
448,192,38526,1,0,0:0:0:0:
64,192,38807,128,2,38878:0:0:0:0:
192,192,38807,1,4,0:0:0:0:
448,192,38807,1,0,0:0:0:0:
64,192,38948,128,0,39019:0:0:0:0:
192,192,39089,1,8,0:0:0:0:
320,192,39089,1,2,0:0:0:0:
448,192,39089,1,0,0:0:0:0:
64,192,39230,128,0,39300:0:0:0:0:
64,192,39371,128,2,39441:0:0:0:0:
320,192,39371,1,0,0:0:0:0:
192,192,39512,1,0,0:0:0:0:
64,192,39652,128,8,39723:0:0:0:0:
320,192,39652,1,2,0:0:0:0:
448,192,39652,1,0,0:0:0:0:
64,192,39793,128,0,39864:0:0:0:0:
192,192,39934,1,2,0:0:0:0:
448,192,39934,1,0,0:0:0:0:
64,192,40075,128,0,40145:0:0:0:0:
192,192,40216,1,8,0:0:0:0:
320,192,40216,128,2,40286:0:0:0:0:
448,192,40216,1,0,0:0:0:0:
64,192,40357,1,0,0:0:0:0:
192,192,40497,128,2,40568:0:0:0:0:
320,192,40497,1,0,0:0:0:0:
448,192,40638,1,0,0:0:0:0:
64,192,40779,1,8,0:0:0:0:
192,192,40779,1,2,0:0:0:0:
320,192,40779,1,0,0:0:0:0:
320,192,40920,1,2,0:0:0:0:
448,192,40920,1,0,0:0:0:0:
320,192,41061,128,2,41131:0:0:0:0:
448,192,41061,1,0,0:0:0:0:
192,192,41202,1,0,0:0:0:0:
64,192,41343,1,8,0:0:0:0:
320,192,41343,128,2,41413:0:0:0:0:
448,192,41343,1,0,0:0:0:0:
320,192,41483,128,0,41554:0:0:0:0:
64,192,41624,1,2,0:0:0:0:
192,192,41624,1,0,0:0:0:0:
320,192,41765,128,0,41836:0:0:0:0:
192,192,41906,1,8,0:0:0:0:
320,192,41906,128,2,41976:0:0:0:0:
448,192,41906,1,0,0:0:0:0:
64,192,42047,1,0,0:0:0:0:
320,192,42188,1,2,0:0:0:0:
448,192,42188,1,0,0:0:0:0:
448,192,42328,1,0,0:0:0:0:
64,192,42469,1,8,0:0:0:0:
192,192,42469,1,2,0:0:0:0:
448,192,42469,1,0,0:0:0:0:
64,192,42610,1,0,0:0:0:0:
64,192,42751,1,2,0:0:0:0:
320,192,42751,1,0,0:0:0:0:
320,192,42892,1,2,0:0:0:0:
448,192,42892,1,0,0:0:0:0:
192,192,42962,1,2,0:0:0:0:
64,192,43033,1,2,0:0:0:0:
320,192,43033,1,8,0:0:0:0:
448,192,43033,1,0,0:0:0:0:
64,192,43174,1,2,0:0:0:0:
192,192,43174,1,0,0:0:0:0:
64,192,43314,1,2,0:0:0:0:
192,192,43314,1,4,0:0:0:0:
448,192,43314,128,0,43385:0:0:0:50:Tom1.wav
448,192,43455,128,0,43526:0:0:0:0:
64,192,43596,1,8,0:0:0:0:
192,192,43596,1,2,0:0:0:0:
320,192,43596,1,0,0:0:0:45:snare1.wav
192,192,43737,1,0,0:0:0:0:
64,192,43878,128,2,43948:0:0:0:0:
320,192,43878,1,0,0:0:0:45:snare1.wav
448,192,43878,1,0,0:0:0:0:
320,192,44019,1,0,0:0:0:0:
64,192,44159,1,2,0:0:0:0:
192,192,44159,1,8,0:0:0:0:
448,192,44159,128,0,44230:0:0:0:45:snare1.wav
64,192,44300,1,2,0:0:0:0:
192,192,44300,1,0,0:0:0:45:snare1.wav
320,192,44371,1,2,0:0:0:0:
448,192,44371,1,0,0:0:0:45:snare1.wav
64,192,44441,1,2,0:0:0:0:
192,192,44441,128,0,44512:0:0:0:45:snare1.wav
320,192,44582,1,2,0:0:0:0:
448,192,44582,1,0,0:0:0:45:snare1.wav
192,192,44723,1,2,0:0:0:0:
320,192,44723,128,8,44793:0:0:0:0:
448,192,44723,1,0,0:0:0:45:snare1.wav
64,192,44864,1,0,0:0:0:0:
64,192,45005,128,2,45075:0:0:0:0:
192,192,45005,1,0,0:0:0:45:snare1.wav
448,192,45005,1,0,0:0:0:0:
320,192,45145,1,2,0:0:0:0:
448,192,45145,1,0,0:0:0:45:snare1.wav
64,192,45216,1,2,0:0:0:0:
192,192,45216,1,0,0:0:0:45:snare1.wav
320,192,45286,1,10,0:0:0:0:
448,192,45286,128,0,45357:0:0:0:45:snare1.wav
64,192,45427,1,2,0:0:0:0:
192,192,45427,1,0,0:0:0:45:snare1.wav
320,192,45497,1,2,0:0:0:0:
64,192,45568,1,2,0:0:0:0:
192,192,45568,1,0,0:0:0:45:snare1.wav
448,192,45568,1,0,0:0:0:70:cymbal_short.wav
320,192,45709,1,2,0:0:0:0:
448,192,45709,1,0,0:0:0:45:snare1.wav
192,192,45779,1,2,0:0:0:0:
64,192,45850,1,2,0:0:0:0:
320,192,45850,1,0,0:0:0:45:snare1.wav
448,192,45850,1,0,0:0:0:70:cymbal_short.wav
64,192,45990,1,2,0:0:0:0:
192,192,45990,1,0,0:0:0:45:snare1.wav
320,192,46061,1,2,0:0:0:0:
64,192,46131,1,2,0:0:0:0:
192,192,46131,1,0,0:0:0:45:snare1.wav
448,192,46131,1,0,0:0:0:70:cymbal_short.wav
320,192,46272,1,2,0:0:0:0:
448,192,46272,1,0,0:0:0:0:
192,192,46413,1,2,0:0:0:0:
320,192,46413,1,0,0:0:0:70:cymbal_short.wav
64,192,46554,1,2,0:0:0:0:
192,192,46554,1,0,0:0:0:0:
64,192,46695,1,2,0:0:0:0:
320,192,46695,1,4,0:0:0:0:
448,192,46695,1,0,0:0:0:0:
320,192,46836,1,0,0:0:0:0:
64,192,46976,1,8,0:0:0:0:
192,192,46976,1,0,0:0:0:0:
448,192,46976,1,0,0:0:0:0:
320,192,47117,1,2,0:0:0:0:
448,192,47117,1,0,0:0:0:0:
64,192,47258,1,2,0:0:0:0:
192,192,47258,1,0,0:0:0:0:
64,192,47399,1,8,0:0:0:0:
448,192,47399,1,0,0:0:0:0:
192,192,47540,128,2,47821:0:0:0:0:
320,192,47540,1,0,0:0:0:70:snare pop.wav
64,192,47821,1,2,0:0:0:0:
320,192,47821,1,4,0:0:0:0:
448,192,47821,128,0,47892:0:0:0:0:
448,192,47962,128,0,48033:0:0:0:0:
64,192,48103,1,2,0:0:0:0:
192,192,48103,1,8,0:0:0:0:
320,192,48103,1,0,0:0:0:0:
448,192,48244,128,0,48314:0:0:0:0:
64,192,48385,1,2,0:0:0:0:
448,192,48385,128,0,48455:0:0:0:0:
320,192,48526,1,0,0:0:0:0:
64,192,48667,1,2,0:0:0:0:
192,192,48667,1,8,0:0:0:0:
448,192,48667,128,0,48737:0:0:0:0:
448,192,48807,128,0,48878:0:0:0:0:
192,192,48948,1,2,0:0:0:0:
320,192,48948,1,0,0:0:0:0:
448,192,49089,128,0,49159:0:0:0:0:
64,192,49230,128,2,49300:0:0:0:0:
192,192,49230,1,8,0:0:0:0:
320,192,49230,1,0,0:0:0:0:
448,192,49371,1,0,0:0:0:0:
64,192,49512,1,2,0:0:0:0:
320,192,49512,128,0,49582:0:0:0:0:
192,192,49652,1,0,0:0:0:0:
64,192,49793,1,2,0:0:0:0:
320,192,49793,1,8,0:0:0:0:
448,192,49793,1,0,0:0:0:0:
64,192,49934,1,2,0:0:0:0:
192,192,49934,1,0,0:0:0:0:
64,192,50075,128,2,50145:0:0:0:0:
192,192,50075,1,0,0:0:0:0:
320,192,50216,1,0,0:0:0:0:
64,192,50357,128,2,50427:0:0:0:0:
192,192,50357,1,8,0:0:0:0:
448,192,50357,1,0,0:0:0:0:
64,192,50497,128,0,50568:0:0:0:0:
320,192,50638,1,2,0:0:0:0:
448,192,50638,1,0,0:0:0:0:
64,192,50779,128,0,50850:0:0:0:0:
64,192,50920,128,2,50990:0:0:0:0:
192,192,50920,1,8,0:0:0:0:
320,192,50920,1,0,0:0:0:0:
448,192,51061,1,0,0:0:0:0:
64,192,51202,1,2,0:0:0:0:
192,192,51202,1,0,0:0:0:0:
192,192,51343,1,0,0:0:0:0:
192,192,51483,1,2,0:0:0:0:
320,192,51483,1,8,0:0:0:0:
448,192,51483,1,0,0:0:0:0:
448,192,51624,1,0,0:0:0:0:
64,192,51765,1,2,0:0:0:0:
448,192,51765,1,0,0:0:0:0:
64,192,51906,1,2,0:0:0:0:
320,192,51906,1,0,0:0:0:0:
64,192,52047,1,8,0:0:0:0:
192,192,52047,1,2,0:0:0:0:
448,192,52047,1,0,0:0:0:0:
320,192,52188,1,0,0:0:0:0:
64,192,52328,1,2,0:0:0:0:
192,192,52328,128,4,52399:0:0:0:0:
448,192,52328,1,0,0:0:0:0:
192,192,52469,128,0,52540:0:0:0:0:
64,192,52610,128,8,52751:0:0:0:0:
320,192,52610,1,2,0:0:0:0:
448,192,52610,128,0,52751:0:0:0:70:special voice.wav
192,192,52751,1,0,0:0:0:0:
320,192,52892,128,2,52962:0:0:0:0:
448,192,52892,1,0,0:0:0:0:
192,192,53033,1,0,0:0:0:0:
64,192,53174,128,8,53314:0:0:0:0:
192,192,53174,1,2,0:0:0:0:
448,192,53174,128,0,53314:0:0:0:70:special voice.wav
320,192,53314,1,0,0:0:0:0:
64,192,53455,1,2,0:0:0:0:
192,192,53455,128,0,53526:0:0:0:0:
320,192,53596,1,0,0:0:0:0:
64,192,53737,128,8,53878:0:0:0:0:
320,192,53737,1,2,0:0:0:0:
448,192,53737,128,0,53878:0:0:0:70:special voice.wav
192,192,53878,1,0,0:0:0:0:
320,192,54019,128,2,54089:0:0:0:0:
448,192,54019,1,0,0:0:0:0:
192,192,54159,1,0,0:0:0:0:
64,192,54300,128,8,54371:0:0:0:0:
320,192,54300,1,2,0:0:0:0:
448,192,54300,128,0,54441:0:0:0:70:special voice.wav
64,192,54441,1,2,0:0:0:0:
192,192,54441,1,0,0:0:0:0:
320,192,54512,1,2,0:0:0:0:
64,192,54582,1,2,0:0:0:0:
192,192,54582,1,0,0:0:0:45:snare1.wav
448,192,54582,1,0,0:0:0:70:cymbal_short.wav
320,192,54723,1,2,0:0:0:0:
448,192,54723,1,0,0:0:0:45:snare1.wav
192,192,54793,1,2,0:0:0:0:
64,192,54864,1,2,0:0:0:0:
320,192,54864,1,0,0:0:0:45:snare1.wav
448,192,54864,1,0,0:0:0:70:cymbal_short.wav
64,192,55005,1,2,0:0:0:0:
192,192,55005,1,0,0:0:0:45:snare1.wav
320,192,55075,1,2,0:0:0:0:
64,192,55145,1,2,0:0:0:0:
192,192,55145,1,0,0:0:0:45:snare1.wav
448,192,55145,1,0,0:0:0:70:cymbal_short.wav
320,192,55286,1,2,0:0:0:0:
448,192,55286,1,0,0:0:0:0:
192,192,55427,1,10,0:0:0:0:
320,192,55427,1,0,0:0:0:70:cymbal_short.wav
64,192,55568,1,2,0:0:0:0:
192,192,55568,1,0,0:0:0:0:
64,192,55709,1,2,0:0:0:0:
320,192,55709,1,0,0:0:0:70:cymbal_short.wav
448,192,55709,1,0,0:0:0:0:
320,192,55850,1,0,0:0:0:0:
64,192,55990,1,0,0:0:0:0:
448,192,55990,1,0,0:0:0:0:
192,192,56037,1,0,0:0:0:0:
320,192,56084,1,0,0:0:0:0:
64,192,56131,1,0,0:0:0:0:
448,192,56131,1,0,0:0:0:0:
192,192,56178,1,0,0:0:0:0:
320,192,56225,1,0,0:0:0:0:
64,192,56272,1,2,0:0:0:0:
448,192,56272,1,0,0:0:0:0:
64,192,56554,1,0,0:0:0:50:hat1.wav
448,192,56589,1,0,0:0:0:50:hat1.wav
320,192,56624,1,0,0:0:0:50:hat1.wav
192,192,56659,1,0,0:0:0:50:hat1.wav
64,192,56695,1,0,0:0:0:50:hat1.wav
448,192,56730,1,0,0:0:0:50:hat1.wav
320,192,56765,1,0,0:0:0:50:hat1.wav
192,192,56800,1,0,0:0:0:50:hat1.wav
64,192,56836,1,2,0:0:0:0:
448,192,56836,1,4,0:0:0:0:
320,192,56976,1,0,0:0:0:0:
64,192,57117,1,8,0:0:0:0:
192,192,57117,1,0,0:0:0:0:
320,192,57117,1,0,0:0:0:0:
192,192,57258,1,0,0:0:0:0:
192,192,57399,1,0,0:0:0:0:
192,192,57540,1,2,0:0:0:0:
448,192,57540,1,0,0:0:0:0:
64,192,57681,1,8,0:0:0:0:
320,192,57681,1,0,0:0:0:0:
448,192,57681,1,0,0:0:0:0:
448,192,57821,1,0,0:0:0:0:
64,192,57962,128,2,58033:0:0:0:0:
192,192,57962,1,0,0:0:0:0:
448,192,58103,1,0,0:0:0:0:
192,192,58174,128,0,58244:0:0:0:0:
64,192,58244,1,8,0:0:0:0:
320,192,58244,1,0,0:0:0:0:
448,192,58244,1,0,0:0:0:0:
320,192,58385,128,0,58455:0:0:0:0:
448,192,58526,128,0,58667:0:0:0:0:
64,192,58667,1,2,0:0:0:0:
192,192,58667,1,0,0:0:0:50:clap2.wav
64,192,58807,128,8,58948:0:0:0:0:
448,192,58807,128,0,58948:0:0:0:50:clap2.wav
192,192,58948,1,0,0:0:0:50:clap2.wav
320,192,58948,1,0,0:0:0:0:
64,192,59089,128,2,59159:0:0:0:0:
192,192,59089,128,0,59159:0:0:0:0:
448,192,59230,1,0,0:0:0:0:
64,192,59371,1,8,0:0:0:0:
192,192,59371,1,0,0:0:0:0:
448,192,59371,1,0,0:0:0:0:
192,192,59512,1,0,0:0:0:0:
192,192,59652,128,0,59723:0:0:0:0:
320,192,59652,128,0,59723:0:0:0:0:
64,192,59793,1,2,0:0:0:0:
448,192,59793,1,0,0:0:0:0:
64,192,59934,1,8,0:0:0:0:
192,192,59934,1,0,0:0:0:0:
320,192,59934,1,0,0:0:0:0:
320,192,60075,1,0,0:0:0:0:
64,192,60216,1,2,0:0:0:0:
320,192,60216,128,0,60286:0:0:0:70:cymbal_short.wav
448,192,60216,128,0,60779:0:0:0:0:
64,192,60779,1,0,0:0:0:0:
192,192,60779,1,0,0:0:0:0:
64,192,61061,1,0,0:0:0:70:snare pop.wav
320,192,61061,1,0,0:0:0:0:
64,192,61343,1,4,0:0:0:0:
320,192,61343,128,2,61601:0:0:0:0:
448,192,61343,1,0,0:0:0:0:
192,192,61413,128,0,61577:0:0:0:0:
448,192,61483,128,0,61624:0:0:0:0:
64,192,61624,1,0,0:0:0:0:
64,192,61765,128,0,61836:0:0:0:0:
192,192,61765,128,0,61836:0:0:0:0:
64,192,61906,1,0,0:0:0:70:clap1.wav
192,192,61906,1,0,0:0:0:0:
448,192,61906,1,0,0:0:0:0:
64,192,62047,128,0,62117:0:0:0:0:
192,192,62047,128,0,62117:0:0:0:0:
320,192,62188,1,2,0:0:0:0:
448,192,62188,1,0,0:0:0:0:
320,192,62328,1,2,0:0:0:0:
448,192,62328,1,0,0:0:0:0:
64,192,62469,128,0,62540:0:0:0:0:
448,192,62469,128,0,62540:0:0:0:0:
64,192,62610,128,0,62681:0:0:0:0:
448,192,62610,128,0,62681:0:0:0:0:
192,192,62751,1,2,0:0:0:0:
320,192,62751,1,0,0:0:0:0:
64,192,62892,128,0,62962:0:0:0:0:
448,192,62892,128,0,62962:0:0:0:0:
64,192,63033,1,0,0:0:0:70:clap1.wav
192,192,63033,128,0,63267:0:0:0:0:
320,192,63033,1,0,0:0:0:0:
320,192,63174,128,0,63314:0:0:0:0:
448,192,63314,128,0,63385:0:0:0:0:
64,192,63385,1,0,0:0:0:0:
448,192,63455,128,0,63526:0:0:0:0:
64,192,63526,1,0,0:0:0:0:
192,192,63596,1,2,0:0:0:0:
320,192,63596,128,0,63737:0:0:0:0:
448,192,63667,128,0,63772:0:0:0:0:
64,192,63702,128,0,63790:0:0:0:0:
192,192,63737,128,0,63825:0:0:0:0:
448,192,63878,128,0,64066:0:0:0:0:
320,192,63925,128,0,64089:0:0:0:0:
192,192,63972,128,0,64113:0:0:0:0:
64,192,64019,128,0,64136:0:0:0:0:
320,192,64159,1,0,0:0:0:70:clap1.wav
448,192,64159,1,0,0:0:0:0:
192,192,64300,128,0,64371:0:0:0:0:
448,192,64300,128,0,64371:0:0:0:0:
192,192,64441,128,0,64512:0:0:0:0:
448,192,64441,128,0,64512:0:0:0:0:
64,192,64582,1,2,0:0:0:0:
320,192,64582,1,0,0:0:0:0:
192,192,64723,128,0,64793:0:0:0:0:
448,192,64723,128,0,64793:0:0:0:0:
192,192,64864,128,0,64934:0:0:0:0:
448,192,64864,128,0,64934:0:0:0:0:
64,192,65005,1,2,0:0:0:0:
320,192,65005,1,0,0:0:0:0:
192,192,65145,128,0,65216:0:0:0:0:
448,192,65145,128,0,65216:0:0:0:0:
64,192,65286,1,2,0:0:0:70:clap1.wav
320,192,65286,1,0,0:0:0:0:
448,192,65286,1,0,0:0:0:0:
192,192,65427,128,0,65709:0:0:0:0:
320,192,65568,128,0,65709:0:0:0:0:
448,192,65568,128,0,65850:0:0:0:0:
64,192,65709,1,0,0:0:0:0:
64,192,65850,1,2,0:0:0:0:
192,192,65850,1,4,0:0:0:0:
320,192,65850,1,0,0:0:0:0:
320,192,65990,1,0,0:0:0:0:
64,192,66131,128,0,66272:0:0:0:70:special voice.wav
448,192,66131,128,0,66272:0:0:0:0:
192,192,66272,128,0,66343:0:0:0:0:
320,192,66272,128,0,66343:0:0:0:0:
64,192,66413,1,0,0:0:0:70:clap1.wav
192,192,66413,128,0,66483:0:0:0:0:
320,192,66413,128,0,66483:0:0:0:0:
192,192,66554,128,0,66624:0:0:0:0:
320,192,66554,128,0,66624:0:0:0:0:
64,192,66695,128,2,66836:0:0:0:0:
448,192,66695,128,0,66836:0:0:0:70:special voice.wav
192,192,66836,1,2,0:0:0:0:
320,192,66836,1,0,0:0:0:0:
192,192,66976,128,0,67047:0:0:0:0:
320,192,66976,128,0,67047:0:0:0:0:
64,192,67117,1,2,0:0:0:0:
448,192,67117,1,0,0:0:0:0:
64,192,67258,128,0,67399:0:0:0:70:special voice.wav
448,192,67258,128,0,67399:0:0:0:0:
192,192,67399,128,0,67469:0:0:0:0:
320,192,67399,128,0,67469:0:0:0:0:
64,192,67540,1,0,0:0:0:70:clap1.wav
192,192,67540,128,0,67774:0:0:0:0:
320,192,67540,1,0,0:0:0:0:
320,192,67681,128,0,67821:0:0:0:0:
64,192,67821,128,0,67962:0:0:0:70:special voice.wav
448,192,67821,128,0,67962:0:0:0:0:
192,192,67962,1,0,0:0:0:0:
64,192,68103,1,2,0:0:0:0:
320,192,68103,1,0,0:0:0:0:
448,192,68103,1,0,0:0:0:0:
320,192,68244,1,0,0:0:0:0:
64,192,68385,1,0,0:0:0:0:
320,192,68385,1,0,0:0:0:0:
64,192,68526,1,0,0:0:0:0:
64,192,68667,128,0,68737:0:0:0:70:clap1.wav
192,192,68667,128,0,68737:0:0:0:0:
448,192,68667,1,0,0:0:0:0:
192,192,68807,128,0,68878:0:0:0:0:
320,192,68807,128,0,68878:0:0:0:0:
320,192,68948,128,0,69019:0:0:0:0:
448,192,68948,128,0,69019:0:0:0:0:
192,192,69089,128,0,69159:0:0:0:0:
448,192,69089,128,0,69159:0:0:0:0:
64,192,69230,128,2,69300:0:0:0:0:
192,192,69230,1,0,0:0:0:0:
320,192,69371,128,0,69441:0:0:0:0:
448,192,69371,128,0,69441:0:0:0:0:
192,192,69441,128,0,69512:0:0:0:0:
64,192,69512,1,2,0:0:0:0:
448,192,69512,1,0,0:0:0:0:
192,192,69652,128,0,69723:0:0:0:0:
320,192,69652,128,0,69723:0:0:0:0:
64,192,69793,1,0,0:0:0:70:clap1.wav
320,192,69793,1,0,0:0:0:0:
448,192,69793,128,0,69864:0:0:0:0:
192,192,69934,1,2,0:0:0:0:
448,192,69934,1,0,0:0:0:0:
192,192,70075,128,0,70145:0:0:0:0:
320,192,70075,128,0,70357:0:0:0:0:
64,192,70357,128,2,70497:0:0:0:0:
192,192,70357,1,4,0:0:0:0:
448,192,70357,1,0,0:0:0:0:
448,192,70497,128,0,70638:0:0:0:0:
192,192,70638,1,0,0:0:0:0:
64,192,70779,128,0,70850:0:0:0:0:
448,192,70779,128,0,70920:0:0:0:0:
64,192,70920,1,0,0:0:0:70:clap1.wav
192,192,70920,1,0,0:0:0:0:
320,192,70920,1,0,0:0:0:0:
64,192,71061,128,0,71131:0:0:0:0:
448,192,71061,128,0,71202:0:0:0:0:
192,192,71202,1,2,0:0:0:0:
320,192,71202,1,0,0:0:0:0:
192,192,71343,1,2,0:0:0:0:
448,192,71343,128,0,71483:0:0:0:0:
64,192,71483,128,0,71554:0:0:0:0:
320,192,71483,128,0,71554:0:0:0:0:
64,192,71624,128,0,71695:0:0:0:0:
448,192,71624,128,0,71765:0:0:0:0:
192,192,71765,1,2,0:0:0:0:
320,192,71765,1,0,0:0:0:0:
64,192,71906,128,0,71976:0:0:0:0:
448,192,71906,128,0,72047:0:0:0:0:
64,192,72047,1,0,0:0:0:70:clap1.wav
192,192,72047,128,0,72282:0:0:0:0:
320,192,72047,1,0,0:0:0:0:
320,192,72188,128,0,72328:0:0:0:0:
448,192,72328,128,0,72399:0:0:0:0:
64,192,72399,1,0,0:0:0:0:
448,192,72469,128,0,72540:0:0:0:0:
64,192,72540,1,0,0:0:0:0:
192,192,72610,1,2,0:0:0:0:
320,192,72610,128,0,72751:0:0:0:0:
448,192,72681,128,0,72786:0:0:0:0:
64,192,72716,128,0,72804:0:0:0:0:
192,192,72751,128,0,72839:0:0:0:0:
448,192,72892,128,0,73080:0:0:0:0:
320,192,72939,128,0,73103:0:0:0:0:
192,192,72986,128,0,73127:0:0:0:0:
64,192,73033,128,0,73150:0:0:0:0:
320,192,73174,1,0,0:0:0:70:clap1.wav
448,192,73174,1,0,0:0:0:0:
64,192,73314,128,0,73385:0:0:0:0:
448,192,73314,128,0,73455:0:0:0:0:
64,192,73455,128,0,73526:0:0:0:0:
320,192,73455,128,0,73526:0:0:0:0:
192,192,73596,1,2,0:0:0:0:
448,192,73596,128,0,73737:0:0:0:0:
64,192,73737,128,0,73948:0:0:0:0:
448,192,73878,128,0,74019:0:0:0:0:
192,192,74019,1,2,0:0:0:0:
320,192,74019,1,0,0:0:0:0:
64,192,74159,1,0,0:0:0:0:
448,192,74159,1,0,0:0:0:0:
320,192,74230,1,0,0:0:0:0:
64,192,74300,1,0,0:0:0:70:clap1.wav
192,192,74300,1,0,0:0:0:0:
448,192,74300,1,0,0:0:0:0:
320,192,74371,1,0,0:0:0:0:
192,192,74441,1,0,0:0:0:0:
64,192,74512,1,0,0:0:0:0:
320,192,74582,128,0,74723:0:0:0:0:
448,192,74582,128,0,74864:0:0:0:0:
192,192,74723,1,0,0:0:0:0:
64,192,74864,1,2,0:0:0:0:
192,192,74864,1,4,0:0:0:0:
320,192,74864,1,0,0:0:0:0:
320,192,75005,1,0,0:0:0:0:
64,192,75145,1,0,0:0:0:0:
320,192,75145,1,0,0:0:0:0:
64,192,75286,1,0,0:0:0:0:
64,192,75427,1,0,0:0:0:70:clap1.wav
192,192,75427,1,0,0:0:0:0:
448,192,75427,1,0,0:0:0:0:
448,192,75568,1,0,0:0:0:0:
192,192,75709,1,2,0:0:0:0:
448,192,75709,1,0,0:0:0:0:
320,192,75850,1,2,0:0:0:0:
192,192,75850,1,0,0:0:0:0:
64,192,75990,128,0,76061:0:0:0:0:
320,192,76131,1,2,0:0:0:0:
448,192,76131,1,0,0:0:0:0:
192,192,76202,128,0,76272:0:0:0:0:
64,192,76272,1,0,0:0:0:0:
320,192,76413,128,0,76483:0:0:0:0:
64,192,76554,128,0,76624:0:0:0:70:clap1.wav
192,192,76554,128,0,76624:0:0:0:0:
448,192,76554,128,0,76695:0:0:0:0:
64,192,76695,128,0,76765:0:0:0:0:
192,192,76695,128,0,76765:0:0:0:0:
64,192,76836,128,0,76906:0:0:0:0:
192,192,76836,128,0,76976:0:0:0:0:
448,192,76976,1,0,0:0:0:0:
64,192,77117,128,4,77235:0:0:0:0:
320,192,77117,1,2,0:0:0:0:
448,192,77117,1,0,0:0:0:0:
192,192,77164,128,0,77258:0:0:0:0:
320,192,77211,128,0,77282:0:0:0:0:
448,192,77258,128,0,77305:0:0:0:0:
64,192,77399,128,0,77469:0:0:0:0:
192,192,77399,128,0,77469:0:0:0:0:
64,192,77540,128,0,77610:0:0:0:0:
192,192,77540,128,0,77610:0:0:0:0:
64,192,77681,1,0,0:0:0:70:clap1.wav
192,192,77681,1,0,0:0:0:0:
448,192,77681,128,0,77798:0:0:0:0:
320,192,77728,128,0,77821:0:0:0:0:
192,192,77774,128,0,77845:0:0:0:0:
64,192,77821,128,0,77868:0:0:0:0:
320,192,77962,128,0,78033:0:0:0:0:
448,192,77962,128,0,78033:0:0:0:0:
320,192,78103,128,0,78174:0:0:0:0:
448,192,78103,128,0,78174:0:0:0:0:
320,192,78244,1,2,0:0:0:0:
448,192,78244,1,0,0:0:0:0:
192,192,78385,128,0,78667:0:0:0:0:
64,192,78526,1,0,0:0:0:50:snare hat.wav
320,192,78526,1,0,0:0:0:0:
64,192,78667,1,0,0:0:0:50:snare hat.wav
320,192,78667,128,0,78807:0:0:0:0:
64,192,78807,1,0,0:0:0:50:snare hat.wav
448,192,78807,128,0,79089:0:0:0:0:
192,192,79089,1,0,0:0:0:50:hat1.wav
64,192,79124,1,0,0:0:0:50:hat1.wav
320,192,79159,1,0,0:0:0:50:hat1.wav
448,192,79195,1,0,0:0:0:50:hat1.wav
192,192,79230,1,0,0:0:0:50:hat1.wav
64,192,79265,1,0,0:0:0:50:hat1.wav
320,192,79300,1,0,0:0:0:50:hat1.wav
448,192,79336,1,0,0:0:0:50:hat1.wav
64,192,79371,1,6,0:0:0:0:
192,192,79371,1,0,0:0:0:40:clap2.wav
192,192,79512,1,0,0:0:0:0:
320,192,79652,1,0,0:0:0:40:clap2.wav
448,192,79652,1,0,0:0:0:0:
192,192,79793,1,0,0:0:0:0:
192,192,79934,1,0,0:0:0:40:clap2.wav
448,192,79934,1,0,0:0:0:0:
320,192,80075,1,0,0:0:0:0:
64,192,80216,1,0,0:0:0:40:clap2.wav
192,192,80216,1,0,0:0:0:0:
192,192,80357,1,0,0:0:0:0:
64,192,80497,1,0,0:0:0:40:clap2.wav
448,192,80497,1,0,0:0:0:0:
320,192,80638,1,0,0:0:0:0:
192,192,80779,1,0,0:0:0:40:clap2.wav
320,192,80779,1,0,0:0:0:0:
192,192,80920,1,0,0:0:0:0:
64,192,81061,1,0,0:0:0:40:clap2.wav
320,192,81061,1,0,0:0:0:0:
320,192,81202,1,0,0:0:0:0:
64,192,81343,1,0,0:0:0:40:clap2.wav
448,192,81343,1,0,0:0:0:0:
448,192,81483,1,0,0:0:0:0:
64,192,81624,1,0,0:0:0:40:clap2.wav
192,192,81624,1,0,0:0:0:0:
320,192,81765,1,0,0:0:0:0:
192,192,81906,1,0,0:0:0:40:clap2.wav
448,192,81906,1,0,0:0:0:0:
192,192,82047,1,0,0:0:0:0:
64,192,82188,1,0,0:0:0:40:clap2.wav
448,192,82188,1,0,0:0:0:0:
192,192,82328,1,0,0:0:0:0:
320,192,82399,1,0,0:0:0:0:
192,192,82469,1,0,0:0:0:40:clap2.wav
448,192,82469,1,0,0:0:0:0:
320,192,82610,1,0,0:0:0:0:
64,192,82751,128,0,82821:0:0:0:40:clap2.wav
192,192,82751,1,0,0:0:0:0:
64,192,82892,128,0,82962:0:0:0:0:
320,192,83033,1,0,0:0:0:40:clap2.wav
448,192,83033,1,0,0:0:0:0:
192,192,83174,128,0,83244:0:0:0:0:
192,192,83314,128,0,83385:0:0:0:40:clap2.wav
320,192,83314,128,0,83385:0:0:0:0:
448,192,83455,1,0,0:0:0:0:
192,192,83596,128,0,83667:0:0:0:40:clap2.wav
320,192,83596,128,0,83667:0:0:0:0:
64,192,83737,1,0,0:0:0:0:
192,192,83878,1,4,0:0:0:0:
320,192,83878,1,2,0:0:0:0:
448,192,83878,1,0,0:0:0:40:clap2.wav
448,192,84019,1,0,0:0:0:0:
64,192,84159,1,0,0:0:0:40:clap2.wav
192,192,84159,1,0,0:0:0:0:
448,192,84300,1,0,0:0:0:0:
64,192,84441,1,0,0:0:0:40:clap2.wav
448,192,84441,1,0,0:0:0:0:
192,192,84582,1,0,0:0:0:0:
320,192,84723,1,0,0:0:0:40:clap2.wav
448,192,84723,1,0,0:0:0:0:
448,192,84864,1,0,0:0:0:0:
64,192,85005,1,0,0:0:0:40:clap2.wav
320,192,85005,1,0,0:0:0:0:
192,192,85145,1,0,0:0:0:0:
192,192,85286,1,0,0:0:0:40:clap2.wav
448,192,85286,1,0,0:0:0:0:
448,192,85427,1,0,0:0:0:0:
192,192,85568,1,0,0:0:0:40:clap2.wav
320,192,85568,1,0,0:0:0:0:
192,192,85709,1,0,0:0:0:0:
64,192,85850,1,0,0:0:0:40:clap2.wav
320,192,85850,1,0,0:0:0:0:
64,192,85990,1,0,0:0:0:0:
320,192,86131,1,0,0:0:0:40:clap2.wav
448,192,86131,1,0,0:0:0:0:
192,192,86272,1,0,0:0:0:0:
64,192,86413,1,0,0:0:0:40:clap2.wav
448,192,86413,1,0,0:0:0:0:
448,192,86554,1,0,0:0:0:0:
64,192,86695,1,0,0:0:0:40:clap2.wav
320,192,86695,1,0,0:0:0:0:
448,192,86836,1,0,0:0:0:0:
64,192,86976,1,0,0:0:0:40:clap2.wav
448,192,86976,1,0,0:0:0:0:
192,192,87117,1,0,0:0:0:40:clap2.wav
320,192,87258,1,0,0:0:0:40:clap2.wav
448,192,87258,1,0,0:0:0:0:
320,192,87399,1,0,0:0:0:0:
64,192,87540,1,0,0:0:0:40:clap2.wav
448,192,87540,1,0,0:0:0:0:
192,192,87681,1,0,0:0:0:0:
448,192,87821,1,0,0:0:0:40:clap2.wav
320,192,87868,1,0,0:0:0:0:
64,192,87915,1,0,0:0:0:0:
192,192,87962,1,0,0:0:0:0:
448,192,88009,1,0,0:0:0:0:
320,192,88056,1,0,0:0:0:0:
64,192,88103,1,2,0:0:0:0:
192,192,88103,1,0,0:0:0:40:clap2.wav
64,192,88385,1,2,0:0:0:0:
320,192,88385,1,4,0:0:0:0:
448,192,88385,1,0,0:0:0:0:
64,192,88667,1,8,0:0:0:0:
192,192,88667,1,0,0:0:0:0:
448,192,88667,1,0,0:0:0:0:
192,192,88948,1,0,0:0:0:0:
320,192,89089,1,2,0:0:0:0:
448,192,89089,1,0,0:0:0:0:
64,192,89230,1,8,0:0:0:0:
192,192,89230,1,0,0:0:0:0:
448,192,89230,1,0,0:0:0:0:
192,192,89512,128,2,89582:0:0:0:0:
320,192,89512,1,0,0:0:0:0:
64,192,89793,1,8,0:0:0:0:
192,192,89793,1,0,0:0:0:0:
448,192,89793,128,0,89864:0:0:0:0:
64,192,90075,128,0,90145:0:0:0:0:
320,192,90216,1,2,0:0:0:0:
448,192,90216,1,0,0:0:0:50:clap2.wav
64,192,90357,1,8,0:0:0:0:
192,192,90357,1,0,0:0:0:50:clap2.wav
448,192,90357,128,0,90427:0:0:0:0:
192,192,90497,1,0,0:0:0:50:clap2.wav
192,192,90638,128,2,90709:0:0:0:0:
320,192,90638,1,0,0:0:0:0:
448,192,90779,1,0,0:0:0:0:
64,192,90920,1,8,0:0:0:0:
192,192,90920,128,0,90990:0:0:0:0:
320,192,90920,1,0,0:0:0:0:
192,192,91061,128,0,91131:0:0:0:0:
448,192,91202,1,0,0:0:0:0:
192,192,91343,128,2,91413:0:0:0:0:
320,192,91343,1,0,0:0:0:0:
64,192,91483,1,8,0:0:0:0:
192,192,91483,128,0,91554:0:0:0:0:
448,192,91483,1,0,0:0:0:0:
320,192,91624,1,0,0:0:0:0:
192,192,91765,1,2,0:0:0:0:
448,192,91765,128,0,91836:0:0:0:0:
448,192,91906,128,0,91976:0:0:0:0:
64,192,92047,1,8,0:0:0:0:
192,192,92047,1,0,0:0:0:0:
320,192,92047,1,0,0:0:0:0:
448,192,92188,1,0,0:0:0:0:
64,192,92258,1,2,0:0:0:0:
192,192,92328,128,0,92399:0:0:0:0:
320,192,92328,128,0,92399:0:0:0:0:
64,192,92469,1,2,0:0:0:0:
448,192,92469,1,0,0:0:0:0:
192,192,92610,128,8,92681:0:0:0:0:
320,192,92610,128,0,92681:0:0:0:0:
64,192,92751,1,0,0:0:0:0:
64,192,92892,1,2,0:0:0:0:
192,192,92892,1,4,0:0:0:0:
320,192,92892,1,0,0:0:0:0:
64,192,93174,1,8,0:0:0:0:
320,192,93174,1,0,0:0:0:0:
448,192,93174,1,0,0:0:0:0:
448,192,93455,1,0,0:0:0:0:
64,192,93596,1,2,0:0:0:0:
192,192,93596,1,0,0:0:0:0:
64,192,93737,1,8,0:0:0:0:
320,192,93737,1,0,0:0:0:50:clap2.wav
448,192,93737,1,0,0:0:0:0:
192,192,94019,1,2,0:0:0:0:
448,192,94019,128,0,94089:0:0:0:0:
64,192,94300,128,8,94371:0:0:0:0:
320,192,94300,1,0,0:0:0:0:
448,192,94300,1,0,0:0:0:0:
320,192,94582,128,0,94652:0:0:0:0:
64,192,94723,1,2,0:0:0:0:
192,192,94723,1,0,0:0:0:0:
64,192,94864,128,8,94934:0:0:0:0:
320,192,94864,1,0,0:0:0:50:clap2.wav
448,192,94864,1,0,0:0:0:0:
448,192,95005,1,0,0:0:0:50:clap2.wav
192,192,95145,1,2,0:0:0:0:
448,192,95145,128,0,95216:0:0:0:0:
64,192,95286,1,0,0:0:0:0:
192,192,95427,1,8,0:0:0:0:
320,192,95427,1,0,0:0:0:0:
448,192,95427,128,0,95497:0:0:0:0:
448,192,95568,128,0,95638:0:0:0:0:
64,192,95709,1,0,0:0:0:0:
192,192,95850,1,2,0:0:0:0:
448,192,95850,128,0,95920:0:0:0:0:
64,192,95990,1,8,0:0:0:0:
320,192,95990,1,0,0:0:0:50:clap2.wav
448,192,95990,128,0,96061:0:0:0:0:
192,192,96131,1,0,0:0:0:50:clap2.wav
64,192,96272,1,4,0:0:0:0:
320,192,96272,128,2,96976:0:0:0:0:
64,192,96413,128,0,96554:0:0:0:0:
192,192,96554,1,8,0:0:0:0:
448,192,96554,1,0,0:0:0:0:
192,192,96695,1,0,0:0:0:0:
64,192,96765,1,2,0:0:0:0:
448,192,96765,1,0,0:0:0:0:
192,192,96836,1,0,0:0:0:0:
64,192,96976,1,2,0:0:0:0:
448,192,96976,1,0,0:0:0:0:
192,192,97117,1,0,0:0:0:70:cymbal_short.wav
448,192,97117,128,0,97258:0:0:0:70:special voice.wav
64,192,97117,128,2,97258:0:0:0:0:
320,192,97258,1,0,0:0:0:0:
192,192,97399,128,2,97469:0:0:0:0:
320,192,97399,1,4,0:0:0:0:
448,192,97399,1,0,0:0:0:0:
192,192,97540,128,0,97610:0:0:0:0:
64,192,97681,1,8,0:0:0:0:
320,192,97681,1,2,0:0:0:0:
448,192,97681,1,0,0:0:0:0:
192,192,97821,128,0,97892:0:0:0:0:
192,192,97962,128,2,98033:0:0:0:0:
320,192,97962,1,0,0:0:0:0:
64,192,98103,1,0,0:0:0:0:
192,192,98244,128,8,98314:0:0:0:0:
320,192,98244,1,2,0:0:0:0:
448,192,98244,1,0,0:0:0:0:
192,192,98385,128,2,98455:0:0:0:0:
320,192,98385,1,0,0:0:0:0:
64,192,98526,1,2,0:0:0:0:
448,192,98526,1,0,0:0:0:0:
192,192,98667,128,0,98737:0:0:0:0:
64,192,98807,1,8,0:0:0:0:
320,192,98807,128,2,98878:0:0:0:0:
448,192,98807,1,0,0:0:0:0:
192,192,98948,1,0,0:0:0:0:
64,192,99089,128,2,99159:0:0:0:0:
320,192,99089,1,0,0:0:0:0:
192,192,99230,1,2,0:0:0:0:
448,192,99230,1,0,0:0:0:0:
64,192,99371,1,2,0:0:0:0:
192,192,99371,1,0,0:0:0:0:
320,192,99441,1,2,0:0:0:0:
448,192,99441,1,0,0:0:0:0:
64,192,99512,1,2,0:0:0:0:
192,192,99512,1,0,0:0:0:0:
320,192,99652,128,2,99723:0:0:0:0:
448,192,99652,1,0,0:0:0:0:
192,192,99793,1,2,0:0:0:0:
448,192,99793,1,0,0:0:0:0:
192,192,99934,1,2,0:0:0:0:
320,192,99934,128,8,100005:0:0:0:0:
448,192,99934,1,0,0:0:0:0:
320,192,100075,128,0,100145:0:0:0:0:
64,192,100216,1,2,0:0:0:0:
192,192,100216,1,0,0:0:0:0:
320,192,100357,128,0,100427:0:0:0:0:
64,192,100497,1,2,0:0:0:0:
320,192,100497,128,8,100568:0:0:0:0:
448,192,100497,1,0,0:0:0:0:
192,192,100638,1,2,0:0:0:0:
448,192,100638,1,0,0:0:0:0:
64,192,100779,1,2,0:0:0:0:
320,192,100779,128,0,100920:0:0:0:0:
64,192,100920,128,0,101061:0:0:0:0:
192,192,101061,1,2,0:0:0:0:
320,192,101061,1,8,0:0:0:0:
448,192,101061,1,0,0:0:0:0:
64,192,101202,1,0,0:0:0:0:
320,192,101343,1,2,0:0:0:0:
448,192,101343,1,0,0:0:0:30:cymbal_short.wav
320,192,101483,1,2,0:0:0:0:
448,192,101483,1,0,0:0:0:0:
64,192,101624,1,2,0:0:0:0:
192,192,101624,1,0,0:0:0:0:
320,192,101765,1,2,0:0:0:0:
448,192,101765,1,0,0:0:0:0:
64,192,101906,1,2,0:0:0:0:
192,192,101906,1,4,0:0:0:0:
448,192,101906,1,0,0:0:0:0:
64,192,102047,1,2,0:0:0:0:
192,192,102047,1,0,0:0:0:0:
64,192,102188,1,8,0:0:0:0:
320,192,102188,1,2,0:0:0:0:
448,192,102188,1,0,0:0:0:0:
448,192,102328,1,0,0:0:0:0:
64,192,102469,1,2,0:0:0:0:
192,192,102469,1,0,0:0:0:0:
64,192,102610,1,0,0:0:0:0:
192,192,102751,1,2,0:0:0:0:
320,192,102751,1,8,0:0:0:0:
448,192,102751,1,0,0:0:0:0:
64,192,102892,1,2,0:0:0:0:
448,192,102892,1,0,0:0:0:0:
64,192,103033,1,2,0:0:0:0:
192,192,103033,1,4,0:0:0:0:
448,192,103033,1,0,0:0:0:0:
192,192,103174,1,0,0:0:0:0:
64,192,103314,1,2,0:0:0:0:
320,192,103314,1,8,0:0:0:0:
448,192,103314,1,0,0:0:0:0:
320,192,103455,1,0,0:0:0:0:
64,192,103596,1,2,0:0:0:0:
192,192,103596,1,0,0:0:0:0:
64,192,103737,1,2,0:0:0:0:
192,192,103737,1,0,0:0:0:0:
320,192,103878,1,2,0:0:0:0:
448,192,103878,1,0,0:0:0:0:
64,192,104019,1,2,0:0:0:0:
192,192,104019,1,0,0:0:0:0:
64,192,104159,1,2,0:0:0:0:
320,192,104159,1,4,0:0:0:0:
448,192,104159,1,0,0:0:0:0:
192,192,104300,1,2,0:0:0:0:
320,192,104300,1,0,0:0:0:0:
64,192,104441,1,2,0:0:0:0:
192,192,104441,1,0,0:0:0:0:
320,192,104582,1,2,0:0:0:0:
448,192,104582,1,0,0:0:0:0:
64,192,104723,1,2,0:0:0:0:
192,192,104723,1,4,0:0:0:0:
448,192,104723,1,0,0:0:0:0:
192,192,104864,1,2,0:0:0:0:
320,192,104864,1,0,0:0:0:0:
320,192,105005,1,2,0:0:0:0:
448,192,105005,1,0,0:0:0:0:
64,192,105145,1,2,0:0:0:0:
192,192,105145,1,0,0:0:0:0:
320,192,105286,1,2,0:0:0:0:
448,192,105286,1,0,0:0:0:70:cymbal_short.wav
192,192,105357,1,2,0:0:0:0:
64,192,105427,1,2,0:0:0:0:
448,192,105427,1,0,0:0:0:0:
320,192,105497,1,2,0:0:0:0:
64,192,105568,1,2,0:0:0:0:
192,192,105568,1,0,0:0:0:70:cymbal_short.wav
448,192,105638,1,2,0:0:0:0:
64,192,105709,1,2,0:0:0:0:
320,192,105709,1,0,0:0:0:0:
192,192,105779,1,2,0:0:0:0:
320,192,105850,1,2,0:0:0:0:
448,192,105850,1,0,0:0:0:0:
64,192,105920,1,2,0:0:0:0:
320,192,105990,1,2,0:0:0:0:
448,192,105990,1,0,0:0:0:0:
192,192,106061,1,2,0:0:0:0:
64,192,106131,1,2,0:0:0:0:
448,192,106131,1,0,0:0:0:0:
192,192,106202,1,2,0:0:0:0:
320,192,106202,1,0,0:0:0:0:
64,192,106272,1,2,0:0:0:0:
448,192,106272,1,0,0:0:0:0:
192,192,106343,1,2,0:0:0:0:
64,192,106413,1,2,0:0:0:0:
320,192,106413,128,4,106554:0:0:0:0:
448,192,106413,128,0,106554:0:0:0:0:
192,192,106554,1,0,0:0:0:0:
320,192,106695,1,0,0:0:0:60:snare2.wav
448,192,106695,1,0,0:0:0:0:
192,192,106836,128,0,106976:0:0:0:0:
64,192,106906,1,0,0:0:0:0:
448,192,106976,128,0,107117:0:0:0:0:
320,192,107047,1,0,0:0:0:0:
64,192,107117,128,0,107258:0:0:0:60:snare2.wav
192,192,107117,1,0,0:0:0:0:
320,192,107258,128,0,107399:0:0:0:0:
448,192,107328,1,0,0:0:0:0:
192,192,107399,128,0,107540:0:0:0:0:
320,192,107469,1,0,0:0:0:0:
64,192,107540,128,2,107681:0:0:0:0:
448,192,107540,1,0,0:0:0:50:Tom1.wav
320,192,107681,128,0,107821:0:0:0:0:
192,192,107962,128,0,108103:0:0:0:0:
64,192,108103,128,2,108244:0:0:0:0:
448,192,108103,1,0,0:0:0:0:
320,192,108244,128,0,108596:0:0:0:0:
192,192,108385,128,0,108596:0:0:0:70:snare pop.wav
448,192,108385,128,0,108596:0:0:0:0:
64,192,108526,128,0,108667:0:0:0:0:
192,192,108667,1,2,0:0:0:0:
320,192,108667,1,4,0:0:0:0:
448,192,108667,128,0,108807:0:0:0:0:
64,192,108807,1,0,0:0:0:0:
64,192,108948,128,8,109089:0:0:0:0:
320,192,108948,1,2,0:0:0:0:
448,192,108948,1,0,0:0:0:0:
192,192,109089,1,0,0:0:0:0:
320,192,109089,128,0,109230:0:0:0:0:
192,192,109230,128,2,109371:0:0:0:0:
448,192,109230,1,0,0:0:0:0:
448,192,109371,128,0,109441:0:0:0:0:
64,192,109512,1,8,0:0:0:0:
192,192,109512,1,2,0:0:0:0:
320,192,109512,1,0,0:0:0:0:
448,192,109652,128,0,109723:0:0:0:0:
192,192,109793,1,2,0:0:0:0:
448,192,109793,128,0,109934:0:0:0:0:
64,192,109934,1,0,0:0:0:0:
192,192,110075,128,8,110145:0:0:0:0:
320,192,110075,1,2,0:0:0:0:
448,192,110075,1,0,0:0:0:0:
192,192,110216,128,0,110357:0:0:0:0:
64,192,110357,1,2,0:0:0:0:
448,192,110357,1,0,0:0:0:0:
320,192,110497,128,0,110638:0:0:0:0:
64,192,110638,1,8,0:0:0:0:
192,192,110638,1,2,0:0:0:0:
448,192,110638,1,0,0:0:0:0:
64,192,110779,1,2,0:0:0:0:
320,192,110779,1,0,0:0:0:0:
64,192,110920,128,2,111061:0:0:0:0:
320,192,110920,1,0,0:0:0:0:
448,192,111061,1,0,0:0:0:0:
64,192,111202,1,8,0:0:0:0:
192,192,111202,1,2,0:0:0:0:
448,192,111202,128,0,111343:0:0:0:0:
192,192,111343,128,0,111483:0:0:0:0:
320,192,111343,1,0,0:0:0:0:
320,192,111483,128,2,111624:0:0:0:0:
448,192,111483,1,0,0:0:0:0:
64,192,111624,1,0,0:0:0:0:
64,192,111765,128,8,111906:0:0:0:0:
320,192,111765,1,2,0:0:0:0:
448,192,111765,1,0,0:0:0:0:
192,192,111906,1,0,0:0:0:0:
320,192,111906,128,0,112047:0:0:0:0:
64,192,112047,1,2,0:0:0:0:
192,192,112047,128,0,112188:0:0:0:0:
448,192,112188,128,0,112258:0:0:0:0:
64,192,112328,1,8,0:0:0:0:
320,192,112328,1,2,0:0:0:0:
448,192,112328,128,0,112399:0:0:0:0:
192,192,112469,128,0,112610:0:0:0:0:
320,192,112610,1,2,0:0:0:0:
448,192,112610,1,0,0:0:0:0:
64,192,112751,1,2,0:0:0:0:
448,192,112751,1,0,0:0:0:0:
64,192,112892,1,2,0:0:0:0:
320,192,112892,1,8,0:0:0:0:
448,192,112892,128,0,113033:0:0:0:0:
192,192,113033,128,0,113174:0:0:0:0:
64,192,113174,1,2,0:0:0:0:
320,192,113174,128,4,113314:0:0:0:0:
448,192,113174,1,0,0:0:0:0:
192,192,113314,1,0,0:0:0:0:
192,192,113455,128,8,113596:0:0:0:0:
320,192,113455,1,2,0:0:0:0:
448,192,113455,1,0,0:0:0:0:
64,192,113596,1,0,0:0:0:0:
448,192,113596,128,0,113737:0:0:0:0:
64,192,113737,128,2,113878:0:0:0:0:
320,192,113737,1,0,0:0:0:0:
320,192,113878,128,0,113948:0:0:0:0:
64,192,114019,1,8,0:0:0:0:
192,192,114019,1,2,0:0:0:0:
448,192,114019,1,0,0:0:0:0:
320,192,114159,128,0,114230:0:0:0:0:
64,192,114300,1,2,0:0:0:0:
320,192,114300,128,0,114441:0:0:0:0:
192,192,114441,1,0,0:0:0:0:
64,192,114582,128,8,114652:0:0:0:0:
320,192,114582,1,2,0:0:0:0:
448,192,114582,1,0,0:0:0:0:
64,192,114723,128,0,114864:0:0:0:0:
192,192,114864,1,2,0:0:0:0:
320,192,114864,1,0,0:0:0:0:
448,192,115005,128,0,115145:0:0:0:0:
64,192,115145,1,8,0:0:0:0:
192,192,115145,1,2,0:0:0:0:
320,192,115145,1,0,0:0:0:0:
64,192,115286,1,2,0:0:0:0:
448,192,115286,1,0,0:0:0:0:
192,192,115357,1,2,0:0:0:0:
320,192,115357,1,0,0:0:0:0:
64,192,115427,1,2,0:0:0:0:
448,192,115427,1,0,0:0:0:0:
192,192,115568,1,2,0:0:0:0:
448,192,115568,1,0,0:0:0:0:
64,192,115709,1,2,0:0:0:0:
192,192,115709,1,8,0:0:0:0:
448,192,115709,1,0,0:0:0:0:
64,192,115850,1,0,0:0:0:0:
64,192,115990,1,2,0:0:0:0:
320,192,115990,1,0,0:0:0:0:
320,192,116131,1,0,0:0:0:0:
64,192,116272,1,2,0:0:0:0:
192,192,116272,1,8,0:0:0:0:
320,192,116272,1,0,0:0:0:0:
64,192,116413,1,2,0:0:0:0:
448,192,116413,1,0,0:0:0:0:
192,192,116483,1,2,0:0:0:0:
320,192,116483,1,0,0:0:0:0:
64,192,116554,128,2,116624:0:0:0:0:
448,192,116554,1,0,0:0:0:0:
320,192,116695,1,0,0:0:0:0:
192,192,116765,128,0,116836:0:0:0:0:
320,192,116836,1,2,0:0:0:0:
448,192,116836,1,8,0:0:0:0:
64,192,116906,1,2,0:0:0:0:
192,192,116906,1,0,0:0:0:0:
320,192,116976,128,2,117047:0:0:0:0:
448,192,116976,1,0,0:0:0:0:
64,192,117117,1,2,0:0:0:0:
448,192,117117,128,0,117258:0:0:0:0:
64,192,117258,1,2,0:0:0:0:
320,192,117258,1,0,0:0:0:0:
64,192,117399,128,2,117540:0:0:0:0:
320,192,117399,128,0,117681:0:0:0:70:special voice.wav
448,192,117399,1,0,0:0:0:0:
64,192,117681,1,2,0:0:0:0:
192,192,117681,128,4,117751:0:0:0:0:
448,192,117681,128,0,117751:0:0:0:0:
192,192,117821,128,2,117892:0:0:0:0:
448,192,117821,128,0,117892:0:0:0:0:
64,192,117962,1,8,0:0:0:0:
320,192,117962,1,2,0:0:0:0:
448,192,117962,1,0,0:0:0:0:
192,192,118103,128,0,118174:0:0:0:0:
448,192,118103,128,0,118174:0:0:0:0:
192,192,118244,128,2,118314:0:0:0:0:
448,192,118244,128,0,118314:0:0:0:0:
64,192,118385,1,0,0:0:0:0:
192,192,118526,128,8,118596:0:0:0:0:
320,192,118526,1,2,0:0:0:0:
448,192,118526,128,0,118596:0:0:0:0:
192,192,118667,128,0,118737:0:0:0:0:
448,192,118667,128,0,118737:0:0:0:0:
64,192,118807,1,2,0:0:0:0:
320,192,118807,1,0,0:0:0:0:
192,192,118948,128,0,119019:0:0:0:0:
64,192,119089,1,8,0:0:0:0:
320,192,119089,128,2,119159:0:0:0:0:
448,192,119089,128,0,119159:0:0:0:0:
192,192,119230,1,0,0:0:0:0:
64,192,119371,128,2,119441:0:0:0:0:
448,192,119371,128,0,119441:0:0:0:0:
320,192,119512,1,0,0:0:0:0:
64,192,119652,128,8,119723:0:0:0:0:
192,192,119652,128,2,119723:0:0:0:0:
448,192,119652,1,0,0:0:0:0:
192,192,119793,1,2,0:0:0:0:
448,192,119793,1,0,0:0:0:0:
64,192,119934,128,2,120005:0:0:0:0:
448,192,119934,128,0,120005:0:0:0:0:
320,192,120075,1,0,0:0:0:0:
64,192,120216,128,2,120286:0:0:0:0:
192,192,120216,1,8,0:0:0:0:
448,192,120216,128,0,120286:0:0:0:0:
64,192,120357,128,0,120427:0:0:0:0:
448,192,120357,128,0,120427:0:0:0:0:
192,192,120497,1,2,0:0:0:0:
320,192,120497,1,0,0:0:0:0:
64,192,120638,128,0,120709:0:0:0:0:
448,192,120638,128,0,120709:0:0:0:0:
64,192,120779,128,8,120850:0:0:0:0:
320,192,120779,1,2,0:0:0:0:
448,192,120779,128,0,120850:0:0:0:0:
192,192,120920,1,0,0:0:0:0:
64,192,121061,128,2,121131:0:0:0:0:
320,192,121061,1,0,0:0:0:0:
448,192,121061,128,0,121202:0:0:0:0:
192,192,121202,128,0,121272:0:0:0:0:
64,192,121343,1,8,0:0:0:0:
192,192,121343,128,2,121413:0:0:0:0:
320,192,121343,1,0,0:0:0:0:
448,192,121483,128,0,121624:0:0:0:0:
64,192,121624,1,2,0:0:0:0:
192,192,121624,1,0,0:0:0:0:
320,192,121765,1,2,0:0:0:0:
448,192,121765,1,0,0:0:0:0:
192,192,121836,1,2,0:0:0:0:
64,192,121906,1,2,0:0:0:0:
320,192,121906,1,8,0:0:0:0:
448,192,121906,1,0,0:0:0:0:
192,192,122047,1,0,0:0:0:0:
448,192,122047,1,0,0:0:0:0:
64,192,122188,1,2,0:0:0:0:
192,192,122188,128,4,122258:0:0:0:0:
320,192,122188,128,0,122258:0:0:0:0:
192,192,122328,128,2,122399:0:0:0:0:
320,192,122328,128,0,122399:0:0:0:0:
64,192,122469,1,2,0:0:0:0:
320,192,122469,1,8,0:0:0:0:
448,192,122469,1,0,0:0:0:0:
192,192,122610,128,0,122681:0:0:0:0:
320,192,122610,128,0,122681:0:0:0:0:
192,192,122751,128,2,122821:0:0:0:0:
320,192,122751,128,0,122821:0:0:0:0:
64,192,122892,1,0,0:0:0:0:
192,192,123033,128,8,123103:0:0:0:0:
320,192,123033,128,2,123103:0:0:0:0:
448,192,123033,1,0,0:0:0:0:
192,192,123174,128,0,123244:0:0:0:0:
320,192,123174,128,0,123244:0:0:0:0:
64,192,123314,1,2,0:0:0:0:
448,192,123314,1,0,0:0:0:0:
192,192,123455,128,0,123526:0:0:0:0:
64,192,123596,1,8,0:0:0:0:
320,192,123596,128,2,123667:0:0:0:0:
448,192,123596,128,0,123667:0:0:0:0:
192,192,123737,1,0,0:0:0:0:
64,192,123878,128,2,123948:0:0:0:0:
448,192,123878,128,0,123948:0:0:0:0:
64,192,124019,1,2,0:0:0:0:
320,192,124019,1,0,0:0:0:0:
64,192,124159,128,2,124230:0:0:0:0:
192,192,124159,128,8,124230:0:0:0:0:
448,192,124159,1,0,0:0:0:0:
320,192,124300,1,2,0:0:0:0:
448,192,124300,1,0,0:0:0:0:
192,192,124371,1,2,0:0:0:0:
64,192,124441,128,2,124512:0:0:0:0:
320,192,124441,128,4,124512:0:0:0:0:
448,192,124441,1,0,0:0:0:0:
64,192,124723,128,8,124793:0:0:0:0:
320,192,124723,128,0,124793:0:0:0:0:
64,192,124864,128,0,124934:0:0:0:0:
320,192,124864,128,0,124934:0:0:0:0:
192,192,125005,1,0,0:0:0:70:clap1.wav
320,192,125005,1,0,0:0:0:0:
448,192,125005,1,0,0:0:0:0:
64,192,125145,128,0,125216:0:0:0:0:
320,192,125145,128,0,125216:0:0:0:0:
64,192,125286,128,2,125357:0:0:0:0:
320,192,125286,128,0,125357:0:0:0:0:
192,192,125427,1,2,0:0:0:0:
320,192,125427,1,0,0:0:0:0:
192,192,125568,128,2,125638:0:0:0:0:
448,192,125568,128,0,125638:0:0:0:70:cymbal_short.wav
192,192,125709,128,0,125779:0:0:0:0:
448,192,125709,128,0,125779:0:0:0:0:
64,192,125850,1,0,0:0:0:50:snare hat.wav
320,192,125850,1,0,0:0:0:0:
448,192,125850,1,0,0:0:0:0:
192,192,125990,1,2,0:0:0:0:
320,192,125990,1,0,0:0:0:70:cymbal_short.wav
192,192,126131,1,0,0:0:0:50:snare hat.wav
192,192,126272,1,0,0:0:0:50:snare hat.wav
448,192,126272,1,0,0:0:0:0:
64,192,126413,128,2,126554:0:0:0:0:
448,192,126413,128,0,126554:0:0:0:50:Tom1.wav
64,192,126695,1,2,0:0:0:0:
192,192,126695,1,4,0:0:0:0:
320,192,126695,1,0,0:0:0:50:clap2.wav
448,192,126836,1,0,0:0:0:0:
64,192,126976,1,0,0:0:0:50:clap2.wav
192,192,126976,1,0,0:0:0:0:
448,192,127117,1,0,0:0:0:0:
192,192,127258,1,0,0:0:0:50:clap2.wav
320,192,127258,1,0,0:0:0:0:
64,192,127399,1,0,0:0:0:0:
192,192,127540,1,0,0:0:0:50:clap2.wav
320,192,127540,1,0,0:0:0:0:
64,192,127681,1,0,0:0:0:0:
320,192,127821,1,0,0:0:0:50:clap2.wav
448,192,127821,1,0,0:0:0:0:
192,192,127962,1,0,0:0:0:0:
320,192,128103,1,0,0:0:0:50:clap2.wav
448,192,128103,1,0,0:0:0:0:
192,192,128244,1,0,0:0:0:0:
64,192,128385,1,2,0:0:0:0:
448,192,128385,1,0,0:0:0:0:
192,192,128526,1,2,0:0:0:0:
320,192,128526,1,0,0:0:0:0:
64,192,128596,1,2,0:0:0:0:
448,192,128596,1,0,0:0:0:0:
192,192,128667,1,2,0:0:0:0:
320,192,128667,1,0,0:0:0:0:
192,192,128807,1,2,0:0:0:0:
448,192,128807,1,0,0:0:0:0:
64,192,128948,128,2,129019:0:0:0:0:
320,192,128948,1,4,0:0:0:0:
448,192,128948,128,0,129019:0:0:0:0:
64,192,129089,128,0,129159:0:0:0:0:
448,192,129089,128,0,129159:0:0:0:0:
64,192,129230,1,8,0:0:0:0:
192,192,129230,1,2,0:0:0:0:
320,192,129230,1,0,0:0:0:0:
64,192,129371,128,0,129441:0:0:0:0:
448,192,129371,128,0,129441:0:0:0:0:
64,192,129512,128,2,129582:0:0:0:0:
448,192,129512,128,0,129582:0:0:0:0:
192,192,129652,1,0,0:0:0:0:
64,192,129793,128,8,129864:0:0:0:0:
320,192,129793,1,2,0:0:0:0:
448,192,129793,128,0,129864:0:0:0:0:
64,192,129934,128,0,130005:0:0:0:0:
448,192,129934,128,0,130005:0:0:0:0:
192,192,130075,1,2,0:0:0:0:
320,192,130075,1,0,0:0:0:50:Tom1.wav
192,192,130216,1,0,0:0:0:0:
64,192,130357,1,2,0:0:0:0:
320,192,130357,1,8,0:0:0:0:
448,192,130357,1,0,0:0:0:50:Tom1.wav
320,192,130497,1,0,0:0:0:0:
192,192,130638,1,2,0:0:0:0:
448,192,130638,1,0,0:0:0:50:Tom1.wav
64,192,130779,1,2,0:0:0:0:
320,192,130779,1,0,0:0:0:50:Tom1.wav
192,192,130850,1,2,0:0:0:0:
64,192,130920,1,2,0:0:0:0:
320,192,130920,1,8,0:0:0:0:
448,192,130920,1,0,0:0:0:50:Tom1.wav
192,192,131061,1,2,0:0:0:0:
448,192,131061,1,0,0:0:0:0:
64,192,131202,1,2,0:0:0:0:
192,192,131202,128,4,131272:0:0:0:0:
320,192,131202,128,0,131272:0:0:0:0:
192,192,131343,128,2,131413:0:0:0:0:
320,192,131343,128,0,131413:0:0:0:0:
64,192,131483,1,8,0:0:0:0:
192,192,131483,1,2,0:0:0:0:
448,192,131483,1,0,0:0:0:0:
192,192,131624,128,0,131695:0:0:0:0:
320,192,131624,128,0,131695:0:0:0:0:
192,192,131765,128,2,131836:0:0:0:0:
320,192,131765,128,0,131836:0:0:0:0:
448,192,131906,1,0,0:0:0:0:
64,192,132047,1,8,0:0:0:0:
192,192,132047,128,2,132117:0:0:0:0:
320,192,132047,128,0,132117:0:0:0:0:
192,192,132188,128,0,132258:0:0:0:0:
320,192,132188,128,0,132258:0:0:0:0:
64,192,132328,1,2,0:0:0:0:
448,192,132328,1,0,0:0:0:0:
192,192,132469,128,0,132540:0:0:0:0:
64,192,132610,1,8,0:0:0:0:
320,192,132610,128,2,132681:0:0:0:0:
448,192,132610,128,0,132681:0:0:0:0:
192,192,132751,1,0,0:0:0:0:
64,192,132892,128,2,132962:0:0:0:0:
448,192,132892,128,0,132962:0:0:0:0:
64,192,133033,1,2,0:0:0:0:
320,192,133033,1,0,0:0:0:0:
64,192,133174,128,8,133244:0:0:0:0:
192,192,133174,128,2,133244:0:0:0:0:
448,192,133174,1,0,0:0:0:0:
320,192,133314,1,0,0:0:0:0:
192,192,133385,1,0,0:0:0:0:
64,192,133455,1,2,0:0:0:0:
320,192,133455,1,4,0:0:0:0:
448,192,133455,1,0,0:0:0:0:
64,192,133596,1,0,0:0:0:0:
64,192,133737,1,8,0:0:0:0:
192,192,133737,1,2,0:0:0:0:
448,192,133737,1,0,0:0:0:0:
448,192,133878,1,0,0:0:0:0:
192,192,134019,1,2,0:0:0:0:
320,192,134019,1,4,0:0:0:0:
448,192,134019,1,0,0:0:0:0:
192,192,134159,1,0,0:0:0:0:
64,192,134300,1,8,0:0:0:0:
192,192,134300,1,2,0:0:0:0:
320,192,134300,1,0,0:0:0:0:
320,192,134441,1,0,0:0:0:0:
64,192,134582,128,2,134652:0:0:0:0:
320,192,134582,1,0,0:0:0:70:cymbal_short.wav
448,192,134582,1,0,0:0:0:0:
448,192,134723,1,0,0:0:0:0:
192,192,134793,128,0,134864:0:0:0:0:
64,192,134864,1,8,0:0:0:0:
320,192,134864,1,0,0:0:0:0:
64,192,135005,1,2,0:0:0:0:
320,192,135005,128,0,135075:0:0:0:70:cymbal_short.wav
448,192,135005,1,0,0:0:0:0:
192,192,135145,1,0,0:0:0:0:
448,192,135145,128,0,135286:0:0:0:0:
64,192,135286,1,0,0:0:0:0:
64,192,135427,128,2,135568:0:0:0:0:
192,192,135427,128,0,135709:0:0:0:70:cymbal_short.wav
448,192,135427,128,0,135568:0:0:0:70:special voice.wav
64,192,135709,128,2,135779:0:0:0:0:
320,192,135709,128,4,135779:0:0:0:0:
448,192,135709,1,0,0:0:0:0:
64,192,135850,128,2,135920:0:0:0:0:
320,192,135850,128,0,135920:0:0:0:0:
64,192,135990,1,2,0:0:0:0:
192,192,135990,1,8,0:0:0:0:
448,192,135990,1,0,0:0:0:0:
64,192,136131,128,0,136202:0:0:0:0:
320,192,136131,128,0,136202:0:0:0:0:
64,192,136272,128,2,136343:0:0:0:0:
320,192,136272,128,0,136343:0:0:0:0:
448,192,136413,1,0,0:0:0:0:
64,192,136554,128,8,136624:0:0:0:0:
192,192,136554,1,2,0:0:0:0:
320,192,136554,128,0,136624:0:0:0:0:
64,192,136695,128,0,136765:0:0:0:0:
320,192,136695,128,0,136765:0:0:0:0:
192,192,136836,1,2,0:0:0:0:
448,192,136836,1,0,0:0:0:0:
320,192,136976,128,0,137047:0:0:0:0:
64,192,137117,128,8,137188:0:0:0:0:
192,192,137117,128,2,137188:0:0:0:0:
448,192,137117,1,0,0:0:0:0:
320,192,137258,1,0,0:0:0:0:
64,192,137399,128,2,137469:0:0:0:0:
448,192,137399,128,0,137469:0:0:0:0:
192,192,137540,1,0,0:0:0:0:
64,192,137681,1,8,0:0:0:0:
320,192,137681,128,2,137751:0:0:0:0:
448,192,137681,128,0,137751:0:0:0:0:
192,192,137821,1,2,0:0:0:0:
320,192,137821,1,0,0:0:0:0:
64,192,137962,128,2,138033:0:0:0:0:
192,192,137962,1,0,0:0:0:0:
448,192,137962,128,0,138033:0:0:0:0:
64,192,138103,128,0,138174:0:0:0:0:
448,192,138103,128,0,138174:0:0:0:0:
192,192,138244,1,8,0:0:0:0:
320,192,138244,1,2,0:0:0:0:
448,192,138244,1,0,0:0:0:0:
64,192,138385,128,0,138455:0:0:0:0:
448,192,138385,128,0,138455:0:0:0:0:
64,192,138526,128,2,138596:0:0:0:0:
448,192,138526,128,0,138596:0:0:0:0:
320,192,138667,1,0,0:0:0:0:
64,192,138807,128,2,138878:0:0:0:0:
192,192,138807,1,8,0:0:0:0:
448,192,138807,128,0,138878:0:0:0:0:
64,192,138948,128,0,139019:0:0:0:0:
448,192,138948,128,0,139019:0:0:0:0:
192,192,139089,1,2,0:0:0:0:
320,192,139089,1,0,0:0:0:50:Tom1.wav
192,192,139230,1,0,0:0:0:0:
64,192,139371,1,8,0:0:0:0:
320,192,139371,1,2,0:0:0:0:
448,192,139371,1,0,0:0:0:50:Tom1.wav
320,192,139512,1,0,0:0:0:0:
192,192,139652,1,2,0:0:0:0:
448,192,139652,1,0,0:0:0:50:Tom1.wav
64,192,139793,1,2,0:0:0:0:
320,192,139793,1,0,0:0:0:50:Tom1.wav
192,192,139864,1,2,0:0:0:0:
64,192,139934,1,8,0:0:0:0:
320,192,139934,1,2,0:0:0:0:
448,192,139934,1,0,0:0:0:50:Tom1.wav
192,192,140075,1,2,0:0:0:0:
320,192,140075,1,0,0:0:0:50:Tom1.wav
64,192,140216,1,2,0:0:0:0:
192,192,140216,128,4,140286:0:0:0:0:
448,192,140216,128,0,140286:0:0:0:0:
192,192,140357,128,2,140427:0:0:0:0:
448,192,140357,128,0,140427:0:0:0:0:
64,192,140497,128,8,140638:0:0:0:0:
320,192,140497,1,2,0:0:0:0:
448,192,140497,128,0,140638:0:0:0:70:special voice.wav
192,192,140638,1,0,0:0:0:0:
320,192,140779,128,2,140850:0:0:0:0:
448,192,140779,128,0,140850:0:0:0:0:
192,192,140920,1,0,0:0:0:0:
64,192,141061,128,8,141202:0:0:0:0:
192,192,141061,1,2,0:0:0:0:
448,192,141061,128,0,141202:0:0:0:70:special voice.wav
320,192,141202,1,0,0:0:0:0:
64,192,141343,128,2,141413:0:0:0:0:
192,192,141343,128,0,141413:0:0:0:0:
320,192,141483,1,0,0:0:0:0:
64,192,141624,128,8,141765:0:0:0:0:
320,192,141624,1,2,0:0:0:0:
448,192,141624,128,0,141765:0:0:0:70:special voice.wav
192,192,141765,1,0,0:0:0:0:
320,192,141906,128,2,141976:0:0:0:0:
448,192,141906,128,0,141976:0:0:0:0:
64,192,142047,1,2,0:0:0:0:
320,192,142047,1,0,0:0:0:0:
64,192,142188,128,8,142328:0:0:0:0:
192,192,142188,1,2,0:0:0:0:
448,192,142188,128,0,142258:0:0:0:70:special voice.wav
320,192,142328,1,2,0:0:0:0:
448,192,142328,1,0,0:0:0:0:
192,192,142399,1,2,0:0:0:0:
64,192,142469,1,2,0:0:0:0:
320,192,142469,128,0,142610:0:0:0:0:
448,192,142469,1,0,0:0:0:0:
192,192,142610,1,0,0:0:0:0:
64,192,142751,1,8,0:0:0:0:
192,192,142751,128,2,143033:0:0:0:0:
448,192,142751,128,0,142892:0:0:0:70:special voice.wav
320,192,142892,128,0,143033:0:0:0:0:
64,192,143033,1,2,0:0:0:0:
448,192,143033,1,0,0:0:0:0:
320,192,143174,1,0,0:0:0:0:
64,192,143314,128,8,143455:0:0:0:0:
192,192,143314,1,2,0:0:0:0:
448,192,143314,128,0,143596:0:0:0:70:special voice.wav
320,192,143455,1,0,0:0:0:0:
64,192,143596,1,2,0:0:0:0:
192,192,143596,1,0,0:0:0:70:cymbal_short.wav
320,192,143596,128,0,143878:0:0:0:0:
64,192,143878,1,8,0:0:0:0:
192,192,143878,1,0,0:0:0:0:
448,192,143878,1,0,0:0:0:0:
192,192,144019,1,2,0:0:0:0:
320,192,144019,1,0,0:0:0:70:cymbal_short.wav
64,192,144159,1,0,0:0:0:50:snare hat.wav
448,192,144159,1,0,0:0:0:0:
320,192,144300,1,0,0:0:0:0:
64,192,144441,1,2,0:0:0:0:
192,192,144441,128,0,144723:0:0:0:70:cymbal_short.wav
448,192,144441,1,0,0:0:0:0:
64,192,144723,1,2,0:0:0:0:
320,192,144723,1,4,0:0:0:0:
448,192,144723,1,0,0:0:0:0:
320,192,144864,1,0,0:0:0:0:
64,192,145005,1,8,0:0:0:0:
320,192,145005,1,0,0:0:0:0:
64,192,145145,1,2,0:0:0:0:
448,192,145145,1,0,0:0:0:0:
64,192,145286,1,2,0:0:0:0:
448,192,145286,1,0,0:0:0:0:
320,192,145427,1,0,0:0:0:0:
64,192,145497,1,2,0:0:0:0:
192,192,145497,1,0,0:0:0:0:
320,192,145568,1,8,0:0:0:0:
448,192,145568,1,0,0:0:0:0:
64,192,145709,1,2,0:0:0:0:
320,192,145709,1,0,0:0:0:0:
192,192,145850,1,0,0:0:0:0:
320,192,145920,1,2,0:0:0:0:
448,192,145920,1,0,0:0:0:0:
64,192,145990,1,0,0:0:0:0:
320,192,146061,1,0,0:0:0:0:
192,192,146131,1,2,0:0:0:0:
448,192,146131,1,8,0:0:0:0:
64,192,146272,1,2,0:0:0:0:
320,192,146272,1,0,0:0:0:0:
64,192,146413,1,2,0:0:0:0:
320,192,146413,1,0,0:0:0:0:
192,192,146554,1,2,0:0:0:0:
448,192,146554,1,0,0:0:0:0:
64,192,146624,1,2,0:0:0:0:
320,192,146624,1,0,0:0:0:0:
448,192,146695,1,8,0:0:0:0:
64,192,146765,1,2,0:0:0:0:
320,192,146765,1,0,0:0:0:0:
192,192,146836,1,2,0:0:0:0:
448,192,146836,1,0,0:0:0:0:
64,192,146976,1,2,0:0:0:0:
320,192,146976,1,0,0:0:0:0:
64,192,147117,1,0,0:0:0:0:
64,192,147258,1,8,0:0:0:0:
448,192,147258,1,0,0:0:0:0:
192,192,147399,1,2,0:0:0:0:
448,192,147399,1,0,0:0:0:0:
192,192,147540,1,2,0:0:0:0:
448,192,147540,1,0,0:0:0:0:
64,192,147681,1,0,0:0:0:0:
320,192,147751,1,2,0:0:0:0:
448,192,147751,1,0,0:0:0:0:
64,192,147821,1,8,0:0:0:0:
192,192,147821,1,0,0:0:0:0:
64,192,147962,1,2,0:0:0:0:
448,192,147962,1,0,0:0:0:0:
320,192,148103,1,0,0:0:0:0:
64,192,148174,1,2,0:0:0:0:
192,192,148174,1,0,0:0:0:0:
448,192,148244,1,0,0:0:0:0:
64,192,148314,1,0,0:0:0:0:
192,192,148385,1,2,0:0:0:0:
320,192,148385,1,8,0:0:0:0:
64,192,148526,1,2,0:0:0:0:
448,192,148526,1,0,0:0:0:0:
64,192,148667,1,2,0:0:0:0:
448,192,148667,1,0,0:0:0:0:
64,192,148807,1,2,0:0:0:0:
448,192,148807,1,0,0:0:0:0:
64,192,148948,1,2,0:0:0:0:
448,192,148948,1,8,0:0:0:0:
192,192,149019,1,2,0:0:0:0:
320,192,149019,1,0,0:0:0:0:
64,192,149089,1,2,0:0:0:0:
448,192,149089,1,0,0:0:0:0:
192,192,149230,1,2,0:0:0:0:
320,192,149230,1,4,0:0:0:70:cymbal_short.wav
448,192,149230,1,0,0:0:0:0:
192,192,149371,1,0,0:0:0:0:
192,192,149512,1,8,0:0:0:0:
448,192,149512,1,0,0:0:0:0:
64,192,149652,1,2,0:0:0:0:
448,192,149652,1,0,0:0:0:0:
320,192,149793,1,0,0:0:0:0:
192,192,149934,1,0,0:0:0:0:
320,192,150005,1,0,0:0:0:0:
448,192,150005,1,0,0:0:0:0:
64,192,150075,1,2,0:0:0:0:
192,192,150075,1,8,0:0:0:0:
448,192,150216,1,0,0:0:0:0:
64,192,150357,1,2,0:0:0:0:
320,192,150357,1,4,0:0:0:70:cymbal_short.wav
448,192,150357,1,0,0:0:0:0:
192,192,150497,1,0,0:0:0:0:
320,192,150638,1,8,0:0:0:0:
192,192,150779,1,2,0:0:0:0:
448,192,150779,1,0,0:0:0:0:
64,192,150920,1,2,0:0:0:0:
448,192,150920,1,0,0:0:0:0:
320,192,150967,1,0,0:0:0:0:
192,192,151014,1,0,0:0:0:0:
64,192,151061,1,0,0:0:0:0:
448,192,151108,1,0,0:0:0:0:
320,192,151155,1,0,0:0:0:0:
64,192,151202,1,2,0:0:0:0:
192,192,151202,1,0,0:0:0:50:cymbal_short.wav
448,192,151249,1,0,0:0:0:0:
192,192,151343,1,2,0:0:0:0:
320,192,151343,1,0,0:0:0:60:cymbal_short.wav
64,192,151413,1,0,0:0:0:0:
320,192,151483,1,2,0:0:0:0:
448,192,151483,1,0,0:0:0:70:cymbal_short.wav
192,192,151624,1,0,0:0:0:0:
64,192,151765,1,2,0:0:0:0:
320,192,151765,1,8,0:0:0:0:
448,192,151765,1,0,0:0:0:0:
320,192,151906,1,0,0:0:0:0:
64,192,152047,1,2,0:0:0:0:
448,192,152047,1,0,0:0:0:70:cymbal_short.wav
64,192,152188,1,2,0:0:0:0:
320,192,152188,1,0,0:0:0:0:
320,192,152328,1,2,0:0:0:0:
448,192,152328,1,0,0:0:0:0:
64,192,152399,1,2,0:0:0:0:
192,192,152399,1,0,0:0:0:0:
320,192,152469,1,2,0:0:0:0:
448,192,152469,1,0,0:0:0:0:
192,192,152540,1,2,0:0:0:0:
64,192,152610,1,2,0:0:0:0:
320,192,152610,1,4,0:0:0:70:cymbal_short.wav
448,192,152610,1,0,0:0:0:0:
64,192,152751,1,0,0:0:0:0:
192,192,152892,1,8,0:0:0:0:
448,192,152892,1,0,0:0:0:0:
64,192,153033,1,2,0:0:0:0:
448,192,153033,1,0,0:0:0:70:cymbal_short.wav
64,192,153174,1,0,0:0:0:0:
192,192,153314,1,8,0:0:0:0:
448,192,153314,1,0,0:0:0:0:
64,192,153455,128,4,153596:0:0:0:70:cymbal_short.wav
448,192,153455,128,0,153737:0:0:0:50:Tom2.wav
192,192,153596,1,0,0:0:0:0:
64,192,153737,128,2,153878:0:0:0:0:
192,192,153737,128,4,154019:0:0:0:70:cymbal_short.wav
320,192,153737,1,0,0:0:0:0:
320,192,153878,128,0,154019:0:0:0:0:
448,192,153878,128,0,154019:0:0:0:0:
