osu file format v14

[General]
AudioFilename: audio.mp3
AudioLeadIn: 0
PreviewTime: 108258
Countdown: 0
SampleSet: Soft
StackLeniency: 0.7
Mode: 3
LetterboxInBreaks: 0
SpecialStyle: 0
WidescreenStoryboard: 1

[Editor]
Bookmarks: 15723,63047
DistanceSpacing: 0.8
BeatDivisor: 4
GridSize: 4
TimelineZoom: 1.750001

[Metadata]
Title:Cthugha
TitleUnicode:Cthugha
Artist:USAO
ArtistUnicode:USAO
Creator:Draftnell
Version:Past
Source:Muse Dash
Tags:frenchcore hardstyle phigros RESPECT V fire Cthulhu Mythos god Great Old One うさお electronic instrumental video game videogame donotmess rhezie agayers angki syadow- DenYi hardcore tano*c tanoc tokyo techno jcore j-core vocal sample tcdr-0068
BeatmapID:2869257
BeatmapSetID:1381405

[Difficulty]
HPDrainRate:6.5
CircleSize:4
OverallDifficulty:7
ApproachRate:5
SliderMultiplier:1.4
SliderTickRate:1

[Events]
//Background and Video events
0,0,"BG.jpg",0,0
//Break Periods
//Storyboard Layer 0 (Background)
//Storyboard Layer 1 (Fail)
//Storyboard Layer 2 (Pass)
//Storyboard Layer 3 (Foreground)
//Storyboard Layer 4 (Overlay)
//Storyboard Sound Samples

[TimingPoints]
498,281.69014084507,4,2,1,50,1,0
108667,-100,4,2,1,50,0,1
144723,-100,4,2,1,50,0,0

[HitObjects]
64,192,498,5,4,0:0:0:0:
448,192,498,1,0,0:0:0:50:clap2.wav
320,192,1061,1,0,0:0:0:50:clap2.wav
64,192,1624,1,0,0:0:0:50:clap2.wav
448,192,1765,1,0,0:0:0:0:
192,192,1906,1,0,0:0:0:0:
320,192,2188,128,0,2469:0:0:0:50:clap2.wav
64,192,2469,128,0,2751:0:0:0:0:
448,192,2751,128,0,3033:0:0:0:50:clap2.wav
64,192,3033,1,0,0:0:0:0:
192,192,3174,128,0,3455:0:0:0:0:
448,192,3455,1,0,0:0:0:0:
320,192,3596,128,0,3878:0:0:0:0:
64,192,3878,1,0,0:0:0:50:clap2.wav
192,192,4019,1,0,0:0:0:0:
448,192,4159,1,0,0:0:0:0:
320,192,4300,1,0,0:0:0:0:
192,192,4441,1,0,0:0:0:50:clap2.wav
64,192,4582,1,0,0:0:0:0:
320,192,4723,128,0,5005:0:0:0:0:
64,192,5005,1,6,0:0:0:0:
448,192,5005,1,0,0:0:0:50:clap2.wav
192,192,5427,1,0,0:0:0:0:
448,192,5568,1,0,0:0:0:50:clap2.wav
64,192,5709,1,0,0:0:0:0:
192,192,5850,1,0,0:0:0:0:
448,192,6131,1,0,0:0:0:50:clap2.wav
320,192,6413,1,0,0:0:0:0:
192,192,6695,1,0,0:0:0:50:clap2.wav
320,192,6976,1,0,0:0:0:0:
64,192,7258,128,0,7540:0:0:0:50:clap2.wav
320,192,7540,1,0,0:0:0:0:
448,192,7681,128,0,7962:0:0:0:0:
64,192,7962,1,0,0:0:0:0:
192,192,8103,128,0,8385:0:0:0:0:
320,192,8385,1,4,0:0:0:0:
448,192,8385,1,2,0:0:0:0:
64,192,8667,1,8,0:0:0:0:
192,192,8667,1,0,0:0:0:0:
448,192,8807,1,2,0:0:0:0:
64,192,8948,1,0,0:0:0:45:Tom1.wav
192,192,9019,1,0,0:0:0:45:Tom1.wav
320,192,9089,1,0,0:0:0:45:Tom1.wav
64,192,9230,1,0,0:0:0:45:Tom1.wav
448,192,9230,1,0,0:0:0:0:
192,192,9371,1,0,0:0:0:45:Tom1.wav
320,192,9512,1,2,0:0:0:0:
448,192,9512,1,4,0:0:0:0:
64,192,9652,1,0,0:0:0:0:
448,192,9793,1,8,0:0:0:0:
192,192,9934,1,0,0:0:0:0:
320,192,10075,1,0,0:0:0:0:
64,192,10216,1,2,0:0:0:0:
320,192,10357,1,8,0:0:0:0:
448,192,10357,1,0,0:0:0:0:
192,192,10497,1,0,0:0:0:0:
448,192,10638,1,2,0:0:0:0:
64,192,10920,1,8,0:0:0:0:
192,192,10920,1,0,0:0:0:0:
448,192,11061,1,0,0:0:0:0:
64,192,11202,1,0,0:0:0:0:
320,192,11343,1,2,0:0:0:0:
192,192,11483,1,8,0:0:0:0:
320,192,11624,1,0,0:0:0:50:clap2.wav
448,192,11765,128,2,12047:0:0:0:0:
64,192,12047,1,8,0:0:0:0:
320,192,12188,1,0,0:0:0:0:
192,192,12328,128,0,12610:0:0:0:0:
64,192,12469,1,2,0:0:0:0:
448,192,12610,1,8,0:0:0:0:
320,192,12751,1,0,0:0:0:0:
64,192,12892,1,2,0:0:0:0:
448,192,12892,128,0,14019:0:0:0:0:
64,192,14019,1,4,0:0:0:0:
320,192,14019,1,2,0:0:0:0:
192,192,14300,1,0,0:0:0:0:
64,192,14582,1,0,0:0:0:70:clap1.wav
448,192,14582,1,0,0:0:0:0:
320,192,14723,1,0,0:0:0:0:
320,192,14864,1,2,0:0:0:0:
448,192,15005,1,2,0:0:0:0:
64,192,15145,1,0,0:0:0:0:
64,192,15286,1,0,0:0:0:0:
192,192,15427,1,2,0:0:0:0:
320,192,15427,1,0,0:0:0:0:
448,192,15568,1,0,0:0:0:0:
64,192,15709,128,0,15990:0:0:0:70:clap1.wav
192,192,15850,128,0,15990:0:0:0:0:
448,192,15990,1,0,0:0:0:0:
192,192,16272,1,2,0:0:0:0:
320,192,16272,1,0,0:0:0:0:
64,192,16413,128,0,16554:0:0:0:0:
448,192,16554,128,0,16836:0:0:0:0:
64,192,16836,1,0,0:0:0:70:clap1.wav
192,192,16836,1,0,0:0:0:0:
320,192,16976,1,0,0:0:0:0:
320,192,17117,1,0,0:0:0:0:
64,192,17258,1,2,0:0:0:0:
448,192,17399,128,2,17540:0:0:0:0:
320,192,17540,128,2,17681:0:0:0:0:
192,192,17681,128,2,17962:0:0:0:0:
64,192,17962,1,0,0:0:0:45:Tom2.wav
320,192,18103,1,0,0:0:0:45:Tom2.wav
448,192,18244,128,0,18526:0:0:0:0:
64,192,18526,1,2,0:0:0:0:
192,192,18526,1,0,0:0:0:70:cymbal_short.wav
448,192,18948,1,0,0:0:0:0:
64,192,19089,1,0,0:0:0:0:
320,192,19230,1,0,0:0:0:0:
192,192,19371,1,0,0:0:0:0:
448,192,19512,1,0,0:0:0:0:
64,192,19652,1,2,0:0:0:0:
320,192,19652,1,0,0:0:0:50:Tom1.wav
192,192,19793,128,0,20075:0:0:0:0:
448,192,19934,1,0,0:0:0:50:snare hat.wav
64,192,20075,1,0,0:0:0:50:snare hat.wav
320,192,20216,128,0,20779:0:0:0:50:snare hat.wav
192,192,20497,128,2,20779:0:0:0:0:
64,192,20779,1,2,0:0:0:0:
448,192,20779,1,4,0:0:0:0:
64,192,21061,1,8,0:0:0:0:
192,192,21061,1,2,0:0:0:0:
320,192,21343,1,2,0:0:0:0:
64,192,21624,1,8,0:0:0:0:
448,192,21624,1,2,0:0:0:0:
192,192,21906,1,2,0:0:0:0:
320,192,22188,1,8,0:0:0:0:
448,192,22188,1,2,0:0:0:0:
64,192,22469,1,2,0:0:0:0:
192,192,22751,1,8,0:0:0:0:
320,192,22751,1,2,0:0:0:0:
448,192,22892,1,2,0:0:0:0:
64,192,23033,1,2,0:0:0:0:
320,192,23314,1,8,0:0:0:0:
448,192,23314,1,2,0:0:0:0:
192,192,23596,1,2,0:0:0:0:
64,192,23878,1,8,0:0:0:0:
320,192,23878,1,2,0:0:0:0:
448,192,24159,1,2,0:0:0:0:
192,192,24441,1,8,0:0:0:0:
320,192,24441,1,2,0:0:0:0:
64,192,24723,1,2,0:0:0:0:
192,192,24864,1,2,0:0:0:0:
448,192,25005,1,10,0:0:0:0:
320,192,25145,1,2,0:0:0:0:
64,192,25286,1,2,0:0:0:0:
448,192,25286,1,4,0:0:0:0:
192,192,25427,1,0,0:0:0:0:
320,192,25568,1,8,0:0:0:0:
448,192,25568,1,2,0:0:0:0:
64,192,25709,1,0,0:0:0:0:
448,192,25850,1,2,0:0:0:0:
320,192,25990,1,0,0:0:0:0:
64,192,26131,1,8,0:0:0:0:
192,192,26131,1,2,0:0:0:0:
448,192,26272,1,0,0:0:0:0:
64,192,26413,1,2,0:0:0:0:
64,192,26554,1,0,0:0:0:0:
192,192,26695,1,8,0:0:0:0:
320,192,26695,1,2,0:0:0:0:
448,192,26836,1,0,0:0:0:0:
64,192,26976,1,2,0:0:0:0:
320,192,27117,1,0,0:0:0:0:
192,192,27258,1,8,0:0:0:0:
448,192,27258,1,2,0:0:0:0:
64,192,27399,1,2,0:0:0:0:
192,192,27469,1,2,0:0:0:0:
320,192,27540,1,2,0:0:0:0:
448,192,27540,1,0,0:0:0:50:Tom1.wav
64,192,27681,1,2,0:0:0:0:
448,192,27821,1,10,0:0:0:0:
320,192,27962,1,0,0:0:0:0:
64,192,28103,1,2,0:0:0:0:
448,192,28244,1,0,0:0:0:0:
192,192,28385,1,10,0:0:0:0:
320,192,28526,1,2,0:0:0:0:
192,192,28596,1,2,0:0:0:0:
64,192,28667,1,2,0:0:0:0:
448,192,28667,1,0,0:0:0:70:cymbal_short.wav
320,192,28948,1,8,0:0:0:0:
64,192,29089,1,2,0:0:0:0:
192,192,29089,1,0,0:0:0:70:cymbal_short.wav
448,192,29371,1,2,0:0:0:0:
320,192,29512,1,2,0:0:0:0:
64,192,29652,1,2,0:0:0:0:
192,192,29723,1,2,0:0:0:0:
320,192,29793,1,2,0:0:0:0:
448,192,29793,1,4,0:0:0:0:
64,192,30075,1,8,0:0:0:0:
448,192,30075,1,2,0:0:0:0:
192,192,30357,1,2,0:0:0:0:
320,192,30638,1,8,0:0:0:0:
448,192,30638,1,2,0:0:0:0:
64,192,30920,1,2,0:0:0:0:
192,192,31202,1,8,0:0:0:0:
320,192,31202,1,2,0:0:0:0:
448,192,31483,1,2,0:0:0:0:
64,192,31765,1,8,0:0:0:0:
192,192,31765,1,2,0:0:0:0:
320,192,31906,1,2,0:0:0:0:
64,192,32047,128,2,32328:0:0:0:0:
448,192,32047,1,0,0:0:0:0:
192,192,32328,1,10,0:0:0:0:
448,192,32469,128,0,32610:0:0:0:0:
320,192,32610,1,2,0:0:0:0:
192,192,32751,1,0,0:0:0:0:
64,192,32892,128,10,33033:0:0:0:0:
320,192,33033,1,0,0:0:0:0:
192,192,33174,1,2,0:0:0:0:
448,192,33174,1,0,0:0:0:50:Tom1.wav
64,192,33455,1,10,0:0:0:0:
192,192,33455,1,0,0:0:0:50:Tom1.wav
320,192,33737,1,2,0:0:0:0:
192,192,33878,1,2,0:0:0:0:
320,192,33948,1,2,0:0:0:0:
448,192,34019,1,10,0:0:0:0:
64,192,34159,1,2,0:0:0:0:
192,192,34300,1,6,0:0:0:0:
320,192,34300,1,0,0:0:0:50:Tom1.wav
320,192,34582,1,10,0:0:0:0:
448,192,34582,1,0,0:0:0:45:snare1.wav
64,192,34864,1,2,0:0:0:0:
192,192,34864,1,0,0:0:0:50:Tom1.wav
64,192,35145,1,10,0:0:0:0:
448,192,35145,1,0,0:0:0:45:snare1.wav
192,192,35427,1,2,0:0:0:0:
448,192,35427,1,0,0:0:0:50:Tom1.wav
64,192,35709,1,10,0:0:0:0:
192,192,35709,1,0,0:0:0:45:snare1.wav
64,192,35990,1,2,0:0:0:0:
448,192,35990,1,0,0:0:0:50:Tom1.wav
192,192,36272,1,2,0:0:0:0:
448,192,36272,1,8,0:0:0:0:
64,192,36413,1,2,0:0:0:0:
320,192,36554,128,2,36836:0:0:0:0:
64,192,36836,1,10,0:0:0:0:
448,192,36976,1,2,0:0:0:0:
320,192,37047,1,2,0:0:0:0:
192,192,37117,1,2,0:0:0:0:
64,192,37258,1,2,0:0:0:0:
448,192,37399,128,10,37681:0:0:0:0:
192,192,37681,1,2,0:0:0:0:
320,192,37681,1,0,0:0:0:70:cymbal_short.wav
64,192,37962,1,10,0:0:0:0:
192,192,37962,1,0,0:0:0:70:cymbal_short.wav
320,192,38244,1,2,0:0:0:0:
448,192,38244,1,0,0:0:0:70:cymbal_short.wav
64,192,38385,1,2,0:0:0:0:
192,192,38455,1,2,0:0:0:0:
320,192,38526,1,2,0:0:0:0:
64,192,38807,1,2,0:0:0:0:
448,192,38807,1,4,0:0:0:0:
192,192,39089,1,8,0:0:0:0:
320,192,39089,1,2,0:0:0:0:
64,192,39371,1,2,0:0:0:0:
320,192,39652,1,8,0:0:0:0:
448,192,39652,1,2,0:0:0:0:
192,192,39934,1,2,0:0:0:0:
64,192,40216,1,8,0:0:0:0:
448,192,40216,1,2,0:0:0:0:
320,192,40497,1,2,0:0:0:0:
64,192,40779,1,8,0:0:0:0:
192,192,40779,1,2,0:0:0:0:
320,192,40920,1,2,0:0:0:0:
448,192,41061,1,2,0:0:0:0:
64,192,41343,128,8,41624:0:0:0:0:
192,192,41343,1,2,0:0:0:0:
448,192,41624,1,2,0:0:0:0:
320,192,41765,128,0,42047:0:0:0:0:
64,192,42047,1,0,0:0:0:0:
192,192,42188,1,2,0:0:0:0:
448,192,42188,1,0,0:0:0:0:
64,192,42469,1,8,0:0:0:0:
192,192,42469,1,2,0:0:0:0:
320,192,42751,1,2,0:0:0:0:
448,192,42751,1,0,0:0:0:0:
64,192,42892,1,2,0:0:0:0:
192,192,42962,1,2,0:0:0:0:
320,192,43033,1,10,0:0:0:0:
192,192,43174,1,2,0:0:0:0:
64,192,43314,1,6,0:0:0:0:
448,192,43314,1,0,0:0:0:50:Tom1.wav
320,192,43455,1,0,0:0:0:0:
64,192,43596,1,10,0:0:0:0:
192,192,43596,1,0,0:0:0:45:snare1.wav
448,192,43737,1,0,0:0:0:0:
192,192,43878,1,2,0:0:0:0:
320,192,43878,1,0,0:0:0:45:snare1.wav
64,192,44019,1,0,0:0:0:0:
320,192,44159,1,10,0:0:0:0:
448,192,44159,1,0,0:0:0:45:snare1.wav
64,192,44300,1,2,0:0:0:0:
192,192,44371,1,2,0:0:0:0:
320,192,44441,1,2,0:0:0:0:
448,192,44441,1,0,0:0:0:45:snare1.wav
64,192,44582,1,2,0:0:0:0:
192,192,44723,1,10,0:0:0:0:
320,192,44723,1,0,0:0:0:45:snare1.wav
64,192,44864,1,0,0:0:0:0:
192,192,45005,1,2,0:0:0:0:
448,192,45005,1,0,0:0:0:45:snare1.wav
320,192,45145,1,2,0:0:0:0:
192,192,45216,1,2,0:0:0:0:
64,192,45286,1,10,0:0:0:0:
192,192,45427,1,2,0:0:0:0:
320,192,45497,1,2,0:0:0:0:
448,192,45568,1,2,0:0:0:0:
64,192,45709,1,2,0:0:0:0:
448,192,45779,1,2,0:0:0:0:
192,192,45850,1,2,0:0:0:0:
320,192,45990,1,2,0:0:0:0:
192,192,46061,1,2,0:0:0:0:
64,192,46131,1,2,0:0:0:0:
448,192,46272,1,2,0:0:0:0:
192,192,46413,1,2,0:0:0:0:
320,192,46554,1,2,0:0:0:0:
64,192,46695,1,2,0:0:0:0:
448,192,46695,1,4,0:0:0:0:
320,192,46976,1,8,0:0:0:0:
448,192,46976,1,0,0:0:0:0:
192,192,47117,1,2,0:0:0:0:
320,192,47258,1,2,0:0:0:0:
192,192,47399,1,8,0:0:0:0:
64,192,47540,128,2,47821:0:0:0:0:
448,192,47540,1,0,0:0:0:70:snare pop.wav
320,192,47821,1,6,0:0:0:0:
64,192,47962,1,0,0:0:0:0:
192,192,48103,1,2,0:0:0:0:
448,192,48103,1,8,0:0:0:0:
320,192,48244,1,0,0:0:0:0:
64,192,48385,1,2,0:0:0:0:
448,192,48526,1,0,0:0:0:0:
192,192,48667,1,2,0:0:0:0:
320,192,48667,1,8,0:0:0:0:
64,192,48807,1,0,0:0:0:0:
320,192,48948,1,2,0:0:0:0:
192,192,49089,1,0,0:0:0:0:
64,192,49230,1,2,0:0:0:0:
448,192,49230,1,8,0:0:0:0:
320,192,49371,1,0,0:0:0:0:
192,192,49512,1,2,0:0:0:0:
448,192,49652,1,0,0:0:0:0:
64,192,49793,1,2,0:0:0:0:
192,192,49793,1,8,0:0:0:0:
320,192,49934,1,2,0:0:0:0:
64,192,50075,1,2,0:0:0:0:
448,192,50075,1,0,0:0:0:0:
64,192,50357,128,2,50638:0:0:0:0:
192,192,50357,1,8,0:0:0:0:
320,192,50638,1,2,0:0:0:0:
448,192,50638,1,0,0:0:0:0:
64,192,50920,1,2,0:0:0:0:
192,192,50920,128,8,51202:0:0:0:0:
320,192,51202,1,2,0:0:0:0:
448,192,51202,1,0,0:0:0:0:
64,192,51343,1,0,0:0:0:0:
320,192,51483,1,10,0:0:0:0:
192,192,51624,1,0,0:0:0:0:
448,192,51765,1,2,0:0:0:0:
320,192,51906,1,2,0:0:0:0:
64,192,52047,1,8,0:0:0:0:
192,192,52047,1,2,0:0:0:0:
64,192,52328,1,2,0:0:0:0:
448,192,52328,1,4,0:0:0:0:
192,192,52469,1,0,0:0:0:0:
320,192,52610,1,10,0:0:0:0:
448,192,52610,1,0,0:0:0:70:special voice.wav
64,192,52751,1,0,0:0:0:0:
448,192,52892,1,2,0:0:0:0:
320,192,53033,1,0,0:0:0:0:
64,192,53174,1,10,0:0:0:0:
192,192,53174,1,0,0:0:0:70:special voice.wav
448,192,53314,1,0,0:0:0:0:
64,192,53455,1,2,0:0:0:0:
320,192,53596,1,0,0:0:0:0:
192,192,53737,1,10,0:0:0:0:
448,192,53737,1,0,0:0:0:70:special voice.wav
64,192,53878,1,0,0:0:0:0:
320,192,54019,1,2,0:0:0:0:
192,192,54159,1,0,0:0:0:0:
64,192,54300,1,10,0:0:0:0:
448,192,54300,1,0,0:0:0:70:special voice.wav
320,192,54441,1,2,0:0:0:0:
192,192,54512,1,2,0:0:0:0:
64,192,54582,1,2,0:0:0:0:
192,192,54723,1,2,0:0:0:0:
320,192,54793,1,2,0:0:0:0:
448,192,54864,1,2,0:0:0:0:
320,192,55005,1,2,0:0:0:0:
192,192,55075,1,2,0:0:0:0:
64,192,55145,1,2,0:0:0:0:
320,192,55286,1,2,0:0:0:0:
192,192,55427,1,10,0:0:0:0:
320,192,55568,1,2,0:0:0:0:
64,192,55709,1,2,0:0:0:0:
448,192,55709,1,0,0:0:0:70:cymbal_short.wav
320,192,55990,128,0,56272:0:0:0:0:
192,192,56272,1,2,0:0:0:0:
64,192,56554,128,0,56836:0:0:0:50:hat1.wav
448,192,56554,128,0,56836:0:0:0:0:
192,192,56836,1,6,0:0:0:0:
320,192,57117,1,8,0:0:0:0:
448,192,57117,1,0,0:0:0:0:
64,192,57540,1,2,0:0:0:0:
192,192,57681,1,8,0:0:0:0:
320,192,57681,1,0,0:0:0:0:
448,192,57962,1,2,0:0:0:0:
192,192,58244,1,8,0:0:0:0:
320,192,58244,1,0,0:0:0:0:
64,192,58667,1,2,0:0:0:0:
448,192,58807,1,8,0:0:0:0:
320,192,58948,1,0,0:0:0:50:clap2.wav
64,192,59089,128,2,59371:0:0:0:0:
192,192,59089,1,0,0:0:0:0:
448,192,59371,1,8,0:0:0:0:
320,192,59652,128,0,59934:0:0:0:0:
64,192,59793,1,2,0:0:0:0:
192,192,59934,1,8,0:0:0:0:
64,192,60216,128,2,61061:0:0:0:0:
448,192,60216,1,0,0:0:0:70:cymbal_short.wav
192,192,61061,1,0,0:0:0:70:snare pop.wav
320,192,61343,1,4,0:0:0:0:
448,192,61343,128,2,61624:0:0:0:0:
192,192,61624,1,0,0:0:0:0:
64,192,61765,1,0,0:0:0:0:
192,192,61906,1,0,0:0:0:70:clap1.wav
448,192,61906,1,0,0:0:0:0:
320,192,62047,1,0,0:0:0:0:
320,192,62188,1,2,0:0:0:0:
192,192,62328,1,2,0:0:0:0:
448,192,62469,1,0,0:0:0:0:
448,192,62610,1,0,0:0:0:0:
64,192,62751,1,2,0:0:0:0:
320,192,62892,1,0,0:0:0:0:
64,192,63033,128,0,63314:0:0:0:70:clap1.wav
192,192,63033,1,0,0:0:0:0:
448,192,63314,1,0,0:0:0:0:
320,192,63455,1,0,0:0:0:0:
64,192,63596,1,2,0:0:0:0:
448,192,63737,1,0,0:0:0:0:
192,192,63878,128,0,64159:0:0:0:0:
320,192,64159,1,0,0:0:0:70:clap1.wav
448,192,64159,1,0,0:0:0:0:
64,192,64300,1,0,0:0:0:0:
64,192,64441,1,0,0:0:0:0:
448,192,64582,1,2,0:0:0:0:
320,192,64723,1,0,0:0:0:0:
320,192,64864,1,0,0:0:0:0:
192,192,65005,1,2,0:0:0:0:
448,192,65145,1,0,0:0:0:0:
64,192,65286,1,2,0:0:0:70:clap1.wav
192,192,65286,1,0,0:0:0:0:
320,192,65427,1,0,0:0:0:0:
192,192,65568,1,0,0:0:0:0:
448,192,65568,128,0,65850:0:0:0:0:
64,192,65850,128,2,66131:0:0:0:0:
320,192,65850,1,4,0:0:0:0:
448,192,66131,1,0,0:0:0:70:special voice.wav
192,192,66272,1,0,0:0:0:0:
64,192,66413,1,0,0:0:0:70:clap1.wav
320,192,66413,1,0,0:0:0:0:
64,192,66554,1,0,0:0:0:0:
448,192,66695,1,2,0:0:0:0:
192,192,66836,1,2,0:0:0:0:
320,192,66976,1,0,0:0:0:0:
64,192,67117,1,2,0:0:0:0:
448,192,67258,1,0,0:0:0:70:special voice.wav
448,192,67399,1,0,0:0:0:0:
192,192,67540,128,0,67821:0:0:0:70:clap1.wav
320,192,67540,1,0,0:0:0:0:
64,192,67821,1,0,0:0:0:70:special voice.wav
64,192,68103,1,2,0:0:0:0:
448,192,68103,1,0,0:0:0:0:
192,192,68244,1,0,0:0:0:0:
448,192,68385,1,0,0:0:0:0:
64,192,68526,1,0,0:0:0:0:
320,192,68667,1,0,0:0:0:70:clap1.wav
448,192,68667,1,0,0:0:0:0:
192,192,68807,1,0,0:0:0:0:
448,192,68948,1,0,0:0:0:0:
64,192,69089,1,0,0:0:0:0:
320,192,69230,1,2,0:0:0:0:
192,192,69371,1,0,0:0:0:0:
448,192,69512,1,2,0:0:0:0:
64,192,69652,1,0,0:0:0:0:
192,192,69793,1,0,0:0:0:70:clap1.wav
320,192,69793,1,0,0:0:0:0:
448,192,69934,1,2,0:0:0:0:
64,192,70075,128,0,70357:0:0:0:0:
192,192,70357,1,2,0:0:0:0:
448,192,70357,128,4,70638:0:0:0:0:
64,192,70638,1,0,0:0:0:0:
320,192,70779,1,0,0:0:0:0:
64,192,70920,1,0,0:0:0:70:clap1.wav
192,192,70920,1,0,0:0:0:0:
448,192,71061,1,0,0:0:0:0:
320,192,71202,1,2,0:0:0:0:
64,192,71343,1,2,0:0:0:0:
192,192,71483,1,0,0:0:0:0:
192,192,71624,1,0,0:0:0:0:
448,192,71765,1,2,0:0:0:0:
64,192,71906,1,0,0:0:0:0:
192,192,72047,1,0,0:0:0:70:clap1.wav
320,192,72047,128,0,72328:0:0:0:0:
64,192,72328,1,0,0:0:0:0:
192,192,72469,1,0,0:0:0:0:
320,192,72610,1,2,0:0:0:0:
64,192,72751,1,0,0:0:0:0:
448,192,72892,128,0,73174:0:0:0:0:
64,192,73174,1,0,0:0:0:70:clap1.wav
192,192,73174,1,0,0:0:0:0:
320,192,73314,1,0,0:0:0:0:
320,192,73455,1,0,0:0:0:0:
192,192,73596,1,2,0:0:0:0:
64,192,73737,128,0,74019:0:0:0:0:
448,192,74019,1,2,0:0:0:0:
192,192,74159,1,0,0:0:0:0:
64,192,74300,1,0,0:0:0:70:clap1.wav
320,192,74300,128,0,74582:0:0:0:0:
192,192,74582,128,0,74864:0:0:0:0:
64,192,74864,1,2,0:0:0:0:
448,192,74864,1,4,0:0:0:0:
320,192,75005,1,0,0:0:0:0:
64,192,75145,1,0,0:0:0:0:
448,192,75286,1,0,0:0:0:0:
192,192,75427,1,0,0:0:0:70:clap1.wav
320,192,75427,1,0,0:0:0:0:
64,192,75568,1,0,0:0:0:0:
448,192,75709,1,2,0:0:0:0:
192,192,75850,1,2,0:0:0:0:
320,192,75990,1,0,0:0:0:0:
64,192,76131,1,2,0:0:0:0:
448,192,76272,1,0,0:0:0:0:
192,192,76413,1,0,0:0:0:0:
320,192,76554,1,0,0:0:0:70:clap1.wav
448,192,76554,1,0,0:0:0:0:
64,192,76695,1,0,0:0:0:0:
448,192,76836,128,0,77117:0:0:0:0:
64,192,77117,128,4,77399:0:0:0:0:
192,192,77117,128,2,77399:0:0:0:0:
320,192,77681,128,0,77962:0:0:0:70:clap1.wav
448,192,77681,128,0,77962:0:0:0:0:
192,192,77962,1,0,0:0:0:0:
192,192,78103,1,0,0:0:0:0:
64,192,78244,1,2,0:0:0:0:
448,192,78385,128,0,78667:0:0:0:0:
192,192,78667,1,0,0:0:0:50:snare hat.wav
320,192,78807,128,0,79089:0:0:0:50:snare hat.wav
64,192,79089,128,0,79371:0:0:0:50:hat1.wav
320,192,79371,1,6,0:0:0:0:
448,192,79371,1,0,0:0:0:40:clap2.wav
64,192,79652,1,0,0:0:0:40:clap2.wav
448,192,79934,1,0,0:0:0:40:clap2.wav
192,192,80216,1,0,0:0:0:40:clap2.wav
320,192,80497,1,0,0:0:0:40:clap2.wav
64,192,80779,1,0,0:0:0:40:clap2.wav
448,192,81061,1,0,0:0:0:40:clap2.wav
192,192,81343,1,0,0:0:0:40:clap2.wav
448,192,81624,128,0,81906:0:0:0:40:clap2.wav
64,192,81906,128,0,82188:0:0:0:40:clap2.wav
448,192,82188,1,0,0:0:0:40:clap2.wav
320,192,82328,128,0,82610:0:0:0:0:
64,192,82610,1,0,0:0:0:0:
448,192,82751,1,0,0:0:0:40:clap2.wav
192,192,82892,1,0,0:0:0:0:
320,192,83033,1,0,0:0:0:40:clap2.wav
64,192,83174,1,0,0:0:0:0:
448,192,83314,1,0,0:0:0:40:clap2.wav
192,192,83596,128,0,83878:0:0:0:40:clap2.wav
64,192,83878,1,6,0:0:0:0:
448,192,83878,1,0,0:0:0:40:clap2.wav
320,192,84159,1,0,0:0:0:40:clap2.wav
64,192,84441,1,0,0:0:0:40:clap2.wav
448,192,84723,1,0,0:0:0:40:clap2.wav
192,192,85005,1,0,0:0:0:40:clap2.wav
320,192,85286,1,0,0:0:0:40:clap2.wav
64,192,85568,1,0,0:0:0:40:clap2.wav
448,192,85850,1,0,0:0:0:40:clap2.wav
64,192,86131,1,0,0:0:0:40:clap2.wav
320,192,86413,128,0,86695:0:0:0:40:clap2.wav
448,192,86695,1,0,0:0:0:40:clap2.wav
192,192,86836,128,0,87117:0:0:0:0:
448,192,87117,1,0,0:0:0:40:clap2.wav
320,192,87258,1,0,0:0:0:40:clap2.wav
64,192,87399,1,0,0:0:0:0:
448,192,87540,1,0,0:0:0:40:clap2.wav
320,192,87821,128,0,88103:0:0:0:40:clap2.wav
192,192,88103,1,2,0:0:0:0:
64,192,88385,1,2,0:0:0:0:
448,192,88385,1,4,0:0:0:0:
64,192,88667,1,8,0:0:0:0:
192,192,88667,1,0,0:0:0:0:
64,192,89089,1,2,0:0:0:0:
320,192,89230,1,8,0:0:0:0:
448,192,89230,1,0,0:0:0:0:
192,192,89512,1,2,0:0:0:0:
64,192,89793,1,8,0:0:0:0:
448,192,89793,1,0,0:0:0:0:
320,192,90075,1,0,0:0:0:0:
448,192,90216,1,2,0:0:0:0:
192,192,90357,1,8,0:0:0:0:
192,192,90497,1,0,0:0:0:50:clap2.wav
448,192,90638,1,2,0:0:0:0:
64,192,90920,1,8,0:0:0:0:
320,192,90920,1,0,0:0:0:0:
192,192,91343,1,2,0:0:0:0:
320,192,91483,1,8,0:0:0:0:
448,192,91483,1,0,0:0:0:0:
64,192,91765,1,2,0:0:0:0:
448,192,91906,1,0,0:0:0:0:
64,192,92047,1,8,0:0:0:0:
320,192,92047,1,0,0:0:0:0:
192,192,92188,1,0,0:0:0:0:
320,192,92328,1,0,0:0:0:0:
64,192,92469,1,2,0:0:0:0:
448,192,92610,1,8,0:0:0:0:
192,192,92892,1,2,0:0:0:0:
320,192,92892,1,4,0:0:0:0:
64,192,93174,1,8,0:0:0:0:
448,192,93174,1,0,0:0:0:0:
320,192,93596,1,2,0:0:0:0:
64,192,93737,1,8,0:0:0:0:
192,192,93737,1,0,0:0:0:50:clap2.wav
448,192,94019,1,2,0:0:0:0:
192,192,94300,1,8,0:0:0:0:
320,192,94300,1,0,0:0:0:0:
64,192,94723,1,2,0:0:0:0:
320,192,94864,1,8,0:0:0:0:
448,192,94864,1,0,0:0:0:50:clap2.wav
192,192,95005,1,0,0:0:0:50:clap2.wav
64,192,95145,1,2,0:0:0:0:
320,192,95427,1,8,0:0:0:0:
448,192,95427,1,0,0:0:0:0:
64,192,95850,1,2,0:0:0:0:
192,192,95990,1,8,0:0:0:0:
320,192,95990,1,0,0:0:0:50:clap2.wav
448,192,96272,1,6,0:0:0:0:
192,192,96554,1,8,0:0:0:0:
320,192,96554,1,0,0:0:0:0:
64,192,96765,1,2,0:0:0:0:
448,192,96976,1,2,0:0:0:0:
192,192,97117,1,2,0:0:0:0:
320,192,97117,1,0,0:0:0:70:cymbal_short.wav
64,192,97399,1,2,0:0:0:0:
448,192,97399,1,4,0:0:0:0:
64,192,97681,1,8,0:0:0:0:
192,192,97681,1,2,0:0:0:0:
448,192,97962,1,2,0:0:0:0:
64,192,98244,1,8,0:0:0:0:
320,192,98244,1,2,0:0:0:0:
192,192,98385,1,2,0:0:0:0:
320,192,98526,1,2,0:0:0:0:
192,192,98807,1,8,0:0:0:0:
448,192,98807,1,2,0:0:0:0:
64,192,99089,1,2,0:0:0:0:
448,192,99230,1,2,0:0:0:0:
320,192,99371,1,2,0:0:0:0:
192,192,99441,1,2,0:0:0:0:
64,192,99512,1,2,0:0:0:0:
448,192,99652,1,2,0:0:0:0:
192,192,99793,1,2,0:0:0:0:
320,192,99934,1,2,0:0:0:0:
448,192,99934,1,8,0:0:0:0:
64,192,100216,1,2,0:0:0:0:
192,192,100497,1,2,0:0:0:0:
320,192,100497,1,8,0:0:0:0:
448,192,100638,1,2,0:0:0:0:
64,192,100779,1,2,0:0:0:0:
192,192,101061,1,2,0:0:0:0:
448,192,101061,1,8,0:0:0:0:
64,192,101343,1,2,0:0:0:0:
448,192,101483,1,2,0:0:0:0:
192,192,101624,1,2,0:0:0:0:
320,192,101765,1,2,0:0:0:0:
64,192,101906,1,2,0:0:0:0:
448,192,101906,1,4,0:0:0:0:
192,192,102047,1,2,0:0:0:0:
64,192,102188,1,8,0:0:0:0:
320,192,102188,128,2,102469:0:0:0:0:
192,192,102469,128,2,102751:0:0:0:0:
448,192,102469,1,0,0:0:0:0:
64,192,102751,1,10,0:0:0:0:
192,192,102892,1,2,0:0:0:0:
320,192,103033,1,2,0:0:0:0:
448,192,103033,128,4,103314:0:0:0:0:
64,192,103314,128,2,103596:0:0:0:0:
192,192,103314,1,8,0:0:0:0:
448,192,103596,1,2,0:0:0:0:
320,192,103737,1,2,0:0:0:0:
64,192,103878,1,2,0:0:0:0:
192,192,104019,1,2,0:0:0:0:
64,192,104159,128,2,104441:0:0:0:0:
320,192,104159,1,4,0:0:0:0:
448,192,104159,1,0,0:0:0:0:
320,192,104441,128,2,104723:0:0:0:0:
64,192,104723,1,2,0:0:0:0:
192,192,104723,128,4,105005:0:0:0:0:
448,192,105005,128,2,105286:0:0:0:0:
64,192,105286,128,2,105568:0:0:0:0:
320,192,105286,1,0,0:0:0:70:cymbal_short.wav
192,192,105568,1,2,0:0:0:0:
448,192,105568,128,0,105850:0:0:0:70:cymbal_short.wav
64,192,105850,128,2,105990:0:0:0:0:
320,192,105850,1,0,0:0:0:0:
192,192,105990,128,2,106131:0:0:0:0:
320,192,106131,128,2,106272:0:0:0:0:
448,192,106272,128,2,106413:0:0:0:0:
64,192,106413,1,2,0:0:0:0:
192,192,106413,1,4,0:0:0:0:
320,192,106836,1,0,0:0:0:0:
64,192,106976,1,0,0:0:0:0:
448,192,107117,1,0,0:0:0:60:snare2.wav
192,192,107258,1,0,0:0:0:0:
320,192,107399,1,0,0:0:0:0:
64,192,107540,1,2,0:0:0:0:
448,192,107540,1,0,0:0:0:50:Tom1.wav
192,192,107681,128,0,107962:0:0:0:0:
448,192,107962,1,0,0:0:0:0:
64,192,108103,1,2,0:0:0:0:
320,192,108244,1,0,0:0:0:0:
448,192,108385,1,0,0:0:0:70:snare pop.wav
320,192,108526,1,0,0:0:0:0:
64,192,108667,1,2,0:0:0:0:
192,192,108667,1,4,0:0:0:0:
448,192,108807,1,0,0:0:0:0:
64,192,108948,1,8,0:0:0:0:
320,192,108948,1,2,0:0:0:0:
192,192,109089,1,0,0:0:0:0:
448,192,109230,1,2,0:0:0:0:
64,192,109371,1,0,0:0:0:0:
192,192,109512,1,8,0:0:0:0:
320,192,109512,1,2,0:0:0:0:
448,192,109652,1,0,0:0:0:0:
64,192,109793,1,2,0:0:0:0:
320,192,109934,1,0,0:0:0:0:
64,192,110075,1,8,0:0:0:0:
192,192,110075,1,2,0:0:0:0:
448,192,110216,1,0,0:0:0:0:
64,192,110357,1,2,0:0:0:0:
320,192,110497,1,0,0:0:0:0:
64,192,110638,1,8,0:0:0:0:
192,192,110638,1,2,0:0:0:0:
320,192,110779,1,2,0:0:0:0:
448,192,110779,1,0,0:0:0:0:
64,192,110920,1,2,0:0:0:0:
192,192,110920,1,0,0:0:0:0:
192,192,111202,1,8,0:0:0:0:
320,192,111202,1,2,0:0:0:0:
64,192,111343,1,0,0:0:0:0:
448,192,111483,1,2,0:0:0:0:
320,192,111624,1,0,0:0:0:0:
64,192,111765,1,8,0:0:0:0:
192,192,111765,1,2,0:0:0:0:
448,192,111906,1,0,0:0:0:0:
64,192,112047,1,2,0:0:0:0:
320,192,112188,1,0,0:0:0:0:
64,192,112328,1,8,0:0:0:0:
448,192,112328,1,2,0:0:0:0:
192,192,112469,1,0,0:0:0:0:
320,192,112610,1,2,0:0:0:0:
448,192,112610,1,0,0:0:0:0:
64,192,112751,1,2,0:0:0:0:
192,192,112751,1,0,0:0:0:0:
320,192,112892,1,2,0:0:0:0:
448,192,112892,1,8,0:0:0:0:
192,192,113033,1,0,0:0:0:0:
64,192,113174,1,2,0:0:0:0:
448,192,113174,1,4,0:0:0:0:
192,192,113455,1,8,0:0:0:0:
448,192,113455,1,2,0:0:0:0:
64,192,113596,1,0,0:0:0:0:
320,192,113737,1,2,0:0:0:0:
192,192,113878,1,0,0:0:0:0:
320,192,114019,1,8,0:0:0:0:
448,192,114019,1,2,0:0:0:0:
64,192,114159,1,0,0:0:0:0:
448,192,114300,1,2,0:0:0:0:
192,192,114441,1,0,0:0:0:0:
64,192,114582,1,8,0:0:0:0:
320,192,114582,1,2,0:0:0:0:
448,192,114723,1,0,0:0:0:0:
192,192,114864,1,2,0:0:0:0:
320,192,115005,1,0,0:0:0:0:
64,192,115145,1,8,0:0:0:0:
192,192,115145,1,2,0:0:0:0:
448,192,115286,1,2,0:0:0:0:
320,192,115357,1,2,0:0:0:0:
192,192,115427,1,2,0:0:0:0:
64,192,115568,1,2,0:0:0:0:
448,192,115709,1,10,0:0:0:0:
192,192,115850,1,0,0:0:0:0:
448,192,115990,1,2,0:0:0:0:
64,192,116131,1,0,0:0:0:0:
320,192,116272,1,10,0:0:0:0:
64,192,116413,1,2,0:0:0:0:
192,192,116483,1,2,0:0:0:0:
320,192,116554,1,2,0:0:0:0:
448,192,116836,1,10,0:0:0:0:
320,192,116906,1,2,0:0:0:0:
192,192,116976,1,2,0:0:0:0:
64,192,117117,1,2,0:0:0:0:
448,192,117117,1,0,0:0:0:0:
192,192,117258,1,2,0:0:0:0:
320,192,117258,1,0,0:0:0:0:
64,192,117399,1,2,0:0:0:0:
448,192,117399,1,0,0:0:0:70:special voice.wav
64,192,117681,1,2,0:0:0:0:
192,192,117681,1,4,0:0:0:0:
320,192,117821,1,2,0:0:0:0:
448,192,117821,1,0,0:0:0:0:
64,192,117962,1,8,0:0:0:0:
192,192,117962,1,2,0:0:0:0:
448,192,118103,1,0,0:0:0:0:
320,192,118244,1,2,0:0:0:0:
64,192,118385,1,0,0:0:0:0:
192,192,118526,1,8,0:0:0:0:
448,192,118526,1,2,0:0:0:0:
320,192,118667,1,0,0:0:0:0:
64,192,118807,1,2,0:0:0:0:
448,192,118948,1,0,0:0:0:0:
192,192,119089,1,8,0:0:0:0:
320,192,119089,1,2,0:0:0:0:
64,192,119230,1,0,0:0:0:0:
448,192,119371,1,2,0:0:0:0:
192,192,119512,1,0,0:0:0:0:
320,192,119652,1,8,0:0:0:0:
448,192,119652,1,2,0:0:0:0:
320,192,119793,1,2,0:0:0:0:
448,192,119793,1,0,0:0:0:0:
64,192,119934,1,2,0:0:0:0:
192,192,119934,1,0,0:0:0:0:
448,192,120075,1,0,0:0:0:0:
192,192,120216,1,2,0:0:0:0:
320,192,120216,1,8,0:0:0:0:
64,192,120357,1,0,0:0:0:0:
448,192,120497,1,2,0:0:0:0:
192,192,120638,1,0,0:0:0:0:
320,192,120779,1,8,0:0:0:0:
448,192,120779,1,2,0:0:0:0:
64,192,120920,1,0,0:0:0:0:
320,192,121061,1,2,0:0:0:0:
192,192,121202,1,0,0:0:0:0:
64,192,121343,1,8,0:0:0:0:
448,192,121343,1,2,0:0:0:0:
320,192,121483,1,0,0:0:0:0:
192,192,121624,1,2,0:0:0:0:
320,192,121765,1,2,0:0:0:0:
64,192,121836,1,2,0:0:0:0:
192,192,121906,1,10,0:0:0:0:
320,192,122047,1,0,0:0:0:0:
64,192,122188,1,2,0:0:0:0:
448,192,122188,1,4,0:0:0:0:
192,192,122328,1,2,0:0:0:0:
320,192,122328,1,0,0:0:0:0:
64,192,122469,1,2,0:0:0:0:
448,192,122469,1,8,0:0:0:0:
320,192,122610,1,0,0:0:0:0:
192,192,122751,1,2,0:0:0:0:
448,192,122892,1,0,0:0:0:0:
64,192,123033,1,8,0:0:0:0:
320,192,123033,1,2,0:0:0:0:
192,192,123174,1,0,0:0:0:0:
448,192,123314,1,2,0:0:0:0:
64,192,123455,1,0,0:0:0:0:
192,192,123596,1,8,0:0:0:0:
320,192,123596,1,2,0:0:0:0:
320,192,123878,1,2,0:0:0:0:
448,192,123878,1,0,0:0:0:0:
64,192,124019,1,2,0:0:0:0:
192,192,124019,1,0,0:0:0:0:
320,192,124159,1,2,0:0:0:0:
448,192,124159,1,8,0:0:0:0:
64,192,124300,1,2,0:0:0:0:
192,192,124371,1,2,0:0:0:0:
320,192,124441,1,2,0:0:0:0:
448,192,124441,128,4,124723:0:0:0:0:
64,192,124723,128,8,125005:0:0:0:0:
192,192,125005,1,0,0:0:0:70:clap1.wav
320,192,125005,1,0,0:0:0:0:
320,192,125286,1,2,0:0:0:0:
448,192,125286,1,0,0:0:0:0:
64,192,125427,1,2,0:0:0:0:
192,192,125427,1,0,0:0:0:0:
320,192,125568,1,2,0:0:0:0:
448,192,125568,1,0,0:0:0:70:cymbal_short.wav
192,192,125850,1,0,0:0:0:50:snare hat.wav
320,192,125990,1,2,0:0:0:0:
448,192,125990,1,0,0:0:0:70:cymbal_short.wav
64,192,126131,1,0,0:0:0:50:snare hat.wav
192,192,126272,1,0,0:0:0:50:snare hat.wav
64,192,126413,1,2,0:0:0:0:
448,192,126413,128,0,126695:0:0:0:50:Tom1.wav
64,192,126695,128,6,128103:0:0:0:0:
320,192,126695,1,0,0:0:0:50:clap2.wav
192,192,126976,1,0,0:0:0:50:clap2.wav
448,192,127258,1,0,0:0:0:50:clap2.wav
320,192,127540,1,0,0:0:0:50:clap2.wav
448,192,127821,1,0,0:0:0:50:clap2.wav
320,192,128103,128,0,128385:0:0:0:50:clap2.wav
64,192,128385,1,2,0:0:0:0:
448,192,128526,1,2,0:0:0:0:
320,192,128596,1,2,0:0:0:0:
64,192,128667,1,2,0:0:0:0:
192,192,128667,1,0,0:0:0:0:
64,192,128807,1,2,0:0:0:0:
192,192,128807,1,0,0:0:0:0:
320,192,128948,1,2,0:0:0:0:
448,192,128948,1,4,0:0:0:0:
192,192,129089,1,0,0:0:0:0:
64,192,129230,1,8,0:0:0:0:
448,192,129230,1,2,0:0:0:0:
320,192,129371,1,0,0:0:0:0:
192,192,129512,1,2,0:0:0:0:
448,192,129652,1,0,0:0:0:0:
64,192,129793,1,8,0:0:0:0:
192,192,129793,1,2,0:0:0:0:
320,192,129934,1,0,0:0:0:0:
64,192,130075,1,2,0:0:0:0:
448,192,130075,1,0,0:0:0:50:Tom1.wav
320,192,130357,1,10,0:0:0:0:
448,192,130357,1,0,0:0:0:50:Tom1.wav
64,192,130638,1,2,0:0:0:0:
192,192,130638,1,0,0:0:0:50:Tom1.wav
448,192,130779,1,2,0:0:0:0:
320,192,130850,1,2,0:0:0:0:
192,192,130920,1,10,0:0:0:0:
320,192,131061,1,2,0:0:0:0:
64,192,131202,1,2,0:0:0:0:
192,192,131202,1,4,0:0:0:0:
320,192,131343,1,2,0:0:0:0:
448,192,131343,1,0,0:0:0:0:
64,192,131483,1,8,0:0:0:0:
192,192,131483,1,2,0:0:0:0:
320,192,131624,1,0,0:0:0:0:
448,192,131765,1,2,0:0:0:0:
64,192,131906,1,0,0:0:0:0:
192,192,132047,1,8,0:0:0:0:
320,192,132047,1,2,0:0:0:0:
448,192,132188,1,0,0:0:0:0:
64,192,132328,1,2,0:0:0:0:
320,192,132469,1,0,0:0:0:0:
64,192,132610,1,8,0:0:0:0:
192,192,132610,1,2,0:0:0:0:
320,192,132751,1,0,0:0:0:0:
64,192,132892,1,2,0:0:0:0:
448,192,132892,1,0,0:0:0:0:
192,192,133033,1,2,0:0:0:0:
320,192,133033,1,0,0:0:0:0:
64,192,133174,1,8,0:0:0:0:
448,192,133174,1,2,0:0:0:0:
320,192,133455,1,2,0:0:0:0:
448,192,133455,1,4,0:0:0:0:
64,192,133596,1,0,0:0:0:0:
192,192,133737,1,8,0:0:0:0:
320,192,133737,1,2,0:0:0:0:
448,192,133878,1,0,0:0:0:0:
64,192,134019,1,6,0:0:0:0:
320,192,134159,1,0,0:0:0:0:
64,192,134300,1,8,0:0:0:0:
192,192,134300,1,2,0:0:0:0:
320,192,134441,1,0,0:0:0:0:
64,192,134582,1,2,0:0:0:0:
448,192,134582,1,0,0:0:0:70:cymbal_short.wav
64,192,135005,1,2,0:0:0:0:
192,192,135005,1,0,0:0:0:70:cymbal_short.wav
64,192,135427,1,2,0:0:0:0:
448,192,135427,1,0,0:0:0:70:cymbal_short.wav
320,192,135709,1,2,0:0:0:0:
448,192,135709,1,4,0:0:0:0:
64,192,135850,1,2,0:0:0:0:
192,192,135850,1,0,0:0:0:0:
320,192,135990,1,2,0:0:0:0:
448,192,135990,1,8,0:0:0:0:
192,192,136131,1,0,0:0:0:0:
64,192,136272,1,2,0:0:0:0:
320,192,136413,1,0,0:0:0:0:
192,192,136554,1,8,0:0:0:0:
448,192,136554,1,2,0:0:0:0:
64,192,136695,1,0,0:0:0:0:
320,192,136836,1,2,0:0:0:0:
192,192,136976,1,0,0:0:0:0:
64,192,137117,1,8,0:0:0:0:
448,192,137117,1,2,0:0:0:0:
320,192,137258,1,0,0:0:0:0:
192,192,137399,1,2,0:0:0:0:
448,192,137540,1,0,0:0:0:0:
64,192,137681,1,8,0:0:0:0:
192,192,137681,1,2,0:0:0:0:
64,192,137821,1,2,0:0:0:0:
192,192,137821,1,0,0:0:0:0:
320,192,137962,1,2,0:0:0:0:
448,192,137962,1,0,0:0:0:0:
64,192,138103,1,0,0:0:0:0:
192,192,138244,1,8,0:0:0:0:
320,192,138244,1,2,0:0:0:0:
448,192,138385,1,0,0:0:0:0:
64,192,138526,1,2,0:0:0:0:
320,192,138667,1,0,0:0:0:0:
64,192,138807,1,2,0:0:0:0:
192,192,138807,1,8,0:0:0:0:
320,192,138948,1,0,0:0:0:0:
64,192,139089,1,2,0:0:0:0:
448,192,139089,1,0,0:0:0:50:Tom1.wav
192,192,139371,1,10,0:0:0:0:
448,192,139371,1,0,0:0:0:50:Tom1.wav
64,192,139652,1,2,0:0:0:0:
192,192,139652,1,0,0:0:0:50:Tom1.wav
448,192,139793,1,2,0:0:0:0:
320,192,139864,1,2,0:0:0:0:
192,192,139934,1,10,0:0:0:0:
64,192,140075,1,2,0:0:0:0:
320,192,140216,1,2,0:0:0:0:
448,192,140216,1,4,0:0:0:0:
192,192,140357,1,2,0:0:0:0:
320,192,140357,1,0,0:0:0:0:
64,192,140497,1,10,0:0:0:0:
448,192,140497,1,0,0:0:0:70:special voice.wav
192,192,140638,1,0,0:0:0:0:
320,192,140779,1,2,0:0:0:0:
64,192,140920,1,0,0:0:0:0:
192,192,141061,1,10,0:0:0:0:
448,192,141061,1,0,0:0:0:70:special voice.wav
320,192,141202,1,0,0:0:0:0:
64,192,141343,1,2,0:0:0:0:
448,192,141483,1,0,0:0:0:0:
192,192,141624,1,10,0:0:0:0:
320,192,141624,1,0,0:0:0:70:special voice.wav
64,192,141765,1,0,0:0:0:0:
320,192,141906,1,2,0:0:0:0:
448,192,141906,1,0,0:0:0:0:
320,192,142047,1,2,0:0:0:0:
448,192,142047,1,0,0:0:0:0:
64,192,142188,1,10,0:0:0:0:
192,192,142188,1,0,0:0:0:70:special voice.wav
448,192,142328,1,2,0:0:0:0:
64,192,142399,1,2,0:0:0:0:
320,192,142469,1,2,0:0:0:0:
192,192,142610,1,0,0:0:0:0:
64,192,142751,1,10,0:0:0:0:
448,192,142751,1,0,0:0:0:70:special voice.wav
320,192,142892,1,0,0:0:0:0:
64,192,143033,1,2,0:0:0:0:
192,192,143174,1,0,0:0:0:0:
320,192,143314,1,10,0:0:0:0:
448,192,143314,128,0,143596:0:0:0:70:special voice.wav
64,192,143596,1,2,0:0:0:0:
192,192,143596,1,0,0:0:0:70:cymbal_short.wav
192,192,144019,1,2,0:0:0:0:
320,192,144019,1,0,0:0:0:70:cymbal_short.wav
320,192,144441,1,2,0:0:0:0:
448,192,144441,1,0,0:0:0:70:cymbal_short.wav
64,192,144723,1,2,0:0:0:0:
192,192,144723,1,4,0:0:0:0:
448,192,145145,1,2,0:0:0:0:
64,192,145286,1,2,0:0:0:0:
320,192,145497,1,2,0:0:0:0:
320,192,145709,1,2,0:0:0:0:
320,192,145920,1,2,0:0:0:0:
320,192,146131,1,10,0:0:0:0:
192,192,146272,1,2,0:0:0:0:
320,192,146413,1,2,0:0:0:0:
448,192,146554,1,2,0:0:0:0:
64,192,146624,1,2,0:0:0:0:
64,192,146765,1,2,0:0:0:0:
448,192,146836,1,2,0:0:0:0:
192,192,146976,1,2,0:0:0:0:
192,192,147399,1,2,0:0:0:0:
192,192,147540,1,2,0:0:0:0:
192,192,147751,1,2,0:0:0:0:
192,192,147962,1,2,0:0:0:0:
192,192,148174,1,2,0:0:0:0:
192,192,148385,1,10,0:0:0:0:
448,192,148526,1,2,0:0:0:0:
320,192,148667,1,2,0:0:0:0:
192,192,148807,1,2,0:0:0:0:
64,192,148948,1,10,0:0:0:0:
192,192,149019,1,2,0:0:0:0:
320,192,149089,1,2,0:0:0:0:
64,192,149230,1,2,0:0:0:0:
448,192,149230,1,4,0:0:0:70:cymbal_short.wav
320,192,149652,1,2,0:0:0:0:
448,192,149652,1,0,0:0:0:0:
192,192,150075,1,2,0:0:0:0:
320,192,150075,1,8,0:0:0:0:
64,192,150357,1,2,0:0:0:0:
448,192,150357,1,4,0:0:0:70:cymbal_short.wav
64,192,150779,1,2,0:0:0:0:
192,192,150779,1,0,0:0:0:0:
192,192,151202,1,2,0:0:0:0:
320,192,151343,1,2,0:0:0:0:
64,192,151483,1,2,0:0:0:0:
448,192,151483,1,0,0:0:0:70:cymbal_short.wav
64,192,151765,1,2,0:0:0:0:
192,192,151765,1,8,0:0:0:0:
320,192,152047,1,2,0:0:0:0:
448,192,152047,1,0,0:0:0:70:cymbal_short.wav
192,192,152188,1,2,0:0:0:0:
320,192,152188,1,0,0:0:0:0:
64,192,152328,128,2,152610:0:0:0:0:
320,192,152610,1,2,0:0:0:0:
448,192,152610,1,4,0:0:0:70:cymbal_short.wav
64,192,152892,1,8,0:0:0:0:
192,192,152892,1,0,0:0:0:0:
320,192,153033,1,2,0:0:0:0:
448,192,153033,1,0,0:0:0:70:cymbal_short.wav
320,192,153314,1,8,0:0:0:0:
448,192,153314,1,0,0:0:0:0:
64,192,153455,1,4,0:0:0:70:cymbal_short.wav
192,192,153455,1,0,0:0:0:50:Tom2.wav
64,192,153737,1,2,0:0:0:0:
448,192,153737,1,4,0:0:0:70:cymbal_short.wav
