osu file format v14

[General]
AudioFilename: audio.mp3
AudioLeadIn: 0
PreviewTime: 108258
Countdown: 0
SampleSet: Soft
StackLeniency: 0.7
Mode: 3
LetterboxInBreaks: 0
SpecialStyle: 0
WidescreenStoryboard: 1

[Editor]
Bookmarks: 15723,63047
DistanceSpacing: 0.8
BeatDivisor: 4
GridSize: 4
TimelineZoom: 3.45

[Metadata]
Title:Cthugha
TitleUnicode:Cthugha
Artist:USAO
ArtistUnicode:USAO
Creator:Draftnell
Version:DnM vs Draftnell's Apocalypse
Source:Muse Dash
Tags:frenchcore hardstyle phigros RESPECT V fire Cthulhu Mythos god Great Old One うさお electronic instrumental video game videogame donotmess rhezie agayers angki syadow- DenYi hardcore tano*c tanoc tokyo techno jcore j-core vocal sample tcdr-0068
BeatmapID:2854183
BeatmapSetID:1381405

[Difficulty]
HPDrainRate:8.5
CircleSize:4
OverallDifficulty:8.5
ApproachRate:5
SliderMultiplier:1.4
SliderTickRate:1

[Events]
//Background and Video events
0,0,"BG.jpg",0,0
//Break Periods
//Storyboard Layer 0 (Background)
//Storyboard Layer 1 (Fail)
//Storyboard Layer 2 (Pass)
//Storyboard Layer 3 (Foreground)
//Storyboard Layer 4 (Overlay)
//Storyboard Sound Samples

[TimingPoints]
498,281.69014084507,4,2,1,50,1,0
4723,-333.333333333333,4,2,1,50,0,0
4770,-250,4,2,1,50,0,0
4817,-142.857142857143,4,2,1,50,0,0
4864,-90.9090909090909,4,2,1,50,0,0
4911,-66.6666666666667,4,2,1,50,0,0
4958,-50,4,2,1,50,0,0
5005,-100,4,2,1,50,0,0
9089,-50,4,2,1,50,0,0
9136,-200,4,2,1,50,0,0
9230,-50,4,2,1,50,0,0
9277,-200,4,2,1,50,0,0
9371,-50,4,2,1,50,0,0
9418,-200,4,2,1,50,0,0
9512,-100,4,2,1,50,0,0
13596,-62.5,4,2,1,50,0,0
13631,-71.4285714285714,4,2,1,50,0,0
13667,-83.3333333333333,4,2,1,50,0,0
13702,-100,4,2,1,50,0,0
13737,-125,4,2,1,50,0,0
13772,-166.666666666667,4,2,1,50,0,0
13807,-250,4,2,1,50,0,0
13843,-333.333333333333,4,2,1,50,0,0
13878,-200,4,2,1,50,0,0
13913,-111.111111111111,4,2,1,50,0,0
13948,-71.4285714285714,4,2,1,50,0,0
13983,-52.6315789473684,4,2,1,50,0,0
14019,-50,4,2,1,50,0,0
14042,-1000,4,2,1,50,0,0
14066,-50,4,2,1,50,0,0
14089,-1000,4,2,1,50,0,0
14113,-50,4,2,1,50,0,0
14136,-1000,4,2,1,50,0,0
14159,-50,4,2,1,50,0,0
14183,-1000,4,2,1,50,0,0
14206,-100,4,2,1,50,0,0
16272,-50,4,2,1,50,0,0
16296,-1000,4,2,1,50,0,0
16319,-50,4,2,1,50,0,0
16343,-1000,4,2,1,50,0,0
16366,-50,4,2,1,50,0,0
16390,-1000,4,2,1,50,0,0
16413,-50,4,2,1,50,0,0
16436,-1000,4,2,1,50,0,0
16460,-50,4,2,1,50,0,0
16483,-1000,4,2,1,50,0,0
16507,-50,4,2,1,50,0,0
16530,-1000,4,2,1,50,0,0
16554,-50,4,2,1,50,0,0
16577,-1000,4,2,1,50,0,0
16601,-50,4,2,1,50,0,0
16624,-1000,4,2,1,50,0,0
16648,-50,4,2,1,50,0,0
16671,-1000,4,2,1,50,0,0
16695,-50,4,2,1,50,0,0
16718,-1000,4,2,1,50,0,0
16742,-50,4,2,1,50,0,0
16765,-1000,4,2,1,50,0,0
16789,-50,4,2,1,50,0,0
16812,-1000,4,2,1,50,0,0
16836,-100,4,2,1,50,0,0
18526,-32.258064516129,4,2,1,50,0,0
18561,-333.333333333333,4,2,1,50,0,0
18667,-100,4,2,1,50,0,0
20638,-500,4,2,1,50,0,0
20662,-250,4,2,1,50,0,0
20685,-142.857142857143,4,2,1,50,0,0
20709,-90.9090909090909,4,2,1,50,0,0
20732,-66.6666666666667,4,2,1,50,0,0
20756,-47.6190476190476,4,2,1,50,0,0
20779,-58.8235294117647,4,2,1,50,0,0
20814,-66.6666666666667,4,2,1,50,0,0
20850,-76.9230769230769,4,2,1,50,0,0
20885,-90.9090909090909,4,2,1,50,0,0
20920,-111.111111111111,4,2,1,50,0,0
20955,-142.857142857143,4,2,1,50,0,0
20990,-200,4,2,1,50,0,0
21026,-333.333333333333,4,2,1,50,0,0
21061,-100,4,2,1,50,0,0
28667,-45.4545454545455,4,2,1,50,0,0
28713,-250,4,2,1,50,0,0
28807,-100,4,2,1,50,0,0
28948,-45.4545454545455,4,2,1,50,0,0
28995,-250,4,2,1,50,0,0
29089,-45.4545454545455,4,2,1,50,0,0
29136,-250,4,2,1,50,0,0
29230,-100,4,2,1,50,0,0
29371,-45.4545454545455,4,2,1,50,0,0
29418,-250,4,2,1,50,0,0
29512,-45.4545454545455,4,2,1,50,0,0
29559,-250,4,2,1,50,0,0
29652,-52.6315789473684,4,2,1,50,0,0
29688,-1000,4,2,1,50,0,0
29723,-52.6315789473684,4,2,1,50,0,0
29758,-1000,4,2,1,50,0,0
29793,-100,4,2,1,50,0,0
33174,-45.4545454545455,4,2,1,50,0,0
33221,-250,4,2,1,50,0,0
33314,-100,4,2,1,50,0,0
33455,-45.4545454545455,4,2,1,50,0,0
33502,-250,4,2,1,50,0,0
33596,-100,4,2,1,50,0,0
33737,-45.4545454545455,4,2,1,50,0,0
33784,-250,4,2,1,50,0,0
33878,-52.6315789473684,4,2,1,50,0,0
33913,-1000,4,2,1,50,0,0
33948,-52.6315789473684,4,2,1,50,0,0
33983,-1000,4,2,1,50,0,0
34019,-45.4545454545455,4,2,1,50,0,0
34066,-250,4,2,1,50,0,0
34159,-45.4545454545455,4,2,1,50,0,0
34206,-250,4,2,1,50,0,0
34300,-100,4,2,1,50,0,0
36554,-45.4545454545455,4,2,1,50,0,0
36601,-250,4,2,1,50,0,0
36695,-100,4,2,1,50,0,0
36836,-45.4545454545455,4,2,1,50,0,0
36882,-250,4,2,1,50,0,0
36976,-100,4,2,1,50,0,0
37117,-45.4545454545455,4,2,1,50,0,0
37164,-250,4,2,1,50,0,0
37258,-45.4545454545455,4,2,1,50,0,0
37305,-250,4,2,1,50,0,0
37399,-45.4545454545455,4,2,1,50,0,0
37446,-250,4,2,1,50,0,0
37540,-100,4,2,1,50,0,0
37681,-47.6190476190476,4,2,1,50,0,0
37728,-66.6666666666667,4,2,1,50,0,0
37774,-100,4,2,1,50,0,0
37821,-142.857142857143,4,2,1,50,0,0
37868,-250,4,2,1,50,0,0
37915,-333.333333333333,4,2,1,50,0,0
37962,-47.6190476190476,4,2,1,50,0,0
38009,-66.6666666666667,4,2,1,50,0,0
38056,-100,4,2,1,50,0,0
38103,-142.857142857143,4,2,1,50,0,0
38150,-250,4,2,1,50,0,0
38197,-333.333333333333,4,2,1,50,0,0
38244,-100,4,2,1,50,0,0
38526,-200,4,2,1,50,0,0
38667,-66.6666666666667,4,2,1,50,0,0
38807,-100,4,2,1,50,0,0
42188,-45.4545454545455,4,2,1,50,0,0
42235,-250,4,2,1,50,0,0
42328,-100,4,2,1,50,0,0
42469,-45.4545454545455,4,2,1,50,0,0
42516,-250,4,2,1,50,0,0
42610,-100,4,2,1,50,0,0
42751,-45.4545454545455,4,2,1,50,0,0
42798,-250,4,2,1,50,0,0
42892,-52.6315789473684,4,2,1,50,0,0
42927,-1000,4,2,1,50,0,0
42962,-52.6315789473684,4,2,1,50,0,0
42997,-1000,4,2,1,50,0,0
43033,-45.4545454545455,4,2,1,50,0,0
43080,-250,4,2,1,50,0,0
43174,-45.4545454545455,4,2,1,50,0,0
43221,-250,4,2,1,50,0,0
43314,-100,4,2,1,50,0,0
45568,-50,4,2,1,50,0,0
45615,-142.857142857143,4,2,1,50,0,0
45662,-333.333333333333,4,2,1,50,0,0
45709,-100,4,2,1,50,0,0
45850,-50,4,2,1,50,0,0
45897,-142.857142857143,4,2,1,50,0,0
45944,-333.333333333333,4,2,1,50,0,0
45990,-100,4,2,1,50,0,0
46131,-45.4545454545455,4,2,1,50,0,0
46178,-250,4,2,1,50,0,0
46272,-45.4545454545455,4,2,1,50,0,0
46319,-250,4,2,1,50,0,0
46413,-45.4545454545455,4,2,1,50,0,0
46460,-250,4,2,1,50,0,0
46554,-45.4545454545455,4,2,1,50,0,0
46601,-250,4,2,1,50,0,0
46695,-100,4,2,1,50,0,0
47540,-38.4615384615385,4,2,1,50,0,0
47587,-66.6666666666667,4,2,1,50,0,0
47634,-142.857142857143,4,2,1,50,0,0
47681,-200,4,2,1,50,0,0
47728,-333.333333333333,4,2,1,50,0,0
47774,-500,4,2,1,50,0,0
47821,-100,4,2,1,50,0,0
51202,-45.4545454545455,4,2,1,50,0,0
51249,-250,4,2,1,50,0,0
51343,-100,4,2,1,50,0,0
51483,-45.4545454545455,4,2,1,50,0,0
51530,-250,4,2,1,50,0,0
51624,-100,4,2,1,50,0,0
51765,-45.4545454545455,4,2,1,50,0,0
51812,-250,4,2,1,50,0,0
51906,-45.4545454545455,4,2,1,50,0,0
51953,-250,4,2,1,50,0,0
52047,-100,4,2,1,50,0,0
52469,-200,4,2,1,50,0,0
52563,-50,4,2,1,50,0,0
52610,-100,4,2,1,50,0,0
53033,-200,4,2,1,50,0,0
53127,-50,4,2,1,50,0,0
53174,-100,4,2,1,50,0,0
53596,-200,4,2,1,50,0,0
53690,-50,4,2,1,50,0,0
53737,-100,4,2,1,50,0,0
54159,-200,4,2,1,50,0,0
54253,-50,4,2,1,50,0,0
54300,-100,4,2,1,50,0,0
54582,-55.5555555555556,4,2,1,50,0,0
54629,-125,4,2,1,50,0,0
54676,-250,4,2,1,50,0,0
54723,-100,4,2,1,50,0,0
54864,-55.5555555555556,4,2,1,50,0,0
54911,-125,4,2,1,50,0,0
54958,-250,4,2,1,50,0,0
55005,-100,4,2,1,50,0,0
55145,-55.5555555555556,4,2,1,50,0,0
55192,-125,4,2,1,50,0,0
55239,-250,4,2,1,50,0,0
55286,-100,4,2,1,50,0,0
55427,-55.5555555555556,4,2,1,50,0,0
55474,-125,4,2,1,50,0,0
55521,-250,4,2,1,50,0,0
55568,-100,4,2,1,50,0,0
55990,-50,4,2,1,50,0,0
56014,-1000,4,2,1,50,0,0
56037,-50,4,2,1,50,0,0
56061,-1000,4,2,1,50,0,0
56084,-50,4,2,1,50,0,0
56108,-1000,4,2,1,50,0,0
56131,-50,4,2,1,50,0,0
56155,-1000,4,2,1,50,0,0
56178,-50,4,2,1,50,0,0
56202,-1000,4,2,1,50,0,0
56225,-50,4,2,1,50,0,0
56249,-1000,4,2,1,50,0,0
56272,-250.000000000001,4,2,1,50,0,0
56343,-133.333333333333,4,2,1,50,0,0
56413,-80,4,2,1,50,0,0
56483,-62.5,4,2,1,50,0,0
56554,-100,4,2,1,50,0,0
60920,-62.5,4,2,1,50,0,0
60955,-71.4285714285714,4,2,1,50,0,0
60990,-83.3333333333333,4,2,1,50,0,0
61026,-100,4,2,1,50,0,0
61061,-125,4,2,1,50,0,0
61096,-166.666666666667,4,2,1,50,0,0
61131,-250,4,2,1,50,0,0
61167,-333.333333333333,4,2,1,50,0,0
61202,-200,4,2,1,50,0,0
61237,-111.111111111111,4,2,1,50,0,0
61272,-71.4285714285714,4,2,1,50,0,0
61307,-52.6315789473684,4,2,1,50,0,0
61343,-50,4,2,1,50,0,0
61366,-1000,4,2,1,50,0,0
61390,-50,4,2,1,50,0,0
61413,-1000,4,2,1,50,0,0
61436,-50,4,2,1,50,0,0
61460,-1000,4,2,1,50,0,0
61483,-50,4,2,1,50,0,0
61507,-1000,4,2,1,50,0,0
61530,-50,4,2,1,50,0,0
61554,-1000,4,2,1,50,0,0
61577,-50,4,2,1,50,0,0
61601,-1000,4,2,1,50,0,0
61624,-100,4,2,1,50,0,0
63596,-50,4,2,1,50,0,0
63620,-1000,4,2,1,50,0,0
63643,-50,4,2,1,50,0,0
63667,-1000,4,2,1,50,0,0
63690,-50,4,2,1,50,0,0
63713,-1000,4,2,1,50,0,0
63737,-50,4,2,1,50,0,0
63760,-1000,4,2,1,50,0,0
63784,-50,4,2,1,50,0,0
63807,-1000,4,2,1,50,0,0
63831,-50,4,2,1,50,0,0
63854,-1000,4,2,1,50,0,0
63878,-50,4,2,1,50,0,0
63901,-1000,4,2,1,50,0,0
63925,-50,4,2,1,50,0,0
63948,-1000,4,2,1,50,0,0
63972,-50,4,2,1,50,0,0
63995,-1000,4,2,1,50,0,0
64019,-50,4,2,1,50,0,0
64042,-1000,4,2,1,50,0,0
64066,-50,4,2,1,50,0,0
64089,-1000,4,2,1,50,0,0
64113,-50,4,2,1,50,0,0
64136,-1000,4,2,1,50,0,0
64159,-100,4,2,1,50,0,0
65427,-50,4,2,1,50,0,0
65451,-1000,4,2,1,50,0,0
65474,-50,4,2,1,50,0,0
65497,-1000,4,2,1,50,0,0
65521,-50,4,2,1,50,0,0
65544,-1000,4,2,1,50,0,0
65568,-50,4,2,1,50,0,0
65591,-1000,4,2,1,50,0,0
65615,-50,4,2,1,50,0,0
65638,-1000,4,2,1,50,0,0
65662,-50,4,2,1,50,0,0
65685,-1000,4,2,1,50,0,0
65709,-50,4,2,1,50,0,0
65732,-1000,4,2,1,50,0,0
65756,-50,4,2,1,50,0,0
65779,-1000,4,2,1,50,0,0
65803,-50,4,2,1,50,0,0
65826,-1000,4,2,1,50,0,0
65850,-45.4545454545455,4,2,1,50,0,0
65885,-166.666666666667,4,2,1,50,0,0
65920,-500,4,2,1,50,0,0
65955,-100,4,2,1,50,0,0
66131,-40,4,2,1,50,0,0
66155,-500,4,2,1,50,0,0
66202,-100,4,2,1,50,0,0
66695,-40,4,2,1,50,0,0
66718,-500,4,2,1,50,0,0
66765,-100,4,2,1,50,0,0
67258,-40,4,2,1,50,0,0
67282,-500,4,2,1,50,0,0
67328,-100,4,2,1,50,0,0
67821,-40,4,2,1,50,0,0
67845,-500,4,2,1,50,0,0
67892,-100,4,2,1,50,0,0
70357,-50,4,2,1,50,0,0
70380,-1000,4,2,1,50,0,0
70404,-50,4,2,1,50,0,0
70427,-1000,4,2,1,50,0,0
70451,-50,4,2,1,50,0,0
70474,-1000,4,2,1,50,0,0
70497,-100,4,2,1,50,0,0
72610,-50,4,2,1,50,0,0
72634,-1000,4,2,1,50,0,0
72657,-50,4,2,1,50,0,0
72681,-1000,4,2,1,50,0,0
72704,-50,4,2,1,50,0,0
72728,-1000,4,2,1,50,0,0
72751,-50,4,2,1,50,0,0
72774,-1000,4,2,1,50,0,0
72798,-50,4,2,1,50,0,0
72821,-1000,4,2,1,50,0,0
72845,-50,4,2,1,50,0,0
72868,-1000,4,2,1,50,0,0
72892,-50,4,2,1,50,0,0
72915,-1000,4,2,1,50,0,0
72939,-50,4,2,1,50,0,0
72962,-1000,4,2,1,50,0,0
72986,-50,4,2,1,50,0,0
73009,-1000,4,2,1,50,0,0
73033,-50,4,2,1,50,0,0
73056,-1000,4,2,1,50,0,0
73080,-50,4,2,1,50,0,0
73103,-1000,4,2,1,50,0,0
73127,-50,4,2,1,50,0,0
73150,-1000,4,2,1,50,0,0
73174,-100,4,2,1,50,0,0
77117,-18.1818181818182,4,2,1,50,0,0
77135,-1000,4,2,1,50,0,0
77188,-100,4,2,1,50,0,0
77681,-18.1818181818182,4,2,1,50,0,0
77698,-1000,4,2,1,50,0,0
77751,-100,4,2,1,50,0,0
78807,-200,4,2,1,50,0,0
78948,-66.6666666666667,4,2,1,50,0,0
79089,-100,4,2,1,50,0,0
87821,-50,4,2,1,50,0,0
87845,-1000,4,2,1,50,0,0
87868,-50,4,2,1,50,0,0
87892,-1000,4,2,1,50,0,0
87915,-50,4,2,1,50,0,0
87939,-1000,4,2,1,50,0,0
87962,-50,4,2,1,50,0,0
87986,-1000,4,2,1,50,0,0
88009,-50,4,2,1,50,0,0
88033,-1000,4,2,1,50,0,0
88056,-50,4,2,1,50,0,0
88080,-1000,4,2,1,50,0,0
88103,-333.333333333333,4,2,1,50,0,0
88138,-200,4,2,1,50,0,0
88174,-142.857142857143,4,2,1,50,0,0
88209,-111.111111111111,4,2,1,50,0,0
88244,-90.9090909090909,4,2,1,50,0,0
88279,-76.9230769230769,4,2,1,50,0,0
88314,-66.6666666666667,4,2,1,50,0,0
88350,-58.8235294117647,4,2,1,50,0,0
88385,-100,4,2,1,50,0,0
97117,-200,4,2,1,50,0,0
97258,-66.6666666666667,4,2,1,50,0,0
97399,-100,4,2,1,50,0,0
101906,-27.027027027027,4,2,1,50,0,0
101924,-1000,4,2,1,50,0,0
101976,-100,4,2,1,50,0,0
102188,-27.027027027027,4,2,1,50,0,0
102205,-1000,4,2,1,50,0,0
102258,-100,4,2,1,50,0,0
102469,-27.027027027027,4,2,1,50,0,0
102487,-1000,4,2,1,50,0,0
102540,-100,4,2,1,50,0,0
102751,-27.027027027027,4,2,1,50,0,0
102769,-1000,4,2,1,50,0,0
102821,-100,4,2,1,50,0,0
103033,-27.027027027027,4,2,1,50,0,0
103050,-1000,4,2,1,50,0,0
103103,-100,4,2,1,50,0,0
103314,-27.027027027027,4,2,1,50,0,0
103332,-1000,4,2,1,50,0,0
103385,-100,4,2,1,50,0,0
103596,-27.027027027027,4,2,1,50,0,0
103614,-1000,4,2,1,50,0,0
103667,-100,4,2,1,50,0,0
103878,-27.027027027027,4,2,1,50,0,0
103895,-1000,4,2,1,50,0,0
103948,-100,4,2,1,50,0,0
104159,-27.027027027027,4,2,1,50,0,0
104177,-1000,4,2,1,50,0,0
104230,-100,4,2,1,50,0,0
104300,-27.027027027027,4,2,1,50,0,0
104318,-1000,4,2,1,50,0,0
104371,-100,4,2,1,50,0,0
104441,-27.027027027027,4,2,1,50,0,0
104459,-1000,4,2,1,50,0,0
104512,-100,4,2,1,50,0,0
104582,-27.027027027027,4,2,1,50,0,0
104600,-1000,4,2,1,50,0,0
104652,-100,4,2,1,50,0,0
104723,-27.027027027027,4,2,1,50,0,0
104740,-1000,4,2,1,50,0,0
104793,-100,4,2,1,50,0,0
104864,-27.027027027027,4,2,1,50,0,0
104881,-1000,4,2,1,50,0,0
104934,-100,4,2,1,50,0,0
105005,-27.027027027027,4,2,1,50,0,0
105022,-1000,4,2,1,50,0,0
105075,-100,4,2,1,50,0,0
105145,-27.027027027027,4,2,1,50,0,0
105163,-1000,4,2,1,50,0,0
105216,-100,4,2,1,50,0,0
105286,-35.7142857142857,4,2,1,50,0,0
105310,-1000,4,2,1,50,0,0
105357,-35.7142857142857,4,2,1,50,0,0
105380,-1000,4,2,1,50,0,0
105427,-35.0877192982456,4,2,1,50,0,0
105451,-1000,4,2,1,50,0,0
105497,-35.0877192982456,4,2,1,50,0,0
105521,-1000,4,2,1,50,0,0
105568,-34.4827586206897,4,2,1,50,0,0
105591,-1000,4,2,1,50,0,0
105638,-34.4827586206897,4,2,1,50,0,0
105662,-1000,4,2,1,50,0,0
105709,-33.8983050847458,4,2,1,50,0,0
105732,-1000,4,2,1,50,0,0
105779,-33.8983050847458,4,2,1,50,0,0
105803,-1000,4,2,1,50,0,0
105850,-33.3333333333333,4,2,1,50,0,0
105873,-1000,4,2,1,50,0,0
105920,-33.3333333333333,4,2,1,50,0,0
105944,-1000,4,2,1,50,0,0
105990,-32.7868852459016,4,2,1,50,0,0
106014,-1000,4,2,1,50,0,0
106061,-32.7868852459016,4,2,1,50,0,0
106084,-1000,4,2,1,50,0,0
106131,-32.258064516129,4,2,1,50,0,0
106155,-1000,4,2,1,50,0,0
106202,-32.258064516129,4,2,1,50,0,0
106225,-1000,4,2,1,50,0,0
106272,-31.7460317460317,4,2,1,50,0,0
106296,-1000,4,2,1,50,0,0
106343,-31.7460317460317,4,2,1,50,0,0
106366,-1000,4,2,1,50,0,0
106413,-32.258064516129,4,2,1,50,0,0
106448,-333.333333333333,4,2,1,50,0,0
106554,-100,4,2,1,50,0,0
108385,-32.258064516129,4,2,1,50,0,0
108420,-333.333333333333,4,2,1,50,0,0
108526,-100,4,2,1,50,0,0
108667,-100,4,2,1,50,0,1
116554,-45.4545454545455,4,2,1,50,0,1
116601,-250,4,2,1,50,0,1
116695,-100,4,2,1,50,0,1
116836,-52.6315789473684,4,2,1,50,0,1
116871,-1000,4,2,1,50,0,1
116906,-52.6315789473684,4,2,1,50,0,1
116941,-1000,4,2,1,50,0,1
116976,-45.4545454545455,4,2,1,50,0,1
117023,-250,4,2,1,50,0,1
117117,-45.4545454545455,4,2,1,50,0,1
117164,-250,4,2,1,50,0,1
117258,-45.4545454545455,4,2,1,50,0,1
117305,-250,4,2,1,50,0,1
117446,-333.333333333333,4,2,1,50,0,1
117493,-200,4,2,1,50,0,1
117540,-125,4,2,1,50,0,1
117587,-76.9230769230769,4,2,1,50,0,1
117634,-47.6190476190476,4,2,1,50,0,1
117681,-100,4,2,1,50,0,1
125568,-45.4545454545455,4,2,1,50,0,1
125615,-250,4,2,1,50,0,1
125709,-100,4,2,1,50,0,1
125850,-45.4545454545455,4,2,1,50,0,1
125897,-250,4,2,1,50,0,1
125990,-45.4545454545455,4,2,1,50,0,1
126037,-250,4,2,1,50,0,1
126131,-100,4,2,1,50,0,1
126272,-45.4545454545455,4,2,1,50,0,1
126319,-250,4,2,1,50,0,1
126413,-333.333333333333,4,2,1,50,0,1
126460,-250,4,2,1,50,0,1
126507,-166.666666666667,4,2,1,50,0,1
126554,-111.111111111111,4,2,1,50,0,1
126601,-66.6666666666667,4,2,1,50,0,1
126648,-43.4782608695652,4,2,1,50,0,1
126695,-117.647058823529,4,2,1,50,0,1
126765,-116.279069767442,4,2,1,50,0,1
126835,-114.942528735632,4,2,1,50,0,1
126906,-113.636363636364,4,2,1,50,0,1
126976,-112.359550561798,4,2,1,50,0,1
127046,-111.111111111111,4,2,1,50,0,1
127117,-109.89010989011,4,2,1,50,0,1
127187,-108.695652173913,4,2,1,50,0,1
127258,-107.52688172043,4,2,1,50,0,1
127363,-106.382978723404,4,2,1,50,0,1
127433,-105.263157894737,4,2,1,50,0,1
127504,-104.166666666667,4,2,1,50,0,1
127574,-103.092783505155,4,2,1,50,0,1
127645,-102.040816326531,4,2,1,50,0,1
127715,-101.010101010101,4,2,1,50,0,1
127785,-100,4,2,1,50,0,1
128385,-45.4545454545455,4,2,1,50,0,1
128432,-250,4,2,1,50,0,1
128526,-52.6315789473684,4,2,1,50,0,1
128561,-1000,4,2,1,50,0,1
128596,-52.6315789473684,4,2,1,50,0,1
128631,-1000,4,2,1,50,0,1
128667,-45.4545454545455,4,2,1,50,0,1
128713,-250,4,2,1,50,0,1
128807,-45.4545454545455,4,2,1,50,0,1
128854,-250,4,2,1,50,0,1
128948,-100,4,2,1,50,0,1
134582,-45.4545454545455,4,2,1,50,0,1
134629,-250,4,2,1,50,0,1
134723,-100,4,2,1,50,0,1
135005,-45.4545454545455,4,2,1,50,0,1
135051,-250,4,2,1,50,0,1
135145,-100,4,2,1,50,0,1
135474,-333.333333333333,4,2,1,50,0,1
135521,-200,4,2,1,50,0,1
135568,-125,4,2,1,50,0,1
135615,-76.9230769230769,4,2,1,50,0,1
135662,-47.6190476190476,4,2,1,50,0,1
135709,-100,4,2,1,50,0,1
140357,-200,4,2,1,50,0,1
140451,-50,4,2,1,50,0,1
140497,-100,4,2,1,50,0,1
140920,-200,4,2,1,50,0,1
141014,-50,4,2,1,50,0,1
141061,-100,4,2,1,50,0,1
141483,-200,4,2,1,50,0,1
141577,-50,4,2,1,50,0,1
141624,-100,4,2,1,50,0,1
142047,-200,4,2,1,50,0,1
142141,-50,4,2,1,50,0,1
142188,-100,4,2,1,50,0,1
142610,-200,4,2,1,50,0,1
142704,-50,4,2,1,50,0,1
142751,-100,4,2,1,50,0,1
143174,-200,4,2,1,50,0,1
143267,-50,4,2,1,50,0,1
143314,-100,4,2,1,50,0,1
143596,-45.4545454545455,4,2,1,50,0,1
143643,-250,4,2,1,50,0,1
143737,-100,4,2,1,50,0,1
143878,-45.4545454545455,4,2,1,50,0,1
143925,-250,4,2,1,50,0,1
144019,-45.4545454545455,4,2,1,50,0,1
144066,-250,4,2,1,50,0,1
144159,-100,4,2,1,50,0,1
144300,-45.4545454545455,4,2,1,50,0,1
144347,-250,4,2,1,50,0,1
144441,-47.6190476190476,4,2,1,50,0,1
144488,-66.6666666666667,4,2,1,50,0,1
144535,-100,4,2,1,50,0,1
144582,-142.857142857143,4,2,1,50,0,1
144629,-250,4,2,1,50,0,1
144676,-333.333333333333,4,2,1,50,0,1
144723,-100,4,2,1,50,0,0
153737,-32.258064516129,4,2,1,50,0,0
153772,-333.333333333333,4,2,1,50,0,0
153878,-100,4,2,1,50,0,0

[HitObjects]
192,192,75,5,0,0:0:0:0:
64,192,498,1,4,0:0:0:0:
192,192,498,128,0,638:0:0:0:50:clap2.wav
320,192,498,1,0,0:0:0:0:
448,192,638,128,0,779:0:0:0:0:
192,192,920,128,0,1061:0:0:0:0:
64,192,1061,1,0,0:0:0:50:clap2.wav
448,192,1061,128,0,1202:0:0:0:0:
192,192,1343,128,0,1483:0:0:0:0:
448,192,1483,128,0,1624:0:0:0:0:
64,192,1624,1,0,0:0:0:50:clap2.wav
320,192,1765,128,0,1906:0:0:0:0:
64,192,1906,128,0,2047:0:0:0:0:
64,192,2188,1,0,0:0:0:50:clap2.wav
448,192,2188,128,0,2328:0:0:0:0:
64,192,2469,128,0,2610:0:0:0:0:
192,192,2751,1,0,0:0:0:50:clap2.wav
448,192,2751,128,0,3033:0:0:0:0:
320,192,2892,128,0,3033:0:0:0:0:
64,192,3033,128,0,3314:0:0:0:0:
320,192,3174,1,0,0:0:0:0:
192,192,3314,1,0,0:0:0:50:clap2.wav
448,192,3314,128,0,3596:0:0:0:0:
64,192,3455,128,0,3596:0:0:0:0:
320,192,3596,1,0,0:0:0:0:
448,192,3737,128,0,4019:0:0:0:0:
64,192,3878,128,0,4019:0:0:0:50:clap2.wav
192,192,3878,1,0,0:0:0:0:
320,192,4019,1,0,0:0:0:0:
64,192,4159,1,0,0:0:0:0:
448,192,4159,128,0,4206:0:0:0:0:
320,192,4300,128,0,4347:0:0:0:0:
448,192,4300,1,0,0:0:0:0:
192,192,4441,128,0,4488:0:0:0:50:clap2.wav
320,192,4441,1,0,0:0:0:0:
64,192,4582,128,0,4629:0:0:0:0:
192,192,4582,1,0,0:0:0:0:
64,192,4723,128,0,4958:0:0:0:0:
320,192,4723,1,0,0:0:0:0:
448,192,4723,128,0,4958:0:0:0:0:
64,192,5005,1,4,0:0:0:0:
192,192,5005,1,2,0:0:0:0:
320,192,5005,1,0,0:0:0:50:clap2.wav
448,192,5005,1,0,0:0:0:0:
320,192,5145,1,0,0:0:0:0:
64,192,5286,1,0,0:0:0:0:
192,192,5427,128,0,5709:0:0:0:0:
320,192,5568,1,0,0:0:0:50:clap2.wav
448,192,5568,1,0,0:0:0:0:
64,192,5709,1,0,0:0:0:0:
192,192,5850,128,0,5990:0:0:0:0:
448,192,5990,1,0,0:0:0:0:
320,192,6131,1,0,0:0:0:50:clap2.wav
448,192,6131,128,0,6272:0:0:0:0:
64,192,6272,1,0,0:0:0:0:
64,192,6413,128,0,6554:0:0:0:0:
320,192,6413,1,0,0:0:0:0:
448,192,6554,1,0,0:0:0:0:
320,192,6695,128,0,6836:0:0:0:50:clap2.wav
448,192,6695,1,0,0:0:0:0:
64,192,6836,1,0,0:0:0:0:
64,192,6976,1,0,0:0:0:0:
192,192,6976,128,0,7117:0:0:0:0:
320,192,7117,1,0,0:0:0:0:
64,192,7258,1,0,0:0:0:50:clap2.wav
320,192,7258,128,0,7540:0:0:0:0:
448,192,7258,1,0,0:0:0:0:
192,192,7399,1,0,0:0:0:0:
448,192,7399,128,0,7540:0:0:0:0:
64,192,7540,1,0,0:0:0:0:
192,192,7540,128,0,7821:0:0:0:0:
320,192,7681,1,0,0:0:0:0:
64,192,7821,1,0,0:0:0:50:clap2.wav
320,192,7821,128,0,7962:0:0:0:0:
448,192,7821,1,0,0:0:0:0:
192,192,7962,128,0,8103:0:0:0:0:
320,192,8103,1,0,0:0:0:0:
448,192,8103,1,0,0:0:0:0:
64,192,8244,1,0,0:0:0:0:
320,192,8244,128,0,8385:0:0:0:0:
64,192,8385,1,4,0:0:0:0:
192,192,8385,1,2,0:0:0:0:
448,192,8385,1,0,0:0:0:0:
64,192,8526,1,0,0:0:0:0:
320,192,8526,1,0,0:0:0:0:
192,192,8667,1,8,0:0:0:0:
320,192,8667,1,0,0:0:0:0:
448,192,8667,1,0,0:0:0:0:
192,192,8807,1,2,0:0:0:0:
448,192,8807,1,0,0:0:0:0:
64,192,8948,1,0,0:0:0:45:Tom1.wav
320,192,8948,1,0,0:0:0:0:
192,192,9019,1,0,0:0:0:45:Tom1.wav
320,192,9089,1,0,0:0:0:45:Tom1.wav
448,192,9089,1,0,0:0:0:0:
192,192,9230,1,0,0:0:0:45:Tom1.wav
320,192,9230,1,0,0:0:0:0:
64,192,9371,1,0,0:0:0:45:Tom1.wav
192,192,9371,1,0,0:0:0:0:
64,192,9512,1,2,0:0:0:0:
192,192,9512,1,4,0:0:0:0:
320,192,9512,1,0,0:0:0:0:
448,192,9512,1,0,0:0:0:0:
192,192,9652,1,0,0:0:0:0:
320,192,9652,1,0,0:0:0:0:
64,192,9793,1,8,0:0:0:0:
320,192,9793,1,0,0:0:0:0:
448,192,9793,1,0,0:0:0:0:
64,192,9934,1,0,0:0:0:0:
192,192,9934,1,0,0:0:0:0:
192,192,10075,1,0,0:0:0:0:
320,192,10075,1,0,0:0:0:0:
192,192,10216,1,2,0:0:0:0:
448,192,10216,1,0,0:0:0:0:
64,192,10357,1,8,0:0:0:0:
320,192,10357,1,0,0:0:0:0:
448,192,10357,1,0,0:0:0:0:
64,192,10497,1,0,0:0:0:0:
192,192,10497,1,0,0:0:0:0:
320,192,10638,1,2,0:0:0:0:
448,192,10638,128,0,10685:0:0:0:0:
64,192,10779,1,0,0:0:0:0:
320,192,10850,128,0,10897:0:0:0:0:
64,192,10920,1,8,0:0:0:0:
192,192,10920,1,0,0:0:0:0:
192,192,11061,1,0,0:0:0:0:
448,192,11061,128,0,11108:0:0:0:0:
64,192,11202,1,0,0:0:0:0:
320,192,11202,128,0,11249:0:0:0:0:
448,192,11202,1,0,0:0:0:0:
192,192,11343,1,2,0:0:0:0:
320,192,11343,1,0,0:0:0:50:clap2.wav
64,192,11483,128,8,11530:0:0:0:0:
192,192,11483,128,0,11530:0:0:0:50:clap2.wav
320,192,11483,128,0,11530:0:0:0:0:
448,192,11483,128,0,11530:0:0:0:0:
448,192,11624,1,0,0:0:0:50:clap2.wav
64,192,11765,128,2,11836:0:0:0:0:
192,192,11765,1,0,0:0:0:0:
320,192,11765,1,0,0:0:0:0:
192,192,11906,1,0,0:0:0:0:
64,192,12047,1,8,0:0:0:0:
320,192,12047,1,0,0:0:0:0:
448,192,12047,1,0,0:0:0:0:
192,192,12188,1,0,0:0:0:0:
64,192,12328,128,0,12399:0:0:0:0:
192,192,12328,128,0,12399:0:0:0:0:
320,192,12328,1,0,0:0:0:0:
320,192,12469,1,2,0:0:0:0:
448,192,12469,1,0,0:0:0:0:
64,192,12610,1,8,0:0:0:0:
192,192,12610,1,0,0:0:0:0:
448,192,12610,1,0,0:0:0:0:
320,192,12751,1,0,0:0:0:0:
64,192,12892,128,2,12962:0:0:0:0:
192,192,12892,128,0,12962:0:0:0:0:
320,192,12892,128,0,12962:0:0:0:0:
448,192,12892,128,0,13831:0:0:0:0:
64,192,13596,128,0,13831:0:0:0:0:
64,192,14019,128,4,14206:0:0:0:0:
448,192,14019,1,2,0:0:0:0:
192,192,14066,128,0,14206:0:0:0:0:
320,192,14113,128,0,14206:0:0:0:0:
448,192,14159,128,0,14206:0:0:0:0:
192,192,14300,1,0,0:0:0:0:
64,192,14441,1,0,0:0:0:0:
320,192,14441,1,0,0:0:0:0:
64,192,14582,1,0,0:0:0:70:clap1.wav
192,192,14582,1,0,0:0:0:0:
448,192,14582,1,0,0:0:0:0:
320,192,14723,128,0,14811:0:0:0:0:
448,192,14723,128,0,14793:0:0:0:0:
64,192,14864,1,2,0:0:0:0:
320,192,14864,128,0,14952:0:0:0:0:
448,192,14864,128,0,14934:0:0:0:0:
64,192,15005,1,2,0:0:0:0:
192,192,15005,1,0,0:0:0:0:
448,192,15005,1,0,0:0:0:0:
64,192,15145,128,0,15216:0:0:0:0:
192,192,15145,128,0,15233:0:0:0:0:
64,192,15286,128,0,15357:0:0:0:0:
192,192,15286,128,0,15374:0:0:0:0:
64,192,15427,1,2,0:0:0:0:
320,192,15427,1,0,0:0:0:0:
448,192,15427,1,0,0:0:0:0:
320,192,15568,128,0,15656:0:0:0:0:
448,192,15568,128,0,15638:0:0:0:0:
64,192,15709,1,0,0:0:0:70:clap1.wav
192,192,15709,128,0,15756:0:0:0:0:
320,192,15756,128,0,15803:0:0:0:0:
448,192,15803,128,0,15850:0:0:0:0:
64,192,15850,128,0,15897:0:0:0:0:
192,192,15897,128,0,15944:0:0:0:0:
448,192,15944,128,0,15990:0:0:0:0:
320,192,15990,128,0,16037:0:0:0:0:
192,192,16037,128,0,16084:0:0:0:0:
64,192,16084,128,0,16131:0:0:0:0:
320,192,16131,128,0,16178:0:0:0:0:
448,192,16131,128,0,16178:0:0:0:0:
64,192,16272,1,2,0:0:0:0:
448,192,16272,128,0,16483:0:0:0:0:
320,192,16319,128,0,16483:0:0:0:0:
192,192,16366,128,0,16483:0:0:0:0:
64,192,16413,128,0,16483:0:0:0:0:
64,192,16554,128,0,16765:0:0:0:0:
192,192,16554,128,0,16730:0:0:0:0:
320,192,16554,128,0,16695:0:0:0:0:
448,192,16554,128,0,16659:0:0:0:0:
192,192,16836,1,0,0:0:0:70:clap1.wav
320,192,16836,1,0,0:0:0:0:
448,192,16836,1,0,0:0:0:0:
64,192,16976,128,0,17047:0:0:0:0:
192,192,16976,128,0,17064:0:0:0:0:
64,192,17117,128,0,17188:0:0:0:0:
192,192,17117,128,0,17205:0:0:0:0:
64,192,17258,1,2,0:0:0:0:
320,192,17258,1,0,0:0:0:0:
448,192,17258,1,0,0:0:0:0:
192,192,17399,1,2,0:0:0:0:
448,192,17399,1,0,0:0:0:0:
64,192,17446,1,0,0:0:0:0:
320,192,17493,1,0,0:0:0:0:
448,192,17540,1,2,0:0:0:0:
192,192,17587,1,0,0:0:0:0:
64,192,17634,1,0,0:0:0:0:
448,192,17681,1,2,0:0:0:0:
320,192,17728,1,0,0:0:0:0:
64,192,17774,1,0,0:0:0:0:
192,192,17821,1,2,0:0:0:0:
320,192,17892,1,0,0:0:0:0:
64,192,17962,1,0,0:0:0:45:Tom2.wav
448,192,17962,1,0,0:0:0:0:
320,192,18033,1,0,0:0:0:0:
64,192,18103,1,0,0:0:0:45:Tom2.wav
192,192,18103,1,0,0:0:0:0:
448,192,18244,1,0,0:0:0:0:
320,192,18279,1,0,0:0:0:0:
64,192,18314,1,0,0:0:0:0:
192,192,18350,1,0,0:0:0:0:
448,192,18385,1,0,0:0:0:0:
320,192,18420,1,0,0:0:0:0:
64,192,18455,1,0,0:0:0:0:
192,192,18490,1,0,0:0:0:0:
320,192,18526,128,2,18667:0:0:0:0:
448,192,18526,128,0,18667:0:0:0:70:cymbal_short.wav
192,192,18948,128,0,19371:0:0:0:0:
448,192,19089,128,0,19371:0:0:0:0:
64,192,19230,128,0,19512:0:0:0:0:
320,192,19371,128,0,19605:0:0:0:0:
192,192,19512,128,0,19605:0:0:0:0:
64,192,19652,128,2,20169:0:0:0:0:
192,192,19652,1,0,0:0:0:50:Tom1.wav
320,192,19652,1,0,0:0:0:0:
448,192,19652,128,0,19746:0:0:0:0:
448,192,19793,128,0,20028:0:0:0:0:
192,192,19934,1,0,0:0:0:50:snare hat.wav
192,192,20075,1,0,0:0:0:50:snare hat.wav
448,192,20075,128,0,20169:0:0:0:0:
64,192,20216,128,0,20638:0:0:0:50:snare hat.wav
320,192,20216,1,0,0:0:0:40:Tom2.wav
448,192,20216,128,0,20638:0:0:0:0:
192,192,20497,128,2,20638:0:0:0:0:
320,192,20497,128,0,20638:0:0:0:60:snare pop.wav
64,192,20779,1,2,0:0:0:0:
192,192,20779,1,4,0:0:0:0:
320,192,20779,1,0,0:0:0:0:
448,192,20779,1,0,0:0:0:0:
64,192,21061,1,8,0:0:0:0:
320,192,21061,1,2,0:0:0:0:
448,192,21061,1,0,0:0:0:0:
192,192,21131,1,0,0:0:0:0:
448,192,21202,1,0,0:0:0:0:
64,192,21272,1,0,0:0:0:0:
320,192,21343,1,2,0:0:0:0:
448,192,21343,1,0,0:0:0:0:
192,192,21413,1,0,0:0:0:0:
448,192,21483,1,0,0:0:0:0:
64,192,21554,1,0,0:0:0:0:
192,192,21624,1,8,0:0:0:0:
320,192,21624,1,2,0:0:0:0:
448,192,21624,1,0,0:0:0:0:
64,192,21695,1,0,0:0:0:0:
320,192,21765,1,0,0:0:0:0:
192,192,21836,1,0,0:0:0:0:
320,192,21906,1,2,0:0:0:0:
448,192,21906,1,0,0:0:0:0:
64,192,21976,1,0,0:0:0:0:
448,192,22047,1,0,0:0:0:0:
192,192,22117,1,0,0:0:0:0:
64,192,22188,1,8,0:0:0:0:
320,192,22188,1,2,0:0:0:0:
448,192,22188,1,0,0:0:0:0:
192,192,22258,1,0,0:0:0:0:
448,192,22328,1,0,0:0:0:0:
64,192,22399,1,0,0:0:0:0:
320,192,22469,1,2,0:0:0:0:
448,192,22469,1,0,0:0:0:0:
192,192,22540,1,0,0:0:0:0:
320,192,22610,1,0,0:0:0:0:
64,192,22681,1,0,0:0:0:0:
192,192,22751,1,8,0:0:0:0:
320,192,22751,1,2,0:0:0:0:
448,192,22751,1,0,0:0:0:0:
64,192,22892,1,2,0:0:0:0:
448,192,22892,1,0,0:0:0:0:
64,192,23033,1,2,0:0:0:0:
192,192,23033,1,0,0:0:0:0:
320,192,23103,1,0,0:0:0:0:
192,192,23174,1,0,0:0:0:0:
448,192,23244,1,0,0:0:0:0:
64,192,23314,1,8,0:0:0:0:
192,192,23314,1,2,0:0:0:0:
320,192,23314,1,0,0:0:0:0:
448,192,23385,1,0,0:0:0:0:
64,192,23455,1,0,0:0:0:0:
320,192,23526,1,0,0:0:0:0:
64,192,23596,1,2,0:0:0:0:
192,192,23596,1,0,0:0:0:0:
448,192,23667,1,0,0:0:0:0:
64,192,23737,1,0,0:0:0:0:
320,192,23807,1,0,0:0:0:0:
64,192,23878,1,8,0:0:0:0:
192,192,23878,1,2,0:0:0:0:
448,192,23878,1,0,0:0:0:0:
320,192,23948,1,0,0:0:0:0:
192,192,24019,1,0,0:0:0:0:
448,192,24089,1,0,0:0:0:0:
64,192,24159,1,2,0:0:0:0:
192,192,24159,1,0,0:0:0:0:
320,192,24230,1,0,0:0:0:0:
64,192,24300,1,0,0:0:0:0:
448,192,24371,1,0,0:0:0:0:
64,192,24441,1,8,0:0:0:0:
192,192,24441,1,2,0:0:0:0:
320,192,24441,1,0,0:0:0:0:
448,192,24512,1,0,0:0:0:0:
64,192,24582,1,0,0:0:0:0:
320,192,24652,1,0,0:0:0:0:
64,192,24723,1,2,0:0:0:0:
192,192,24723,1,0,0:0:0:0:
448,192,24723,1,0,0:0:0:0:
64,192,24864,1,2,0:0:0:0:
192,192,24864,1,0,0:0:0:0:
320,192,24864,1,0,0:0:0:0:
192,192,25005,1,2,0:0:0:0:
320,192,25005,1,8,0:0:0:0:
448,192,25005,1,0,0:0:0:0:
64,192,25145,1,2,0:0:0:0:
320,192,25145,1,0,0:0:0:0:
448,192,25145,1,0,0:0:0:0:
192,192,25286,1,2,0:0:0:0:
320,192,25286,1,4,0:0:0:0:
448,192,25286,1,0,0:0:0:0:
64,192,25357,1,0,0:0:0:0:
320,192,25427,1,0,0:0:0:0:
448,192,25427,1,0,0:0:0:0:
192,192,25497,1,0,0:0:0:0:
64,192,25568,1,8,0:0:0:0:
448,192,25568,1,2,0:0:0:0:
320,192,25638,1,0,0:0:0:0:
64,192,25709,1,0,0:0:0:0:
192,192,25709,1,0,0:0:0:0:
320,192,25779,1,0,0:0:0:0:
64,192,25850,1,2,0:0:0:0:
448,192,25850,1,0,0:0:0:0:
192,192,25920,1,0,0:0:0:0:
64,192,25990,1,0,0:0:0:0:
320,192,25990,1,0,0:0:0:0:
448,192,26061,1,0,0:0:0:0:
64,192,26131,1,8,0:0:0:0:
192,192,26131,1,2,0:0:0:0:
320,192,26202,1,0,0:0:0:0:
192,192,26272,1,0,0:0:0:0:
448,192,26272,1,0,0:0:0:0:
64,192,26343,1,0,0:0:0:0:
320,192,26413,1,2,0:0:0:0:
448,192,26413,1,0,0:0:0:0:
192,192,26483,1,0,0:0:0:0:
64,192,26554,1,0,0:0:0:0:
448,192,26554,1,0,0:0:0:0:
320,192,26624,1,0,0:0:0:0:
64,192,26695,1,8,0:0:0:0:
192,192,26695,1,2,0:0:0:0:
320,192,26765,1,0,0:0:0:0:
64,192,26836,1,0,0:0:0:0:
448,192,26836,1,0,0:0:0:0:
192,192,26906,1,0,0:0:0:0:
64,192,26976,1,2,0:0:0:0:
320,192,26976,1,0,0:0:0:0:
448,192,26976,1,0,0:0:0:0:
192,192,27047,1,0,0:0:0:0:
448,192,27117,1,0,0:0:0:0:
320,192,27188,1,0,0:0:0:0:
64,192,27258,1,8,0:0:0:0:
192,192,27258,1,2,0:0:0:0:
448,192,27258,1,0,0:0:0:0:
64,192,27399,1,2,0:0:0:0:
320,192,27399,1,0,0:0:0:0:
192,192,27469,1,2,0:0:0:0:
64,192,27540,1,2,0:0:0:0:
320,192,27540,1,0,0:0:0:50:Tom1.wav
448,192,27540,1,0,0:0:0:0:
192,192,27681,1,2,0:0:0:0:
320,192,27681,1,0,0:0:0:50:Tom1.wav
64,192,27821,1,10,0:0:0:0:
192,192,27821,1,0,0:0:0:50:Tom1.wav
448,192,27892,1,0,0:0:0:0:
64,192,27962,1,0,0:0:0:0:
320,192,27962,1,0,0:0:0:0:
192,192,28033,1,0,0:0:0:0:
64,192,28103,1,2,0:0:0:0:
448,192,28103,1,0,0:0:0:50:Tom1.wav
320,192,28174,1,0,0:0:0:0:
192,192,28244,1,0,0:0:0:0:
448,192,28244,1,0,0:0:0:0:
64,192,28314,1,0,0:0:0:0:
192,192,28385,1,10,0:0:0:0:
320,192,28385,1,0,0:0:0:50:Tom1.wav
448,192,28455,1,0,0:0:0:0:
64,192,28526,1,2,0:0:0:0:
320,192,28526,1,0,0:0:0:50:Tom1.wav
192,192,28596,1,2,0:0:0:0:
64,192,28667,1,2,0:0:0:0:
320,192,28667,1,0,0:0:0:70:cymbal_short.wav
448,192,28667,1,0,0:0:0:0:
320,192,28807,1,0,0:0:0:0:
192,192,28948,1,8,0:0:0:0:
448,192,28948,1,0,0:0:0:0:
64,192,29089,1,2,0:0:0:0:
320,192,29089,1,0,0:0:0:70:cymbal_short.wav
448,192,29089,1,0,0:0:0:0:
192,192,29230,1,0,0:0:0:0:
64,192,29371,1,2,0:0:0:0:
320,192,29371,1,0,0:0:0:0:
64,192,29512,1,2,0:0:0:0:
192,192,29512,1,0,0:0:0:0:
320,192,29652,1,2,0:0:0:0:
448,192,29652,1,0,0:0:0:0:
192,192,29723,1,2,0:0:0:0:
64,192,29793,1,2,0:0:0:0:
320,192,29793,1,4,0:0:0:0:
448,192,29793,1,0,0:0:0:0:
192,192,29864,1,0,0:0:0:0:
64,192,29934,1,0,0:0:0:0:
448,192,29934,1,0,0:0:0:0:
320,192,30005,1,0,0:0:0:0:
192,192,30075,1,10,0:0:0:0:
64,192,30145,1,0,0:0:0:0:
320,192,30216,1,0,0:0:0:0:
448,192,30216,1,0,0:0:0:0:
192,192,30286,1,0,0:0:0:0:
64,192,30357,1,2,0:0:0:0:
448,192,30357,1,0,0:0:0:0:
192,192,30427,1,0,0:0:0:0:
320,192,30497,1,0,0:0:0:0:
448,192,30568,1,0,0:0:0:0:
64,192,30638,1,8,0:0:0:0:
192,192,30638,1,2,0:0:0:0:
320,192,30709,1,0,0:0:0:0:
64,192,30779,1,0,0:0:0:0:
448,192,30779,1,0,0:0:0:0:
192,192,30850,1,0,0:0:0:0:
64,192,30920,1,2,0:0:0:0:
320,192,30920,1,0,0:0:0:0:
448,192,30990,1,0,0:0:0:0:
192,192,31061,1,0,0:0:0:0:
320,192,31131,1,0,0:0:0:0:
64,192,31202,1,8,0:0:0:0:
448,192,31202,1,2,0:0:0:0:
192,192,31272,1,0,0:0:0:0:
448,192,31343,1,0,0:0:0:0:
320,192,31413,1,0,0:0:0:0:
64,192,31483,1,2,0:0:0:0:
192,192,31483,1,0,0:0:0:0:
448,192,31554,1,0,0:0:0:0:
64,192,31624,1,0,0:0:0:0:
192,192,31695,1,0,0:0:0:0:
320,192,31765,1,8,0:0:0:0:
448,192,31765,1,2,0:0:0:0:
192,192,31836,1,0,0:0:0:0:
64,192,31906,1,2,0:0:0:0:
448,192,31906,1,0,0:0:0:0:
320,192,31976,1,0,0:0:0:0:
64,192,32047,1,2,0:0:0:0:
192,192,32047,1,0,0:0:0:0:
448,192,32117,1,0,0:0:0:0:
64,192,32188,1,0,0:0:0:0:
192,192,32258,1,0,0:0:0:0:
320,192,32328,1,8,0:0:0:0:
448,192,32328,1,2,0:0:0:0:
64,192,32399,1,0,0:0:0:0:
448,192,32469,1,0,0:0:0:0:
320,192,32540,1,0,0:0:0:0:
64,192,32610,1,2,0:0:0:0:
192,192,32610,1,0,0:0:0:0:
448,192,32681,1,0,0:0:0:0:
64,192,32751,1,0,0:0:0:0:
320,192,32751,1,0,0:0:0:0:
192,192,32821,1,0,0:0:0:0:
320,192,32892,1,10,0:0:0:0:
64,192,32962,1,0,0:0:0:0:
192,192,33033,1,0,0:0:0:0:
448,192,33033,1,0,0:0:0:0:
320,192,33103,1,0,0:0:0:0:
64,192,33174,1,2,0:0:0:0:
192,192,33174,1,0,0:0:0:50:Tom1.wav
448,192,33174,1,0,0:0:0:0:
320,192,33314,1,0,0:0:0:0:
64,192,33455,1,8,0:0:0:0:
320,192,33455,1,2,0:0:0:0:
448,192,33455,1,0,0:0:0:50:Tom1.wav
192,192,33596,1,0,0:0:0:0:
64,192,33737,1,2,0:0:0:0:
192,192,33737,1,0,0:0:0:50:Tom1.wav
448,192,33737,1,0,0:0:0:0:
64,192,33878,1,2,0:0:0:0:
448,192,33878,1,0,0:0:0:50:Tom1.wav
192,192,33948,1,2,0:0:0:0:
320,192,33948,1,0,0:0:0:0:
64,192,34019,1,10,0:0:0:0:
448,192,34019,1,0,0:0:0:50:Tom1.wav
320,192,34159,1,2,0:0:0:0:
448,192,34159,1,0,0:0:0:50:Tom1.wav
64,192,34300,1,2,0:0:0:0:
192,192,34300,1,4,0:0:0:0:
448,192,34300,1,0,0:0:0:50:Tom1.wav
320,192,34371,1,0,0:0:0:0:
64,192,34441,1,0,0:0:0:0:
192,192,34441,1,0,0:0:0:0:
320,192,34512,1,0,0:0:0:0:
192,192,34582,1,10,0:0:0:0:
64,192,34652,1,0,0:0:0:0:
320,192,34723,1,0,0:0:0:0:
448,192,34723,1,0,0:0:0:0:
192,192,34793,1,0,0:0:0:0:
64,192,34864,1,2,0:0:0:0:
448,192,34864,1,0,0:0:0:50:Tom1.wav
192,192,34934,1,0,0:0:0:0:
320,192,35005,1,0,0:0:0:0:
448,192,35075,1,0,0:0:0:0:
64,192,35145,1,10,0:0:0:0:
320,192,35145,1,0,0:0:0:45:snare1.wav
192,192,35216,1,0,0:0:0:0:
64,192,35286,1,0,0:0:0:0:
448,192,35286,1,0,0:0:0:0:
320,192,35357,1,0,0:0:0:0:
64,192,35427,1,2,0:0:0:0:
192,192,35427,1,0,0:0:0:50:Tom1.wav
448,192,35497,1,0,0:0:0:0:
320,192,35568,1,0,0:0:0:0:
192,192,35638,1,0,0:0:0:0:
64,192,35709,1,10,0:0:0:0:
448,192,35709,1,0,0:0:0:45:snare1.wav
320,192,35779,1,0,0:0:0:0:
192,192,35850,1,0,0:0:0:0:
448,192,35920,1,0,0:0:0:0:
64,192,35990,1,2,0:0:0:0:
320,192,35990,1,0,0:0:0:50:Tom1.wav
192,192,36061,1,0,0:0:0:0:
320,192,36131,1,0,0:0:0:0:
64,192,36202,1,0,0:0:0:0:
192,192,36272,1,2,0:0:0:0:
448,192,36272,1,8,0:0:0:0:
320,192,36343,1,0,0:0:0:0:
64,192,36413,1,2,0:0:0:0:
448,192,36413,1,0,0:0:0:0:
192,192,36483,1,0,0:0:0:0:
64,192,36554,1,2,0:0:0:0:
320,192,36554,1,0,0:0:0:50:Tom1.wav
448,192,36554,1,0,0:0:0:0:
192,192,36695,1,0,0:0:0:0:
64,192,36836,1,2,0:0:0:0:
192,192,36836,1,8,0:0:0:0:
320,192,36836,1,0,0:0:0:0:
64,192,36976,1,2,0:0:0:0:
448,192,36976,1,0,0:0:0:0:
320,192,37047,1,2,0:0:0:0:
64,192,37117,1,2,0:0:0:0:
192,192,37117,1,0,0:0:0:50:Tom1.wav
448,192,37117,1,0,0:0:0:0:
64,192,37258,1,2,0:0:0:0:
320,192,37258,1,0,0:0:0:50:Tom1.wav
448,192,37258,1,0,0:0:0:0:
64,192,37399,1,2,0:0:0:0:
192,192,37399,1,8,0:0:0:0:
448,192,37399,1,0,0:0:0:50:Tom1.wav
192,192,37540,1,0,0:0:0:0:
64,192,37681,1,2,0:0:0:0:
320,192,37681,1,0,0:0:0:70:cymbal_short.wav
448,192,37681,1,0,0:0:0:0:
64,192,37962,1,2,0:0:0:0:
192,192,37962,1,8,0:0:0:0:
320,192,37962,1,0,0:0:0:70:cymbal_short.wav
192,192,38244,1,2,0:0:0:0:
320,192,38244,1,0,0:0:0:70:cymbal_short.wav
448,192,38244,1,0,0:0:0:0:
64,192,38385,1,2,0:0:0:0:
448,192,38385,1,0,0:0:0:0:
192,192,38455,1,2,0:0:0:0:
320,192,38455,1,0,0:0:0:0:
64,192,38526,1,2,0:0:0:0:
448,192,38526,1,0,0:0:0:0:
64,192,38807,1,2,0:0:0:0:
320,192,38807,1,4,0:0:0:0:
448,192,38807,1,0,0:0:0:0:
192,192,38878,1,0,0:0:0:0:
320,192,38948,1,0,0:0:0:0:
448,192,38948,1,0,0:0:0:0:
64,192,39019,1,0,0:0:0:0:
192,192,39089,1,8,0:0:0:0:
320,192,39089,1,2,0:0:0:0:
448,192,39159,1,0,0:0:0:0:
64,192,39230,1,0,0:0:0:0:
320,192,39230,1,0,0:0:0:0:
192,192,39300,1,0,0:0:0:0:
320,192,39371,1,2,0:0:0:0:
448,192,39371,1,0,0:0:0:0:
192,192,39441,1,0,0:0:0:0:
64,192,39512,1,0,0:0:0:0:
448,192,39582,1,0,0:0:0:0:
64,192,39652,1,8,0:0:0:0:
320,192,39652,1,2,0:0:0:0:
192,192,39723,1,0,0:0:0:0:
320,192,39793,1,0,0:0:0:0:
448,192,39793,1,0,0:0:0:0:
64,192,39864,1,0,0:0:0:0:
192,192,39934,1,2,0:0:0:0:
448,192,39934,1,0,0:0:0:0:
320,192,40005,1,0,0:0:0:0:
64,192,40075,1,0,0:0:0:0:
192,192,40145,1,0,0:0:0:0:
320,192,40216,1,8,0:0:0:0:
448,192,40216,1,2,0:0:0:0:
64,192,40286,1,0,0:0:0:0:
192,192,40357,1,0,0:0:0:0:
320,192,40427,1,0,0:0:0:0:
64,192,40497,1,2,0:0:0:0:
192,192,40497,1,0,0:0:0:0:
448,192,40568,1,0,0:0:0:0:
320,192,40638,1,0,0:0:0:0:
192,192,40709,1,0,0:0:0:0:
320,192,40779,1,8,0:0:0:0:
448,192,40779,1,2,0:0:0:0:
64,192,40850,1,0,0:0:0:0:
192,192,40920,1,2,0:0:0:0:
448,192,40920,1,0,0:0:0:0:
320,192,40990,1,0,0:0:0:0:
64,192,41061,1,2,0:0:0:0:
192,192,41061,1,0,0:0:0:0:
448,192,41131,1,0,0:0:0:0:
320,192,41202,1,0,0:0:0:0:
192,192,41272,1,0,0:0:0:0:
320,192,41343,1,8,0:0:0:0:
448,192,41343,1,2,0:0:0:0:
64,192,41413,1,0,0:0:0:0:
192,192,41483,1,0,0:0:0:0:
320,192,41554,1,0,0:0:0:0:
64,192,41624,1,2,0:0:0:0:
192,192,41624,1,0,0:0:0:0:
448,192,41695,1,0,0:0:0:0:
64,192,41765,1,0,0:0:0:0:
320,192,41765,1,0,0:0:0:0:
192,192,41836,1,0,0:0:0:0:
320,192,41906,1,10,0:0:0:0:
64,192,41976,1,0,0:0:0:0:
192,192,42047,1,0,0:0:0:0:
448,192,42047,1,0,0:0:0:0:
320,192,42117,1,0,0:0:0:0:
64,192,42188,1,2,0:0:0:0:
192,192,42188,1,0,0:0:0:0:
448,192,42188,1,0,0:0:0:0:
320,192,42328,1,0,0:0:0:0:
64,192,42469,1,8,0:0:0:0:
192,192,42469,1,2,0:0:0:0:
320,192,42469,1,0,0:0:0:0:
192,192,42610,1,0,0:0:0:0:
320,192,42681,1,0,0:0:0:0:
64,192,42751,1,2,0:0:0:0:
192,192,42751,1,0,0:0:0:0:
448,192,42751,1,0,0:0:0:0:
64,192,42892,1,2,0:0:0:0:
192,192,42892,1,0,0:0:0:0:
320,192,42962,1,2,0:0:0:0:
448,192,42962,1,0,0:0:0:0:
64,192,43033,1,2,0:0:0:0:
192,192,43033,1,8,0:0:0:0:
64,192,43174,1,2,0:0:0:0:
448,192,43174,1,0,0:0:0:0:
192,192,43314,1,2,0:0:0:0:
320,192,43314,1,4,0:0:0:0:
448,192,43314,1,0,0:0:0:50:Tom1.wav
64,192,43385,1,0,0:0:0:0:
320,192,43455,1,0,0:0:0:0:
192,192,43526,1,0,0:0:0:0:
64,192,43596,1,8,0:0:0:0:
320,192,43596,1,2,0:0:0:0:
448,192,43596,1,0,0:0:0:45:snare1.wav
192,192,43667,1,0,0:0:0:0:
448,192,43737,1,0,0:0:0:0:
320,192,43807,1,0,0:0:0:0:
64,192,43878,1,2,0:0:0:0:
192,192,43878,1,0,0:0:0:45:snare1.wav
448,192,43878,1,0,0:0:0:0:
320,192,43948,1,0,0:0:0:0:
64,192,44019,1,0,0:0:0:0:
192,192,44089,1,0,0:0:0:0:
64,192,44159,1,2,0:0:0:0:
320,192,44159,1,8,0:0:0:0:
448,192,44159,1,0,0:0:0:45:snare1.wav
320,192,44300,1,2,0:0:0:0:
448,192,44300,1,0,0:0:0:45:snare1.wav
64,192,44371,1,2,0:0:0:0:
192,192,44371,1,0,0:0:0:45:snare1.wav
320,192,44441,1,2,0:0:0:0:
448,192,44441,1,0,0:0:0:45:snare1.wav
64,192,44582,1,2,0:0:0:0:
192,192,44582,1,0,0:0:0:45:snare1.wav
448,192,44582,1,0,0:0:0:0:
64,192,44723,1,2,0:0:0:0:
320,192,44723,1,8,0:0:0:0:
448,192,44723,1,0,0:0:0:45:snare1.wav
64,192,44864,1,0,0:0:0:0:
192,192,44864,1,0,0:0:0:0:
320,192,44934,1,0,0:0:0:0:
64,192,45005,1,2,0:0:0:0:
448,192,45005,1,0,0:0:0:45:snare1.wav
192,192,45075,1,0,0:0:0:0:
320,192,45145,1,2,0:0:0:0:
448,192,45145,1,0,0:0:0:45:snare1.wav
64,192,45216,1,2,0:0:0:0:
192,192,45216,1,0,0:0:0:45:snare1.wav
320,192,45286,1,10,0:0:0:0:
448,192,45286,1,0,0:0:0:45:snare1.wav
64,192,45427,1,2,0:0:0:0:
192,192,45427,1,0,0:0:0:45:snare1.wav
320,192,45497,1,2,0:0:0:0:
64,192,45568,1,2,0:0:0:0:
192,192,45568,1,0,0:0:0:45:snare1.wav
448,192,45568,1,0,0:0:0:70:cymbal_short.wav
320,192,45709,1,2,0:0:0:0:
448,192,45709,1,0,0:0:0:45:snare1.wav
192,192,45779,1,2,0:0:0:0:
64,192,45850,1,2,0:0:0:0:
320,192,45850,1,0,0:0:0:45:snare1.wav
448,192,45850,1,0,0:0:0:70:cymbal_short.wav
64,192,45990,1,2,0:0:0:0:
192,192,45990,1,0,0:0:0:45:snare1.wav
448,192,46061,1,2,0:0:0:0:
64,192,46131,1,2,0:0:0:0:
192,192,46131,1,0,0:0:0:45:snare1.wav
320,192,46131,1,0,0:0:0:70:cymbal_short.wav
64,192,46272,1,2,0:0:0:0:
320,192,46272,1,0,0:0:0:0:
448,192,46272,1,0,0:0:0:0:
192,192,46413,1,2,0:0:0:0:
320,192,46413,1,0,0:0:0:70:cymbal_short.wav
448,192,46413,1,0,0:0:0:0:
64,192,46554,1,2,0:0:0:0:
192,192,46554,1,0,0:0:0:0:
448,192,46554,1,0,0:0:0:0:
64,192,46695,1,2,0:0:0:0:
192,192,46695,1,4,0:0:0:0:
320,192,46695,1,0,0:0:0:0:
448,192,46695,1,0,0:0:0:0:
320,192,46836,1,0,0:0:0:0:
448,192,46836,1,0,0:0:0:0:
64,192,46976,1,8,0:0:0:0:
320,192,46976,1,0,0:0:0:0:
64,192,47117,1,2,0:0:0:0:
192,192,47117,1,0,0:0:0:0:
192,192,47258,1,2,0:0:0:0:
320,192,47258,1,0,0:0:0:0:
64,192,47399,1,8,0:0:0:0:
448,192,47399,1,0,0:0:0:0:
64,192,47540,1,2,0:0:0:0:
192,192,47540,1,0,0:0:0:70:snare pop.wav
320,192,47540,1,0,0:0:0:0:
448,192,47540,1,0,0:0:0:0:
64,192,47821,1,2,0:0:0:0:
192,192,47821,1,4,0:0:0:0:
448,192,47821,1,0,0:0:0:0:
320,192,47892,1,0,0:0:0:0:
64,192,47962,1,0,0:0:0:0:
448,192,47962,1,0,0:0:0:0:
192,192,48033,1,0,0:0:0:0:
320,192,48103,1,10,0:0:0:0:
64,192,48174,1,0,0:0:0:0:
192,192,48244,1,0,0:0:0:0:
448,192,48244,1,0,0:0:0:0:
320,192,48314,1,0,0:0:0:0:
64,192,48385,1,2,0:0:0:0:
192,192,48385,1,0,0:0:0:0:
448,192,48455,1,0,0:0:0:0:
320,192,48526,1,0,0:0:0:0:
192,192,48596,1,0,0:0:0:0:
64,192,48667,1,2,0:0:0:0:
448,192,48667,1,8,0:0:0:0:
320,192,48737,1,0,0:0:0:0:
64,192,48807,1,0,0:0:0:0:
192,192,48807,1,0,0:0:0:0:
320,192,48878,1,0,0:0:0:0:
192,192,48948,1,2,0:0:0:0:
448,192,48948,1,0,0:0:0:0:
64,192,49019,1,0,0:0:0:0:
320,192,49089,1,0,0:0:0:0:
192,192,49159,1,0,0:0:0:0:
64,192,49230,1,2,0:0:0:0:
448,192,49230,1,8,0:0:0:0:
320,192,49300,1,0,0:0:0:0:
192,192,49371,1,0,0:0:0:0:
448,192,49441,1,0,0:0:0:0:
64,192,49512,1,2,0:0:0:0:
320,192,49512,1,0,0:0:0:0:
192,192,49582,1,0,0:0:0:0:
64,192,49652,1,0,0:0:0:0:
320,192,49723,1,0,0:0:0:0:
192,192,49793,1,2,0:0:0:0:
448,192,49793,1,8,0:0:0:0:
64,192,49864,1,0,0:0:0:0:
320,192,49934,1,2,0:0:0:0:
448,192,49934,1,0,0:0:0:0:
192,192,50005,1,0,0:0:0:0:
64,192,50075,1,2,0:0:0:0:
320,192,50075,1,0,0:0:0:0:
448,192,50075,1,0,0:0:0:0:
192,192,50145,1,0,0:0:0:0:
320,192,50216,1,0,0:0:0:0:
448,192,50286,1,0,0:0:0:0:
64,192,50357,1,2,0:0:0:0:
192,192,50357,1,8,0:0:0:0:
320,192,50427,1,0,0:0:0:0:
192,192,50497,1,0,0:0:0:0:
64,192,50568,1,0,0:0:0:0:
320,192,50638,1,2,0:0:0:0:
448,192,50638,1,0,0:0:0:0:
192,192,50709,1,0,0:0:0:0:
64,192,50779,1,0,0:0:0:0:
320,192,50779,1,0,0:0:0:0:
448,192,50850,1,0,0:0:0:0:
192,192,50920,1,10,0:0:0:0:
320,192,50990,1,0,0:0:0:0:
64,192,51061,1,0,0:0:0:0:
448,192,51061,1,0,0:0:0:0:
192,192,51131,1,0,0:0:0:0:
64,192,51202,1,2,0:0:0:0:
320,192,51202,1,0,0:0:0:0:
448,192,51202,1,0,0:0:0:0:
192,192,51343,1,0,0:0:0:0:
320,192,51343,1,0,0:0:0:0:
64,192,51483,1,2,0:0:0:0:
192,192,51483,1,8,0:0:0:0:
448,192,51483,1,0,0:0:0:0:
192,192,51624,1,0,0:0:0:0:
320,192,51624,1,0,0:0:0:0:
64,192,51765,1,2,0:0:0:0:
320,192,51765,1,0,0:0:0:0:
448,192,51765,1,0,0:0:0:0:
64,192,51906,1,2,0:0:0:0:
448,192,51906,1,0,0:0:0:0:
64,192,52047,1,8,0:0:0:0:
192,192,52047,1,2,0:0:0:0:
448,192,52047,1,0,0:0:0:0:
192,192,52188,1,0,0:0:0:0:
320,192,52188,1,0,0:0:0:0:
64,192,52328,1,2,0:0:0:0:
320,192,52328,1,4,0:0:0:0:
448,192,52328,1,0,0:0:0:0:
192,192,52399,1,0,0:0:0:0:
320,192,52469,1,0,0:0:0:0:
64,192,52610,1,8,0:0:0:0:
192,192,52610,1,2,0:0:0:0:
320,192,52610,1,0,0:0:0:70:special voice.wav
448,192,52610,1,0,0:0:0:0:
192,192,52751,1,0,0:0:0:0:
448,192,52751,1,0,0:0:0:0:
320,192,52821,1,0,0:0:0:0:
64,192,52892,1,2,0:0:0:0:
448,192,52892,1,0,0:0:0:0:
192,192,52962,1,0,0:0:0:0:
320,192,53033,1,0,0:0:0:0:
64,192,53174,1,8,0:0:0:0:
192,192,53174,1,2,0:0:0:0:
320,192,53174,1,0,0:0:0:70:special voice.wav
448,192,53174,1,0,0:0:0:0:
64,192,53314,1,0,0:0:0:0:
192,192,53314,1,0,0:0:0:0:
320,192,53385,1,0,0:0:0:0:
64,192,53455,1,2,0:0:0:0:
448,192,53455,1,0,0:0:0:0:
320,192,53526,1,0,0:0:0:0:
192,192,53596,1,0,0:0:0:0:
64,192,53737,1,8,0:0:0:0:
192,192,53737,1,2,0:0:0:0:
320,192,53737,1,0,0:0:0:70:special voice.wav
448,192,53737,1,0,0:0:0:0:
320,192,53878,1,0,0:0:0:0:
448,192,53878,1,0,0:0:0:0:
192,192,53948,1,0,0:0:0:0:
64,192,54019,1,2,0:0:0:0:
448,192,54019,1,0,0:0:0:0:
192,192,54089,1,0,0:0:0:0:
320,192,54159,1,0,0:0:0:0:
64,192,54300,1,8,0:0:0:0:
192,192,54300,1,2,0:0:0:0:
320,192,54300,1,0,0:0:0:70:special voice.wav
448,192,54300,1,0,0:0:0:0:
64,192,54441,1,2,0:0:0:0:
192,192,54441,1,0,0:0:0:0:
320,192,54512,1,2,0:0:0:0:
64,192,54582,1,2,0:0:0:0:
192,192,54582,1,0,0:0:0:45:snare1.wav
448,192,54582,1,0,0:0:0:70:cymbal_short.wav
64,192,54723,1,2,0:0:0:0:
448,192,54723,1,0,0:0:0:45:snare1.wav
192,192,54793,1,2,0:0:0:0:
64,192,54864,1,2,0:0:0:0:
320,192,54864,1,0,0:0:0:45:snare1.wav
448,192,54864,1,0,0:0:0:70:cymbal_short.wav
192,192,55005,1,2,0:0:0:0:
448,192,55005,1,0,0:0:0:45:snare1.wav
320,192,55075,1,2,0:0:0:0:
64,192,55145,1,2,0:0:0:0:
192,192,55145,1,0,0:0:0:45:snare1.wav
448,192,55145,1,0,0:0:0:70:cymbal_short.wav
64,192,55286,1,2,0:0:0:0:
192,192,55286,1,0,0:0:0:0:
320,192,55286,1,0,0:0:0:0:
64,192,55427,1,8,0:0:0:0:
320,192,55427,1,2,0:0:0:0:
448,192,55427,1,0,0:0:0:70:cymbal_short.wav
192,192,55568,1,2,0:0:0:0:
320,192,55568,1,0,0:0:0:0:
448,192,55568,1,0,0:0:0:0:
64,192,55709,1,2,0:0:0:0:
192,192,55709,1,0,0:0:0:70:cymbal_short.wav
320,192,55709,1,0,0:0:0:0:
448,192,55709,1,0,0:0:0:0:
64,192,55850,1,0,0:0:0:0:
192,192,55990,1,0,0:0:0:0:
448,192,55990,1,0,0:0:0:0:
320,192,56037,1,0,0:0:0:0:
64,192,56084,1,0,0:0:0:0:
192,192,56131,1,0,0:0:0:0:
448,192,56131,1,0,0:0:0:0:
320,192,56178,1,0,0:0:0:0:
64,192,56225,1,0,0:0:0:0:
192,192,56272,1,2,0:0:0:0:
320,192,56272,1,0,0:0:0:0:
192,192,56554,1,0,0:0:0:50:hat1.wav
64,192,56589,1,0,0:0:0:50:hat1.wav
320,192,56624,1,0,0:0:0:50:hat1.wav
448,192,56659,1,0,0:0:0:50:hat1.wav
192,192,56695,1,0,0:0:0:50:hat1.wav
64,192,56730,1,0,0:0:0:50:hat1.wav
320,192,56765,1,0,0:0:0:50:hat1.wav
448,192,56800,1,0,0:0:0:50:hat1.wav
64,192,56836,1,2,0:0:0:0:
192,192,56836,1,4,0:0:0:0:
320,192,56976,1,0,0:0:0:0:
64,192,57117,1,8,0:0:0:0:
192,192,57117,1,0,0:0:0:0:
448,192,57117,1,0,0:0:0:0:
320,192,57258,1,0,0:0:0:0:
192,192,57399,1,0,0:0:0:0:
320,192,57399,1,0,0:0:0:0:
64,192,57540,1,2,0:0:0:0:
320,192,57540,1,0,0:0:0:0:
64,192,57681,1,8,0:0:0:0:
192,192,57681,1,0,0:0:0:0:
448,192,57681,1,0,0:0:0:0:
320,192,57821,1,0,0:0:0:0:
64,192,57962,128,2,58009:0:0:0:0:
192,192,57962,1,0,0:0:0:0:
448,192,58103,1,0,0:0:0:0:
192,192,58174,128,0,58221:0:0:0:0:
320,192,58244,1,8,0:0:0:0:
448,192,58244,1,0,0:0:0:0:
64,192,58385,128,0,58432:0:0:0:0:
64,192,58526,1,0,0:0:0:0:
192,192,58526,128,0,58573:0:0:0:0:
320,192,58667,1,2,0:0:0:0:
448,192,58667,1,0,0:0:0:50:clap2.wav
64,192,58807,128,8,58843:0:0:0:0:
192,192,58807,1,0,0:0:0:50:clap2.wav
448,192,58807,128,0,58843:0:0:0:0:
64,192,58948,1,0,0:0:0:50:clap2.wav
64,192,59089,1,2,0:0:0:0:
320,192,59089,1,0,0:0:0:0:
448,192,59089,128,0,59159:0:0:0:0:
192,192,59230,1,0,0:0:0:0:
64,192,59371,1,8,0:0:0:0:
320,192,59371,1,0,0:0:0:0:
448,192,59371,1,0,0:0:0:0:
192,192,59512,1,0,0:0:0:0:
320,192,59652,128,0,59723:0:0:0:0:
448,192,59652,128,0,59723:0:0:0:0:
64,192,59793,1,2,0:0:0:0:
192,192,59793,1,0,0:0:0:0:
64,192,59934,1,8,0:0:0:0:
320,192,59934,1,0,0:0:0:0:
448,192,59934,1,0,0:0:0:0:
192,192,60075,1,0,0:0:0:0:
64,192,60216,128,2,61167:0:0:0:0:
192,192,60216,128,0,60286:0:0:0:70:cymbal_short.wav
320,192,60216,128,0,60286:0:0:0:0:
448,192,60216,128,0,60286:0:0:0:0:
448,192,60920,128,0,61167:0:0:0:0:
64,192,61343,1,4,0:0:0:0:
448,192,61343,128,2,61530:0:0:0:0:
320,192,61390,128,0,61530:0:0:0:0:
192,192,61436,128,0,61530:0:0:0:0:
64,192,61483,128,0,61530:0:0:0:0:
320,192,61624,1,0,0:0:0:0:
64,192,61765,1,0,0:0:0:0:
192,192,61765,1,0,0:0:0:0:
64,192,61906,1,0,0:0:0:70:clap1.wav
320,192,61906,1,0,0:0:0:0:
448,192,61906,1,0,0:0:0:0:
64,192,62047,128,0,62117:0:0:0:0:
192,192,62047,128,0,62135:0:0:0:0:
64,192,62188,128,2,62258:0:0:0:0:
192,192,62188,128,0,62276:0:0:0:0:
448,192,62188,1,0,0:0:0:0:
64,192,62328,1,2,0:0:0:0:
320,192,62328,1,0,0:0:0:0:
448,192,62328,1,0,0:0:0:0:
320,192,62469,128,0,62557:0:0:0:0:
448,192,62469,128,0,62540:0:0:0:0:
320,192,62610,128,0,62698:0:0:0:0:
448,192,62610,128,0,62681:0:0:0:0:
64,192,62751,1,2,0:0:0:0:
192,192,62751,1,0,0:0:0:0:
448,192,62751,1,0,0:0:0:0:
64,192,62892,128,0,62962:0:0:0:0:
192,192,62892,128,0,62980:0:0:0:0:
320,192,63033,128,0,63080:0:0:0:70:clap1.wav
448,192,63033,1,0,0:0:0:0:
192,192,63080,128,0,63127:0:0:0:0:
64,192,63127,128,0,63174:0:0:0:0:
448,192,63174,128,0,63221:0:0:0:0:
320,192,63221,128,0,63267:0:0:0:0:
64,192,63267,128,0,63314:0:0:0:0:
192,192,63314,128,0,63361:0:0:0:0:
320,192,63361,128,0,63408:0:0:0:0:
448,192,63408,128,0,63455:0:0:0:0:
64,192,63455,128,0,63502:0:0:0:0:
192,192,63455,128,0,63502:0:0:0:0:
64,192,63596,1,2,0:0:0:0:
448,192,63596,128,0,63784:0:0:0:0:
320,192,63643,128,0,63784:0:0:0:0:
192,192,63690,128,0,63784:0:0:0:0:
64,192,63737,128,0,63784:0:0:0:0:
64,192,63878,128,0,64089:0:0:0:0:
192,192,63878,128,0,64054:0:0:0:0:
320,192,63878,128,0,64019:0:0:0:0:
448,192,63878,128,0,63983:0:0:0:0:
192,192,64159,1,0,0:0:0:70:clap1.wav
320,192,64159,1,0,0:0:0:0:
448,192,64159,1,0,0:0:0:0:
320,192,64300,128,0,64388:0:0:0:0:
448,192,64300,128,0,64371:0:0:0:0:
320,192,64441,128,0,64529:0:0:0:0:
448,192,64441,128,0,64512:0:0:0:0:
64,192,64582,1,2,0:0:0:0:
192,192,64582,1,0,0:0:0:0:
448,192,64582,1,0,0:0:0:0:
64,192,64723,128,0,64793:0:0:0:0:
192,192,64723,128,0,64811:0:0:0:0:
64,192,64864,128,0,64934:0:0:0:0:
192,192,64864,128,0,64952:0:0:0:0:
64,192,65005,1,2,0:0:0:0:
320,192,65005,1,0,0:0:0:0:
448,192,65005,1,0,0:0:0:0:
320,192,65145,128,0,65233:0:0:0:0:
448,192,65145,128,0,65216:0:0:0:0:
64,192,65286,1,2,0:0:0:70:clap1.wav
192,192,65286,1,0,0:0:0:0:
320,192,65286,1,0,0:0:0:0:
448,192,65286,1,0,0:0:0:0:
64,192,65427,128,0,65568:0:0:0:0:
448,192,65427,1,0,0:0:0:0:
192,192,65480,128,0,65568:0:0:0:0:
320,192,65521,128,0,65709:0:0:0:0:
448,192,65568,128,0,65709:0:0:0:0:
64,192,65709,1,0,0:0:0:0:
192,192,65709,1,0,0:0:0:0:
64,192,65850,128,2,66061:0:0:0:0:
192,192,65850,128,4,66026:0:0:0:0:
320,192,65850,128,0,65990:0:0:0:0:
448,192,65850,128,0,65955:0:0:0:0:
64,192,66131,128,0,66178:0:0:0:70:special voice.wav
192,192,66131,128,0,66178:0:0:0:0:
320,192,66131,128,0,66178:0:0:0:0:
448,192,66131,128,0,66178:0:0:0:0:
192,192,66272,1,0,0:0:0:0:
320,192,66272,1,0,0:0:0:0:
64,192,66413,1,0,0:0:0:70:clap1.wav
320,192,66413,128,0,66501:0:0:0:0:
448,192,66413,128,0,66483:0:0:0:0:
320,192,66554,128,0,66642:0:0:0:0:
448,192,66554,128,0,66624:0:0:0:0:
64,192,66695,128,2,66742:0:0:0:0:
192,192,66695,128,0,66742:0:0:0:70:special voice.wav
320,192,66695,128,0,66742:0:0:0:0:
448,192,66695,128,0,66742:0:0:0:0:
64,192,66836,1,2,0:0:0:0:
192,192,66836,1,0,0:0:0:0:
448,192,66836,1,0,0:0:0:0:
320,192,66976,128,0,67047:0:0:0:0:
448,192,66976,128,0,67082:0:0:0:0:
64,192,67117,1,2,0:0:0:0:
192,192,67117,1,0,0:0:0:0:
320,192,67117,1,0,0:0:0:0:
64,192,67258,128,0,67305:0:0:0:70:special voice.wav
192,192,67258,128,0,67305:0:0:0:0:
320,192,67258,128,0,67305:0:0:0:0:
448,192,67258,128,0,67305:0:0:0:0:
320,192,67399,1,0,0:0:0:0:
448,192,67399,1,0,0:0:0:0:
64,192,67540,1,0,0:0:0:70:clap1.wav
448,192,67540,128,0,67728:0:0:0:0:
320,192,67587,128,0,67728:0:0:0:0:
192,192,67634,128,0,67728:0:0:0:0:
64,192,67681,128,0,67728:0:0:0:0:
64,192,67821,128,0,67868:0:0:0:70:special voice.wav
192,192,67821,128,0,67868:0:0:0:0:
320,192,67821,128,0,67868:0:0:0:0:
448,192,67821,128,0,67868:0:0:0:0:
320,192,67962,1,0,0:0:0:0:
448,192,67962,1,0,0:0:0:0:
64,192,68103,128,2,68150:0:0:0:0:
192,192,68103,1,0,0:0:0:0:
320,192,68103,128,0,68150:0:0:0:0:
192,192,68244,128,0,68291:0:0:0:0:
448,192,68244,128,0,68291:0:0:0:0:
64,192,68385,128,0,68432:0:0:0:0:
320,192,68385,128,0,68432:0:0:0:0:
192,192,68526,128,0,68573:0:0:0:0:
448,192,68526,128,0,68573:0:0:0:0:
64,192,68667,128,0,68713:0:0:0:70:clap1.wav
320,192,68667,1,0,0:0:0:0:
448,192,68667,128,0,68713:0:0:0:0:
192,192,68807,128,0,68854:0:0:0:0:
320,192,68807,128,0,68854:0:0:0:0:
64,192,68948,128,0,68995:0:0:0:0:
448,192,68948,128,0,68995:0:0:0:0:
192,192,69089,128,0,69136:0:0:0:0:
320,192,69089,128,0,69136:0:0:0:0:
64,192,69230,128,2,69277:0:0:0:0:
192,192,69230,128,0,69277:0:0:0:0:
448,192,69230,1,0,0:0:0:0:
192,192,69371,1,0,0:0:0:0:
320,192,69441,128,0,69488:0:0:0:0:
448,192,69441,128,0,69488:0:0:0:0:
64,192,69512,1,2,0:0:0:0:
192,192,69512,1,0,0:0:0:0:
64,192,69652,128,0,69699:0:0:0:0:
192,192,69652,128,0,69699:0:0:0:0:
64,192,69793,1,0,0:0:0:70:clap1.wav
320,192,69793,128,0,69840:0:0:0:0:
448,192,69793,128,0,69840:0:0:0:0:
192,192,69934,1,2,0:0:0:0:
320,192,69934,1,0,0:0:0:0:
320,192,70075,1,0,0:0:0:0:
448,192,70075,1,0,0:0:0:0:
64,192,70216,1,0,0:0:0:0:
192,192,70216,1,0,0:0:0:0:
64,192,70357,1,2,0:0:0:0:
192,192,70357,1,4,0:0:0:0:
320,192,70357,1,0,0:0:0:0:
448,192,70357,1,0,0:0:0:0:
448,192,70497,128,0,70638:0:0:0:0:
64,192,70638,1,0,0:0:0:0:
192,192,70779,1,0,0:0:0:0:
448,192,70779,128,0,70920:0:0:0:0:
64,192,70920,1,0,0:0:0:70:clap1.wav
320,192,70920,1,0,0:0:0:0:
64,192,71061,128,0,71131:0:0:0:0:
192,192,71061,128,0,71149:0:0:0:0:
448,192,71061,128,0,71202:0:0:0:0:
64,192,71202,128,2,71272:0:0:0:0:
192,192,71202,128,0,71290:0:0:0:0:
192,192,71343,1,2,0:0:0:0:
320,192,71343,1,0,0:0:0:0:
448,192,71343,128,0,71483:0:0:0:0:
64,192,71483,128,0,71554:0:0:0:0:
192,192,71483,128,0,71571:0:0:0:0:
64,192,71624,128,0,71695:0:0:0:0:
192,192,71624,128,0,71712:0:0:0:0:
448,192,71624,128,0,71765:0:0:0:0:
64,192,71765,1,2,0:0:0:0:
320,192,71765,1,0,0:0:0:0:
64,192,71906,128,0,71976:0:0:0:0:
192,192,71906,128,0,71994:0:0:0:0:
448,192,71906,128,0,72047:0:0:0:0:
64,192,72047,1,0,0:0:0:70:clap1.wav
192,192,72047,128,0,72094:0:0:0:0:
320,192,72094,128,0,72141:0:0:0:0:
448,192,72141,128,0,72188:0:0:0:0:
64,192,72188,128,0,72235:0:0:0:0:
192,192,72235,128,0,72282:0:0:0:0:
448,192,72282,128,0,72328:0:0:0:0:
320,192,72328,128,0,72375:0:0:0:0:
192,192,72375,128,0,72422:0:0:0:0:
64,192,72422,128,0,72469:0:0:0:0:
320,192,72469,1,0,0:0:0:0:
448,192,72469,1,0,0:0:0:0:
64,192,72610,128,2,72798:0:0:0:0:
448,192,72610,1,0,0:0:0:0:
192,192,72657,128,0,72798:0:0:0:0:
320,192,72704,128,0,72798:0:0:0:0:
448,192,72751,128,0,72798:0:0:0:0:
64,192,72892,128,0,72997:0:0:0:0:
192,192,72892,128,0,73033:0:0:0:0:
320,192,72892,128,0,73068:0:0:0:0:
448,192,72892,128,0,73103:0:0:0:0:
64,192,73174,1,0,0:0:0:70:clap1.wav
192,192,73174,1,0,0:0:0:0:
320,192,73174,1,0,0:0:0:0:
64,192,73314,128,0,73455:0:0:0:0:
320,192,73314,128,0,73402:0:0:0:0:
448,192,73314,128,0,73385:0:0:0:0:
320,192,73455,128,0,73543:0:0:0:0:
448,192,73455,128,0,73526:0:0:0:0:
64,192,73596,128,2,73737:0:0:0:0:
192,192,73596,1,0,0:0:0:0:
320,192,73596,1,0,0:0:0:0:
320,192,73737,1,0,0:0:0:0:
448,192,73737,1,0,0:0:0:0:
192,192,73807,1,0,0:0:0:0:
64,192,73878,128,0,74019:0:0:0:0:
448,192,73878,1,0,0:0:0:0:
320,192,73948,1,0,0:0:0:0:
192,192,74019,1,2,0:0:0:0:
64,192,74159,1,0,0:0:0:0:
448,192,74159,1,0,0:0:0:0:
192,192,74230,1,0,0:0:0:0:
320,192,74300,1,0,0:0:0:70:clap1.wav
448,192,74300,1,0,0:0:0:0:
192,192,74441,1,0,0:0:0:0:
320,192,74512,1,0,0:0:0:0:
64,192,74582,1,0,0:0:0:0:
192,192,74617,1,0,0:0:0:0:
320,192,74652,1,0,0:0:0:0:
448,192,74688,1,0,0:0:0:0:
64,192,74723,1,0,0:0:0:0:
192,192,74758,1,0,0:0:0:0:
320,192,74793,1,0,0:0:0:0:
448,192,74828,1,0,0:0:0:0:
64,192,74864,1,2,0:0:0:0:
192,192,74864,128,4,74911:0:0:0:0:
64,192,75005,128,0,75051:0:0:0:0:
320,192,75005,128,0,75051:0:0:0:0:
192,192,75145,128,0,75192:0:0:0:0:
320,192,75145,1,0,0:0:0:0:
64,192,75286,128,0,75333:0:0:0:0:
448,192,75286,128,0,75333:0:0:0:0:
64,192,75427,1,0,0:0:0:70:clap1.wav
320,192,75427,128,0,75474:0:0:0:0:
448,192,75427,1,0,0:0:0:0:
192,192,75568,128,0,75615:0:0:0:0:
448,192,75568,128,0,75615:0:0:0:0:
192,192,75709,1,2,0:0:0:0:
320,192,75709,128,0,75756:0:0:0:0:
64,192,75850,128,2,75897:0:0:0:0:
192,192,75850,1,0,0:0:0:0:
448,192,75850,128,0,75897:0:0:0:0:
64,192,75990,1,0,0:0:0:0:
320,192,75990,128,0,76037:0:0:0:0:
448,192,75990,128,0,76037:0:0:0:0:
320,192,76131,1,2,0:0:0:0:
64,192,76202,128,0,76249:0:0:0:0:
192,192,76202,128,0,76249:0:0:0:0:
320,192,76272,1,0,0:0:0:0:
448,192,76272,1,0,0:0:0:0:
64,192,76413,1,0,0:0:0:0:
320,192,76413,128,0,76460:0:0:0:0:
448,192,76413,128,0,76460:0:0:0:0:
64,192,76554,128,0,76601:0:0:0:70:clap1.wav
192,192,76554,128,0,76601:0:0:0:0:
448,192,76554,1,0,0:0:0:0:
192,192,76695,1,0,0:0:0:0:
320,192,76695,1,0,0:0:0:0:
64,192,76836,1,0,0:0:0:0:
192,192,76836,1,0,0:0:0:0:
448,192,76836,1,0,0:0:0:0:
64,192,77117,128,4,77240:0:0:0:0:
192,192,77117,128,2,77223:0:0:0:0:
320,192,77117,128,0,77205:0:0:0:0:
448,192,77117,128,0,77188:0:0:0:0:
320,192,77258,1,0,0:0:0:0:
448,192,77258,1,0,0:0:0:0:
192,192,77399,1,0,0:0:0:0:
320,192,77399,1,0,0:0:0:0:
64,192,77540,1,0,0:0:0:0:
192,192,77540,1,0,0:0:0:0:
64,192,77681,128,0,77751:0:0:0:70:clap1.wav
192,192,77681,128,0,77769:0:0:0:0:
320,192,77681,128,0,77786:0:0:0:0:
448,192,77681,128,0,77804:0:0:0:0:
64,192,77821,1,0,0:0:0:0:
192,192,77821,1,0,0:0:0:0:
192,192,77962,1,0,0:0:0:0:
320,192,77962,1,0,0:0:0:0:
320,192,78103,1,0,0:0:0:0:
448,192,78103,1,0,0:0:0:0:
64,192,78244,1,2,0:0:0:0:
192,192,78244,1,0,0:0:0:0:
64,192,78385,1,0,0:0:0:0:
320,192,78385,128,0,78760:0:0:0:0:
448,192,78385,128,0,78620:0:0:0:0:
64,192,78526,1,0,0:0:0:50:snare hat.wav
192,192,78667,1,0,0:0:0:50:snare hat.wav
448,192,78667,128,0,79089:0:0:0:0:
192,192,78807,1,0,0:0:0:50:snare hat.wav
320,192,78807,128,0,79089:0:0:0:0:
64,192,79089,1,0,0:0:0:50:hat1.wav
192,192,79124,1,0,0:0:0:50:hat1.wav
448,192,79159,1,0,0:0:0:50:hat1.wav
320,192,79195,1,0,0:0:0:50:hat1.wav
64,192,79230,1,0,0:0:0:50:hat1.wav
192,192,79265,1,0,0:0:0:50:hat1.wav
448,192,79300,1,0,0:0:0:50:hat1.wav
320,192,79336,1,0,0:0:0:50:hat1.wav
64,192,79371,128,6,79652:0:0:0:0:
192,192,79371,1,0,0:0:0:40:clap2.wav
320,192,79512,128,0,79652:0:0:0:0:
192,192,79652,1,0,0:0:0:40:clap2.wav
64,192,79793,128,0,80075:0:0:0:0:
192,192,79934,1,0,0:0:0:40:clap2.wav
320,192,79934,128,0,80075:0:0:0:0:
64,192,80216,128,0,80497:0:0:0:40:clap2.wav
192,192,80216,1,0,0:0:0:0:
320,192,80357,128,0,80497:0:0:0:0:
192,192,80497,1,0,0:0:0:40:clap2.wav
448,192,80638,1,0,0:0:0:0:
64,192,80779,128,0,80920:0:0:0:40:clap2.wav
192,192,80779,1,0,0:0:0:0:
448,192,80920,1,0,0:0:0:0:
192,192,81061,1,0,0:0:0:40:clap2.wav
320,192,81061,128,0,81202:0:0:0:0:
64,192,81202,1,0,0:0:0:0:
64,192,81343,128,0,81483:0:0:0:40:clap2.wav
192,192,81343,1,0,0:0:0:0:
320,192,81483,1,0,0:0:0:0:
192,192,81624,1,0,0:0:0:40:clap2.wav
448,192,81624,128,0,81906:0:0:0:0:
320,192,81765,128,0,81906:0:0:0:0:
64,192,81906,128,0,82188:0:0:0:40:clap2.wav
192,192,81906,1,0,0:0:0:0:
320,192,82047,1,0,0:0:0:0:
192,192,82188,1,0,0:0:0:40:clap2.wav
448,192,82188,128,0,82469:0:0:0:0:
64,192,82328,128,0,82469:0:0:0:0:
192,192,82469,1,0,0:0:0:40:clap2.wav
448,192,82610,128,0,82892:0:0:0:0:
64,192,82751,128,0,82892:0:0:0:40:clap2.wav
192,192,82751,1,0,0:0:0:0:
320,192,82892,1,0,0:0:0:0:
192,192,82962,1,0,0:0:0:0:
64,192,83033,1,0,0:0:0:40:clap2.wav
448,192,83033,1,0,0:0:0:0:
192,192,83174,1,0,0:0:0:0:
64,192,83314,1,0,0:0:0:40:clap2.wav
448,192,83314,1,0,0:0:0:0:
192,192,83455,1,0,0:0:0:0:
64,192,83596,1,0,0:0:0:40:clap2.wav
320,192,83596,1,0,0:0:0:0:
448,192,83596,1,0,0:0:0:0:
192,192,83737,1,0,0:0:0:0:
64,192,83878,1,4,0:0:0:0:
320,192,83878,1,2,0:0:0:0:
448,192,83878,128,0,84159:0:0:0:40:clap2.wav
192,192,84019,128,0,84159:0:0:0:0:
320,192,84159,1,0,0:0:0:40:clap2.wav
448,192,84300,128,0,84582:0:0:0:0:
192,192,84441,128,0,84582:0:0:0:40:clap2.wav
320,192,84441,1,0,0:0:0:0:
320,192,84723,1,0,0:0:0:40:clap2.wav
448,192,84723,128,0,85005:0:0:0:0:
192,192,84864,128,0,85005:0:0:0:0:
320,192,85005,1,0,0:0:0:40:clap2.wav
64,192,85145,1,0,0:0:0:0:
320,192,85286,1,0,0:0:0:40:clap2.wav
448,192,85286,128,0,85427:0:0:0:0:
192,192,85568,128,0,85709:0:0:0:40:clap2.wav
320,192,85568,1,0,0:0:0:0:
64,192,85709,1,0,0:0:0:0:
320,192,85850,1,0,0:0:0:40:clap2.wav
448,192,85850,128,0,85990:0:0:0:0:
192,192,85990,1,0,0:0:0:0:
64,192,86131,128,0,86413:0:0:0:40:clap2.wav
320,192,86131,1,0,0:0:0:0:
192,192,86272,128,0,86413:0:0:0:0:
448,192,86272,1,0,0:0:0:0:
320,192,86413,1,0,0:0:0:40:clap2.wav
448,192,86413,128,0,86695:0:0:0:0:
64,192,86554,1,0,0:0:0:0:
64,192,86695,128,0,86976:0:0:0:40:clap2.wav
320,192,86695,1,0,0:0:0:0:
192,192,86836,1,0,0:0:0:0:
448,192,86836,128,0,86976:0:0:0:0:
320,192,86976,1,0,0:0:0:40:clap2.wav
64,192,87117,128,0,87399:0:0:0:40:clap2.wav
448,192,87117,1,0,0:0:0:0:
320,192,87258,1,0,0:0:0:40:clap2.wav
448,192,87258,128,0,87399:0:0:0:0:
192,192,87399,1,0,0:0:0:0:
320,192,87540,1,0,0:0:0:40:clap2.wav
448,192,87540,1,0,0:0:0:0:
192,192,87681,1,0,0:0:0:0:
64,192,87821,1,0,0:0:0:40:clap2.wav
320,192,87821,1,0,0:0:0:0:
192,192,87868,1,0,0:0:0:0:
448,192,87915,1,0,0:0:0:0:
64,192,87962,1,0,0:0:0:0:
320,192,87962,1,0,0:0:0:0:
192,192,88009,1,0,0:0:0:0:
448,192,88056,1,0,0:0:0:0:
64,192,88103,1,2,0:0:0:0:
192,192,88103,1,0,0:0:0:40:clap2.wav
320,192,88103,1,0,0:0:0:0:
64,192,88385,1,2,0:0:0:0:
192,192,88385,1,4,0:0:0:0:
320,192,88385,1,0,0:0:0:0:
448,192,88385,1,0,0:0:0:0:
64,192,88526,1,0,0:0:0:0:
192,192,88667,1,8,0:0:0:0:
320,192,88667,1,0,0:0:0:0:
448,192,88667,1,0,0:0:0:0:
64,192,88807,1,0,0:0:0:0:
320,192,88948,1,0,0:0:0:0:
320,192,89089,1,2,0:0:0:0:
448,192,89089,1,0,0:0:0:0:
64,192,89230,1,8,0:0:0:0:
192,192,89230,1,0,0:0:0:0:
448,192,89230,1,0,0:0:0:0:
320,192,89371,1,0,0:0:0:0:
64,192,89512,128,2,89652:0:0:0:0:
192,192,89512,1,0,0:0:0:0:
320,192,89652,1,0,0:0:0:0:
64,192,89793,1,8,0:0:0:0:
320,192,89793,1,0,0:0:0:0:
448,192,89793,1,0,0:0:0:0:
192,192,89934,1,0,0:0:0:0:
64,192,90075,1,0,0:0:0:0:
448,192,90075,128,0,90216:0:0:0:0:
192,192,90216,1,2,0:0:0:0:
320,192,90216,1,0,0:0:0:50:clap2.wav
64,192,90357,1,8,0:0:0:0:
320,192,90357,1,0,0:0:0:50:clap2.wav
448,192,90357,1,0,0:0:0:0:
192,192,90497,1,0,0:0:0:50:clap2.wav
320,192,90568,1,0,0:0:0:0:
64,192,90638,128,2,90779:0:0:0:0:
448,192,90638,128,0,90779:0:0:0:0:
192,192,90779,128,0,90920:0:0:0:0:
64,192,90920,1,8,0:0:0:0:
320,192,90920,128,0,91061:0:0:0:0:
448,192,90920,128,0,91061:0:0:0:0:
64,192,91061,128,0,91202:0:0:0:0:
192,192,91202,128,0,91343:0:0:0:0:
448,192,91202,128,0,91343:0:0:0:0:
320,192,91343,128,2,91483:0:0:0:0:
64,192,91483,128,8,91624:0:0:0:0:
192,192,91483,1,0,0:0:0:0:
448,192,91483,128,0,91624:0:0:0:0:
320,192,91624,128,0,91765:0:0:0:0:
64,192,91765,128,2,91906:0:0:0:0:
192,192,91765,128,0,91906:0:0:0:0:
320,192,91906,128,0,92047:0:0:0:0:
64,192,92047,1,8,0:0:0:0:
192,192,92047,1,0,0:0:0:0:
448,192,92047,1,0,0:0:0:0:
320,192,92188,128,0,92328:0:0:0:0:
192,192,92258,1,2,0:0:0:0:
64,192,92328,128,0,92469:0:0:0:0:
448,192,92328,128,0,92469:0:0:0:0:
320,192,92469,1,2,0:0:0:0:
64,192,92610,128,8,92751:0:0:0:0:
192,192,92610,1,0,0:0:0:0:
448,192,92610,128,0,92751:0:0:0:0:
320,192,92751,1,0,0:0:0:0:
64,192,92892,1,2,0:0:0:0:
192,192,92892,1,4,0:0:0:0:
320,192,92892,128,0,93174:0:0:0:0:
448,192,92892,1,0,0:0:0:0:
64,192,93033,128,0,93174:0:0:0:0:
192,192,93174,1,8,0:0:0:0:
448,192,93174,128,0,93314:0:0:0:0:
192,192,93314,128,0,93455:0:0:0:0:
64,192,93455,128,0,93737:0:0:0:0:
320,192,93455,128,0,93596:0:0:0:0:
448,192,93455,1,0,0:0:0:0:
192,192,93596,1,2,0:0:0:0:
448,192,93596,128,0,93737:0:0:0:0:
192,192,93737,128,8,94019:0:0:0:0:
320,192,93737,1,0,0:0:0:50:clap2.wav
448,192,93878,128,0,94019:0:0:0:0:
64,192,94019,1,2,0:0:0:0:
320,192,94019,128,0,94300:0:0:0:0:
448,192,94159,1,0,0:0:0:0:
64,192,94300,128,8,94582:0:0:0:0:
192,192,94300,1,0,0:0:0:0:
448,192,94300,128,0,94441:0:0:0:0:
320,192,94441,128,0,94582:0:0:0:0:
192,192,94582,128,0,94723:0:0:0:0:
448,192,94582,128,0,94864:0:0:0:0:
64,192,94723,128,2,94864:0:0:0:0:
192,192,94864,128,8,95145:0:0:0:0:
320,192,94864,128,0,95005:0:0:0:50:clap2.wav
64,192,95005,1,0,0:0:0:50:clap2.wav
448,192,95005,128,0,95145:0:0:0:0:
64,192,95145,128,2,95427:0:0:0:0:
320,192,95145,128,0,95286:0:0:0:0:
192,192,95286,1,0,0:0:0:0:
448,192,95286,128,0,95427:0:0:0:0:
192,192,95427,128,8,95709:0:0:0:0:
320,192,95427,128,0,95568:0:0:0:0:
64,192,95568,128,0,95709:0:0:0:0:
448,192,95568,1,0,0:0:0:0:
320,192,95709,128,0,95850:0:0:0:0:
448,192,95709,128,0,95990:0:0:0:0:
64,192,95850,128,2,96131:0:0:0:0:
192,192,95850,128,0,95990:0:0:0:0:
320,192,95990,128,8,96131:0:0:0:0:
192,192,96131,128,0,96272:0:0:0:50:clap2.wav
448,192,96131,128,0,96413:0:0:0:0:
64,192,96272,128,4,96554:0:0:0:0:
320,192,96272,128,2,96413:0:0:0:0:
192,192,96413,128,0,96554:0:0:0:0:
320,192,96554,1,8,0:0:0:0:
448,192,96554,1,0,0:0:0:0:
64,192,96695,1,0,0:0:0:0:
320,192,96695,1,0,0:0:0:0:
192,192,96765,1,2,0:0:0:0:
320,192,96836,1,0,0:0:0:0:
448,192,96836,1,0,0:0:0:0:
64,192,96976,1,2,0:0:0:0:
192,192,96976,1,0,0:0:0:0:
64,192,97117,1,2,0:0:0:0:
192,192,97117,1,0,0:0:0:70:cymbal_short.wav
320,192,97117,1,0,0:0:0:70:special voice.wav
448,192,97117,1,0,0:0:0:0:
64,192,97399,1,2,0:0:0:0:
192,192,97399,1,4,0:0:0:0:
320,192,97399,1,0,0:0:0:0:
64,192,97540,1,0,0:0:0:0:
192,192,97681,1,8,0:0:0:0:
320,192,97681,1,2,0:0:0:0:
448,192,97681,1,0,0:0:0:0:
320,192,97821,1,0,0:0:0:0:
64,192,97962,1,2,0:0:0:0:
192,192,97962,1,0,0:0:0:0:
448,192,97962,1,0,0:0:0:0:
192,192,98103,1,0,0:0:0:0:
64,192,98244,1,8,0:0:0:0:
320,192,98244,1,2,0:0:0:0:
448,192,98244,1,0,0:0:0:0:
64,192,98385,1,2,0:0:0:0:
320,192,98385,1,0,0:0:0:0:
448,192,98385,1,0,0:0:0:0:
64,192,98526,1,2,0:0:0:0:
192,192,98526,1,0,0:0:0:0:
320,192,98526,1,0,0:0:0:0:
192,192,98667,1,0,0:0:0:0:
64,192,98807,1,8,0:0:0:0:
320,192,98807,1,2,0:0:0:0:
448,192,98807,1,0,0:0:0:0:
320,192,98948,1,0,0:0:0:0:
64,192,99089,1,2,0:0:0:0:
192,192,99089,1,0,0:0:0:0:
448,192,99089,1,0,0:0:0:0:
64,192,99230,1,2,0:0:0:0:
192,192,99230,1,0,0:0:0:0:
320,192,99230,1,0,0:0:0:0:
64,192,99371,1,2,0:0:0:0:
448,192,99371,1,0,0:0:0:0:
192,192,99441,1,2,0:0:0:0:
320,192,99441,1,0,0:0:0:0:
64,192,99512,1,2,0:0:0:0:
448,192,99512,1,0,0:0:0:0:
192,192,99652,1,2,0:0:0:0:
320,192,99652,1,0,0:0:0:0:
448,192,99652,1,0,0:0:0:0:
64,192,99793,1,2,0:0:0:0:
192,192,99793,1,0,0:0:0:0:
448,192,99793,1,0,0:0:0:0:
64,192,99934,1,2,0:0:0:0:
320,192,99934,1,8,0:0:0:0:
448,192,99934,1,0,0:0:0:0:
192,192,100075,1,0,0:0:0:0:
64,192,100216,1,2,0:0:0:0:
192,192,100216,1,0,0:0:0:0:
448,192,100216,1,0,0:0:0:0:
64,192,100357,1,0,0:0:0:0:
192,192,100497,1,2,0:0:0:0:
320,192,100497,1,8,0:0:0:0:
448,192,100497,1,0,0:0:0:0:
64,192,100638,1,2,0:0:0:0:
320,192,100638,1,0,0:0:0:0:
448,192,100638,1,0,0:0:0:0:
64,192,100779,1,2,0:0:0:0:
192,192,100779,1,0,0:0:0:0:
448,192,100779,1,0,0:0:0:0:
320,192,100920,1,0,0:0:0:0:
64,192,101061,1,2,0:0:0:0:
192,192,101061,1,8,0:0:0:0:
320,192,101061,1,0,0:0:0:0:
192,192,101202,1,0,0:0:0:0:
192,192,101343,1,2,0:0:0:0:
320,192,101343,1,0,0:0:0:30:cymbal_short.wav
448,192,101343,1,0,0:0:0:0:
64,192,101483,1,2,0:0:0:0:
320,192,101483,1,0,0:0:0:0:
448,192,101483,1,0,0:0:0:0:
192,192,101624,1,2,0:0:0:0:
320,192,101624,1,0,0:0:0:0:
448,192,101624,1,0,0:0:0:0:
64,192,101765,1,2,0:0:0:0:
320,192,101765,1,0,0:0:0:0:
448,192,101765,1,0,0:0:0:0:
64,192,101906,1,2,0:0:0:0:
192,192,101906,1,4,0:0:0:0:
320,192,101906,128,0,101976:0:0:0:0:
448,192,101906,1,0,0:0:0:0:
64,192,102047,128,2,102117:0:0:0:0:
320,192,102047,1,0,0:0:0:0:
448,192,102047,1,0,0:0:0:0:
192,192,102188,1,8,0:0:0:0:
320,192,102188,128,2,102258:0:0:0:0:
448,192,102188,1,0,0:0:0:0:
64,192,102328,128,0,102399:0:0:0:0:
192,192,102328,1,0,0:0:0:0:
64,192,102469,1,2,0:0:0:0:
320,192,102469,1,0,0:0:0:0:
448,192,102469,128,0,102540:0:0:0:0:
64,192,102610,1,0,0:0:0:0:
192,192,102610,128,0,102681:0:0:0:0:
192,192,102751,1,2,0:0:0:0:
320,192,102751,1,8,0:0:0:0:
448,192,102751,128,0,102821:0:0:0:0:
64,192,102892,1,2,0:0:0:0:
192,192,102892,128,0,102962:0:0:0:0:
320,192,102892,1,0,0:0:0:0:
64,192,103033,128,2,103103:0:0:0:0:
192,192,103033,1,4,0:0:0:0:
320,192,103033,1,0,0:0:0:0:
448,192,103033,128,0,103103:0:0:0:0:
192,192,103174,1,0,0:0:0:0:
320,192,103174,128,0,103244:0:0:0:0:
64,192,103314,128,2,103385:0:0:0:0:
320,192,103314,1,8,0:0:0:0:
448,192,103314,128,0,103385:0:0:0:0:
192,192,103455,128,0,103526:0:0:0:0:
320,192,103455,1,0,0:0:0:0:
64,192,103596,128,2,103667:0:0:0:0:
192,192,103596,1,0,0:0:0:0:
448,192,103596,128,0,103667:0:0:0:0:
64,192,103737,1,2,0:0:0:0:
192,192,103737,1,0,0:0:0:0:
320,192,103737,128,0,103807:0:0:0:0:
64,192,103878,128,2,103948:0:0:0:0:
320,192,103878,1,0,0:0:0:0:
448,192,103878,128,0,103948:0:0:0:0:
192,192,104019,128,2,104089:0:0:0:0:
320,192,104019,1,0,0:0:0:0:
448,192,104019,1,0,0:0:0:0:
64,192,104159,128,2,104230:0:0:0:0:
192,192,104159,128,4,104230:0:0:0:0:
320,192,104159,128,0,104230:0:0:0:0:
448,192,104159,1,0,0:0:0:0:
64,192,104300,128,2,104371:0:0:0:0:
192,192,104300,128,0,104371:0:0:0:0:
320,192,104300,1,0,0:0:0:0:
64,192,104441,128,2,104512:0:0:0:0:
192,192,104441,1,0,0:0:0:0:
448,192,104441,128,0,104512:0:0:0:0:
64,192,104582,1,2,0:0:0:0:
320,192,104582,128,0,104652:0:0:0:0:
448,192,104582,128,0,104652:0:0:0:0:
64,192,104723,1,2,0:0:0:0:
192,192,104723,128,4,104793:0:0:0:0:
320,192,104723,128,0,104793:0:0:0:0:
448,192,104723,128,0,104793:0:0:0:0:
192,192,104864,1,2,0:0:0:0:
320,192,104864,128,0,104934:0:0:0:0:
448,192,104864,128,0,104934:0:0:0:0:
64,192,105005,128,2,105075:0:0:0:0:
320,192,105005,1,0,0:0:0:0:
448,192,105005,128,0,105075:0:0:0:0:
64,192,105145,128,2,105216:0:0:0:0:
192,192,105145,128,0,105216:0:0:0:0:
448,192,105145,1,0,0:0:0:0:
64,192,105286,128,2,105357:0:0:0:0:
192,192,105286,128,0,105357:0:0:0:70:cymbal_short.wav
320,192,105286,128,0,105357:0:0:0:0:
448,192,105357,128,2,105427:0:0:0:0:
64,192,105427,128,2,105497:0:0:0:0:
192,192,105427,128,0,105497:0:0:0:0:
320,192,105497,128,2,105568:0:0:0:0:
64,192,105568,128,2,105638:0:0:0:0:
448,192,105568,128,0,105638:0:0:0:70:cymbal_short.wav
192,192,105638,128,2,105709:0:0:0:0:
320,192,105709,128,2,105779:0:0:0:0:
448,192,105709,128,0,105779:0:0:0:0:
64,192,105779,128,2,105850:0:0:0:0:
192,192,105850,128,2,105920:0:0:0:0:
320,192,105850,128,0,105920:0:0:0:0:
448,192,105850,128,0,105920:0:0:0:0:
64,192,105920,128,2,105990:0:0:0:0:
320,192,105990,128,2,106061:0:0:0:0:
448,192,105990,128,0,106061:0:0:0:0:
192,192,106061,128,2,106131:0:0:0:0:
64,192,106131,128,2,106202:0:0:0:0:
448,192,106131,128,0,106202:0:0:0:0:
320,192,106202,128,2,106272:0:0:0:0:
64,192,106272,128,2,106343:0:0:0:0:
192,192,106272,128,0,106343:0:0:0:0:
448,192,106343,128,2,106413:0:0:0:0:
64,192,106413,128,2,106554:0:0:0:0:
192,192,106413,128,4,106554:0:0:0:0:
320,192,106413,128,0,106554:0:0:0:0:
320,192,106836,128,0,107258:0:0:0:0:
64,192,106976,128,0,107258:0:0:0:0:
448,192,107117,128,0,107399:0:0:0:60:snare2.wav
192,192,107258,128,0,107493:0:0:0:0:
320,192,107399,128,0,107493:0:0:0:0:
64,192,107540,128,2,108056:0:0:0:0:
192,192,107540,1,0,0:0:0:50:Tom1.wav
320,192,107540,1,0,0:0:0:0:
448,192,107540,128,0,107634:0:0:0:0:
448,192,107681,128,0,107915:0:0:0:0:
448,192,107962,128,0,108056:0:0:0:0:
64,192,108103,128,2,108244:0:0:0:0:
192,192,108103,1,0,0:0:0:0:
448,192,108103,128,0,108244:0:0:0:0:
320,192,108244,128,0,108596:0:0:0:0:
192,192,108385,128,0,108596:0:0:0:70:snare pop.wav
64,192,108526,128,0,108596:0:0:0:0:
64,192,108667,1,2,0:0:0:0:
192,192,108667,1,4,0:0:0:0:
320,192,108667,1,0,0:0:0:0:
448,192,108667,1,0,0:0:0:0:
192,192,108807,1,0,0:0:0:0:
320,192,108807,1,0,0:0:0:0:
64,192,108948,1,8,0:0:0:0:
192,192,108948,1,2,0:0:0:0:
320,192,108948,1,0,0:0:0:0:
448,192,108948,1,0,0:0:0:0:
64,192,109089,1,0,0:0:0:0:
320,192,109089,1,0,0:0:0:0:
448,192,109089,1,0,0:0:0:0:
64,192,109230,1,2,0:0:0:0:
192,192,109230,1,0,0:0:0:0:
320,192,109230,1,0,0:0:0:0:
448,192,109230,1,0,0:0:0:0:
64,192,109371,1,0,0:0:0:0:
192,192,109371,1,0,0:0:0:0:
448,192,109371,1,0,0:0:0:0:
192,192,109512,1,8,0:0:0:0:
320,192,109512,1,2,0:0:0:0:
448,192,109512,1,0,0:0:0:0:
64,192,109652,1,0,0:0:0:0:
320,192,109652,1,0,0:0:0:0:
448,192,109652,1,0,0:0:0:0:
64,192,109793,1,2,0:0:0:0:
192,192,109793,1,0,0:0:0:0:
320,192,109793,1,0,0:0:0:0:
448,192,109793,1,0,0:0:0:0:
64,192,109934,1,0,0:0:0:0:
192,192,109934,1,0,0:0:0:0:
64,192,110075,1,8,0:0:0:0:
192,192,110075,1,2,0:0:0:0:
320,192,110075,1,0,0:0:0:0:
448,192,110075,1,0,0:0:0:0:
64,192,110216,1,0,0:0:0:0:
320,192,110216,1,0,0:0:0:0:
448,192,110216,1,0,0:0:0:0:
64,192,110357,1,2,0:0:0:0:
192,192,110357,1,0,0:0:0:0:
448,192,110357,1,0,0:0:0:0:
192,192,110497,1,0,0:0:0:0:
320,192,110497,1,0,0:0:0:0:
448,192,110497,1,0,0:0:0:0:
64,192,110638,1,8,0:0:0:0:
192,192,110638,1,2,0:0:0:0:
448,192,110638,1,0,0:0:0:0:
320,192,110709,1,0,0:0:0:0:
64,192,110779,1,2,0:0:0:0:
192,192,110779,1,0,0:0:0:0:
320,192,110850,1,0,0:0:0:0:
64,192,110920,1,2,0:0:0:0:
192,192,110920,128,0,111061:0:0:0:0:
448,192,110920,128,0,111061:0:0:0:0:
64,192,111061,1,0,0:0:0:0:
320,192,111061,128,0,111202:0:0:0:0:
64,192,111202,128,8,111343:0:0:0:0:
192,192,111202,1,2,0:0:0:0:
448,192,111202,128,0,111343:0:0:0:0:
192,192,111343,128,0,111483:0:0:0:0:
320,192,111343,1,0,0:0:0:0:
64,192,111483,128,2,111624:0:0:0:0:
320,192,111483,128,0,111624:0:0:0:0:
448,192,111483,1,0,0:0:0:0:
192,192,111624,1,0,0:0:0:0:
448,192,111624,128,0,111765:0:0:0:0:
64,192,111765,1,8,0:0:0:0:
192,192,111765,128,2,111906:0:0:0:0:
320,192,111765,128,0,111906:0:0:0:0:
64,192,111906,128,0,112047:0:0:0:0:
448,192,111906,1,0,0:0:0:0:
192,192,112047,1,2,0:0:0:0:
320,192,112047,1,0,0:0:0:0:
448,192,112047,128,0,112188:0:0:0:0:
64,192,112188,128,0,112258:0:0:0:0:
192,192,112328,1,8,0:0:0:0:
320,192,112328,1,2,0:0:0:0:
448,192,112328,128,0,112399:0:0:0:0:
64,192,112469,128,0,112610:0:0:0:0:
192,192,112469,1,0,0:0:0:0:
320,192,112610,1,2,0:0:0:0:
448,192,112610,1,0,0:0:0:0:
64,192,112751,128,2,112892:0:0:0:0:
192,192,112751,1,0,0:0:0:0:
448,192,112751,1,0,0:0:0:0:
192,192,112892,128,2,113033:0:0:0:0:
448,192,112892,1,8,0:0:0:0:
64,192,113033,1,0,0:0:0:0:
320,192,113033,128,0,113174:0:0:0:0:
64,192,113174,1,2,0:0:0:0:
192,192,113174,1,4,0:0:0:0:
448,192,113174,1,0,0:0:0:0:
64,192,113314,1,0,0:0:0:0:
448,192,113314,1,0,0:0:0:0:
64,192,113455,1,8,0:0:0:0:
192,192,113455,1,2,0:0:0:0:
320,192,113455,1,0,0:0:0:0:
448,192,113455,1,0,0:0:0:0:
192,192,113596,1,0,0:0:0:0:
320,192,113596,1,0,0:0:0:0:
448,192,113596,1,0,0:0:0:0:
64,192,113737,1,2,0:0:0:0:
192,192,113737,1,0,0:0:0:0:
320,192,113737,1,0,0:0:0:0:
448,192,113737,1,0,0:0:0:0:
64,192,113878,1,0,0:0:0:0:
320,192,113878,1,0,0:0:0:0:
448,192,113878,1,0,0:0:0:0:
64,192,114019,1,8,0:0:0:0:
192,192,114019,1,2,0:0:0:0:
320,192,114019,1,0,0:0:0:0:
192,192,114159,1,0,0:0:0:0:
320,192,114159,1,0,0:0:0:0:
448,192,114159,1,0,0:0:0:0:
64,192,114300,1,2,0:0:0:0:
192,192,114300,1,0,0:0:0:0:
320,192,114300,1,0,0:0:0:0:
448,192,114300,1,0,0:0:0:0:
64,192,114441,1,0,0:0:0:0:
320,192,114441,1,0,0:0:0:0:
448,192,114441,1,0,0:0:0:0:
64,192,114582,1,8,0:0:0:0:
192,192,114582,1,2,0:0:0:0:
320,192,114582,1,0,0:0:0:0:
448,192,114582,1,0,0:0:0:0:
64,192,114723,1,0,0:0:0:0:
192,192,114723,1,0,0:0:0:0:
64,192,114864,1,2,0:0:0:0:
192,192,114864,1,0,0:0:0:0:
320,192,114864,1,0,0:0:0:0:
448,192,114864,1,0,0:0:0:0:
64,192,115005,1,0,0:0:0:0:
192,192,115005,1,0,0:0:0:0:
448,192,115005,1,0,0:0:0:0:
64,192,115145,1,8,0:0:0:0:
320,192,115145,1,2,0:0:0:0:
448,192,115145,1,0,0:0:0:0:
192,192,115216,1,0,0:0:0:0:
320,192,115286,1,2,0:0:0:0:
448,192,115286,1,0,0:0:0:0:
192,192,115357,1,2,0:0:0:0:
64,192,115427,128,2,115568:0:0:0:0:
320,192,115427,1,0,0:0:0:0:
448,192,115427,1,0,0:0:0:0:
192,192,115568,128,2,115709:0:0:0:0:
320,192,115568,1,0,0:0:0:0:
448,192,115568,1,0,0:0:0:0:
64,192,115709,128,2,115850:0:0:0:0:
320,192,115709,1,8,0:0:0:0:
448,192,115709,1,0,0:0:0:0:
192,192,115850,128,0,115990:0:0:0:0:
448,192,115850,1,0,0:0:0:0:
64,192,115990,1,2,0:0:0:0:
320,192,115990,128,0,116131:0:0:0:0:
448,192,115990,1,0,0:0:0:0:
192,192,116131,1,0,0:0:0:0:
448,192,116131,128,0,116272:0:0:0:0:
64,192,116272,1,2,0:0:0:0:
192,192,116272,1,8,0:0:0:0:
320,192,116272,128,0,116413:0:0:0:0:
64,192,116413,1,2,0:0:0:0:
448,192,116413,1,0,0:0:0:0:
320,192,116483,1,2,0:0:0:0:
64,192,116554,128,2,116695:0:0:0:0:
192,192,116554,128,0,116836:0:0:0:0:
448,192,116554,1,0,0:0:0:0:
64,192,116836,128,2,116976:0:0:0:0:
320,192,116836,1,8,0:0:0:0:
448,192,116836,1,0,0:0:0:0:
192,192,116906,1,2,0:0:0:0:
320,192,116976,1,2,0:0:0:0:
448,192,116976,1,0,0:0:0:0:
64,192,117117,128,2,117188:0:0:0:0:
192,192,117117,1,0,0:0:0:0:
320,192,117117,128,0,117258:0:0:0:0:
64,192,117258,1,2,0:0:0:0:
192,192,117258,128,0,117328:0:0:0:0:
448,192,117258,128,0,117328:0:0:0:0:
64,192,117399,128,2,117446:0:0:0:0:
192,192,117399,128,0,117446:0:0:0:70:special voice.wav
320,192,117399,128,0,117446:0:0:0:0:
448,192,117399,128,0,117446:0:0:0:0:
64,192,117681,1,2,0:0:0:0:
320,192,117681,1,4,0:0:0:0:
448,192,117681,1,0,0:0:0:0:
192,192,117751,1,0,0:0:0:0:
64,192,117821,1,2,0:0:0:0:
448,192,117821,1,0,0:0:0:0:
320,192,117892,1,0,0:0:0:0:
64,192,117962,1,8,0:0:0:0:
192,192,117962,1,2,0:0:0:0:
448,192,117962,1,0,0:0:0:0:
320,192,118033,1,0,0:0:0:0:
64,192,118103,1,0,0:0:0:0:
192,192,118103,1,0,0:0:0:0:
448,192,118174,1,0,0:0:0:0:
64,192,118244,1,2,0:0:0:0:
320,192,118244,1,0,0:0:0:0:
192,192,118314,1,0,0:0:0:0:
320,192,118385,1,0,0:0:0:0:
448,192,118455,1,0,0:0:0:0:
64,192,118526,1,8,0:0:0:0:
192,192,118526,1,2,0:0:0:0:
320,192,118526,1,0,0:0:0:0:
448,192,118596,1,0,0:0:0:0:
64,192,118667,1,0,0:0:0:0:
192,192,118667,1,0,0:0:0:0:
320,192,118737,1,0,0:0:0:0:
64,192,118807,1,2,0:0:0:0:
448,192,118807,1,0,0:0:0:0:
320,192,118878,1,0,0:0:0:0:
192,192,118948,1,0,0:0:0:0:
448,192,118948,1,0,0:0:0:0:
64,192,119019,1,0,0:0:0:0:
192,192,119089,1,8,0:0:0:0:
320,192,119089,1,2,0:0:0:0:
448,192,119089,1,0,0:0:0:0:
64,192,119159,1,0,0:0:0:0:
320,192,119230,1,0,0:0:0:0:
448,192,119230,1,0,0:0:0:0:
192,192,119300,1,0,0:0:0:0:
64,192,119371,1,2,0:0:0:0:
448,192,119371,1,0,0:0:0:0:
320,192,119441,1,0,0:0:0:0:
192,192,119512,1,0,0:0:0:0:
320,192,119582,1,0,0:0:0:0:
64,192,119652,1,8,0:0:0:0:
192,192,119652,1,2,0:0:0:0:
448,192,119652,1,0,0:0:0:0:
320,192,119723,1,0,0:0:0:0:
64,192,119793,1,2,0:0:0:0:
448,192,119793,1,0,0:0:0:0:
192,192,119864,1,0,0:0:0:0:
64,192,119934,1,2,0:0:0:0:
320,192,119934,1,0,0:0:0:0:
448,192,119934,1,0,0:0:0:0:
192,192,120005,1,0,0:0:0:0:
320,192,120075,1,0,0:0:0:0:
448,192,120075,1,0,0:0:0:0:
192,192,120145,1,0,0:0:0:0:
64,192,120216,1,2,0:0:0:0:
448,192,120216,1,8,0:0:0:0:
320,192,120286,1,0,0:0:0:0:
64,192,120357,1,0,0:0:0:0:
192,192,120357,1,0,0:0:0:0:
320,192,120427,1,0,0:0:0:0:
64,192,120497,1,2,0:0:0:0:
448,192,120497,1,0,0:0:0:0:
192,192,120568,1,0,0:0:0:0:
320,192,120638,1,0,0:0:0:0:
448,192,120638,1,0,0:0:0:0:
192,192,120709,1,0,0:0:0:0:
64,192,120779,1,8,0:0:0:0:
448,192,120779,1,2,0:0:0:0:
320,192,120850,1,0,0:0:0:0:
64,192,120920,1,0,0:0:0:0:
192,192,120920,1,0,0:0:0:0:
320,192,120990,1,0,0:0:0:0:
64,192,121061,1,2,0:0:0:0:
192,192,121061,1,0,0:0:0:0:
448,192,121061,1,0,0:0:0:0:
320,192,121131,1,0,0:0:0:0:
64,192,121202,1,0,0:0:0:0:
448,192,121202,1,0,0:0:0:0:
192,192,121272,1,0,0:0:0:0:
320,192,121343,1,8,0:0:0:0:
448,192,121343,1,2,0:0:0:0:
64,192,121413,1,0,0:0:0:0:
192,192,121483,1,0,0:0:0:0:
448,192,121483,1,0,0:0:0:0:
320,192,121554,1,0,0:0:0:0:
64,192,121624,1,2,0:0:0:0:
448,192,121624,1,0,0:0:0:0:
64,192,121765,1,2,0:0:0:0:
192,192,121765,1,0,0:0:0:0:
320,192,121836,1,2,0:0:0:0:
448,192,121836,1,0,0:0:0:0:
64,192,121906,1,2,0:0:0:0:
192,192,121906,1,8,0:0:0:0:
192,192,122047,1,0,0:0:0:0:
320,192,122047,1,0,0:0:0:0:
64,192,122188,1,2,0:0:0:0:
320,192,122188,1,4,0:0:0:0:
448,192,122188,1,0,0:0:0:0:
192,192,122258,1,0,0:0:0:0:
64,192,122328,1,2,0:0:0:0:
320,192,122328,1,0,0:0:0:0:
448,192,122399,1,0,0:0:0:0:
64,192,122469,1,2,0:0:0:0:
192,192,122469,1,8,0:0:0:0:
320,192,122469,1,0,0:0:0:0:
448,192,122540,1,0,0:0:0:0:
64,192,122610,1,0,0:0:0:0:
320,192,122610,1,0,0:0:0:0:
192,192,122681,1,0,0:0:0:0:
320,192,122751,1,2,0:0:0:0:
448,192,122751,1,0,0:0:0:0:
64,192,122821,1,0,0:0:0:0:
192,192,122892,1,0,0:0:0:0:
448,192,122962,1,0,0:0:0:0:
64,192,123033,1,8,0:0:0:0:
320,192,123033,1,2,0:0:0:0:
192,192,123103,1,0,0:0:0:0:
320,192,123174,1,0,0:0:0:0:
448,192,123174,1,0,0:0:0:0:
64,192,123244,1,0,0:0:0:0:
192,192,123314,1,2,0:0:0:0:
320,192,123314,1,0,0:0:0:0:
448,192,123314,1,0,0:0:0:0:
64,192,123385,1,0,0:0:0:0:
320,192,123455,1,0,0:0:0:0:
448,192,123455,1,0,0:0:0:0:
192,192,123526,1,0,0:0:0:0:
64,192,123596,1,8,0:0:0:0:
448,192,123596,1,2,0:0:0:0:
320,192,123667,1,0,0:0:0:0:
64,192,123737,1,0,0:0:0:0:
192,192,123737,1,0,0:0:0:0:
448,192,123807,1,0,0:0:0:0:
64,192,123878,1,2,0:0:0:0:
192,192,123878,1,0,0:0:0:0:
320,192,123878,1,0,0:0:0:0:
192,192,124019,1,2,0:0:0:0:
320,192,124019,1,0,0:0:0:0:
448,192,124019,1,0,0:0:0:0:
64,192,124159,1,2,0:0:0:0:
192,192,124159,1,8,0:0:0:0:
320,192,124159,1,0,0:0:0:0:
320,192,124300,1,2,0:0:0:0:
448,192,124300,1,0,0:0:0:0:
64,192,124371,1,2,0:0:0:0:
192,192,124441,1,2,0:0:0:0:
320,192,124441,1,4,0:0:0:0:
448,192,124441,128,0,124582:0:0:0:0:
64,192,124582,128,0,124723:0:0:0:0:
192,192,124582,1,0,0:0:0:0:
192,192,124723,128,8,124864:0:0:0:0:
320,192,124723,1,0,0:0:0:0:
320,192,124864,128,0,125005:0:0:0:0:
448,192,124864,1,0,0:0:0:0:
64,192,125005,1,0,0:0:0:70:clap1.wav
192,192,125005,1,0,0:0:0:0:
448,192,125005,128,0,125145:0:0:0:0:
192,192,125145,1,0,0:0:0:0:
320,192,125145,128,0,125286:0:0:0:0:
64,192,125286,1,2,0:0:0:0:
192,192,125286,128,0,125427:0:0:0:0:
448,192,125286,1,0,0:0:0:0:
64,192,125427,128,2,125568:0:0:0:0:
320,192,125427,1,0,0:0:0:0:
448,192,125427,1,0,0:0:0:0:
192,192,125568,1,2,0:0:0:0:
320,192,125568,1,0,0:0:0:70:cymbal_short.wav
448,192,125568,1,0,0:0:0:0:
192,192,125709,1,0,0:0:0:0:
64,192,125850,1,0,0:0:0:50:snare hat.wav
320,192,125850,1,0,0:0:0:0:
64,192,125990,1,2,0:0:0:0:
192,192,125990,1,0,0:0:0:70:cymbal_short.wav
448,192,125990,1,0,0:0:0:0:
320,192,126131,1,0,0:0:0:50:snare hat.wav
192,192,126272,1,0,0:0:0:50:snare hat.wav
448,192,126272,1,0,0:0:0:0:
64,192,126413,1,2,0:0:0:0:
320,192,126413,1,0,0:0:0:50:Tom1.wav
448,192,126413,1,0,0:0:0:0:
64,192,126695,128,2,127399:0:0:0:0:
192,192,126695,128,4,127117:0:0:0:0:
320,192,126695,128,0,126836:0:0:0:50:clap2.wav
448,192,126695,1,0,0:0:0:0:
448,192,126836,128,0,126976:0:0:0:0:
320,192,126976,1,0,0:0:0:50:clap2.wav
448,192,127117,128,0,127258:0:0:0:0:
192,192,127258,1,0,0:0:0:50:clap2.wav
320,192,127258,1,0,0:0:0:0:
448,192,127399,128,0,127540:0:0:0:0:
64,192,127540,1,0,0:0:0:50:clap2.wav
192,192,127540,1,0,0:0:0:0:
320,192,127540,1,0,0:0:0:0:
448,192,127681,128,0,127962:0:0:0:0:
64,192,127821,1,0,0:0:0:50:clap2.wav
192,192,127821,1,0,0:0:0:0:
320,192,127821,128,0,127962:0:0:0:0:
64,192,128103,1,0,0:0:0:50:clap2.wav
192,192,128103,128,0,128385:0:0:0:0:
320,192,128103,1,0,0:0:0:0:
448,192,128103,1,0,0:0:0:0:
64,192,128244,128,0,128385:0:0:0:0:
320,192,128385,1,2,0:0:0:0:
448,192,128385,1,0,0:0:0:0:
64,192,128526,1,2,0:0:0:0:
192,192,128526,1,0,0:0:0:0:
320,192,128596,1,2,0:0:0:0:
448,192,128596,1,0,0:0:0:0:
64,192,128667,1,2,0:0:0:0:
192,192,128667,1,0,0:0:0:0:
320,192,128807,1,2,0:0:0:0:
448,192,128807,1,0,0:0:0:0:
64,192,128948,1,2,0:0:0:0:
192,192,128948,1,4,0:0:0:0:
448,192,128948,1,0,0:0:0:0:
320,192,129019,1,0,0:0:0:0:
192,192,129089,1,0,0:0:0:0:
448,192,129089,1,0,0:0:0:0:
64,192,129159,1,0,0:0:0:0:
320,192,129230,1,8,0:0:0:0:
448,192,129230,1,2,0:0:0:0:
64,192,129300,1,0,0:0:0:0:
192,192,129371,1,0,0:0:0:0:
448,192,129371,1,0,0:0:0:0:
320,192,129441,1,0,0:0:0:0:
64,192,129512,1,2,0:0:0:0:
448,192,129512,1,0,0:0:0:0:
192,192,129582,1,0,0:0:0:0:
64,192,129652,1,0,0:0:0:0:
320,192,129652,1,0,0:0:0:0:
448,192,129723,1,0,0:0:0:0:
64,192,129793,1,8,0:0:0:0:
192,192,129793,1,2,0:0:0:0:
448,192,129864,1,0,0:0:0:0:
64,192,129934,1,0,0:0:0:0:
320,192,129934,1,0,0:0:0:0:
192,192,130005,1,0,0:0:0:0:
64,192,130075,1,2,0:0:0:0:
320,192,130075,1,0,0:0:0:50:Tom1.wav
448,192,130075,1,0,0:0:0:0:
320,192,130216,1,0,0:0:0:0:
64,192,130357,1,2,0:0:0:0:
192,192,130357,1,8,0:0:0:0:
448,192,130357,1,0,0:0:0:50:Tom1.wav
192,192,130497,1,0,0:0:0:0:
64,192,130638,1,2,0:0:0:0:
320,192,130638,1,0,0:0:0:50:Tom1.wav
448,192,130638,1,0,0:0:0:0:
64,192,130779,1,2,0:0:0:0:
192,192,130779,1,0,0:0:0:50:Tom1.wav
320,192,130850,1,2,0:0:0:0:
448,192,130850,1,0,0:0:0:0:
64,192,130920,1,10,0:0:0:0:
192,192,130920,1,0,0:0:0:50:Tom1.wav
64,192,131061,1,2,0:0:0:0:
448,192,131061,1,0,0:0:0:0:
192,192,131202,1,2,0:0:0:0:
320,192,131202,1,4,0:0:0:0:
448,192,131202,1,0,0:0:0:0:
64,192,131272,1,0,0:0:0:0:
320,192,131343,1,2,0:0:0:0:
448,192,131343,1,0,0:0:0:0:
192,192,131413,1,0,0:0:0:0:
64,192,131483,1,8,0:0:0:0:
320,192,131483,1,2,0:0:0:0:
448,192,131483,1,0,0:0:0:0:
192,192,131554,1,0,0:0:0:0:
64,192,131624,1,0,0:0:0:0:
320,192,131624,1,0,0:0:0:0:
448,192,131695,1,0,0:0:0:0:
64,192,131765,1,2,0:0:0:0:
192,192,131765,1,0,0:0:0:0:
320,192,131836,1,0,0:0:0:0:
192,192,131906,1,0,0:0:0:0:
448,192,131976,1,0,0:0:0:0:
64,192,132047,1,8,0:0:0:0:
192,192,132047,1,2,0:0:0:0:
320,192,132047,1,0,0:0:0:0:
448,192,132117,1,0,0:0:0:0:
64,192,132188,1,0,0:0:0:0:
320,192,132188,1,0,0:0:0:0:
192,192,132258,1,0,0:0:0:0:
64,192,132328,1,2,0:0:0:0:
448,192,132328,1,0,0:0:0:0:
320,192,132399,1,0,0:0:0:0:
192,192,132469,1,0,0:0:0:0:
64,192,132540,1,0,0:0:0:0:
192,192,132610,1,8,0:0:0:0:
320,192,132610,1,2,0:0:0:0:
448,192,132610,1,0,0:0:0:0:
64,192,132681,1,0,0:0:0:0:
192,192,132751,1,0,0:0:0:0:
448,192,132751,1,0,0:0:0:0:
320,192,132821,1,0,0:0:0:0:
64,192,132892,1,2,0:0:0:0:
192,192,132892,1,0,0:0:0:0:
448,192,132892,1,0,0:0:0:0:
64,192,133033,1,2,0:0:0:0:
320,192,133033,1,0,0:0:0:0:
448,192,133033,1,0,0:0:0:0:
64,192,133174,1,8,0:0:0:0:
448,192,133174,1,2,0:0:0:0:
192,192,133244,1,0,0:0:0:0:
320,192,133314,1,0,0:0:0:0:
448,192,133385,1,0,0:0:0:0:
64,192,133455,1,2,0:0:0:0:
192,192,133455,1,4,0:0:0:0:
320,192,133455,1,0,0:0:0:0:
448,192,133526,1,0,0:0:0:0:
64,192,133596,1,0,0:0:0:0:
320,192,133596,1,0,0:0:0:0:
192,192,133667,1,0,0:0:0:0:
64,192,133737,1,8,0:0:0:0:
448,192,133737,1,2,0:0:0:0:
320,192,133807,1,0,0:0:0:0:
192,192,133878,1,0,0:0:0:0:
448,192,133878,1,0,0:0:0:0:
64,192,133948,1,0,0:0:0:0:
192,192,134019,1,2,0:0:0:0:
320,192,134019,1,4,0:0:0:0:
448,192,134019,1,0,0:0:0:0:
64,192,134089,1,0,0:0:0:0:
192,192,134159,1,0,0:0:0:0:
448,192,134159,1,0,0:0:0:0:
320,192,134230,1,0,0:0:0:0:
64,192,134300,1,8,0:0:0:0:
448,192,134300,1,2,0:0:0:0:
192,192,134371,1,0,0:0:0:0:
64,192,134441,1,0,0:0:0:0:
320,192,134441,1,0,0:0:0:0:
448,192,134512,1,0,0:0:0:0:
64,192,134582,1,2,0:0:0:0:
192,192,134582,1,0,0:0:0:70:cymbal_short.wav
320,192,134582,1,0,0:0:0:0:
320,192,134723,1,0,0:0:0:0:
448,192,134723,1,0,0:0:0:0:
64,192,134793,1,0,0:0:0:0:
192,192,134793,1,0,0:0:0:0:
320,192,134864,1,8,0:0:0:0:
192,192,134934,1,0,0:0:0:0:
64,192,135005,1,2,0:0:0:0:
320,192,135005,1,0,0:0:0:70:cymbal_short.wav
448,192,135005,1,0,0:0:0:0:
64,192,135145,1,0,0:0:0:0:
192,192,135145,1,0,0:0:0:0:
320,192,135216,1,0,0:0:0:0:
448,192,135216,1,0,0:0:0:0:
192,192,135286,1,0,0:0:0:0:
64,192,135427,128,2,135474:0:0:0:0:
192,192,135427,128,0,135474:0:0:0:70:cymbal_short.wav
320,192,135427,128,0,135474:0:0:0:70:special voice.wav
448,192,135427,128,0,135474:0:0:0:0:
64,192,135709,1,2,0:0:0:0:
320,192,135709,1,4,0:0:0:0:
448,192,135709,1,0,0:0:0:0:
192,192,135779,1,0,0:0:0:0:
64,192,135850,1,2,0:0:0:0:
320,192,135850,1,0,0:0:0:0:
448,192,135920,1,0,0:0:0:0:
64,192,135990,1,2,0:0:0:0:
192,192,135990,1,8,0:0:0:0:
320,192,135990,1,0,0:0:0:0:
448,192,136061,1,0,0:0:0:0:
192,192,136131,1,0,0:0:0:0:
320,192,136131,1,0,0:0:0:0:
64,192,136202,1,0,0:0:0:0:
320,192,136272,1,2,0:0:0:0:
448,192,136272,1,0,0:0:0:0:
192,192,136343,1,0,0:0:0:0:
64,192,136413,1,0,0:0:0:0:
320,192,136483,1,0,0:0:0:0:
64,192,136554,1,8,0:0:0:0:
192,192,136554,1,2,0:0:0:0:
448,192,136554,1,0,0:0:0:0:
320,192,136624,1,0,0:0:0:0:
64,192,136695,1,0,0:0:0:0:
448,192,136695,1,0,0:0:0:0:
192,192,136765,1,0,0:0:0:0:
320,192,136836,1,2,0:0:0:0:
448,192,136836,1,0,0:0:0:0:
64,192,136906,1,0,0:0:0:0:
192,192,136976,1,0,0:0:0:0:
448,192,136976,1,0,0:0:0:0:
320,192,137047,1,0,0:0:0:0:
64,192,137117,1,8,0:0:0:0:
192,192,137117,1,2,0:0:0:0:
448,192,137117,1,0,0:0:0:0:
320,192,137188,1,0,0:0:0:0:
64,192,137258,1,0,0:0:0:0:
448,192,137258,1,0,0:0:0:0:
192,192,137328,1,0,0:0:0:0:
64,192,137399,1,2,0:0:0:0:
320,192,137399,1,0,0:0:0:0:
448,192,137469,1,0,0:0:0:0:
192,192,137540,1,0,0:0:0:0:
320,192,137610,1,0,0:0:0:0:
64,192,137681,1,8,0:0:0:0:
192,192,137681,1,2,0:0:0:0:
448,192,137681,1,0,0:0:0:0:
320,192,137821,1,2,0:0:0:0:
448,192,137821,1,0,0:0:0:0:
64,192,137962,1,2,0:0:0:0:
192,192,137962,1,0,0:0:0:0:
320,192,137962,1,0,0:0:0:0:
448,192,138033,1,0,0:0:0:0:
64,192,138103,1,0,0:0:0:0:
320,192,138103,1,0,0:0:0:0:
192,192,138174,1,0,0:0:0:0:
64,192,138244,1,8,0:0:0:0:
320,192,138244,1,2,0:0:0:0:
448,192,138244,1,0,0:0:0:0:
192,192,138314,1,0,0:0:0:0:
64,192,138385,1,0,0:0:0:0:
448,192,138385,1,0,0:0:0:0:
320,192,138455,1,0,0:0:0:0:
64,192,138526,1,2,0:0:0:0:
192,192,138526,1,0,0:0:0:0:
448,192,138526,1,0,0:0:0:0:
320,192,138596,1,0,0:0:0:0:
192,192,138667,1,0,0:0:0:0:
448,192,138667,1,0,0:0:0:0:
64,192,138737,1,0,0:0:0:0:
192,192,138807,1,2,0:0:0:0:
320,192,138807,1,8,0:0:0:0:
448,192,138807,1,0,0:0:0:0:
64,192,138878,1,0,0:0:0:0:
192,192,138948,1,0,0:0:0:0:
448,192,138948,1,0,0:0:0:0:
320,192,139019,1,0,0:0:0:0:
64,192,139089,128,2,139230:0:0:0:0:
192,192,139089,1,0,0:0:0:50:Tom1.wav
448,192,139089,1,0,0:0:0:0:
320,192,139159,1,0,0:0:0:0:
192,192,139230,1,0,0:0:0:0:
64,192,139371,1,8,0:0:0:0:
320,192,139371,1,2,0:0:0:0:
448,192,139371,128,0,139512:0:0:0:50:Tom1.wav
192,192,139441,1,0,0:0:0:0:
320,192,139512,1,0,0:0:0:0:
64,192,139652,1,2,0:0:0:0:
448,192,139652,1,0,0:0:0:50:Tom1.wav
192,192,139793,1,2,0:0:0:0:
320,192,139793,1,0,0:0:0:50:Tom1.wav
64,192,139864,1,2,0:0:0:0:
448,192,139864,1,0,0:0:0:0:
192,192,139934,1,10,0:0:0:0:
320,192,139934,1,0,0:0:0:50:Tom1.wav
192,192,140075,1,2,0:0:0:0:
320,192,140075,1,0,0:0:0:50:Tom1.wav
64,192,140216,1,2,0:0:0:0:
192,192,140216,1,4,0:0:0:0:
448,192,140216,1,0,0:0:0:0:
64,192,140357,1,2,0:0:0:0:
448,192,140357,1,0,0:0:0:0:
64,192,140497,1,8,0:0:0:0:
192,192,140497,1,2,0:0:0:0:
320,192,140497,1,0,0:0:0:70:special voice.wav
448,192,140497,1,0,0:0:0:0:
64,192,140638,1,0,0:0:0:0:
320,192,140638,1,0,0:0:0:0:
192,192,140709,1,0,0:0:0:0:
320,192,140779,1,2,0:0:0:0:
448,192,140779,1,0,0:0:0:0:
64,192,140850,1,0,0:0:0:0:
192,192,140920,1,0,0:0:0:0:
448,192,140920,1,0,0:0:0:0:
64,192,141061,1,8,0:0:0:0:
192,192,141061,1,2,0:0:0:0:
320,192,141061,1,0,0:0:0:70:special voice.wav
448,192,141061,1,0,0:0:0:0:
320,192,141202,1,0,0:0:0:0:
448,192,141202,1,0,0:0:0:0:
64,192,141272,1,0,0:0:0:0:
192,192,141343,1,2,0:0:0:0:
448,192,141343,1,0,0:0:0:0:
320,192,141413,1,0,0:0:0:0:
64,192,141483,1,0,0:0:0:0:
192,192,141483,1,0,0:0:0:0:
64,192,141624,1,8,0:0:0:0:
192,192,141624,1,2,0:0:0:0:
320,192,141624,1,0,0:0:0:70:special voice.wav
448,192,141624,1,0,0:0:0:0:
192,192,141765,1,0,0:0:0:0:
448,192,141765,1,0,0:0:0:0:
64,192,141836,1,0,0:0:0:0:
320,192,141906,1,2,0:0:0:0:
448,192,141906,1,0,0:0:0:0:
64,192,142047,1,2,0:0:0:0:
192,192,142047,1,0,0:0:0:0:
320,192,142047,1,0,0:0:0:0:
64,192,142188,1,8,0:0:0:0:
192,192,142188,1,2,0:0:0:0:
320,192,142188,1,0,0:0:0:70:special voice.wav
448,192,142188,1,0,0:0:0:0:
320,192,142328,1,2,0:0:0:0:
448,192,142328,1,0,0:0:0:0:
64,192,142399,1,2,0:0:0:0:
192,192,142399,1,0,0:0:0:0:
320,192,142469,1,2,0:0:0:0:
448,192,142469,1,0,0:0:0:0:
64,192,142610,1,0,0:0:0:0:
320,192,142610,1,0,0:0:0:0:
64,192,142751,1,8,0:0:0:0:
192,192,142751,1,2,0:0:0:0:
320,192,142751,1,0,0:0:0:70:special voice.wav
448,192,142751,1,0,0:0:0:0:
192,192,142892,1,0,0:0:0:0:
448,192,142892,1,0,0:0:0:0:
64,192,143033,1,2,0:0:0:0:
192,192,143033,1,0,0:0:0:0:
320,192,143033,1,0,0:0:0:0:
64,192,143174,1,0,0:0:0:0:
448,192,143174,1,0,0:0:0:0:
64,192,143314,1,8,0:0:0:0:
192,192,143314,1,2,0:0:0:0:
320,192,143314,1,0,0:0:0:70:special voice.wav
448,192,143314,1,0,0:0:0:0:
320,192,143455,1,0,0:0:0:0:
448,192,143455,1,0,0:0:0:0:
64,192,143596,1,2,0:0:0:0:
192,192,143596,1,0,0:0:0:70:cymbal_short.wav
448,192,143596,1,0,0:0:0:0:
320,192,143737,1,0,0:0:0:0:
192,192,143878,1,8,0:0:0:0:
320,192,143878,1,0,0:0:0:0:
448,192,143878,1,0,0:0:0:0:
64,192,144019,1,2,0:0:0:0:
320,192,144019,1,0,0:0:0:70:cymbal_short.wav
448,192,144019,1,0,0:0:0:0:
192,192,144159,1,0,0:0:0:50:snare hat.wav
64,192,144300,1,0,0:0:0:0:
448,192,144300,1,0,0:0:0:0:
192,192,144441,1,2,0:0:0:0:
320,192,144441,1,0,0:0:0:70:cymbal_short.wav
64,192,144723,1,2,0:0:0:0:
192,192,144723,1,4,0:0:0:0:
448,192,144723,1,0,0:0:0:0:
320,192,144793,1,0,0:0:0:0:
192,192,144864,1,0,0:0:0:0:
320,192,144934,1,0,0:0:0:0:
64,192,145005,1,8,0:0:0:0:
320,192,145075,1,0,0:0:0:0:
192,192,145145,1,2,0:0:0:0:
448,192,145145,1,0,0:0:0:0:
320,192,145216,1,0,0:0:0:0:
64,192,145286,1,2,0:0:0:0:
192,192,145286,1,0,0:0:0:0:
448,192,145286,1,0,0:0:0:0:
320,192,145357,1,0,0:0:0:0:
192,192,145427,1,0,0:0:0:0:
448,192,145427,1,0,0:0:0:0:
64,192,145497,1,2,0:0:0:0:
320,192,145497,1,0,0:0:0:0:
192,192,145568,1,8,0:0:0:0:
320,192,145638,1,0,0:0:0:0:
64,192,145709,1,2,0:0:0:0:
192,192,145709,1,0,0:0:0:0:
448,192,145709,1,0,0:0:0:0:
320,192,145779,1,0,0:0:0:0:
64,192,145850,1,0,0:0:0:0:
192,192,145850,1,0,0:0:0:0:
320,192,145920,1,2,0:0:0:0:
448,192,145920,1,0,0:0:0:0:
192,192,145990,1,0,0:0:0:0:
320,192,146061,1,0,0:0:0:0:
64,192,146131,1,2,0:0:0:0:
448,192,146131,1,8,0:0:0:0:
320,192,146202,1,0,0:0:0:0:
64,192,146272,1,2,0:0:0:0:
192,192,146272,1,0,0:0:0:0:
448,192,146272,1,0,0:0:0:0:
64,192,146413,1,2,0:0:0:0:
320,192,146413,1,0,0:0:0:0:
448,192,146413,1,0,0:0:0:0:
192,192,146554,1,2,0:0:0:0:
448,192,146554,1,0,0:0:0:0:
64,192,146624,1,2,0:0:0:0:
320,192,146624,1,0,0:0:0:0:
192,192,146765,1,2,0:0:0:0:
448,192,146765,1,0,0:0:0:0:
64,192,146836,1,2,0:0:0:0:
320,192,146836,1,0,0:0:0:0:
64,192,146976,1,2,0:0:0:0:
320,192,146976,1,0,0:0:0:0:
448,192,146976,1,0,0:0:0:0:
192,192,147047,1,0,0:0:0:0:
448,192,147117,1,0,0:0:0:0:
192,192,147188,1,0,0:0:0:0:
320,192,147258,1,8,0:0:0:0:
192,192,147328,1,0,0:0:0:0:
64,192,147399,1,2,0:0:0:0:
448,192,147399,1,0,0:0:0:0:
192,192,147469,1,0,0:0:0:0:
64,192,147540,1,2,0:0:0:0:
320,192,147540,1,0,0:0:0:0:
448,192,147540,1,0,0:0:0:0:
192,192,147610,1,0,0:0:0:0:
64,192,147681,1,0,0:0:0:0:
320,192,147681,1,0,0:0:0:0:
192,192,147751,1,2,0:0:0:0:
448,192,147751,1,0,0:0:0:0:
320,192,147821,1,8,0:0:0:0:
192,192,147892,1,0,0:0:0:0:
64,192,147962,1,2,0:0:0:0:
320,192,147962,1,0,0:0:0:0:
448,192,147962,1,0,0:0:0:0:
192,192,148033,1,0,0:0:0:0:
320,192,148103,1,0,0:0:0:0:
448,192,148103,1,0,0:0:0:0:
64,192,148174,1,2,0:0:0:0:
192,192,148174,1,0,0:0:0:0:
320,192,148244,1,0,0:0:0:0:
192,192,148314,1,0,0:0:0:0:
64,192,148385,1,2,0:0:0:0:
448,192,148385,1,8,0:0:0:0:
320,192,148455,1,0,0:0:0:0:
64,192,148526,1,2,0:0:0:0:
192,192,148526,1,0,0:0:0:0:
320,192,148596,1,0,0:0:0:0:
64,192,148667,1,2,0:0:0:0:
448,192,148667,1,0,0:0:0:0:
192,192,148737,1,0,0:0:0:0:
320,192,148807,1,2,0:0:0:0:
448,192,148807,1,0,0:0:0:0:
192,192,148878,1,0,0:0:0:0:
64,192,148948,1,2,0:0:0:0:
448,192,148948,1,8,0:0:0:0:
192,192,149019,1,2,0:0:0:0:
320,192,149019,1,0,0:0:0:0:
64,192,149089,1,2,0:0:0:0:
448,192,149089,1,0,0:0:0:0:
64,192,149230,1,2,0:0:0:0:
192,192,149230,1,4,0:0:0:70:cymbal_short.wav
448,192,149230,1,0,0:0:0:0:
320,192,149300,1,0,0:0:0:0:
192,192,149371,1,0,0:0:0:0:
448,192,149371,1,0,0:0:0:0:
320,192,149441,1,0,0:0:0:0:
64,192,149512,1,8,0:0:0:0:
320,192,149582,1,0,0:0:0:0:
64,192,149652,1,2,0:0:0:0:
192,192,149652,1,0,0:0:0:0:
448,192,149652,1,0,0:0:0:0:
320,192,149723,1,0,0:0:0:0:
192,192,149793,1,0,0:0:0:0:
448,192,149793,1,0,0:0:0:0:
64,192,149864,1,0,0:0:0:0:
320,192,149934,1,0,0:0:0:0:
448,192,150005,1,0,0:0:0:0:
64,192,150075,1,2,0:0:0:0:
192,192,150075,1,8,0:0:0:0:
448,192,150145,1,0,0:0:0:0:
320,192,150216,1,0,0:0:0:0:
192,192,150286,1,0,0:0:0:0:
64,192,150357,1,2,0:0:0:0:
320,192,150357,1,4,0:0:0:70:cymbal_short.wav
448,192,150357,1,0,0:0:0:0:
192,192,150427,1,0,0:0:0:0:
64,192,150497,1,0,0:0:0:0:
320,192,150497,1,0,0:0:0:0:
192,192,150568,1,0,0:0:0:0:
320,192,150638,1,8,0:0:0:0:
192,192,150709,1,0,0:0:0:0:
64,192,150779,1,2,0:0:0:0:
320,192,150779,1,0,0:0:0:0:
448,192,150779,1,0,0:0:0:0:
192,192,150920,1,2,0:0:0:0:
448,192,150920,1,0,0:0:0:0:
320,192,150967,1,0,0:0:0:0:
64,192,151014,1,0,0:0:0:0:
192,192,151061,1,0,0:0:0:0:
448,192,151108,1,0,0:0:0:0:
320,192,151155,1,0,0:0:0:0:
64,192,151202,1,2,0:0:0:0:
192,192,151202,1,0,0:0:0:50:cymbal_short.wav
320,192,151272,1,0,0:0:0:0:
64,192,151343,1,2,0:0:0:0:
448,192,151343,1,0,0:0:0:60:cymbal_short.wav
192,192,151413,1,0,0:0:0:0:
64,192,151483,128,2,151554:0:0:0:0:
320,192,151483,1,0,0:0:0:70:cymbal_short.wav
448,192,151483,1,0,0:0:0:0:
192,192,151624,1,0,0:0:0:0:
64,192,151765,1,2,0:0:0:0:
320,192,151765,1,8,0:0:0:0:
448,192,151765,1,0,0:0:0:0:
320,192,151906,1,0,0:0:0:0:
64,192,152047,128,2,152117:0:0:0:0:
192,192,152047,128,0,152117:0:0:0:70:cymbal_short.wav
448,192,152047,1,0,0:0:0:0:
192,192,152188,1,2,0:0:0:0:
320,192,152188,1,0,0:0:0:0:
64,192,152328,1,2,0:0:0:0:
320,192,152328,1,0,0:0:0:0:
448,192,152328,1,0,0:0:0:0:
192,192,152399,1,2,0:0:0:0:
64,192,152469,1,2,0:0:0:0:
320,192,152469,1,0,0:0:0:0:
448,192,152540,1,2,0:0:0:0:
64,192,152610,128,2,152681:0:0:0:0:
192,192,152610,128,4,152681:0:0:0:70:cymbal_short.wav
320,192,152610,128,0,152681:0:0:0:0:
320,192,152892,1,8,0:0:0:0:
448,192,152892,1,0,0:0:0:0:
64,192,153033,1,2,0:0:0:0:
192,192,153033,1,0,0:0:0:70:cymbal_short.wav
448,192,153033,1,0,0:0:0:0:
320,192,153314,1,8,0:0:0:0:
448,192,153314,1,0,0:0:0:0:
64,192,153455,128,4,153502:0:0:0:70:cymbal_short.wav
192,192,153455,128,0,153502:0:0:0:50:Tom2.wav
320,192,153455,128,0,153502:0:0:0:0:
448,192,153455,128,0,153502:0:0:0:0:
64,192,153737,128,2,154019:0:0:0:0:
192,192,153737,128,4,154019:0:0:0:70:cymbal_short.wav
320,192,153737,128,0,153878:0:0:0:0:
448,192,153737,128,0,153878:0:0:0:0:
