osu file format v14

[General]
AudioFilename: audio.mp3
AudioLeadIn: 0
PreviewTime: 82321
Countdown: 0
SampleSet: Soft
StackLeniency: 0.7
Mode: 0
LetterboxInBreaks: 0
WidescreenStoryboard: 0

[Editor]
DistanceSpacing: 0.7
BeatDivisor: 4
GridSize: 4
TimelineZoom: 4.539998

[Metadata]
Title:Climax
TitleUnicode:Climax
Artist:USAO
ArtistUnicode:USAO
Creator:_kotachi_
Version:AREUS
Source:CHUNITHM AMAZON
Tags:チュウニズム
BeatmapID:1956393
BeatmapSetID:936501

[Difficulty]
HPDrainRate:5
CircleSize:4
OverallDifficulty:8.5
ApproachRate:9.5
SliderMultiplier:2
SliderTickRate:1

[Events]
//Background and Video events
0,0,"BG.jpg",0,0
//Break Periods
2,72455,74256
//Storyboard Layer 0 (Background)
//Storyboard Layer 1 (Fail)
//Storyboard Layer 2 (Pass)
//Storyboard Layer 3 (Foreground)
//Storyboard Sound Samples

[TimingPoints]
255,315.789473684211,4,2,1,50,1,0
1360,-100,4,2,1,5,0,0
1518,-100,4,2,99,50,0,0
1991,-200,4,2,1,50,0,0
6570,-100,4,2,1,50,0,0
6886,-133.333333333333,4,2,1,50,0,0
7202,-100,4,2,1,50,0,0
7518,-133.333333333333,4,2,1,50,0,0
7833,-100,4,2,1,50,0,0
9097,-133.333333333333,4,2,1,50,0,0
9412,-100,4,2,1,50,0,0
9728,-133.333333333333,4,2,1,50,0,0
10044,-100,4,2,1,50,0,0
10360,-83.3333333333333,4,2,1,70,0,0
10991,-66.6666666666667,4,2,1,70,0,0
11307,-55.5555555555556,4,2,1,70,0,0
11623,-83.3333333333333,4,2,1,60,0,0
12097,-100,4,2,1,60,0,0
12886,-83.3333333333333,4,2,1,70,0,0
13360,-100,4,2,1,70,0,0
14149,-83.3333333333333,4,2,1,80,0,0
14623,-100,4,2,1,80,0,0
16202,-66.6666666666667,4,2,1,80,0,0
16676,-66.6666666666667,4,2,1,70,0,0
21728,-100,4,2,1,70,0,0
22991,-66.6666666666667,4,2,1,70,0,0
23307,-100,4,2,1,70,0,0
24097,-66.6666666666667,4,2,1,70,0,0
24255,-100,4,2,1,70,0,0
25518,-66.6666666666667,4,2,1,70,0,0
25833,-100,4,2,1,70,0,0
28044,-66.6666666666667,4,2,1,70,0,0
28676,-100,4,2,1,70,0,0
30570,-66.6666666666667,4,2,1,70,0,0
31833,-100,4,2,1,70,0,0
32149,-83.3333333333333,4,2,1,70,0,0
32939,-66.6666666666667,4,2,1,70,0,0
33097,-66.6666666666667,4,2,5,70,0,0
33176,-66.6666666666667,4,2,1,70,0,0
33728,-66.6666666666667,4,2,5,70,0,0
33807,-66.6666666666667,4,2,1,70,0,0
34360,-100,4,2,1,70,0,0
35781,-83.3333333333333,4,2,1,70,0,0
38465,-66.6666666666667,4,2,1,70,0,0
40676,-55.5555555555556,4,2,1,70,0,0
41623,-50,4,2,1,70,0,0
41939,-100,4,2,1,70,0,0
46360,-66.6666666666667,4,2,1,70,0,0
46991,-83.3333333333333,4,2,1,70,0,0
51412,-133.333333333333,4,2,1,70,0,0
51728,-133.333333333333,4,2,1,70,0,0
52360,-66.6666666666667,4,2,1,70,0,0
52676,-83.3333333333333,4,2,1,70,0,0
54886,-58.8235294117647,4,2,1,70,0,0
55360,-66.6666666666667,4,2,1,70,0,0
55833,-55.5555555555556,4,2,1,70,0,0
59623,-66.6666666666667,4,2,1,70,0,0
61518,-133.333333333333,4,2,1,70,0,0
61833,-55.5555555555556,4,2,1,70,0,0
62149,-71.4285714285714,4,2,1,70,0,0
62781,-66.6666666666667,4,2,1,70,0,0
63097,-55.5555555555556,4,2,1,70,0,0
63412,-40,4,2,1,70,0,0
63728,-55.5555555555556,4,2,1,70,0,0
63886,-55.5555555555556,4,2,5,70,0,0
63965,-55.5555555555556,4,2,1,70,0,0
64044,-100,4,2,1,70,0,0
64360,-50,4,2,1,70,0,0
64676,-83.3333333333333,4,2,1,70,0,0
65939,-55.5555555555556,4,2,1,70,0,0
67202,-55.5555555555556,4,2,1,70,0,0
67833,-66.6666666666667,4,2,1,70,0,0
68465,-83.3333333333333,4,2,1,70,0,0
69728,-66.6666666666667,4,2,1,70,0,0
74781,3157.89473684211,4,2,1,70,1,0
74781,-50,4,2,1,70,0,0
76044,315.789473684211,4,2,1,70,1,0
77307,-133.333333333333,4,2,1,70,0,0
80307,-100,4,2,1,70,0,0
82044,-66.6666666666667,4,2,1,70,0,0
82359,-83.3333333333333,4,2,1,70,0,0
82833,-66.6666666666667,4,2,1,70,0,0
83149,-83.3333333333333,4,2,1,70,0,0
83465,-55.5555555555556,4,2,1,70,0,0
84886,-83.3333333333333,4,2,1,70,0,0
85359,-66.6666666666667,4,2,1,70,0,0
85675,-83.3333333333333,4,2,1,70,0,0
85912,-66.6666666666667,4,2,1,70,0,0
87412,-83.3333333333333,4,2,1,70,0,0
87886,-66.6666666666667,4,2,1,70,0,0
88201,-83.3333333333333,4,2,1,70,0,0
88517,-55.5555555555556,4,2,1,70,0,0

[Colours]
Combo1 : 128,128,255
Combo2 : 0,0,255
Combo3 : 18,124,255
Combo4 : 64,0,128

[HitObjects]
256,192,570,12,0,1360,0:0:0:0:
201,140,1518,6,0,P|191:233|100:257,1,200,4|0,0:1|0:0,0:0:0:0:
78,174,1991,6,0,P|103:173|128:179,1,50
205,242,2307,2,0,P|229:247|254:246,1,50
368,185,2623,6,0,P|343:179|318:180,1,50
278,96,2939,2,0,P|256:109|239:127,1,50
205,242,3255,6,0,L|214:291,1,50
337,306,3570,2,0,L|327:355,1,50
309,198,3886,1,0,0:0:0:0:
133,279,4044,6,0,L|16:289,1,100
27,65,4518,6,0,P|51:87|68:116,1,50
122,201,4833,2,0,P|132:178|137:153,1,50
167,24,5149,6,0,P|171:56|165:89,1,50
144,200,5465,2,0,P|166:189|185:173,1,50
301,64,5781,6,0,P|288:93|266:119,1,50
164,212,6097,2,0,P|188:213|213:209,1,50
362,145,6412,1,0,0:0:0:0:
355,313,6570,6,0,L|199:300,1,150,4|0,1:0|0:0,0:0:0:0:
90,221,6886,6,0,B|107:239|117:269|117:269|135:243|154:227,1,112.500004291535,2|0,0:3|0:0,0:0:0:0:
47,132,7202,6,0,B|2:104|2:104|14:200,1,150
142,219,7518,6,0,P|134:260|115:210,1,125.000004768372,2|0,0:3|0:0,0:0:0:0:
168,100,7833,6,0,P|173:84|176:68,1,33.3333333333333
192,108,7912,6,0,P|203:120|215:130,1,33.3333333333333
179,123,8070,6,0,P|162:126|147:132,1,33.3333333333333
254,59,8149,2,0,P|283:45|317:43,2,66.6666666666667,2|0|0,0:3|0:0|0:0,0:0:0:0:
250,202,8465,6,0,L|319:207,1,50
256,219,8623,2,0,L|305:222,1,50
378,333,8781,6,0,L|309:328,1,50,2|0,0:3|0:0,0:0:0:0:
372,316,8939,2,0,L|322:312,1,50
180,363,9097,6,0,L|161:244,1,112.500004291535
210,143,9412,6,0,L|160:148,1,50,2|2,0:3|0:1,0:0:0:0:
56,180,9570,2,0,P|49:157|55:123,1,50,2|2,0:1|0:1,0:0:0:0:
139,32,9728,6,0,L|255:38,1,112.500004291535
349,63,10044,6,0,L|340:13,1,50,2|2,0:3|0:1,0:0:0:0:
453,85,10202,2,0,P|450:112|444:134,1,50,2|2,0:1|0:1,0:0:0:0:
304,266,10360,6,0,B|360:240|360:240|410:271|410:271|468:256,1,179.999994506836,4|0,1:2|0:0,0:0:0:0:
512,182,10676,6,0,P|482:172|446:175,1,59.9999981689454,0|0,0:0|0:0,1:0:0:0:
443,335,10833,6,0,P|413:345|377:342,1,59.9999981689454,0|0,0:0|0:0,1:0:0:0:
318,110,10991,6,2,P|281:119|249:139,1,75.0000028610231,0|0,0:0|0:0,1:0:0:0:
267,372,11149,6,0,P|230:362|198:342,1,75.0000028610231,0|0,0:0|0:0,1:0:0:0:
142,96,11307,6,0,B|62:49|62:49|91:228,1,269.999991760254,0|0,1:0|0:0,0:0:0:0:
236,261,11623,6,0,B|131:245|175:319|72:313,1,179.999994506836,4|0,1:0|0:0,0:0:0:0:
55,307,11939,1,0,0:0:0:0:
38,143,12097,2,0,P|71:179|91:225,1,100,8|0,0:0|0:0,0:0:0:0:
245,25,12412,1,8,0:0:0:0:
159,177,12570,1,0,0:0:0:0:
75,29,12728,1,8,0:0:0:0:
288,182,12886,6,0,B|349:197|390:152|390:152|421:184|465:185,1,179.999994506836,4|0,1:0|0:0,0:0:0:0:
469,181,13202,1,0,0:0:0:0:
337,7,13360,2,0,P|322:59|322:115,1,100,8|0,0:0|0:0,0:0:0:0:
397,306,13676,2,0,L|404:244,1,50,8|0,0:0|0:0,0:0:0:0:
288,182,13833,2,0,L|281:244,1,50,8|0,0:0|0:0,0:0:0:0:
413,315,13991,2,0,L|420:253,1,50,8|0,0:0|0:0,0:0:0:0:
320,104,14149,6,0,B|258:61|185:89|185:89|220:120,1,179.999994506836,4|0,1:0|0:0,0:0:0:0:
226,124,14465,1,0,0:0:0:0:
92,38,14623,2,0,B|73:86|73:86|93:129,1,100,8|0,0:0|0:0,0:0:0:0:
204,269,14939,1,8,0:0:0:0:
196,105,15097,1,0,0:0:0:0:
77,212,15255,1,8,0:0:0:0:
261,175,15412,5,4,1:0:0:0:
271,171,15491,5,0,3:0:0:0:
287,171,15570,5,0,3:0:0:0:
304,177,15649,5,0,3:0:0:0:
330,201,15728,5,0,3:0:0:0:
369,220,15807,5,0,3:0:0:0:
430,212,15886,5,0,3:0:0:0:
473,149,15965,5,0,3:0:0:0:
461,66,16044,6,0,L|412:59,1,50,0|0,1:0|0:0,0:0:0:0:
288,64,16202,6,0,L|281:27,3,37.5000014305115,8|0|0|0,3:2|3:0|3:0|3:0,0:0:0:0:
288,64,16360,1,0,0:0:0:0:
125,60,16518,6,0,L|78:54,1,37.5000014305115,8|0,3:2|3:0,0:0:0:0:
124,44,16597,2,0,L|77:38,1,37.5000014305115,8|0,3:2|3:0,0:0:0:0:
141,143,16676,5,12,1:0:0:0:
281,27,16833,5,8,0:0:0:0:
332,202,16991,1,8,0:0:0:0:
429,46,17149,1,8,0:0:0:0:
370,312,17307,5,12,1:0:0:0:
249,116,17465,5,8,0:0:0:0:
445,225,17623,1,8,0:0:0:0:
237,294,17781,1,8,0:0:0:0:
351,74,17939,5,12,1:0:0:0:
351,74,18018,1,8,0:0:0:0:
351,74,18097,1,8,0:0:0:0:
245,314,18255,1,8,0:0:0:0:
164,128,18412,1,8,0:0:0:0:
361,279,18570,5,12,1:0:0:0:
215,38,18728,5,8,0:0:0:0:
167,265,18886,1,8,0:0:0:0:
407,157,19044,1,8,0:0:0:0:
78,158,19202,5,12,1:0:0:0:
98,144,19281,1,0,3:0:0:0:
125,137,19360,1,0,3:0:0:0:
164,142,19439,1,0,3:0:0:0:
204,175,19518,1,0,3:0:0:0:
209,247,19597,1,0,3:0:0:0:
150,306,19676,6,0,L|74:295,1,75.0000028610231,12|0,1:0|3:0,0:0:0:0:
324,297,19833,2,0,L|400:286,1,75.0000028610231,0|0,3:0|3:0,0:0:0:0:
452,108,19991,6,0,L|473:75,1,37.5000014305115,12|0,1:0|3:0,0:0:0:0:
431,91,20070,6,0,L|436:50,1,37.5000014305115,0|0,3:0|3:0,0:0:0:0:
406,84,20149,6,0,L|397:47,1,37.5000014305115,0|0,0:0|3:0,0:0:0:0:
380,88,20228,6,0,L|356:58,1,37.5000014305115,12|0,1:0|3:0,0:0:0:0:
358,103,20307,6,0,L|321:85,1,37.5000014305115,0|0,3:0|3:0,0:0:0:0:
345,126,20386,6,0,L|307:124,1,37.5000014305115,0|0,3:0|3:0,0:0:0:0:
343,202,20465,5,0,0:0:0:0:
351,212,20623,1,0,0:0:0:0:
199,143,20781,5,0,0:0:0:0:
222,310,20939,2,0,L|181:301,4,37.5000014305115
39,155,21255,5,0,3:0:0:0:
35,168,21333,1,0,3:0:0:0:
32,181,21412,6,0,B|60:150|73:108|73:108|84:182|111:262,1,225.000008583069,4|0,3:2|0:0,0:0:0:0:
44,304,21728,6,0,B|108:290|108:290|134:310|134:310|196:300,1,150,4|0,1:0|0:0,0:0:0:0:
207,298,22044,1,8,0:0:0:0:
210,119,22202,2,0,B|191:150|191:150|206:215,1,100,0|0,0:0|1:0,0:0:0:0:
350,328,22518,2,0,B|369:297|369:297|354:232,1,100,0|8,0:0|0:0,0:0:0:0:
322,98,22833,1,0,0:0:0:0:
442,210,22991,6,0,B|484:244|484:244|505:117|505:117|461:143,1,225.000008583069,0|0,1:0|0:0,0:0:0:0:
467,138,23307,6,0,P|467:113|461:88,1,50,8|0,0:0|0:0,0:0:0:0:
347,17,23465,2,0,P|369:30|387:48,1,50
335,231,23623,6,0,B|296:221|296:221|277:227|277:227|237:220,1,100,0|0,1:0|0:0,0:0:0:0:
153,251,23860,1,0,0:0:0:0:
145,257,23939,6,0,L|135:204,1,50,8|0,0:0|0:0,0:0:0:0:
78,106,24097,2,0,B|58:96|58:96|67:147,1,75.0000028610231
29,320,24255,6,0,B|114:298|96:356|177:338,1,150,0|0,1:0|0:0,0:0:0:0:
194,328,24570,1,8,0:0:0:0:
249,141,24728,2,0,P|200:150|165:185,1,100,0|0,0:0|1:0,0:0:0:0:
371,266,25044,2,0,P|369:216|342:175,1,100,0|8,0:0|0:0,0:0:0:0:
296,346,25360,1,0,0:0:0:0:
165,184,25518,6,0,B|202:159|202:159|188:291|188:291|228:267,1,225.000008583069,0|0,1:0|0:0,0:0:0:0:
227,267,25833,6,0,L|286:271,1,50,8|0,0:0|0:0,0:0:0:0:
392,171,25991,2,0,L|333:174,1,50
200,18,26149,5,0,1:0:0:0:
373,84,26307,2,0,P|399:80|422:86,1,50
190,183,26465,5,8,0:0:0:0:
367,55,26623,2,0,P|341:59|317:53,1,50
66,150,26781,5,4,1:2:0:0:
179,47,26939,1,0,1:0:0:0:
127,279,27097,2,0,P|178:271|248:265,1,100,8|0,0:0|0:0,0:0:0:0:
189,77,27412,1,0,1:0:0:0:
390,171,27570,2,0,L|290:158,1,100,0|8,0:0|0:0,0:0:0:0:
433,50,27886,1,0,0:0:0:0:
512,223,28044,6,0,B|459:217|459:217|420:258|420:258|306:272,1,225.000008583069,0|0,1:0|0:0,0:0:0:0:
146,250,28360,6,0,B|220:205|220:205|193:340,1,225.000008583069,8|0,0:0|0:0,0:0:0:0:
61,272,28676,6,0,B|57:223|57:223|91:185,1,100,0|0,1:0|0:0,0:0:0:0:
26,144,28912,1,0,0:0:0:0:
19,128,28991,2,0,L|31:73,1,50,8|0,0:0|0:0,0:0:0:0:
170,20,29149,2,0,L|180:68,1,50
220,206,29307,6,0,L|337:191,1,100,0|0,1:0|0:0,0:0:0:0:
450,33,29623,2,0,P|400:28|351:74,1,100,8|0,0:0|0:0,0:0:0:0:
438,206,29939,1,0,1:0:0:0:
439,181,30018,1,0,0:0:0:0:
441,156,30097,1,0,0:0:0:0:
467,323,30255,1,8,0:0:0:0:
327,214,30412,1,0,0:0:0:0:
239,352,30570,6,0,P|203:340|166:334,1,75.0000028610231,0|0,1:0|0:0,0:0:0:0:
326,213,30728,2,0,P|289:219|254:231,1,75.0000028610231
75,348,30886,5,0,1:0:0:0:
84,324,30965,1,0,1:0:0:0:
86,286,31044,1,0,1:0:0:0:
71,234,31123,1,0,0:0:0:0:
31,184,31202,5,0,1:0:0:0:
110,48,31360,6,0,L|102:84,1,37.5000014305115,0|0,3:0|3:0,0:0:0:0:
125,51,31439,2,0,L|117:87,1,37.5000014305115,0|0,3:0|3:0,0:0:0:0:
139,53,31518,2,0,L|131:89,1,37.5000014305115,0|0,1:0|0:0,0:0:0:0:
400,48,31676,6,0,L|407:84,1,37.5000014305115,0|0,3:0|3:0,0:0:0:0:
385,51,31755,2,0,L|392:87,1,37.5000014305115,0|0,3:0|3:0,0:0:0:0:
369,53,31833,6,0,B|333:45|333:45|307:75|307:75|229:84,1,150.000005722046,4|0,1:2|0:0,0:1:0:0:
218,64,32149,2,2,P|220:89|226:119,1,59.9999981689454,8|0,0:0|0:0,0:1:0:0:
201,252,32307,2,2,P|223:232|245:212,1,59.9999981689454,2|0,0:1|0:0,0:1:0:0:
372,170,32465,2,2,P|343:160|315:150,1,59.9999981689454,0|0,1:0|0:0,0:1:0:0:
142,163,32623,6,2,P|113:153|85:143,1,59.9999981689454,2|0,0:1|0:0,0:1:0:0:
329,265,32781,2,0,P|334:294|340:323,1,59.9999981689454,8|0,0:0|0:0,0:1:0:0:
309,38,32939,6,2,B|373:36|408:5|408:5|401:76|446:137,1,225.000008583069,0|0,0:0|0:0,0:1:0:0:
481,219,33255,6,0,B|444:215|408:232|408:232|402:188|370:169,1,150.000005722046,2|8,0:1|0:0,0:0:0:0:
170,256,33570,6,0,B|330:235|330:235|299:290,1,225.000008583069,2|0,0:1|0:0,0:1:0:0:
110,313,33886,2,2,P|93:275|99:226,1,75.0000028610231,0|0,0:0|0:0,0:1:0:0:
210,42,34044,5,8,0:0:0:0:
203,96,34123,1,0,0:0:0:0:
165,137,34202,1,2,0:1:0:0:
111,147,34281,1,2,0:1:0:0:
61,123,34360,6,0,B|88:225|88:225|38:217,1,150,0|0,1:0|0:0,0:0:0:0:
81,349,34676,5,8,0:0:0:0:
103,298,34755,1,0,0:0:0:0:
151,270,34833,1,2,0:1:0:0:
206,276,34912,1,2,0:1:0:0:
246,313,34991,6,0,B|296:297|296:297|341:316|341:316|411:290,1,150,0|0,1:0|0:0,0:0:0:0:
474,325,35307,5,8,0:0:0:0:
512,287,35386,1,0,0:0:0:0:
512,232,35465,1,2,0:1:0:0:
499,183,35544,1,2,0:1:0:0:
451,158,35623,1,0,1:0:0:0:
259,157,35781,6,2,L|193:172,1,59.9999981689454,0|0,0:0|0:0,0:1:0:0:
305,51,35939,1,8,0:0:0:0:
133,79,36097,6,2,P|104:68|67:64,1,59.9999981689454,0|0,0:0|0:0,0:1:0:0:
172,258,36255,1,0,1:0:0:0:
213,62,36412,6,2,P|200:33|176:4,1,59.9999981689454,2|0,1:0|0:3,0:3:0:0:
105,189,36570,2,2,P|86:214|73:248,1,59.9999981689454,8|0,0:0|0:3,0:3:0:0:
275,216,36728,2,2,P|305:219|342:213,1,59.9999981689454,2|0,0:1|0:3,0:3:0:0:
380,12,36886,5,4,1:2:0:0:
432,210,37044,1,0,3:0:0:0:
197,77,37202,5,8,0:0:0:0:
381,127,37360,1,0,3:0:0:0:
131,127,37518,5,0,1:0:0:0:
315,77,37676,1,0,3:0:0:0:
132,12,37833,5,8,0:0:0:0:
80,210,37991,1,0,3:0:0:0:
248,149,38149,5,4,1:2:0:0:
218,143,38228,1,0,1:0:0:0:
189,137,38307,1,0,1:0:0:0:
159,132,38386,1,0,1:0:0:0:
131,127,38465,2,0,B|79:117|79:117|42:144|42:144|-9:142,1,150.000005722046,8|0,0:0|0:0,0:0:0:0:
9,127,38702,6,0,P|25:160|36:196,1,75.0000028610231,0|0,1:0|0:0,0:0:0:0:
121,328,38860,1,0,0:0:0:0:
132,341,38939,2,0,P|142:305|159:271,1,75.0000028610231,0|0,1:0|0:0,0:0:0:0:
346,224,39097,2,0,L|271:218,1,75.0000028610231,8|0,0:0|0:0,0:0:0:0:
119,99,39255,2,0,L|200:108,1,75.0000028610231,0|0,1:0|0:0,0:0:0:0:
336,51,39412,5,12,1:2:0:0:
379,35,39491,1,0,0:0:0:0:
425,41,39570,1,8,1:2:0:0:
464,66,39649,1,0,0:0:0:0:
487,107,39728,1,8,1:2:0:0:
488,153,39807,1,0,0:0:0:0:
469,196,39886,1,8,1:2:0:0:
433,225,39965,1,0,0:0:0:0:
387,234,40044,6,0,L|377:194,1,37.5000014305115,8|0,1:2|3:0,0:0:0:0:
358,234,40123,6,0,L|362:197,1,37.5000014305115,0|0,3:0|3:0,0:0:0:0:
331,233,40202,6,0,L|347:194,1,37.5000014305115,8|0,1:2|3:0,0:0:0:0:
303,218,40281,6,0,L|334:189,1,37.5000014305115,0|0,3:0|3:0,0:0:0:0:
285,207,40360,6,0,L|275:247,1,37.5000014305115,8|0,1:2|3:0,0:0:0:0:
256,205,40439,6,0,L|260:242,1,37.5000014305115,0|0,3:0|3:0,0:0:0:0:
230,209,40518,6,0,L|246:247,1,37.5000014305115,8|0,1:2|3:0,0:0:0:0:
206,226,40597,6,0,L|237:254,1,37.5000014305115,0|0,3:0|3:0,0:0:0:0:
198,266,40676,6,0,B|142:305|142:305|150:226|150:226|143:202|143:202|153:182|153:182|162:90,1,269.999991760254,8|0,1:0|0:0,0:0:0:0:
320,51,40991,6,0,B|266:26|266:26|208:72|208:72|145:64|145:64|148:59|148:59|145:64|145:64|72:56,1,269.999991760254,8|0,0:0|0:0,0:0:0:0:
25,208,41307,6,0,P|67:221|111:217,1,89.9999972534181,0|0,1:0|0:0,0:0:0:0:
132,320,41465,2,0,P|171:299|200:265,1,89.9999972534181,0|0,1:0|0:0,0:0:0:0:
297,326,41623,6,0,B|311:249|311:249|255:197|255:197|273:113|273:113|323:145,1,300,8|0,0:0|0:0,0:0:0:0:
390,179,41939,5,4,1:0:0:0:
179,136,42097,1,0,0:0:0:0:
376,62,42255,6,0,L|440:53,1,50,8|0,0:0|0:0,0:0:0:0:
251,184,42412,1,0,0:0:0:0:
390,179,42570,6,0,L|439:185,1,50,0|0,1:0|0:0,0:0:0:0:
272,39,42728,1,0,0:0:0:0:
201,190,42886,6,0,L|265:181,1,50,8|0,0:0|0:0,0:0:0:0:
357,39,43044,1,0,0:0:0:0:
143,50,43202,6,0,L|192:56,1,50,0|0,1:0|0:0,0:0:0:0:
289,194,43360,1,0,0:0:0:0:
72,209,43518,6,0,L|121:202,1,50,8|0,0:0|0:0,0:0:0:0:
272,39,43676,1,0,0:0:0:0:
307,275,43833,6,0,L|241:271,1,50,0|0,1:0|0:0,0:0:0:0:
227,135,43991,2,0,L|178:139,1,50
75,298,44149,5,8,0:0:0:0:
143,50,44307,1,0,0:0:0:0:
257,271,44465,5,0,1:0:0:0:
84,183,44623,1,0,0:0:0:0:
168,306,44781,6,0,L|174:370,1,50,8|0,0:0|0:0,0:0:0:0:
314,191,44939,1,0,0:0:0:0:
337,305,45097,6,0,L|329:353,1,50,0|0,1:0|0:0,0:0:0:0:
198,191,45255,1,0,0:0:0:0:
392,154,45412,6,0,L|398:218,1,50,8|0,0:0|0:0,0:0:0:0:
257,271,45570,1,0,0:0:0:0:
123,153,45728,6,0,L|115:201,1,50,0|0,1:0|0:0,0:0:0:0:
257,271,45886,1,0,0:0:0:0:
318,73,46044,6,0,L|373:63,1,50,8|0,0:0|0:0,0:0:0:0:
194,73,46202,2,0,L|139:63,1,50
100,143,46360,6,0,L|178:161,1,75.0000028610231,0|0,1:0|0:0,0:0:0:0:
416,143,46518,2,0,L|342:159,1,75.0000028610231
239,281,46676,2,0,B|205:256|222:201|293:192|330:285|273:350,1,225.000008583069,8|0,0:0|0:0,0:0:0:0:
186,360,46991,5,4,1:2:0:0:
374,294,47149,1,0,1:0:0:0:
144,261,47307,6,0,L|85:250,1,59.9999981689454,8|0,0:0|0:0,0:0:0:0:
244,188,47465,1,0,0:0:0:0:
99,169,47623,6,0,L|35:188,1,59.9999981689454,0|0,1:0|0:0,0:0:0:0:
271,188,47781,1,0,0:0:0:0:
144,261,47939,6,0,L|89:290,1,59.9999981689454,8|0,0:0|0:0,0:0:0:0:
296,195,48096,1,0,0:0:0:0:
99,169,48254,6,0,L|40:147,1,59.9999981689454,0|0,1:0|0:0,0:0:0:0:
319,270,48412,1,0,0:0:0:0:
144,261,48570,6,0,L|110:316,1,59.9999981689454,8|0,0:0|0:0,0:0:0:0:
252,68,48728,1,0,0:0:0:0:
368,261,48886,6,0,L|399:312,1,59.9999981689454,0|0,1:0|0:0,0:0:0:0:
364,131,49044,2,0,P|337:144|308:152,1,59.9999981689454
148,131,49202,2,0,P|177:143|203:152,1,59.9999981689454,8|0,0:0|0:0,0:0:0:0:
112,312,49360,2,0,L|144:261,1,59.9999981689454
252,68,49518,5,0,1:0:0:0:
234,276,49676,5,0,0:0:0:0:
234,276,49755,1,0,0:0:0:0:
234,276,49833,1,8,0:0:0:0:
61,135,49991,5,0,0:0:0:0:
61,135,50070,1,0,0:0:0:0:
61,135,50148,1,0,1:0:0:0:
287,183,50307,5,0,0:0:0:0:
287,183,50386,1,0,0:0:0:0:
287,183,50465,1,8,0:0:0:0:
129,355,50623,6,0,L|194:344,1,59.9999981689454
352,306,50781,1,0,1:0:0:0:
133,169,50939,6,0,L|180:178,1,29.9999990844727,0|0,3:0|3:0,0:0:0:0:
146,158,51018,2,0,L|193:167,1,29.9999990844727,0|0,3:0|3:0,0:0:0:0:
160,147,51097,1,0,3:0:0:0:
370,315,51255,1,0,1:0:0:0:
323,45,51412,6,0,B|301:45|301:45|269:54,3,37.5000014305115,0|0|0|0,1:0|0:0|0:0|0:0,0:0:0:0:
212,7,51728,5,2,0:0:0:0:
189,45,51806,1,2,0:0:0:0:
152,70,51885,1,2,0:0:0:0:
108,74,51964,1,2,0:0:0:0:
66,58,52044,6,0,B|79:104|79:104|76:108|76:108|81:111|81:111|97:169,1,112.500004291535,0|0,1:0|0:0,0:0:0:0:
49,35,52360,6,0,P|33:112|20:182,1,150.000005722046,12|0,0:0|0:0,0:0:0:0:
335,244,52676,6,0,P|306:234|276:231,1,59.9999981689454,0|0,1:0|0:0,0:0:0:0:
147,332,52833,1,0,0:0:0:0:
265,156,52991,6,0,P|238:169|214:188,1,59.9999981689454,8|0,0:0|0:0,0:0:0:0:
145,350,53148,1,0,0:0:0:0:
177,119,53307,6,0,P|162:93|140:72,1,59.9999981689454,0|0,1:0|0:0,0:0:0:0:
229,296,53465,1,0,0:0:0:0:
101,143,53623,6,0,P|72:135|42:136,1,59.9999981689454,8|0,0:0|0:0,0:0:0:0:
276,231,53781,1,0,0:0:0:0:
262,6,53939,6,0,P|256:36|255:66,1,59.9999981689454,0|0,1:0|0:0,0:0:0:0:
355,186,54097,2,0,P|354:156|348:126,1,59.9999981689454,0|0,1:0|0:0,0:0:0:0:
214,188,54255,5,8,0:0:0:0:
413,69,54412,1,0,0:0:0:0:
406,283,54570,5,0,1:0:0:0:
366,305,54648,1,0,1:0:0:0:
322,301,54727,1,0,1:0:0:0:
288,273,54806,1,0,1:0:0:0:
275,231,54886,6,0,B|227:198|150:212|150:212|182:244,1,170.000003242493,8|0,0:0|0:0,0:0:0:0:
356,223,55123,6,0,B|371:141|371:141|316:72,1,170.000003242493,0|0,1:0|0:0,0:0:0:0:
155,115,55360,6,0,P|190:125|228:125,1,75.0000028610231,0|0,1:0|0:0,0:0:0:0:
66,20,55518,6,0,L|78:94,1,75.0000028610231,8|0,0:0|0:0,0:0:0:0:
19,240,55676,6,0,L|31:165,1,75.0000028610231,0|0,1:0|0:0,0:0:0:0:
166,314,55833,6,0,B|236:300|236:300|289:326|289:326|364:309,1,179.999994506836,4|0,1:2|0:0,0:0:0:0:
341,119,56070,6,0,B|264:157|264:157|295:245,1,179.999994506836,4|0,1:2|0:0,0:0:0:0:
438,215,56307,6,0,L|422:28,1,179.999994506836,4|0,1:2|0:0,0:0:0:0:
184,69,56544,6,0,L|273:55,1,89.9999972534181,0|0,1:0|0:0,0:0:0:0:
341,116,56702,1,0,1:0:0:0:
341,116,56781,1,8,0:0:0:0:
107,31,56939,5,0,1:0:0:0:
101,75,57017,1,0,1:0:0:0:
115,117,57096,5,4,1:0:0:0:
324,222,57255,1,0,1:0:0:0:
184,69,57412,5,8,0:0:0:0:
175,315,57570,1,0,0:0:0:0:
341,116,57728,5,8,0:0:0:0:
107,31,57886,1,0,1:0:0:0:
240,247,58044,5,8,0:0:0:0:
329,0,58202,1,0,0:0:0:0:
106,155,58360,5,4,1:2:0:0:
335,249,58518,1,0,1:0:0:0:
216,62,58676,5,8,0:0:0:0:
299,317,58833,1,0,3:0:0:0:
413,96,58991,5,8,0:0:0:0:
194,269,59149,1,0,1:0:0:0:
430,83,59307,6,0,B|479:79|517:34|517:34|504:201,1,269.999991760254,12|0,0:0|0:0,0:0:0:0:
512,278,59623,5,12,1:2:0:0:
481,299,59701,1,0,3:0:0:0:
444,302,59780,1,0,3:0:0:0:
410,288,59859,1,0,3:0:0:0:
387,259,59938,1,0,3:0:0:0:
363,230,60018,1,0,3:0:0:0:
329,216,60097,1,0,3:0:0:0:
292,219,60176,1,0,3:0:0:0:
263,237,60254,6,0,L|253:197,1,37.5000014305115,0|0,3:2|3:0,0:0:0:0:
235,240,60333,6,0,L|239:203,1,37.5000014305115,0|0,3:0|3:0,0:0:0:0:
207,236,60412,6,0,L|223:197,1,37.5000014305115,0|0,3:2|3:0,0:0:0:0:
179,221,60491,6,0,L|210:192,1,37.5000014305115,0|0,3:0|3:0,0:0:0:0:
158,211,60570,6,0,L|148:251,1,37.5000014305115,0|0,3:2|3:0,0:0:0:0:
129,209,60649,6,0,L|133:246,1,37.5000014305115,0|0,3:0|3:0,0:0:0:0:
103,213,60728,6,0,L|119:251,1,37.5000014305115,0|0,3:2|3:0,0:0:0:0:
79,230,60807,6,0,L|110:258,1,37.5000014305115,0|0,3:0|3:0,0:0:0:0:
65,253,60886,6,0,B|56:179,1,75.0000028610231,0|0,1:0|0:0,0:0:0:0:
59,258,61202,6,0,B|50:184,1,75.0000028610231
53,265,61518,6,0,B|44:191,1,75.0000028610231
156,0,61833,6,0,B|173:90|142:185|142:185|166:144|211:125,1,269.999991760254,12|0,0:0|0:0,0:0:0:0:
338,16,62149,6,2,B|278:4|278:4|317:135|317:135|425:54|425:54|519:71,1,419.999987182618,4|0,1:0|1:0,0:1:0:0:
452,291,62781,6,2,B|401:290|401:290|346:301,1,100.000003814697,10|0,0:1|0:0,0:1:0:0:
235,261,62939,2,0,B|284:269|284:269|334:267,1,100.000003814697,2|0,0:1|0:0,0:1:0:0:
504,184,63097,6,2,B|461:188|461:188|437:201|437:201|387:206,1,119.999996337891,2|0,0:1|0:0,0:1:0:0:
119,284,63255,2,0,B|162:280|162:280|186:267|186:267|235:262,1,119.999996337891,2|0,0:1|0:0,0:1:0:0:
376,124,63412,6,2,B|395:88|443:81|443:81|389:96|352:53|352:53|328:20|274:12|237:40|234:90|249:118|289:127,1,375,2|0,1:0|0:0,0:1:0:0:
135,269,63728,6,2,B|201:313|201:313|165:109,1,269.999991760254,0|0,0:0|0:0,0:1:0:0:
70,89,64044,6,0,L|90:200,1,100,8|0,0:0|0:0,0:0:0:0:
469,241,64360,6,2,B|386:172|260:223|260:223|303:241|322:278,1,300,2|0,0:1|0:0,0:1:0:0:
331,347,64676,6,0,B|287:343|287:343|264:327|264:327|225:355|225:355|142:353,1,179.999994506836,0|0,1:0|0:0,0:0:0:0:
58,357,64991,5,0,0:0:0:0:
32,320,65069,1,0,0:0:0:0:
33,276,65149,1,2,1:0:0:0:
59,240,65227,1,2,0:1:0:0:
100,225,65307,6,0,P|25:244|26:166,1,179.999994506836,8|0,0:0|0:0,0:0:0:0:
117,111,65623,5,2,0:1:0:0:
147,143,65701,1,2,0:1:0:0:
189,159,65780,1,0,1:0:0:0:
233,156,65859,1,0,1:0:0:0:
272,134,65939,6,2,L|260:45,1,89.9999972534181,0|0,0:0|0:0,0:1:0:0:
380,184,66097,5,0,1:0:0:0:
387,193,66176,2,2,B|393:156|393:156|392:154|392:154|394:152|394:152|402:105,1,89.9999972534181,0|0,1:0|0:0,0:1:0:0:
278,320,66333,5,0,0:0:0:0:
272,330,66412,2,2,B|265:289|265:289|266:287|266:287|264:285|264:285|256:238,1,89.9999972534181,0|0,1:0|0:0,0:1:0:0:
465,73,66570,6,0,P|421:76|377:86,1,89.9999972534181,10|0,0:1|0:0,0:0:0:0:
100,146,66728,2,2,P|144:148|188:158,1,89.9999972534181,0|0,0:0|0:0,0:1:0:0:
480,291,66886,6,2,B|516:317|513:366|454:387|401:347|410:236|488:201,1,269.999991760254,2|0,0:1|0:0,0:1:0:0:
504,191,67202,6,2,B|443:181|443:181|417:155|417:155|382:191|382:191|356:166|356:166|272:151,1,269.999991760254,4|0,1:2|0:0,0:1:0:0:
188,158,67518,6,0,B|239:73|239:73|258:248,1,269.999991760254,0|0,1:0|0:0,0:0:0:0:
132,350,67833,6,2,L|140:250,1,100.000003814697,10|0,0:1|0:0,0:1:0:0:
102,137,67991,2,2,L|110:236,1,100.000003814697,2|0,0:1|0:0,0:1:0:0:
258,356,68149,6,2,B|253:319|253:319|262:296|262:296|259:258,1,100.000003814697,2|0,0:1|0:0,0:1:0:0:
188,37,68307,2,2,B|193:74|193:74|184:97|184:97|186:134,1,100.000003814697,2|0,0:1|0:0,0:1:0:0:
441,108,68465,6,0,B|405:86|355:95|355:95|321:121|321:121|274:114,1,179.999994506836,0|0,1:0|0:0,0:0:0:0:
187,36,68781,1,0,0:0:0:0:
144,28,68859,1,0,0:0:0:0:
101,42,68938,1,2,1:1:0:0:
69,72,69017,1,2,0:1:0:0:
55,115,69097,6,0,B|46:184|46:184|67:222|67:222|56:294,1,179.999994506836,8|0,0:0|0:0,0:0:0:0:
11,370,69412,1,2,0:1:0:0:
44,320,69490,1,2,0:1:0:0:
97,295,69569,1,0,0:0:0:0:
156,299,69648,1,0,0:0:0:0:
205,332,69728,6,0,L|286:316,1,75.0000028610231,0|0,1:0|0:0,0:0:0:0:
438,332,69886,2,0,L|357:348,1,75.0000028610231
302,227,70044,2,0,P|298:187|304:152,1,75.0000028610231
418,81,70202,2,0,P|424:117|420:154,1,75.0000028610231,0|0,1:0|0:0,0:0:0:0:
171,175,70360,5,8,0:0:0:0:
162,165,70439,1,0,0:0:0:0:
157,151,70518,1,0,0:0:0:0:
157,135,70597,1,0,0:0:0:0:
162,121,70676,5,0,1:0:0:0:
170,108,70755,1,0,0:0:0:0:
185,100,70834,1,0,1:0:0:0:
201,100,70913,1,0,1:0:0:0:
230,109,70992,5,4,1:2:0:0:
256,192,71070,12,12,71939,1:2:0:0:
256,192,72255,5,4,1:1:0:0:
256,344,74781,6,0,L|256:32,1,310
140,52,76044,5,2,0:0:0:0:
143,79,76122,1,2,0:0:0:0:
147,105,76201,1,2,0:0:0:0:
151,132,76280,1,2,0:0:0:0:
364,136,76360,5,2,0:0:0:0:
361,157,76438,1,2,0:0:0:0:
357,176,76517,1,2,0:0:0:0:
355,196,76596,1,2,0:0:0:0:
160,208,76676,5,2,0:0:0:0:
163,229,76754,1,2,0:0:0:0:
167,248,76833,1,2,0:0:0:0:
169,268,76912,1,2,0:0:0:0:
340,276,76991,5,2,0:0:0:0:
337,292,77069,1,2,0:0:0:0:
334,306,77148,1,2,0:0:0:0:
333,322,77227,1,2,0:0:0:0:
255,344,77307,6,0,L|168:357,1,75.0000028610231
94,279,77622,2,0,L|181:266,1,75.0000028610231
248,338,77938,6,0,L|161:351,1,75.0000028610231
87,273,78254,2,0,L|174:260,1,75.0000028610231
298,249,78570,6,0,L|385:262,1,75.0000028610231
459,184,78886,2,0,L|372:171,1,75.0000028610231
305,243,79201,6,0,L|392:256,1,75.0000028610231
466,178,79517,2,0,L|379:165,1,75.0000028610231
179,54,79833,6,0,L|188:103,1,37.5000014305115
115,135,79991,2,0,B|104:118|104:118|103:100,1,37.5000014305115
257,60,80149,2,0,B|268:77|268:77|268:94,1,37.5000014305115
140,215,80307,6,0,B|100:230|61:196|61:196|68:234|53:258,1,150
37,342,80622,6,0,B|77:327|116:361|116:361|109:323|123:298,1,150
140,215,80938,6,0,B|241:173|229:269|340:221,1,200
331,224,81333,1,0,0:0:0:0:
331,224,81412,1,0,0:0:0:0:
409,131,81570,1,0,0:0:0:0:
362,236,81728,5,0,0:0:0:0:
300,113,81886,1,0,0:0:0:0:
453,215,82044,6,0,B|434:142|458:70|458:70|433:110|401:137,1,225.000008583069,12|0,0:0|0:0,0:0:0:0:
362,236,82359,6,0,B|312:209|267:256|267:256|220:206|220:206|176:270|107:260,1,299.999990844727,4|0,1:0|0:0,0:0:0:0:
8,246,82833,6,0,B|39:112|39:112|85:186,1,225.000008583069,4|0,1:2|0:0,0:0:0:0:
177,101,83149,6,0,B|121:88|121:88|85:104|85:104|1:90,1,179.999994506836,4|0,1:2|0:0,0:0:0:0:
168,186,83465,6,0,B|242:204|242:204|261:71|261:71|414:112|414:112|393:271|393:271|309:246|309:246|321:161|321:161|404:186|404:186|513:212,1,899.999972534181,4|8,1:0|0:0,0:0:0:0:
232,337,84570,5,0,0:0:0:0:
211,327,84648,1,0,0:0:0:0:
189,327,84727,1,0,0:0:0:0:
168,335,84806,1,0,0:0:0:0:
149,351,84886,6,0,B|227:262|209:153|107:140|71:233|166:268,1,299.999990844727,4|0,1:0|0:0,0:0:0:0:
247,350,85359,6,0,B|323:317|323:317|376:355|376:355|455:322,1,225.000008583069,4|0,1:2|0:0,0:0:0:0:
466,155,85675,6,0,B|415:175|415:175|395:200|395:200|363:194|363:194|305:214,1,179.999994506836,4|0,1:2|0:0,0:0:0:0:
149,259,85991,6,0,P|136:239|138:171,1,75.0000028610231,4|0,1:0|0:0,0:0:0:0:
197,66,86149,5,0,0:0:0:0:
180,84,86227,1,0,0:0:0:0:
158,97,86306,1,2,0:0:0:0:
133,101,86385,1,2,0:0:0:0:
110,96,86465,5,0,0:0:0:0:
144,82,86543,1,0,0:0:0:0:
182,83,86622,1,2,0:0:0:0:
215,99,86701,1,2,0:0:0:0:
241,127,86780,5,8,0:0:0:0:
277,155,86858,1,2,0:0:0:0:
323,159,86937,1,2,0:0:0:0:
362,135,87016,1,2,0:0:0:0:
382,93,87095,1,2,0:0:0:0:
375,48,87174,1,2,0:0:0:0:
343,15,87253,1,2,0:0:0:0:
297,5,87332,1,2,0:0:0:0:
255,23,87412,6,0,B|226:70|226:70|246:102|246:102|250:178|250:178|275:205|275:205|255:231|255:231|261:325,1,299.999990844727,4|0,1:0|0:0,0:0:0:0:
468,269,87886,6,0,B|490:212|490:212|322:260,1,225.000008583069,4|0,1:2|0:0,0:0:0:0:
172,324,88201,6,0,B|263:286|251:376|360:334,1,179.999994506836,4|0,1:2|0:0,0:0:0:0:
213,74,88517,6,0,B|5:45|5:45|54:227|54:227|138:135|138:135|25:119|25:119|75:306|75:306|131:247,1,899.999972534181,4|8,1:0|0:0,0:0:0:0:
