osu file format v14

[General]
AudioFilename: audio.mp3
AudioLeadIn: 0
PreviewTime: 102318
Countdown: 0
SampleSet: Soft
StackLeniency: 0.7
Mode: 3
LetterboxInBreaks: 0
SpecialStyle: 0
WidescreenStoryboard: 1

[Editor]
DistanceSpacing: 0.8
BeatDivisor: 4
GridSize: 4
TimelineZoom: 1.4

[Metadata]
Title:Climax
TitleUnicode:Climax
Artist:USAO
ArtistUnicode:USAO
Creator:Murumoo
Version:ADVANCED
Source:CHUNITHM AMAZON
Tags:Lirai DE-CADE DECADE 第五回 天下一音ゲ祭 全国頂上決戦 hardcore チュウニズムアマゾン uom records usao-017 xtreme maimai でらっくす Splash DX Deluxe ONGEKI オンゲキ R.E.D. SEGA video game electronic instrumental
BeatmapID:1949556
BeatmapSetID:933868

[Difficulty]
HPDrainRate:7.5
CircleSize:4
OverallDifficulty:7.5
ApproachRate:5
SliderMultiplier:1.4
SliderTickRate:1

[Events]
//Background and Video events
0,0,"bg.jpg",0,0
//Break Periods
//Storyboard Layer 0 (Background)
//Storyboard Layer 1 (Fail)
//Storyboard Layer 2 (Pass)
//Storyboard Layer 3 (Foreground)
//Storyboard Layer 4 (Overlay)
//Storyboard Sound Samples
Sample,19423,0,"finish.wav",55
Sample,19739,0,"finish.wav",55
Sample,19976,0,"finish.wav",55
Sample,39318,0,"finish.wav",55
Sample,39476,0,"finish.wav",55
Sample,39713,0,"finish.wav",55
Sample,39950,0,"finish.wav",55
Sample,40266,0,"finish.wav",55
Sample,136660,0,"finish.wav",60

[TimingPoints]
1266,315.789473684211,4,2,1,30,1,0
102318,-100,4,2,1,30,0,1
121266,-100,4,2,1,30,0,0
122529,-100,4,2,1,30,0,1
141476,-100,4,2,1,30,0,0

[HitObjects]
192,192,476,128,0,1266:0:0:0:0:
64,192,1266,1,0,0:0:0:55:finish.wav
448,192,1266,1,0,0:0:0:0:
448,192,1423,1,0,0:0:0:0:
448,192,1581,1,0,0:0:0:0:
448,192,1739,1,0,0:0:0:0:
64,192,1897,1,0,0:0:0:0:
64,192,2055,1,0,0:0:0:0:
64,192,2213,1,0,0:0:0:0:
64,192,2371,1,0,0:0:0:0:
320,192,2529,1,0,0:0:0:0:
320,192,2687,1,0,0:0:0:0:
320,192,2844,1,0,0:0:0:0:
320,192,3002,1,0,0:0:0:0:
192,192,3160,1,0,0:0:0:0:
192,192,3318,1,0,0:0:0:0:
192,192,3476,1,0,0:0:0:0:
192,192,3634,1,0,0:0:0:0:
64,192,3792,1,0,0:0:0:0:
64,192,3950,1,0,0:0:0:0:
64,192,4108,1,0,0:0:0:0:
64,192,4266,1,0,0:0:0:0:
320,192,4423,1,0,0:0:0:0:
320,192,4581,1,0,0:0:0:0:
320,192,4739,1,0,0:0:0:0:
320,192,4897,1,0,0:0:0:0:
192,192,5055,1,0,0:0:0:0:
192,192,5213,1,0,0:0:0:0:
192,192,5371,1,0,0:0:0:0:
192,192,5529,1,0,0:0:0:0:
448,192,5687,1,0,0:0:0:0:
448,192,5844,1,0,0:0:0:0:
448,192,6002,1,0,0:0:0:0:
448,192,6160,1,0,0:0:0:0:
192,192,6318,1,0,0:0:0:55:finish.wav
320,192,6318,1,0,0:0:0:55:hat.wav
320,192,6476,1,0,0:0:0:0:
64,192,6634,1,0,0:0:0:60:snare.wav
448,192,6634,1,0,0:0:0:0:
448,192,6792,1,0,0:0:0:0:
64,192,6950,1,0,0:0:0:55:hat.wav
192,192,6950,1,0,0:0:0:0:
192,192,7108,1,0,0:0:0:0:
64,192,7266,1,0,0:0:0:60:snare.wav
448,192,7266,1,0,0:0:0:0:
64,192,7423,1,0,0:0:0:0:
192,192,7581,1,0,0:0:0:55:hat.wav
320,192,7581,1,0,0:0:0:0:
320,192,7739,1,0,0:0:0:0:
192,192,7897,1,0,0:0:0:60:snare.wav
448,192,7897,1,0,0:0:0:0:
192,192,8055,1,0,0:0:0:0:
320,192,8213,1,0,0:0:0:55:hat.wav
448,192,8213,1,0,0:0:0:0:
448,192,8371,1,0,0:0:0:0:
64,192,8529,1,0,0:0:0:60:snare.wav
320,192,8529,1,0,0:0:0:0:
64,192,8687,1,0,0:0:0:0:
320,192,8844,1,0,0:0:0:55:hat.wav
448,192,8844,1,0,0:0:0:0:
320,192,9002,1,0,0:0:0:0:
192,192,9160,1,0,0:0:0:60:snare.wav
320,192,9239,1,0,0:0:0:0:
448,192,9318,1,0,0:0:0:0:
64,192,9397,1,0,0:0:0:0:
192,192,9476,1,0,0:0:0:55:hat.wav
192,192,9634,1,0,0:0:0:0:
320,192,9792,1,0,0:0:0:60:snare.wav
192,192,9871,1,0,0:0:0:0:
64,192,9950,1,0,0:0:0:0:
448,192,10029,1,0,0:0:0:0:
192,192,10108,1,0,0:0:0:45:whistle.wav
320,192,10108,1,0,0:0:0:55:finish.wav
320,192,10266,1,0,0:0:0:0:
64,192,10423,1,0,0:0:0:60:snare.wav
192,192,10423,1,0,0:0:0:0:
320,192,10581,1,0,0:0:0:60:snare.wav
448,192,10581,1,0,0:0:0:0:
64,192,10739,128,0,10897:0:0:0:45:whistle.wav
448,192,10739,1,0,0:0:0:0:
320,192,10897,128,0,11055:0:0:0:0:
64,192,11055,1,0,0:0:0:45:whistle.wav
448,192,11055,1,0,0:0:0:55:finish.wav
64,192,11371,1,0,0:0:0:45:whistle.wav
320,192,11371,1,0,0:0:0:55:finish.wav
448,192,11371,1,0,0:0:0:0:
192,192,11529,1,0,0:0:0:0:
192,192,11687,1,0,0:0:0:0:
320,192,11844,1,0,0:0:0:60:snare.wav
448,192,11844,1,0,0:0:0:0:
64,192,12002,1,0,0:0:0:0:
320,192,12160,1,0,0:0:0:60:snare.wav
448,192,12160,1,0,0:0:0:0:
192,192,12318,1,0,0:0:0:0:
320,192,12476,1,0,0:0:0:60:snare.wav
448,192,12476,1,0,0:0:0:0:
64,192,12634,1,0,0:0:0:45:whistle.wav
192,192,12634,1,0,0:0:0:55:finish.wav
448,192,12634,1,0,0:0:0:0:
320,192,12792,1,0,0:0:0:0:
320,192,12950,1,0,0:0:0:0:
64,192,13108,1,0,0:0:0:60:snare.wav
192,192,13108,1,0,0:0:0:0:
448,192,13266,1,0,0:0:0:0:
64,192,13423,1,0,0:0:0:60:snare.wav
192,192,13423,1,0,0:0:0:0:
320,192,13581,1,0,0:0:0:60:snare.wav
64,192,13739,1,0,0:0:0:60:snare.wav
192,192,13739,1,0,0:0:0:0:
64,192,13897,1,0,0:0:0:45:whistle.wav
320,192,13897,1,0,0:0:0:55:finish.wav
448,192,13897,1,0,0:0:0:0:
192,192,14055,1,0,0:0:0:0:
192,192,14213,1,0,0:0:0:60:snare.wav
320,192,14371,1,0,0:0:0:60:snare.wav
448,192,14371,1,0,0:0:0:0:
64,192,14529,1,0,0:0:0:0:
320,192,14687,1,0,0:0:0:60:snare.wav
448,192,14687,1,0,0:0:0:0:
192,192,14844,1,0,0:0:0:0:
320,192,15002,1,0,0:0:0:60:snare.wav
448,192,15002,1,0,0:0:0:0:
64,192,15160,1,0,0:0:0:45:whistle.wav
448,192,15160,1,0,0:0:0:55:finish.wav
192,192,15239,1,0,0:0:0:0:
320,192,15318,1,0,0:0:0:0:
448,192,15397,1,0,0:0:0:0:
192,192,15476,1,0,0:0:0:45:whistle.wav
320,192,15555,1,0,0:0:0:45:whistle.wav
192,192,15634,1,0,0:0:0:45:whistle.wav
320,192,15713,1,0,0:0:0:45:whistle.wav
64,192,15792,1,0,0:0:0:45:whistle.wav
192,192,15871,1,0,0:0:0:0:
320,192,15950,1,0,0:0:0:45:whistle.wav
448,192,16029,1,0,0:0:0:45:whistle.wav
192,192,16108,1,0,0:0:0:45:whistle.wav
320,192,16187,1,0,0:0:0:0:
64,192,16266,1,0,0:0:0:45:whistle.wav
192,192,16344,1,0,0:0:0:45:whistle.wav
320,192,16423,1,0,0:0:0:45:whistle.wav
448,192,16423,1,0,0:0:0:55:finish.wav
320,192,16581,1,0,0:0:0:60:snare.wav
64,192,16739,1,0,0:0:0:60:snare.wav
192,192,16739,1,0,0:0:0:0:
192,192,16897,1,0,0:0:0:60:snare.wav
320,192,17055,1,0,0:0:0:45:whistle.wav
448,192,17055,1,0,0:0:0:55:finish.wav
320,192,17213,1,0,0:0:0:60:snare.wav
64,192,17371,1,0,0:0:0:60:snare.wav
192,192,17371,1,0,0:0:0:0:
192,192,17529,1,0,0:0:0:60:snare.wav
320,192,17687,1,0,0:0:0:45:whistle.wav
448,192,17687,1,0,0:0:0:55:finish.wav
448,192,17844,1,0,0:0:0:60:snare.wav
64,192,18002,1,0,0:0:0:60:snare.wav
192,192,18002,1,0,0:0:0:0:
64,192,18160,1,0,0:0:0:60:snare.wav
320,192,18318,1,0,0:0:0:45:whistle.wav
448,192,18318,1,0,0:0:0:55:finish.wav
448,192,18476,1,0,0:0:0:60:snare.wav
64,192,18634,1,0,0:0:0:60:snare.wav
192,192,18634,1,0,0:0:0:0:
64,192,18792,1,0,0:0:0:60:snare.wav
320,192,18950,1,0,0:0:0:45:whistle.wav
448,192,18950,1,0,0:0:0:55:finish.wav
192,192,19029,1,0,0:0:0:45:whistle.wav
64,192,19108,1,0,0:0:0:45:whistle.wav
320,192,19187,1,0,0:0:0:45:whistle.wav
448,192,19266,1,0,0:0:0:45:whistle.wav
192,192,19344,1,0,0:0:0:45:whistle.wav
320,192,19423,1,0,0:0:0:45:whistle.wav
448,192,19502,1,0,0:0:0:45:whistle.wav
64,192,19581,1,0,0:0:0:45:whistle.wav
192,192,19660,1,0,0:0:0:45:whistle.wav
320,192,19739,1,0,0:0:0:45:whistle.wav
64,192,19818,1,0,0:0:0:45:whistle.wav
192,192,19897,1,0,0:0:0:45:whistle.wav
448,192,19976,1,0,0:0:0:45:whistle.wav
320,192,20055,1,0,0:0:0:45:whistle.wav
192,192,20134,1,0,0:0:0:45:whistle.wav
64,192,20213,1,0,0:0:0:45:whistle.wav
448,192,20213,128,0,20371:0:0:0:55:finish.wav
320,192,20371,128,0,20529:0:0:0:0:
192,192,20529,1,0,0:0:0:0:
64,192,20529,128,0,20687:0:0:0:0:
320,192,20687,1,0,0:0:0:0:
192,192,20766,1,0,0:0:0:0:
64,192,20844,1,0,0:0:0:0:
448,192,20844,128,0,21002:0:0:0:0:
192,192,21002,1,0,0:0:0:0:
64,192,21081,1,0,0:0:0:0:
320,192,21160,128,0,21318:0:0:0:0:
448,192,21160,1,0,0:0:0:0:
192,192,21318,128,0,21476:0:0:0:0:
64,192,21476,1,0,0:0:0:45:whistle.wav
320,192,21476,128,0,21792:0:0:0:55:finish.wav
448,192,21476,128,0,21792:0:0:0:0:
64,192,21792,1,0,0:0:0:60:snare.wav
192,192,21792,1,0,0:0:0:0:
320,192,21950,1,0,0:0:0:0:
64,192,22108,1,0,0:0:0:45:whistle.wav
448,192,22108,1,0,0:0:0:0:
192,192,22266,1,0,0:0:0:0:
64,192,22423,1,0,0:0:0:60:snare.wav
320,192,22423,1,0,0:0:0:0:
448,192,22581,1,0,0:0:0:0:
64,192,22739,128,0,23055:0:0:0:45:whistle.wav
192,192,22739,128,0,23055:0:0:0:0:
320,192,23055,1,0,0:0:0:60:snare.wav
448,192,23055,1,0,0:0:0:0:
192,192,23213,1,0,0:0:0:0:
64,192,23371,1,0,0:0:0:45:whistle.wav
448,192,23371,1,0,0:0:0:0:
320,192,23529,1,0,0:0:0:0:
192,192,23687,1,0,0:0:0:60:snare.wav
448,192,23687,1,0,0:0:0:0:
64,192,23844,1,0,0:0:0:0:
192,192,23923,1,0,0:0:0:0:
320,192,24002,128,0,24318:0:0:0:45:whistle.wav
448,192,24002,128,0,24318:0:0:0:0:
64,192,24318,1,0,0:0:0:60:snare.wav
192,192,24318,1,0,0:0:0:0:
320,192,24476,1,0,0:0:0:0:
64,192,24634,1,0,0:0:0:45:whistle.wav
448,192,24634,1,0,0:0:0:0:
192,192,24792,1,0,0:0:0:0:
64,192,24950,1,0,0:0:0:60:snare.wav
320,192,24950,1,0,0:0:0:0:
448,192,25108,1,0,0:0:0:0:
64,192,25266,128,0,25423:0:0:0:45:whistle.wav
192,192,25266,1,0,0:0:0:0:
448,192,25423,128,0,25581:0:0:0:0:
64,192,25581,1,0,0:0:0:60:snare.wav
320,192,25581,128,0,25739:0:0:0:0:
192,192,25739,128,0,25897:0:0:0:0:
320,192,25897,1,0,0:0:0:45:whistle.wav
448,192,25897,128,0,26055:0:0:0:0:
64,192,26055,128,0,26213:0:0:0:0:
192,192,26213,128,0,26371:0:0:0:60:snare.wav
448,192,26213,1,0,0:0:0:0:
320,192,26371,128,0,26529:0:0:0:0:
64,192,26529,1,0,0:0:0:45:whistle.wav
192,192,26529,1,0,0:0:0:55:finish.wav
64,192,26687,1,0,0:0:0:45:whistle.wav
192,192,26687,1,0,0:0:0:0:
320,192,26844,1,0,0:0:0:60:snare.wav
448,192,26844,1,0,0:0:0:0:
64,192,27002,1,0,0:0:0:0:
192,192,27160,1,0,0:0:0:45:whistle.wav
448,192,27160,1,0,0:0:0:0:
320,192,27318,1,0,0:0:0:0:
64,192,27476,1,0,0:0:0:60:snare.wav
192,192,27476,1,0,0:0:0:0:
448,192,27634,1,0,0:0:0:0:
192,192,27792,128,0,28108:0:0:0:45:whistle.wav
320,192,27792,128,0,28108:0:0:0:0:
64,192,28108,1,0,0:0:0:60:snare.wav
448,192,28108,1,0,0:0:0:0:
192,192,28266,1,0,0:0:0:0:
64,192,28423,1,0,0:0:0:45:whistle.wav
320,192,28423,1,0,0:0:0:0:
448,192,28581,1,0,0:0:0:0:
64,192,28739,1,0,0:0:0:60:snare.wav
192,192,28739,1,0,0:0:0:0:
320,192,28897,1,0,0:0:0:0:
64,192,29055,128,0,29371:0:0:0:45:whistle.wav
448,192,29055,128,0,29371:0:0:0:0:
192,192,29371,1,0,0:0:0:60:snare.wav
320,192,29371,1,0,0:0:0:0:
64,192,29529,1,0,0:0:0:0:
320,192,29687,1,0,0:0:0:45:whistle.wav
448,192,29687,1,0,0:0:0:0:
192,192,29844,1,0,0:0:0:0:
64,192,30002,1,0,0:0:0:60:snare.wav
448,192,30002,1,0,0:0:0:0:
320,192,30160,1,0,0:0:0:0:
64,192,30318,1,0,0:0:0:45:whistle.wav
192,192,30318,128,0,30476:0:0:0:0:
320,192,30476,128,0,30634:0:0:0:0:
64,192,30634,1,0,0:0:0:45:whistle.wav
192,192,30713,1,0,0:0:0:45:whistle.wav
448,192,30792,1,0,0:0:0:45:whistle.wav
320,192,30871,1,0,0:0:0:45:whistle.wav
192,192,30950,1,0,0:0:0:45:whistle.wav
320,192,31108,1,0,0:0:0:45:whistle.wav
192,192,31187,1,0,0:0:0:45:whistle.wav
64,192,31266,1,0,0:0:0:45:whistle.wav
448,192,31266,1,0,0:0:0:0:
192,192,31423,1,0,0:0:0:45:whistle.wav
320,192,31502,1,0,0:0:0:45:whistle.wav
64,192,31581,1,0,0:0:0:45:whistle.wav
448,192,31581,1,0,0:0:0:55:finish.wav
64,192,31739,1,0,0:0:0:0:
320,192,31897,128,0,32055:0:0:0:60:snare.wav
448,192,31897,1,0,0:0:0:0:
192,192,32055,128,0,32213:0:0:0:0:
64,192,32213,1,0,0:0:0:45:whistle.wav
448,192,32213,128,0,32371:0:0:0:0:
320,192,32371,128,0,32529:0:0:0:0:
192,192,32529,1,0,0:0:0:0:
64,192,32529,1,0,0:0:0:60:snare.wav
64,192,32687,128,0,32844:0:0:0:0:
320,192,32844,1,0,0:0:0:45:whistle.wav
448,192,32844,1,0,0:0:0:0:
192,192,33002,1,0,0:0:0:0:
64,192,33160,1,0,0:0:0:60:snare.wav
448,192,33160,1,0,0:0:0:0:
320,192,33318,1,0,0:0:0:0:
64,192,33476,1,0,0:0:0:45:whistle.wav
192,192,33476,1,0,0:0:0:0:
448,192,33634,1,0,0:0:0:0:
64,192,33792,1,0,0:0:0:60:snare.wav
192,192,33792,1,0,0:0:0:0:
320,192,33871,1,0,0:0:0:0:
448,192,33950,1,0,0:0:0:0:
64,192,34029,1,0,0:0:0:0:
192,192,34108,128,0,34423:0:0:0:45:whistle.wav
320,192,34108,1,0,0:0:0:0:
320,192,34423,1,0,0:0:0:60:snare.wav
448,192,34423,1,0,0:0:0:0:
192,192,34502,1,0,0:0:0:0:
64,192,34581,1,0,0:0:0:0:
448,192,34660,1,0,0:0:0:0:
192,192,34739,1,0,0:0:0:45:whistle.wav
320,192,34739,1,0,0:0:0:0:
64,192,34897,1,0,0:0:0:0:
320,192,35055,1,0,0:0:0:60:snare.wav
448,192,35055,1,0,0:0:0:0:
192,192,35134,1,0,0:0:0:0:
64,192,35213,1,0,0:0:0:0:
320,192,35292,1,0,0:0:0:0:
192,192,35371,1,0,0:0:0:45:whistle.wav
448,192,35371,1,0,0:0:0:0:
320,192,35529,128,0,35687:0:0:0:0:
64,192,35687,1,0,0:0:0:60:snare.wav
192,192,35687,1,0,0:0:0:0:
448,192,35844,128,0,36002:0:0:0:0:
64,192,36002,1,0,0:0:0:45:whistle.wav
192,192,36002,1,0,0:0:0:0:
320,192,36160,128,0,36318:0:0:0:45:whistle.wav
448,192,36160,1,0,0:0:0:0:
64,192,36318,1,0,0:0:0:60:snare.wav
192,192,36318,128,0,36476:0:0:0:0:
320,192,36476,128,0,36634:0:0:0:0:
64,192,36634,128,0,36792:0:0:0:45:whistle.wav
448,192,36634,1,0,0:0:0:55:finish.wav
192,192,36792,128,0,36950:0:0:0:0:
64,192,36950,1,0,0:0:0:60:snare.wav
448,192,36950,128,0,37108:0:0:0:0:
320,192,37108,128,0,37266:0:0:0:0:
448,192,37266,1,0,0:0:0:45:whistle.wav
64,192,37266,1,0,0:0:0:0:
192,192,37344,1,0,0:0:0:0:
320,192,37423,128,0,37581:0:0:0:0:
192,192,37581,1,0,0:0:0:60:snare.wav
64,192,37581,1,0,0:0:0:0:
320,192,37660,1,0,0:0:0:0:
448,192,37739,128,0,37897:0:0:0:0:
320,192,37897,1,0,0:0:0:45:whistle.wav
192,192,37976,1,0,0:0:0:45:whistle.wav
64,192,38055,1,0,0:0:0:45:whistle.wav
320,192,38134,1,0,0:0:0:45:whistle.wav
192,192,38213,128,0,38371:0:0:0:60:snare.wav
448,192,38213,1,0,0:0:0:0:
64,192,38371,128,0,38529:0:0:0:0:
320,192,38529,128,0,38687:0:0:0:60:snare.wav
448,192,38529,1,0,0:0:0:0:
64,192,38687,1,0,0:0:0:45:whistle.wav
192,192,38687,1,0,0:0:0:0:
64,192,38844,1,0,0:0:0:60:snare.wav
320,192,38844,1,0,0:0:0:0:
320,192,39002,1,0,0:0:0:45:whistle.wav
448,192,39002,1,0,0:0:0:0:
64,192,39160,1,0,0:0:0:45:whistle.wav
192,192,39160,1,0,0:0:0:55:finish.wav
320,192,39239,1,0,0:0:0:45:whistle.wav
448,192,39318,1,0,0:0:0:45:whistle.wav
192,192,39397,1,0,0:0:0:45:whistle.wav
64,192,39476,1,0,0:0:0:45:whistle.wav
320,192,39555,1,0,0:0:0:45:whistle.wav
192,192,39634,1,0,0:0:0:45:whistle.wav
64,192,39713,1,0,0:0:0:45:whistle.wav
448,192,39792,1,0,0:0:0:45:whistle.wav
320,192,39871,1,0,0:0:0:45:whistle.wav
192,192,39950,1,0,0:0:0:45:whistle.wav
448,192,40029,1,0,0:0:0:45:whistle.wav
320,192,40108,1,0,0:0:0:45:whistle.wav
64,192,40187,1,0,0:0:0:45:whistle.wav
192,192,40266,1,0,0:0:0:45:whistle.wav
320,192,40344,1,0,0:0:0:45:whistle.wav
64,192,40423,1,0,0:0:0:45:whistle.wav
448,192,40423,128,0,40581:0:0:0:55:finish.wav
320,192,40581,128,0,40739:0:0:0:0:
64,192,40739,1,0,0:0:0:60:snare.wav
192,192,40739,128,0,40897:0:0:0:0:
448,192,40897,128,0,41055:0:0:0:0:
64,192,41055,1,0,0:0:0:45:whistle.wav
320,192,41055,1,0,0:0:0:0:
192,192,41213,1,0,0:0:0:45:whistle.wav
64,192,41371,1,0,0:0:0:60:snare.wav
320,192,41371,1,0,0:0:0:0:
448,192,41371,1,0,0:0:0:0:
64,192,41687,1,0,0:0:0:45:whistle.wav
192,192,41687,128,0,41844:0:0:0:55:finish.wav
448,192,41687,128,0,41844:0:0:0:0:
320,192,41844,128,0,42002:0:0:0:0:
64,192,42002,128,0,42160:0:0:0:60:snare.wav
192,192,42002,128,0,42160:0:0:0:0:
64,192,42318,128,0,42476:0:0:0:45:whistle.wav
192,192,42318,128,0,42476:0:0:0:0:
64,192,42634,128,0,42792:0:0:0:60:snare.wav
192,192,42634,128,0,42792:0:0:0:0:
64,192,42950,128,0,43108:0:0:0:45:whistle.wav
192,192,42950,128,0,43108:0:0:0:0:
64,192,43266,128,0,43423:0:0:0:60:snare.wav
192,192,43266,128,0,43423:0:0:0:0:
64,192,43581,128,0,43739:0:0:0:45:whistle.wav
192,192,43581,128,0,43739:0:0:0:0:
320,192,43739,128,0,43897:0:0:0:0:
64,192,43897,1,0,0:0:0:60:snare.wav
448,192,43897,128,0,44055:0:0:0:0:
320,192,44055,128,0,44213:0:0:0:0:
192,192,44213,128,0,44371:0:0:0:45:whistle.wav
448,192,44213,1,0,0:0:0:0:
64,192,44371,128,0,44529:0:0:0:0:
320,192,44529,128,0,44687:0:0:0:60:snare.wav
448,192,44529,128,0,44687:0:0:0:0:
320,192,44844,128,0,45002:0:0:0:45:whistle.wav
448,192,44844,128,0,45002:0:0:0:0:
320,192,45160,128,0,45318:0:0:0:60:snare.wav
448,192,45160,128,0,45318:0:0:0:0:
320,192,45476,128,0,45634:0:0:0:45:whistle.wav
448,192,45476,128,0,45634:0:0:0:0:
320,192,45792,128,0,45950:0:0:0:60:snare.wav
448,192,45792,128,0,45950:0:0:0:0:
320,192,46108,128,0,46266:0:0:0:45:whistle.wav
448,192,46108,128,0,46266:0:0:0:0:
192,192,46266,128,0,46423:0:0:0:0:
64,192,46423,128,0,46581:0:0:0:60:snare.wav
448,192,46423,1,0,0:0:0:0:
192,192,46581,128,0,46739:0:0:0:0:
64,192,46739,1,0,0:0:0:45:whistle.wav
320,192,46739,128,0,46897:0:0:0:55:finish.wav
192,192,46897,1,0,0:0:0:45:whistle.wav
448,192,46897,128,0,47055:0:0:0:0:
64,192,47055,128,0,47213:0:0:0:60:snare.wav
192,192,47055,128,0,47213:0:0:0:0:
64,192,47371,128,0,47529:0:0:0:45:whistle.wav
192,192,47371,128,0,47529:0:0:0:0:
64,192,47687,128,0,47844:0:0:0:60:snare.wav
192,192,47687,128,0,47844:0:0:0:0:
64,192,48002,128,0,48160:0:0:0:45:whistle.wav
192,192,48002,128,0,48160:0:0:0:0:
64,192,48318,128,0,48476:0:0:0:60:snare.wav
192,192,48318,128,0,48476:0:0:0:0:
64,192,48634,128,0,48792:0:0:0:45:whistle.wav
192,192,48634,128,0,48792:0:0:0:0:
320,192,48792,128,0,48950:0:0:0:0:
64,192,48950,1,0,0:0:0:60:snare.wav
448,192,48950,128,0,49108:0:0:0:0:
320,192,49108,128,0,49266:0:0:0:0:
192,192,49266,128,0,49423:0:0:0:45:whistle.wav
448,192,49266,1,0,0:0:0:0:
64,192,49423,128,0,49581:0:0:0:0:
320,192,49581,128,0,49739:0:0:0:60:snare.wav
448,192,49581,128,0,49739:0:0:0:0:
320,192,49897,128,0,50055:0:0:0:45:whistle.wav
448,192,49897,128,0,50055:0:0:0:0:
320,192,50213,128,0,50371:0:0:0:60:snare.wav
448,192,50213,128,0,50371:0:0:0:0:
320,192,50529,1,0,0:0:0:45:whistle.wav
448,192,50529,1,0,0:0:0:0:
192,192,50687,1,0,0:0:0:45:whistle.wav
320,192,50766,1,0,0:0:0:45:whistle.wav
64,192,50844,1,0,0:0:0:60:snare.wav
448,192,50844,1,0,0:0:0:0:
192,192,51002,1,0,0:0:0:45:whistle.wav
320,192,51160,1,0,0:0:0:45:whistle.wav
448,192,51160,1,0,0:0:0:0:
192,192,51239,1,0,0:0:0:45:whistle.wav
64,192,51318,1,0,0:0:0:0:
448,192,51476,1,0,0:0:0:0:
320,192,51555,1,0,0:0:0:0:
192,192,51634,1,0,0:0:0:0:
64,192,51713,1,0,0:0:0:0:
320,192,51792,1,0,0:0:0:45:whistle.wav
448,192,51792,1,0,0:0:0:0:
64,192,52108,128,0,52266:0:0:0:60:snare.wav
192,192,52108,128,0,52266:0:0:0:55:finish.wav
448,192,52108,1,0,0:0:0:0:
64,192,52423,128,0,52581:0:0:0:45:whistle.wav
192,192,52423,128,0,52581:0:0:0:0:
64,192,52739,128,0,52897:0:0:0:60:snare.wav
192,192,52739,128,0,52897:0:0:0:0:
64,192,53055,128,0,53213:0:0:0:45:whistle.wav
192,192,53055,128,0,53213:0:0:0:0:
64,192,53371,128,0,53529:0:0:0:60:snare.wav
192,192,53371,128,0,53529:0:0:0:0:
64,192,53687,128,0,53844:0:0:0:45:whistle.wav
192,192,53687,128,0,53844:0:0:0:0:
320,192,53844,128,0,54002:0:0:0:45:whistle.wav
448,192,53844,1,0,0:0:0:0:
64,192,54002,1,0,0:0:0:60:snare.wav
448,192,54002,128,0,54160:0:0:0:0:
192,192,54160,128,0,54318:0:0:0:0:
448,192,54318,1,0,0:0:0:45:whistle.wav
320,192,54397,1,0,0:0:0:45:whistle.wav
64,192,54476,1,0,0:0:0:45:whistle.wav
192,192,54555,1,0,0:0:0:45:whistle.wav
320,192,54634,128,0,54792:0:0:0:60:snare.wav
448,192,54634,128,0,54792:0:0:0:0:
320,192,54950,128,0,55108:0:0:0:0:
448,192,54950,128,0,55108:0:0:0:0:
320,192,55266,128,0,55423:0:0:0:60:snare.wav
448,192,55266,128,0,55423:0:0:0:0:
64,192,55581,1,0,0:0:0:45:whistle.wav
448,192,55581,1,0,0:0:0:55:finish.wav
64,192,55818,1,0,0:0:0:45:whistle.wav
320,192,55818,1,0,0:0:0:55:finish.wav
192,192,56055,1,0,0:0:0:45:whistle.wav
320,192,56055,1,0,0:0:0:55:finish.wav
192,192,56292,1,0,0:0:0:45:whistle.wav
448,192,56292,1,0,0:0:0:55:finish.wav
320,192,56450,1,0,0:0:0:45:whistle.wav
64,192,56529,1,0,0:0:0:60:snare.wav
448,192,56529,1,0,0:0:0:0:
192,192,56687,1,0,0:0:0:45:whistle.wav
320,192,56766,1,0,0:0:0:45:whistle.wav
64,192,56844,1,0,0:0:0:45:whistle.wav
448,192,56844,128,0,57002:0:0:0:55:finish.wav
320,192,57002,128,0,57160:0:0:0:0:
64,192,57160,128,0,57318:0:0:0:60:snare.wav
192,192,57160,128,0,57318:0:0:0:0:
64,192,57476,128,0,57634:0:0:0:0:
192,192,57476,128,0,57634:0:0:0:0:
64,192,57792,128,0,57950:0:0:0:60:snare.wav
192,192,57792,128,0,57950:0:0:0:0:
320,192,58108,128,0,58266:0:0:0:45:whistle.wav
448,192,58108,128,0,58266:0:0:0:55:finish.wav
320,192,58423,128,0,58581:0:0:0:60:snare.wav
448,192,58423,128,0,58581:0:0:0:0:
320,192,58739,128,0,58897:0:0:0:0:
448,192,58739,128,0,58897:0:0:0:0:
64,192,58897,1,0,0:0:0:45:whistle.wav
192,192,58897,128,0,59055:0:0:0:0:
320,192,59055,128,0,59213:0:0:0:60:snare.wav
448,192,59055,1,0,0:0:0:0:
64,192,59213,128,0,59371:0:0:0:0:
320,192,59371,1,0,0:0:0:45:whistle.wav
448,192,59371,1,0,0:0:0:0:
192,192,59450,1,0,0:0:0:45:whistle.wav
64,192,59529,1,0,0:0:0:45:whistle.wav
448,192,59608,1,0,0:0:0:45:whistle.wav
320,192,59687,1,0,0:0:0:45:whistle.wav
192,192,59766,1,0,0:0:0:45:whistle.wav
448,192,59844,1,0,0:0:0:45:whistle.wav
320,192,59923,1,0,0:0:0:45:whistle.wav
64,192,60002,1,0,0:0:0:45:whistle.wav
192,192,60081,1,0,0:0:0:45:whistle.wav
320,192,60160,1,0,0:0:0:45:whistle.wav
64,192,60239,1,0,0:0:0:45:whistle.wav
192,192,60318,1,0,0:0:0:45:whistle.wav
448,192,60397,1,0,0:0:0:45:whistle.wav
320,192,60476,1,0,0:0:0:45:whistle.wav
192,192,60555,1,0,0:0:0:45:whistle.wav
64,192,60634,128,0,60950:0:0:0:45:whistle.wav
448,192,60634,1,0,0:0:0:0:
320,192,60950,128,0,61266:0:0:0:0:
192,192,61266,128,0,61581:0:0:0:0:
320,192,61581,1,0,0:0:0:60:snare.wav
448,192,61581,1,0,0:0:0:0:
64,192,61897,128,0,62371:0:0:0:45:whistle.wav
320,192,61897,128,0,62371:0:0:0:55:finish.wav
448,192,61897,128,0,62371:0:0:0:0:
192,192,62371,1,0,0:0:0:45:whistle.wav
320,192,62529,1,0,0:0:0:60:snare.wav
448,192,62529,1,0,0:0:0:0:
320,192,62687,1,0,0:0:0:0:
320,192,62844,1,0,0:0:0:0:
320,192,63002,1,0,0:0:0:0:
64,192,63160,128,0,63476:0:0:0:45:whistle.wav
448,192,63160,1,0,0:0:0:0:
192,192,63476,128,0,63634:0:0:0:0:
64,192,63634,1,0,0:0:0:45:whistle.wav
448,192,63634,128,0,63792:0:0:0:0:
192,192,63792,1,0,0:0:0:60:snare.wav
320,192,63792,128,0,63950:0:0:0:0:
64,192,63950,128,0,64266:0:0:0:0:
448,192,64108,128,0,64423:0:0:0:0:
192,192,64266,128,0,64423:0:0:0:0:
64,192,64423,128,0,64739:0:0:0:45:whistle.wav
320,192,64423,1,0,0:0:0:0:
448,192,64739,1,0,0:0:0:0:
320,192,64818,1,0,0:0:0:0:
192,192,64897,1,0,0:0:0:45:whistle.wav
64,192,64976,1,0,0:0:0:0:
320,192,65055,1,0,0:0:0:60:snare.wav
448,192,65055,1,0,0:0:0:0:
448,192,65213,1,0,0:0:0:0:
64,192,65371,1,0,0:0:0:0:
192,192,65450,1,0,0:0:0:0:
320,192,65529,1,0,0:0:0:45:whistle.wav
448,192,65608,1,0,0:0:0:45:whistle.wav
64,192,65687,1,0,0:0:0:45:whistle.wav
192,192,65687,1,0,0:0:0:0:
64,192,65844,1,0,0:0:0:0:
64,192,66002,1,0,0:0:0:0:
64,192,66160,1,0,0:0:0:45:whistle.wav
192,192,66318,1,0,0:0:0:60:snare.wav
448,192,66318,1,0,0:0:0:0:
320,192,66476,1,0,0:0:0:0:
64,192,66634,1,0,0:0:0:0:
192,192,66634,1,0,0:0:0:0:
320,192,66792,1,0,0:0:0:0:
64,192,66950,128,0,67266:0:0:0:45:whistle.wav
192,192,66950,1,0,0:0:0:55:finish.wav
448,192,66950,1,0,0:0:0:0:
320,192,67266,1,0,0:0:0:45:whistle.wav
448,192,67266,128,0,67581:0:0:0:0:
192,192,67581,1,0,0:0:0:60:snare.wav
320,192,67581,1,0,0:0:0:0:
320,192,67739,1,0,0:0:0:0:
320,192,67897,1,0,0:0:0:0:
320,192,68055,1,0,0:0:0:0:
64,192,68213,128,0,68529:0:0:0:45:whistle.wav
192,192,68213,1,0,0:0:0:0:
448,192,68529,1,0,0:0:0:0:
320,192,68608,1,0,0:0:0:0:
192,192,68687,1,0,0:0:0:45:whistle.wav
64,192,68766,1,0,0:0:0:0:
320,192,68844,1,0,0:0:0:60:snare.wav
448,192,68844,128,0,69160:0:0:0:0:
64,192,69160,1,0,0:0:0:0:
192,192,69239,1,0,0:0:0:0:
320,192,69318,1,0,0:0:0:0:
448,192,69397,1,0,0:0:0:0:
64,192,69476,1,0,0:0:0:45:whistle.wav
192,192,69476,1,0,0:0:0:0:
320,192,69555,1,0,0:0:0:0:
448,192,69634,1,0,0:0:0:0:
64,192,69713,1,0,0:0:0:0:
320,192,69792,1,0,0:0:0:0:
192,192,69871,1,0,0:0:0:0:
64,192,69950,1,0,0:0:0:45:whistle.wav
448,192,70029,1,0,0:0:0:0:
320,192,70108,1,0,0:0:0:60:snare.wav
64,192,70187,1,0,0:0:0:0:
192,192,70266,1,0,0:0:0:0:
320,192,70344,1,0,0:0:0:0:
448,192,70423,1,0,0:0:0:0:
320,192,70502,1,0,0:0:0:0:
192,192,70581,1,0,0:0:0:45:whistle.wav
64,192,70660,1,0,0:0:0:45:whistle.wav
320,192,70739,1,0,0:0:0:45:whistle.wav
448,192,70739,128,0,71055:0:0:0:55:finish.wav
64,192,71055,128,0,71687:0:0:0:0:
192,192,71055,128,0,71687:0:0:0:0:
320,192,71687,1,0,0:0:0:60:snare.wav
448,192,71687,1,0,0:0:0:0:
64,192,72002,1,0,0:0:0:55:finish.wav
320,192,72002,1,0,0:0:0:55:hat.wav
448,192,72002,1,0,0:0:0:0:
320,192,72160,1,0,0:0:0:0:
448,192,72318,1,0,0:0:0:55:hat.wav
448,192,72476,1,0,0:0:0:0:
192,192,72634,1,0,0:0:0:55:hat.wav
192,192,72792,1,0,0:0:0:0:
320,192,72950,1,0,0:0:0:55:hat.wav
320,192,73108,1,0,0:0:0:0:
64,192,73266,1,0,0:0:0:55:hat.wav
64,192,73423,1,0,0:0:0:0:
192,192,73581,1,0,0:0:0:55:hat.wav
192,192,73739,1,0,0:0:0:0:
448,192,73897,1,0,0:0:0:55:hat.wav
448,192,74055,1,0,0:0:0:0:
320,192,74213,1,0,0:0:0:55:hat.wav
320,192,74371,1,0,0:0:0:0:
192,192,74529,1,0,0:0:0:55:hat.wav
192,192,74687,1,0,0:0:0:0:
64,192,74844,1,0,0:0:0:55:hat.wav
64,192,75002,1,0,0:0:0:0:
320,192,75160,1,0,0:0:0:55:hat.wav
320,192,75318,1,0,0:0:0:0:
192,192,75476,1,0,0:0:0:55:hat.wav
192,192,75634,1,0,0:0:0:0:
64,192,75792,1,0,0:0:0:55:hat.wav
448,192,75871,1,0,0:0:0:0:
320,192,75950,1,0,0:0:0:0:
192,192,76029,1,0,0:0:0:0:
64,192,76108,1,0,0:0:0:55:hat.wav
448,192,76187,1,0,0:0:0:0:
192,192,76266,1,0,0:0:0:0:
320,192,76344,1,0,0:0:0:0:
448,192,76423,1,0,0:0:0:55:hat.wav
64,192,76502,1,0,0:0:0:0:
192,192,76581,1,0,0:0:0:0:
320,192,76660,1,0,0:0:0:0:
448,192,76739,1,0,0:0:0:55:hat.wav
64,192,76818,1,0,0:0:0:0:
320,192,76897,1,0,0:0:0:0:
192,192,76976,1,0,0:0:0:0:
448,192,77055,1,0,0:0:0:55:hat.wav
448,192,77213,1,0,0:0:0:0:
192,192,77371,1,0,0:0:0:55:clap.wav
320,192,77371,1,0,0:0:0:55:hat.wav
320,192,77529,1,0,0:0:0:0:
64,192,77687,1,0,0:0:0:55:hat.wav
64,192,77844,1,0,0:0:0:0:
320,192,78002,1,0,0:0:0:55:clap.wav
448,192,78002,1,0,0:0:0:55:hat.wav
448,192,78160,1,0,0:0:0:0:
320,192,78318,1,0,0:0:0:55:hat.wav
320,192,78476,1,0,0:0:0:0:
64,192,78634,1,0,0:0:0:55:clap.wav
192,192,78634,1,0,0:0:0:55:hat.wav
192,192,78792,1,0,0:0:0:0:
448,192,78950,1,0,0:0:0:55:hat.wav
448,192,79108,1,0,0:0:0:0:
192,192,79266,1,0,0:0:0:55:clap.wav
320,192,79266,1,0,0:0:0:55:hat.wav
192,192,79423,1,0,0:0:0:0:
64,192,79581,1,0,0:0:0:55:hat.wav
64,192,79739,1,0,0:0:0:0:
448,192,79897,1,0,0:0:0:55:clap.wav
320,192,79897,1,0,0:0:0:55:hat.wav
320,192,80055,1,0,0:0:0:0:
192,192,80213,1,0,0:0:0:55:hat.wav
192,192,80371,1,0,0:0:0:0:
320,192,80529,1,0,0:0:0:55:clap.wav
448,192,80529,1,0,0:0:0:55:hat.wav
64,192,80687,1,0,0:0:0:0:
64,192,80844,1,0,0:0:0:55:hat.wav
192,192,81002,1,0,0:0:0:0:
320,192,81160,128,0,81318:0:0:0:55:clap.wav
448,192,81160,128,0,81634:0:0:0:55:hat.wav
192,192,81318,128,0,81476:0:0:0:0:
64,192,81476,128,0,81634:0:0:0:55:hat.wav
320,192,81634,128,0,81792:0:0:0:0:
64,192,81792,128,0,81950:0:0:0:60:snare.wav
448,192,81792,128,0,81950:0:0:0:0:
192,192,81950,128,0,82108:0:0:0:0:
320,192,82108,128,0,82423:0:0:0:45:whistle.wav
448,192,82108,128,0,82423:0:0:0:55:finish.wav
64,192,82581,128,0,82818:0:0:0:45:whistle.wav
192,192,82581,128,0,82818:0:0:0:55:finish.wav
320,192,82897,128,0,83134:0:0:0:45:whistle.wav
448,192,82897,128,0,83134:0:0:0:55:finish.wav
64,192,83213,128,0,83687:0:0:0:45:whistle.wav
192,192,83213,128,0,83687:0:0:0:55:finish.wav
448,192,83687,1,0,0:0:0:0:
320,192,83766,1,0,0:0:0:0:
192,192,83844,1,0,0:0:0:0:
64,192,83923,1,0,0:0:0:0:
320,192,84002,1,0,0:0:0:60:snare.wav
448,192,84002,1,0,0:0:0:0:
64,192,84318,1,0,0:0:0:0:
192,192,84397,1,0,0:0:0:0:
320,192,84476,1,0,0:0:0:0:
448,192,84555,1,0,0:0:0:0:
64,192,84634,128,0,84950:0:0:0:45:whistle.wav
192,192,84634,128,0,84792:0:0:0:55:finish.wav
320,192,84792,128,0,84950:0:0:0:0:
448,192,84950,128,0,85108:0:0:0:0:
64,192,85108,128,0,85344:0:0:0:45:whistle.wav
192,192,85108,128,0,85344:0:0:0:55:finish.wav
320,192,85423,128,0,85660:0:0:0:45:whistle.wav
448,192,85423,128,0,85660:0:0:0:55:finish.wav
64,192,85739,128,0,85897:0:0:0:45:whistle.wav
192,192,85739,128,0,85897:0:0:0:55:finish.wav
448,192,85897,1,0,0:0:0:0:
320,192,85976,1,0,0:0:0:0:
64,192,86055,1,0,0:0:0:0:
192,192,86134,1,0,0:0:0:0:
320,192,86213,1,0,0:0:0:0:
64,192,86292,1,0,0:0:0:0:
448,192,86371,1,0,0:0:0:0:
320,192,86450,1,0,0:0:0:0:
192,192,86529,1,0,0:0:0:60:snare.wav
64,192,86608,1,0,0:0:0:0:
448,192,86687,1,0,0:0:0:0:
192,192,86766,1,0,0:0:0:0:
320,192,86844,1,0,0:0:0:0:
448,192,86923,1,0,0:0:0:0:
64,192,87002,1,0,0:0:0:0:
192,192,87081,1,0,0:0:0:0:
320,192,87160,128,0,87318:0:0:0:45:whistle.wav
448,192,87160,128,0,87476:0:0:0:55:finish.wav
64,192,87318,128,0,87476:0:0:0:0:
192,192,87476,128,0,87634:0:0:0:0:
448,192,87634,128,0,87792:0:0:0:55:finish.wav
320,192,87634,1,0,0:0:0:45:whistle.wav
192,192,87792,1,0,0:0:0:0:
64,192,87950,128,0,88108:0:0:0:45:whistle.wav
320,192,87950,1,0,0:0:0:55:finish.wav
448,192,88108,1,0,0:0:0:0:
320,192,88187,1,0,0:0:0:0:
64,192,88266,1,0,0:0:0:45:whistle.wav
192,192,88266,1,0,0:0:0:55:finish.wav
320,192,88344,1,0,0:0:0:0:
448,192,88423,128,0,88739:0:0:0:0:
320,192,88581,128,0,88739:0:0:0:0:
64,192,88739,128,0,89371:0:0:0:0:
192,192,88897,128,0,89371:0:0:0:0:
320,192,89055,1,0,0:0:0:60:snare.wav
448,192,89055,1,0,0:0:0:0:
448,192,89371,1,0,0:0:0:0:
320,192,89450,1,0,0:0:0:0:
192,192,89529,1,0,0:0:0:0:
64,192,89608,1,0,0:0:0:0:
320,192,89687,1,0,0:0:0:45:whistle.wav
448,192,89687,128,0,89844:0:0:0:55:finish.wav
192,192,89844,128,0,90002:0:0:0:0:
320,192,90002,128,0,90160:0:0:0:0:
64,192,90160,128,0,90476:0:0:0:45:whistle.wav
448,192,90160,1,0,0:0:0:55:finish.wav
192,192,90318,128,0,90476:0:0:0:0:
320,192,90476,1,0,0:0:0:45:whistle.wav
448,192,90476,128,0,90792:0:0:0:55:finish.wav
64,192,90634,128,0,90792:0:0:0:0:
192,192,90792,128,0,91108:0:0:0:45:whistle.wav
320,192,90792,1,0,0:0:0:55:finish.wav
448,192,90950,128,0,91108:0:0:0:0:
320,192,91108,128,0,91266:0:0:0:0:
64,192,91266,128,0,91423:0:0:0:0:
192,192,91423,128,0,91581:0:0:0:0:
320,192,91581,128,0,91739:0:0:0:0:
448,192,91739,128,0,91897:0:0:0:0:
192,192,91897,128,0,92055:0:0:0:60:snare.wav
320,192,91897,1,0,0:0:0:0:
64,192,92055,128,0,92213:0:0:0:0:
320,192,92213,128,0,92371:0:0:0:45:whistle.wav
448,192,92213,128,0,92371:0:0:0:55:finish.wav
192,192,92213,1,0,0:0:0:0:
320,192,92529,128,0,92687:0:0:0:60:snare.wav
448,192,92529,128,0,92687:0:0:0:0:
320,192,92844,128,0,93002:0:0:0:45:whistle.wav
448,192,92844,128,0,93002:0:0:0:0:
320,192,93160,128,0,93318:0:0:0:60:snare.wav
448,192,93160,128,0,93318:0:0:0:0:
320,192,93476,128,0,93634:0:0:0:45:whistle.wav
448,192,93476,128,0,93634:0:0:0:0:
320,192,93792,128,0,93950:0:0:0:60:snare.wav
448,192,93792,128,0,93950:0:0:0:0:
64,192,94108,1,0,0:0:0:45:whistle.wav
192,192,94108,1,0,0:0:0:0:
192,192,94266,1,0,0:0:0:0:
64,192,94423,1,0,0:0:0:60:snare.wav
448,192,94423,128,0,94581:0:0:0:0:
320,192,94581,128,0,94739:0:0:0:0:
64,192,94739,128,0,94897:0:0:0:45:whistle.wav
192,192,94739,128,0,94897:0:0:0:0:
64,192,95055,128,0,95213:0:0:0:60:snare.wav
192,192,95055,128,0,95213:0:0:0:0:
320,192,95371,1,0,0:0:0:45:whistle.wav
448,192,95371,1,0,0:0:0:0:
192,192,95450,1,0,0:0:0:0:
64,192,95529,1,0,0:0:0:0:
320,192,95608,1,0,0:0:0:0:
448,192,95687,1,0,0:0:0:0:
192,192,95687,1,0,0:0:0:60:snare.wav
64,192,95766,1,0,0:0:0:0:
320,192,95844,1,0,0:0:0:0:
192,192,95923,1,0,0:0:0:0:
64,192,96002,128,0,96160:0:0:0:45:whistle.wav
448,192,96002,128,0,96160:0:0:0:0:
64,192,96318,1,0,0:0:0:60:snare.wav
448,192,96318,1,0,0:0:0:0:
192,192,96397,1,0,0:0:0:45:whistle.wav
320,192,96476,1,0,0:0:0:45:whistle.wav
448,192,96555,1,0,0:0:0:45:whistle.wav
64,192,96634,1,0,0:0:0:45:whistle.wav
192,192,96634,1,0,0:0:0:0:
320,192,96792,1,0,0:0:0:45:whistle.wav
192,192,96871,1,0,0:0:0:45:whistle.wav
64,192,96950,1,0,0:0:0:60:snare.wav
448,192,96950,1,0,0:0:0:0:
192,192,97108,1,0,0:0:0:45:whistle.wav
320,192,97187,1,0,0:0:0:45:whistle.wav
64,192,97266,1,0,0:0:0:45:whistle.wav
448,192,97266,1,0,0:0:0:0:
64,192,97423,1,0,0:0:0:0:
192,192,97581,1,0,0:0:0:60:snare.wav
320,192,97581,1,0,0:0:0:0:
448,192,97581,1,0,0:0:0:0:
192,192,97739,1,0,0:0:0:0:
320,192,97897,1,0,0:0:0:45:whistle.wav
448,192,97897,1,0,0:0:0:0:
320,192,98055,1,0,0:0:0:0:
64,192,98213,1,0,0:0:0:60:snare.wav
192,192,98213,1,0,0:0:0:0:
448,192,98213,1,0,0:0:0:0:
192,192,98371,1,0,0:0:0:0:
64,192,98529,1,0,0:0:0:45:whistle.wav
320,192,98529,1,0,0:0:0:0:
192,192,98687,1,0,0:0:0:45:whistle.wav
320,192,98687,1,0,0:0:0:0:
64,192,98844,1,0,0:0:0:60:snare.wav
448,192,98844,1,0,0:0:0:0:
192,192,99002,1,0,0:0:0:45:whistle.wav
320,192,99002,1,0,0:0:0:0:
192,192,99160,1,0,0:0:0:45:whistle.wav
448,192,99160,1,0,0:0:0:0:
64,192,99318,1,0,0:0:0:45:whistle.wav
320,192,99318,1,0,0:0:0:0:
320,192,99476,1,0,0:0:0:60:snare.wav
448,192,99476,1,0,0:0:0:0:
64,192,99634,1,0,0:0:0:45:whistle.wav
192,192,99634,1,0,0:0:0:0:
320,192,99792,1,0,0:0:0:45:whistle.wav
448,192,99792,1,0,0:0:0:0:
192,192,99871,1,0,0:0:0:45:whistle.wav
64,192,99950,1,0,0:0:0:45:whistle.wav
448,192,100029,1,0,0:0:0:45:whistle.wav
320,192,100108,1,0,0:0:0:45:whistle.wav
192,192,100187,1,0,0:0:0:45:whistle.wav
448,192,100266,1,0,0:0:0:45:whistle.wav
320,192,100344,1,0,0:0:0:45:whistle.wav
64,192,100423,1,0,0:0:0:45:whistle.wav
192,192,100502,1,0,0:0:0:45:whistle.wav
320,192,100581,1,0,0:0:0:45:whistle.wav
64,192,100660,1,0,0:0:0:45:whistle.wav
192,192,100739,1,0,0:0:0:45:whistle.wav
448,192,100818,1,0,0:0:0:45:whistle.wav
320,192,100897,1,0,0:0:0:45:whistle.wav
192,192,100976,1,0,0:0:0:45:whistle.wav
64,192,101055,128,0,101371:0:0:0:45:whistle.wav
448,192,101055,1,0,0:0:0:60:finish.wav
192,192,101213,128,0,101371:0:0:0:0:
448,192,101371,128,0,101687:0:0:0:0:
320,192,101529,128,0,101687:0:0:0:0:
64,192,101687,128,0,102002:0:0:0:0:
192,192,101844,128,0,102002:0:0:0:0:
448,192,102002,1,0,0:0:0:0:
320,192,102081,1,0,0:0:0:0:
64,192,102160,1,0,0:0:0:0:
192,192,102239,1,0,0:0:0:0:
320,192,102318,1,0,0:0:0:45:whistle.wav
448,192,102318,1,0,0:0:0:60:finish.wav
320,192,102476,1,0,0:0:0:0:
64,192,102634,1,0,0:0:0:60:snare.wav
192,192,102634,1,0,0:0:0:0:
448,192,102634,1,0,0:0:0:0:
192,192,102792,1,0,0:0:0:0:
320,192,102950,1,0,0:0:0:45:whistle.wav
448,192,102950,1,0,0:0:0:0:
320,192,103108,1,0,0:0:0:0:
64,192,103266,1,0,0:0:0:60:snare.wav
192,192,103266,1,0,0:0:0:0:
448,192,103266,1,0,0:0:0:0:
192,192,103423,128,0,103739:0:0:0:0:
64,192,103581,1,0,0:0:0:45:whistle.wav
448,192,103581,1,0,0:0:0:0:
320,192,103739,128,0,103897:0:0:0:0:
64,192,103897,128,0,104055:0:0:0:60:snare.wav
192,192,103897,1,0,0:0:0:0:
448,192,103897,1,0,0:0:0:0:
320,192,104055,128,0,104371:0:0:0:0:
64,192,104213,1,0,0:0:0:45:whistle.wav
192,192,104213,1,0,0:0:0:0:
448,192,104371,1,0,0:0:0:0:
64,192,104529,1,0,0:0:0:60:snare.wav
192,192,104529,1,0,0:0:0:0:
320,192,104529,1,0,0:0:0:0:
448,192,104687,1,0,0:0:0:0:
320,192,104766,1,0,0:0:0:0:
64,192,104844,1,0,0:0:0:45:whistle.wav
192,192,104844,1,0,0:0:0:0:
192,192,105002,1,0,0:0:0:0:
64,192,105160,1,0,0:0:0:60:snare.wav
320,192,105160,1,0,0:0:0:0:
448,192,105160,1,0,0:0:0:0:
320,192,105318,1,0,0:0:0:0:
64,192,105476,1,0,0:0:0:45:whistle.wav
192,192,105476,1,0,0:0:0:0:
192,192,105634,1,0,0:0:0:0:
64,192,105792,1,0,0:0:0:60:snare.wav
320,192,105792,1,0,0:0:0:0:
448,192,105792,1,0,0:0:0:0:
320,192,105950,128,0,106108:0:0:0:0:
64,192,106108,1,0,0:0:0:45:whistle.wav
192,192,106187,1,0,0:0:0:0:
320,192,106266,1,0,0:0:0:0:
448,192,106344,1,0,0:0:0:0:
192,192,106423,1,0,0:0:0:0:
64,192,106423,1,0,0:0:0:60:snare.wav
320,192,106502,1,0,0:0:0:0:
192,192,106581,1,0,0:0:0:0:
64,192,106660,1,0,0:0:0:0:
448,192,106739,1,0,0:0:0:45:whistle.wav
192,192,106818,1,0,0:0:0:0:
320,192,106897,1,0,0:0:0:0:
448,192,106976,1,0,0:0:0:0:
64,192,107055,1,0,0:0:0:0:
192,192,107134,1,0,0:0:0:0:
320,192,107213,1,0,0:0:0:0:
448,192,107292,1,0,0:0:0:0:
64,192,107371,1,0,0:0:0:45:whistle.wav
192,192,107371,1,0,0:0:0:60:finish.wav
192,192,107529,1,0,0:0:0:0:
64,192,107687,1,0,0:0:0:60:snare.wav
320,192,107687,1,0,0:0:0:0:
448,192,107687,1,0,0:0:0:0:
320,192,107844,1,0,0:0:0:0:
64,192,108002,1,0,0:0:0:45:whistle.wav
192,192,108002,1,0,0:0:0:0:
192,192,108160,1,0,0:0:0:0:
64,192,108318,1,0,0:0:0:60:snare.wav
320,192,108318,1,0,0:0:0:0:
448,192,108318,1,0,0:0:0:0:
320,192,108476,128,0,108792:0:0:0:0:
64,192,108634,1,0,0:0:0:45:whistle.wav
448,192,108634,1,0,0:0:0:0:
192,192,108792,128,0,108950:0:0:0:0:
64,192,108950,1,0,0:0:0:60:snare.wav
320,192,108950,1,0,0:0:0:0:
448,192,108950,128,0,109108:0:0:0:0:
192,192,109108,128,0,109423:0:0:0:0:
320,192,109266,1,0,0:0:0:45:whistle.wav
448,192,109266,1,0,0:0:0:0:
64,192,109423,1,0,0:0:0:0:
192,192,109581,1,0,0:0:0:60:snare.wav
320,192,109581,1,0,0:0:0:0:
448,192,109581,1,0,0:0:0:0:
64,192,109739,1,0,0:0:0:0:
320,192,109897,128,0,110055:0:0:0:45:whistle.wav
448,192,109897,128,0,110213:0:0:0:60:finish.wav
192,192,110055,128,0,110213:0:0:0:0:
64,192,110213,128,0,110371:0:0:0:60:snare.wav
320,192,110213,128,0,110529:0:0:0:0:
448,192,110371,128,0,110529:0:0:0:0:
64,192,110529,128,0,110844:0:0:0:45:whistle.wav
192,192,110529,128,0,110687:0:0:0:0:
320,192,110687,128,0,110844:0:0:0:0:
192,192,110844,128,0,111160:0:0:0:60:snare.wav
448,192,110844,128,0,111002:0:0:0:0:
64,192,111002,128,0,111160:0:0:0:0:
320,192,111160,128,0,111318:0:0:0:45:whistle.wav
448,192,111160,128,0,111476:0:0:0:0:
192,192,111318,128,0,111476:0:0:0:0:
64,192,111476,128,0,111634:0:0:0:60:snare.wav
320,192,111476,128,0,111792:0:0:0:0:
448,192,111634,128,0,111792:0:0:0:0:
64,192,111792,1,0,0:0:0:45:whistle.wav
192,192,111792,1,0,0:0:0:0:
448,192,112108,1,0,0:0:0:0:
320,192,112187,1,0,0:0:0:0:
192,192,112266,1,0,0:0:0:0:
64,192,112344,1,0,0:0:0:0:
320,192,112423,1,0,0:0:0:45:whistle.wav
448,192,112423,1,0,0:0:0:60:finish.wav
320,192,112581,1,0,0:0:0:0:
64,192,112739,1,0,0:0:0:60:snare.wav
192,192,112739,1,0,0:0:0:0:
448,192,112739,1,0,0:0:0:0:
192,192,112897,1,0,0:0:0:0:
64,192,113055,1,0,0:0:0:45:whistle.wav
320,192,113055,1,0,0:0:0:0:
320,192,113213,1,0,0:0:0:0:
64,192,113371,1,0,0:0:0:60:snare.wav
192,192,113371,1,0,0:0:0:0:
448,192,113371,1,0,0:0:0:0:
192,192,113529,128,0,113844:0:0:0:0:
64,192,113687,1,0,0:0:0:45:whistle.wav
448,192,113687,1,0,0:0:0:0:
320,192,113844,128,0,114002:0:0:0:0:
64,192,114002,128,0,114160:0:0:0:60:snare.wav
192,192,114002,1,0,0:0:0:0:
448,192,114002,1,0,0:0:0:0:
320,192,114160,128,0,114476:0:0:0:0:
64,192,114318,1,0,0:0:0:45:whistle.wav
192,192,114318,1,0,0:0:0:0:
448,192,114476,1,0,0:0:0:0:
64,192,114634,1,0,0:0:0:60:snare.wav
192,192,114634,1,0,0:0:0:0:
448,192,114634,1,0,0:0:0:0:
320,192,114792,1,0,0:0:0:0:
448,192,114871,1,0,0:0:0:0:
64,192,114950,1,0,0:0:0:45:whistle.wav
192,192,114950,1,0,0:0:0:0:
192,192,115108,1,0,0:0:0:0:
64,192,115266,1,0,0:0:0:60:snare.wav
320,192,115266,1,0,0:0:0:0:
448,192,115266,1,0,0:0:0:0:
320,192,115423,1,0,0:0:0:0:
64,192,115581,1,0,0:0:0:45:whistle.wav
192,192,115581,1,0,0:0:0:0:
64,192,115739,1,0,0:0:0:0:
192,192,115897,1,0,0:0:0:60:snare.wav
320,192,115897,1,0,0:0:0:0:
448,192,115897,1,0,0:0:0:0:
192,192,116055,128,0,116213:0:0:0:0:
448,192,116213,1,0,0:0:0:45:whistle.wav
320,192,116292,1,0,0:0:0:0:
192,192,116371,1,0,0:0:0:0:
64,192,116450,1,0,0:0:0:0:
320,192,116529,1,0,0:0:0:0:
448,192,116529,1,0,0:0:0:60:snare.wav
192,192,116608,1,0,0:0:0:0:
320,192,116687,1,0,0:0:0:0:
448,192,116766,1,0,0:0:0:0:
64,192,116844,1,0,0:0:0:45:whistle.wav
320,192,116923,1,0,0:0:0:0:
192,192,117002,1,0,0:0:0:0:
64,192,117081,1,0,0:0:0:0:
448,192,117160,1,0,0:0:0:0:
320,192,117239,1,0,0:0:0:0:
192,192,117318,1,0,0:0:0:0:
64,192,117397,1,0,0:0:0:0:
320,192,117476,1,0,0:0:0:45:whistle.wav
448,192,117476,1,0,0:0:0:60:finish.wav
320,192,117634,1,0,0:0:0:0:
64,192,117792,1,0,0:0:0:60:snare.wav
192,192,117792,1,0,0:0:0:0:
448,192,117792,1,0,0:0:0:0:
192,192,117950,1,0,0:0:0:0:
320,192,118108,1,0,0:0:0:45:whistle.wav
448,192,118108,1,0,0:0:0:0:
192,192,118266,1,0,0:0:0:45:whistle.wav
320,192,118344,1,0,0:0:0:0:
64,192,118423,1,0,0:0:0:60:snare.wav
448,192,118423,1,0,0:0:0:0:
192,192,118581,1,0,0:0:0:0:
64,192,118739,1,0,0:0:0:45:whistle.wav
448,192,118739,1,0,0:0:0:0:
192,192,118818,1,0,0:0:0:45:whistle.wav
320,192,118897,1,0,0:0:0:45:whistle.wav
192,192,118976,1,0,0:0:0:45:whistle.wav
64,192,119055,1,0,0:0:0:60:snare.wav
448,192,119055,1,0,0:0:0:0:
320,192,119213,1,0,0:0:0:0:
192,192,119292,1,0,0:0:0:45:whistle.wav
448,192,119292,1,0,0:0:0:0:
64,192,119371,1,0,0:0:0:0:
192,192,119529,1,0,0:0:0:45:whistle.wav
64,192,119608,1,0,0:0:0:0:
320,192,119687,1,0,0:0:0:60:snare.wav
448,192,119687,1,0,0:0:0:0:
64,192,119844,1,0,0:0:0:45:whistle.wav
320,192,119844,1,0,0:0:0:0:
64,192,120002,1,0,0:0:0:45:whistle.wav
192,192,120002,1,0,0:0:0:60:finish.wav
320,192,120081,1,0,0:0:0:0:
448,192,120160,1,0,0:0:0:0:
192,192,120239,1,0,0:0:0:45:whistle.wav
64,192,120318,1,0,0:0:0:0:
320,192,120397,1,0,0:0:0:0:
192,192,120476,1,0,0:0:0:45:whistle.wav
64,192,120555,1,0,0:0:0:0:
448,192,120634,1,0,0:0:0:0:
320,192,120713,1,0,0:0:0:45:whistle.wav
192,192,120792,1,0,0:0:0:0:
448,192,120871,1,0,0:0:0:45:whistle.wav
64,192,120950,1,0,0:0:0:60:snare.wav
320,192,120950,1,0,0:0:0:0:
192,192,121108,1,0,0:0:0:45:whistle.wav
320,192,121187,1,0,0:0:0:45:whistle.wav
64,192,121266,1,0,0:0:0:60:snare.wav
448,192,121266,1,0,0:0:0:0:
64,192,121581,1,0,0:0:0:0:
192,192,121581,1,0,0:0:0:0:
448,192,121739,1,0,0:0:0:0:
320,192,121818,1,0,0:0:0:0:
64,192,121897,1,0,0:0:0:0:
192,192,121976,1,0,0:0:0:0:
320,192,122055,1,0,0:0:0:0:
64,192,122213,1,0,0:0:0:60:snare.wav
448,192,122213,1,0,0:0:0:0:
64,192,122529,1,0,0:0:0:45:whistle.wav
320,192,122529,1,0,0:0:0:60:finish.wav
448,192,122529,1,0,0:0:0:0:
320,192,122687,1,0,0:0:0:0:
64,192,122844,1,0,0:0:0:60:snare.wav
192,192,122844,1,0,0:0:0:0:
448,192,122844,1,0,0:0:0:0:
448,192,123002,128,0,123476:0:0:0:0:
64,192,123160,1,0,0:0:0:45:whistle.wav
192,192,123160,1,0,0:0:0:0:
192,192,123318,1,0,0:0:0:0:
64,192,123476,1,0,0:0:0:60:snare.wav
320,192,123476,1,0,0:0:0:0:
320,192,123634,1,0,0:0:0:0:
192,192,123792,1,0,0:0:0:45:whistle.wav
448,192,123792,1,0,0:0:0:0:
192,192,123950,1,0,0:0:0:0:
64,192,124108,1,0,0:0:0:60:snare.wav
320,192,124108,1,0,0:0:0:0:
448,192,124108,1,0,0:0:0:0:
64,192,124266,128,0,124739:0:0:0:0:
320,192,124423,1,0,0:0:0:45:whistle.wav
448,192,124423,1,0,0:0:0:0:
320,192,124581,1,0,0:0:0:0:
192,192,124739,1,0,0:0:0:60:snare.wav
448,192,124739,1,0,0:0:0:0:
192,192,124897,1,0,0:0:0:0:
448,192,125055,1,0,0:0:0:45:whistle.wav
320,192,125134,1,0,0:0:0:0:
192,192,125213,1,0,0:0:0:0:
64,192,125292,1,0,0:0:0:0:
320,192,125371,1,0,0:0:0:60:snare.wav
448,192,125371,1,0,0:0:0:0:
192,192,125450,1,0,0:0:0:0:
64,192,125529,1,0,0:0:0:0:
320,192,125608,1,0,0:0:0:0:
192,192,125687,1,0,0:0:0:45:whistle.wav
448,192,125766,1,0,0:0:0:0:
320,192,125844,1,0,0:0:0:0:
64,192,125923,1,0,0:0:0:0:
192,192,126002,1,0,0:0:0:60:snare.wav
448,192,126002,1,0,0:0:0:0:
320,192,126081,1,0,0:0:0:0:
64,192,126160,1,0,0:0:0:0:
192,192,126239,1,0,0:0:0:0:
448,192,126318,1,0,0:0:0:45:whistle.wav
320,192,126397,1,0,0:0:0:0:
192,192,126476,1,0,0:0:0:0:
64,192,126555,1,0,0:0:0:0:
320,192,126634,1,0,0:0:0:60:snare.wav
448,192,126634,1,0,0:0:0:0:
192,192,126713,1,0,0:0:0:0:
64,192,126792,1,0,0:0:0:0:
320,192,126871,1,0,0:0:0:0:
192,192,126950,1,0,0:0:0:45:whistle.wav
448,192,127029,1,0,0:0:0:0:
64,192,127108,1,0,0:0:0:0:
192,192,127187,1,0,0:0:0:0:
320,192,127266,1,0,0:0:0:0:
448,192,127266,128,0,127581:0:0:0:0:
64,192,127581,1,0,0:0:0:45:whistle.wav
192,192,127581,1,0,0:0:0:60:finish.wav
320,192,127581,1,0,0:0:0:0:
192,192,127739,1,0,0:0:0:0:
64,192,127897,1,0,0:0:0:60:snare.wav
320,192,127897,1,0,0:0:0:0:
448,192,127897,1,0,0:0:0:0:
64,192,128055,128,0,128529:0:0:0:0:
320,192,128213,1,0,0:0:0:45:whistle.wav
448,192,128213,1,0,0:0:0:0:
320,192,128371,1,0,0:0:0:0:
192,192,128529,1,0,0:0:0:60:snare.wav
448,192,128529,1,0,0:0:0:0:
192,192,128687,1,0,0:0:0:0:
64,192,128844,1,0,0:0:0:45:whistle.wav
320,192,128844,1,0,0:0:0:0:
320,192,129002,1,0,0:0:0:0:
64,192,129160,1,0,0:0:0:60:snare.wav
192,192,129160,1,0,0:0:0:0:
448,192,129160,1,0,0:0:0:0:
448,192,129318,128,0,129792:0:0:0:0:
64,192,129476,1,0,0:0:0:45:whistle.wav
192,192,129476,1,0,0:0:0:0:
192,192,129634,1,0,0:0:0:0:
64,192,129792,1,0,0:0:0:60:snare.wav
320,192,129792,1,0,0:0:0:0:
320,192,129950,1,0,0:0:0:0:
64,192,130108,128,0,130266:0:0:0:45:whistle.wav
192,192,130108,1,0,0:0:0:60:finish.wav
448,192,130108,1,0,0:0:0:0:
192,192,130266,128,0,130423:0:0:0:0:
320,192,130423,128,0,130581:0:0:0:0:
448,192,130423,128,0,130739:0:0:0:0:
192,192,130581,128,0,130739:0:0:0:45:whistle.wav
64,192,130739,1,0,0:0:0:60:snare.wav
320,192,130739,128,0,130897:0:0:0:0:
448,192,130897,128,0,131055:0:0:0:0:
64,192,131055,128,0,131371:0:0:0:0:
192,192,131055,128,0,131213:0:0:0:0:
320,192,131213,128,0,131371:0:0:0:45:whistle.wav
448,192,131371,128,0,131529:0:0:0:45:whistle.wav
320,192,131529,128,0,131687:0:0:0:0:
192,192,131687,128,0,131844:0:0:0:0:
448,192,131687,128,0,132002:0:0:0:0:
64,192,131844,128,0,132002:0:0:0:45:whistle.wav
192,192,132002,1,0,0:0:0:60:snare.wav
320,192,132002,1,0,0:0:0:0:
448,192,132318,1,0,0:0:0:0:
320,192,132397,1,0,0:0:0:0:
192,192,132476,1,0,0:0:0:0:
64,192,132555,1,0,0:0:0:0:
320,192,132634,1,0,0:0:0:45:whistle.wav
448,192,132634,1,0,0:0:0:60:finish.wav
320,192,132792,1,0,0:0:0:0:
64,192,132950,1,0,0:0:0:60:snare.wav
192,192,132950,1,0,0:0:0:0:
448,192,132950,1,0,0:0:0:0:
448,192,133108,128,0,133581:0:0:0:0:
64,192,133266,1,0,0:0:0:45:whistle.wav
192,192,133266,1,0,0:0:0:0:
192,192,133423,1,0,0:0:0:0:
64,192,133581,1,0,0:0:0:60:snare.wav
320,192,133581,1,0,0:0:0:0:
192,192,133660,1,0,0:0:0:0:
448,192,133739,1,0,0:0:0:0:
320,192,133818,1,0,0:0:0:0:
64,192,133897,1,0,0:0:0:45:whistle.wav
192,192,133897,1,0,0:0:0:0:
192,192,134055,1,0,0:0:0:0:
64,192,134213,1,0,0:0:0:60:snare.wav
320,192,134213,1,0,0:0:0:0:
448,192,134213,1,0,0:0:0:0:
64,192,134371,128,0,134844:0:0:0:0:
320,192,134529,1,0,0:0:0:45:whistle.wav
448,192,134529,1,0,0:0:0:0:
320,192,134687,1,0,0:0:0:0:
192,192,134844,1,0,0:0:0:60:snare.wav
448,192,134844,1,0,0:0:0:0:
192,192,135002,1,0,0:0:0:0:
320,192,135081,1,0,0:0:0:0:
64,192,135160,1,0,0:0:0:45:whistle.wav
448,192,135160,1,0,0:0:0:60:finish.wav
192,192,135318,1,0,0:0:0:0:
64,192,135476,1,0,0:0:0:60:snare.wav
320,192,135476,1,0,0:0:0:0:
448,192,135476,1,0,0:0:0:60:finish.wav
64,192,135634,1,0,0:0:0:45:whistle.wav
192,192,135634,1,0,0:0:0:60:finish.wav
320,192,135871,1,0,0:0:0:45:whistle.wav
448,192,135871,1,0,0:0:0:60:finish.wav
64,192,136108,1,0,0:0:0:60:snare.wav
192,192,136108,1,0,0:0:0:0:
448,192,136108,1,0,0:0:0:60:finish.wav
320,192,136266,1,0,0:0:0:45:whistle.wav
448,192,136266,1,0,0:0:0:60:finish.wav
64,192,136423,1,0,0:0:0:45:whistle.wav
192,192,136423,1,0,0:0:0:60:finish.wav
320,192,136502,1,0,0:0:0:0:
448,192,136581,1,0,0:0:0:0:
64,192,136660,1,0,0:0:0:45:whistle.wav
320,192,136739,1,0,0:0:0:0:
192,192,136818,1,0,0:0:0:0:
64,192,136897,1,0,0:0:0:45:whistle.wav
448,192,136897,1,0,0:0:0:60:finish.wav
320,192,136976,1,0,0:0:0:0:
192,192,137055,1,0,0:0:0:0:
64,192,137134,1,0,0:0:0:0:
448,192,137213,1,0,0:0:0:45:whistle.wav
192,192,137292,1,0,0:0:0:45:whistle.wav
64,192,137371,1,0,0:0:0:60:snare.wav
448,192,137450,1,0,0:0:0:0:
192,192,137529,1,0,0:0:0:0:
320,192,137608,1,0,0:0:0:0:
64,192,137687,1,0,0:0:0:45:whistle.wav
192,192,137687,1,0,0:0:0:60:finish.wav
448,192,137687,1,0,0:0:0:0:
320,192,137844,1,0,0:0:0:45:whistle.wav
64,192,138002,1,0,0:0:0:60:snare.wav
192,192,138002,1,0,0:0:0:0:
448,192,138002,1,0,0:0:0:0:
448,192,138160,128,0,138634:0:0:0:0:
64,192,138318,1,0,0:0:0:45:whistle.wav
192,192,138318,1,0,0:0:0:0:
192,192,138476,1,0,0:0:0:45:whistle.wav
64,192,138634,1,0,0:0:0:60:snare.wav
320,192,138634,1,0,0:0:0:0:
320,192,138792,1,0,0:0:0:0:
448,192,138871,1,0,0:0:0:0:
64,192,138950,128,0,139108:0:0:0:45:whistle.wav
192,192,138950,1,0,0:0:0:0:
320,192,139108,128,0,139266:0:0:0:45:whistle.wav
192,192,139266,128,0,139423:0:0:0:60:snare.wav
448,192,139266,128,0,139581:0:0:0:0:
64,192,139423,128,0,139581:0:0:0:0:
192,192,139581,128,0,139739:0:0:0:45:whistle.wav
320,192,139581,1,0,0:0:0:0:
320,192,139739,128,0,139897:0:0:0:45:whistle.wav
64,192,139897,128,0,140213:0:0:0:60:snare.wav
448,192,139897,128,0,140055:0:0:0:0:
192,192,140055,128,0,140213:0:0:0:0:
320,192,140213,1,0,0:0:0:45:whistle.wav
448,192,140213,1,0,0:0:0:0:
192,192,140292,1,0,0:0:0:45:whistle.wav
64,192,140371,1,0,0:0:0:45:whistle.wav
320,192,140450,1,0,0:0:0:45:whistle.wav
192,192,140529,1,0,0:0:0:45:whistle.wav
448,192,140529,1,0,0:0:0:0:
64,192,140608,1,0,0:0:0:45:whistle.wav
320,192,140687,1,0,0:0:0:45:whistle.wav
448,192,140766,1,0,0:0:0:45:whistle.wav
64,192,140844,1,0,0:0:0:45:whistle.wav
192,192,140923,1,0,0:0:0:45:whistle.wav
448,192,141002,1,0,0:0:0:45:whistle.wav
320,192,141081,1,0,0:0:0:45:whistle.wav
64,192,141160,1,0,0:0:0:45:whistle.wav
192,192,141160,1,0,0:0:0:0:
448,192,141239,1,0,0:0:0:45:whistle.wav
320,192,141318,1,0,0:0:0:45:whistle.wav
192,192,141397,1,0,0:0:0:45:whistle.wav
448,192,141476,1,0,0:0:0:45:whistle.wav
64,192,141476,128,0,141792:0:0:0:0:
192,192,141634,128,0,141792:0:0:0:0:
448,192,141792,128,0,142108:0:0:0:0:
320,192,141950,128,0,142108:0:0:0:0:
64,192,142108,1,0,0:0:0:45:whistle.wav
192,192,142108,1,0,0:0:0:0:
64,192,142423,1,0,0:0:0:60:snare.wav
320,192,142423,1,0,0:0:0:0:
448,192,142423,1,0,0:0:0:0:
64,192,142739,128,0,143055:0:0:0:45:whistle.wav
192,192,142739,128,0,143055:0:0:0:60:finish.wav
448,192,142739,1,0,0:0:0:0:
320,192,143055,1,0,0:0:0:60:snare.wav
448,192,143055,1,0,0:0:0:0:
320,192,143213,1,0,0:0:0:0:
64,192,143371,1,0,0:0:0:45:whistle.wav
192,192,143371,1,0,0:0:0:0:
192,192,143529,1,0,0:0:0:0:
64,192,143687,1,0,0:0:0:60:snare.wav
320,192,143687,1,0,0:0:0:0:
448,192,143687,1,0,0:0:0:0:
320,192,143844,1,0,0:0:0:0:
64,192,144002,1,0,0:0:0:45:whistle.wav
448,192,144002,1,0,0:0:0:0:
320,192,144081,1,0,0:0:0:0:
192,192,144160,1,0,0:0:0:0:
64,192,144239,1,0,0:0:0:0:
320,192,144318,1,0,0:0:0:60:snare.wav
448,192,144318,1,0,0:0:0:0:
192,192,144397,1,0,0:0:0:0:
64,192,144476,1,0,0:0:0:0:
448,192,144555,1,0,0:0:0:0:
192,192,144634,1,0,0:0:0:45:whistle.wav
320,192,144713,1,0,0:0:0:0:
448,192,144792,1,0,0:0:0:0:
64,192,144871,1,0,0:0:0:0:
192,192,144950,1,0,0:0:0:60:snare.wav
320,192,144950,1,0,0:0:0:0:
448,192,145029,1,0,0:0:0:0:
320,192,145108,1,0,0:0:0:0:
192,192,145187,1,0,0:0:0:0:
64,192,145266,128,0,145581:0:0:0:45:whistle.wav
448,192,145266,1,0,0:0:0:0:
320,192,145423,1,0,0:0:0:0:
192,192,145581,1,0,0:0:0:60:snare.wav
448,192,145581,1,0,0:0:0:0:
64,192,145660,1,0,0:0:0:0:
320,192,145739,1,0,0:0:0:0:
192,192,145818,1,0,0:0:0:0:
64,192,145897,1,0,0:0:0:45:whistle.wav
448,192,145897,128,0,146213:0:0:0:0:
192,192,146055,1,0,0:0:0:0:
64,192,146213,1,0,0:0:0:60:snare.wav
320,192,146213,1,0,0:0:0:0:
448,192,146292,1,0,0:0:0:0:
192,192,146371,1,0,0:0:0:0:
320,192,146450,1,0,0:0:0:0:
64,192,146529,1,0,0:0:0:45:whistle.wav
448,192,146529,128,0,146687:0:0:0:0:
64,192,146687,128,0,146844:0:0:0:0:
192,192,146844,128,0,147002:0:0:0:60:snare.wav
448,192,146844,128,0,147160:0:0:0:0:
320,192,147002,128,0,147160:0:0:0:0:
64,192,147160,128,0,147318:0:0:0:45:whistle.wav
192,192,147160,1,0,0:0:0:0:
320,192,147318,1,0,0:0:0:45:whistle.wav
448,192,147318,128,0,147476:0:0:0:0:
64,192,147476,128,0,147792:0:0:0:60:snare.wav
192,192,147476,128,0,147634:0:0:0:0:
320,192,147634,128,0,147792:0:0:0:0:
192,192,147792,1,0,0:0:0:45:whistle.wav
448,192,147792,1,0,0:0:0:60:finish.wav
192,192,147950,1,0,0:0:0:0:
64,192,148108,1,0,0:0:0:60:snare.wav
320,192,148108,128,0,148266:0:0:0:0:
448,192,148108,1,0,0:0:0:0:
64,192,148266,128,0,148423:0:0:0:0:
192,192,148423,1,0,0:0:0:45:whistle.wav
448,192,148423,1,0,0:0:0:0:
320,192,148581,1,0,0:0:0:45:whistle.wav
448,192,148581,128,0,148739:0:0:0:0:
64,192,148739,1,0,0:0:0:60:snare.wav
192,192,148739,128,0,148897:0:0:0:0:
320,192,148897,128,0,149055:0:0:0:0:
64,192,149055,1,0,0:0:0:45:whistle.wav
448,192,149055,1,0,0:0:0:0:
192,192,149134,1,0,0:0:0:45:whistle.wav
320,192,149213,1,0,0:0:0:45:whistle.wav
448,192,149292,1,0,0:0:0:45:whistle.wav
64,192,149371,1,0,0:0:0:60:snare.wav
192,192,149371,1,0,0:0:0:0:
320,192,149529,1,0,0:0:0:0:
192,192,149608,1,0,0:0:0:45:whistle.wav
448,192,149687,1,0,0:0:0:0:
64,192,149687,1,0,0:0:0:45:whistle.wav
64,192,149844,1,0,0:0:0:45:whistle.wav
192,192,149844,1,0,0:0:0:0:
320,192,150002,1,0,0:0:0:60:snare.wav
448,192,150002,1,0,0:0:0:0:
64,192,150160,1,0,0:0:0:45:whistle.wav
448,192,150160,1,0,0:0:0:0:
64,192,150318,1,0,0:0:0:45:whistle.wav
192,192,150318,1,0,0:0:0:0:
320,192,150397,1,0,0:0:0:45:whistle.wav
448,192,150476,1,0,0:0:0:45:whistle.wav
192,192,150555,1,0,0:0:0:45:whistle.wav
64,192,150634,1,0,0:0:0:45:whistle.wav
320,192,150634,1,0,0:0:0:0:
448,192,150713,1,0,0:0:0:45:whistle.wav
192,192,150792,1,0,0:0:0:45:whistle.wav
64,192,150871,1,0,0:0:0:45:whistle.wav
320,192,150950,1,0,0:0:0:45:whistle.wav
448,192,150950,1,0,0:0:0:0:
192,192,151029,1,0,0:0:0:45:whistle.wav
64,192,151108,1,0,0:0:0:45:whistle.wav
448,192,151187,1,0,0:0:0:45:whistle.wav
192,192,151266,1,0,0:0:0:45:whistle.wav
320,192,151266,1,0,0:0:0:0:
64,192,151344,1,0,0:0:0:45:whistle.wav
448,192,151423,1,0,0:0:0:45:whistle.wav
320,192,151502,1,0,0:0:0:45:whistle.wav
64,192,151581,1,0,0:0:0:45:whistle.wav
192,192,151581,1,0,0:0:0:0:
320,192,151739,1,0,0:0:0:0:
64,192,151897,1,0,0:0:0:60:snare.wav
192,192,151897,1,0,0:0:0:0:
448,192,151897,1,0,0:0:0:0:
192,192,152055,1,0,0:0:0:45:whistle.wav
320,192,152134,1,0,0:0:0:45:whistle.wav
64,192,152213,1,0,0:0:0:45:whistle.wav
448,192,152213,1,0,0:0:0:0:
192,192,152371,1,0,0:0:0:45:whistle.wav
64,192,152529,1,0,0:0:0:60:snare.wav
320,192,152529,1,0,0:0:0:0:
448,192,152529,1,0,0:0:0:0:
64,192,152844,1,0,0:0:0:45:whistle.wav
192,192,152844,1,0,0:0:0:60:finish.wav
448,192,152844,1,0,0:0:0:0:
