osu file format v14

[General]
AudioFilename: USAO - Chrono Diver -PENDULUMs- (USAO remix).mp3
AudioLeadIn: 0
PreviewTime: 231156
Countdown: 1
SampleSet: Soft
StackLeniency: 0.3
Mode: 0
LetterboxInBreaks: 0
WidescreenStoryboard: 1

[Editor]
Bookmarks: 2243,12674,23112,43982,64851,96156,127460,158764,200503,231808,273547,294416
DistanceSpacing: 0.3
BeatDivisor: 4
GridSize: 16
TimelineZoom: 1.3

[Metadata]
Title:Chrono Diver -PENDULUMs- (USAO remix)
TitleUnicode:Chrono Diver -PENDULUMs- (USAO remix)
Artist:USAO
ArtistUnicode:USAO
Creator:byfar
Version:l ol 121
Source:
Tags:amamiya yuko
BeatmapID:904532
BeatmapSetID:417750

[Difficulty]
HPDrainRate:6
CircleSize:4.2
OverallDifficulty:8.2
ApproachRate:9.6
SliderMultiplier:1.76
SliderTickRate:2

[Events]
//Background and Video events
0,0,"gh.jpg",0,0
//Break Periods
2,33910,43473
//Storyboard Layer 0 (Background)
//Storyboard Layer 1 (Fail)
//Storyboard Layer 2 (Pass)
//Storyboard Layer 3 (Foreground)
//Storyboard Sound Samples

[TimingPoints]
2243,326.086956521739,4,2,3,30,1,0
2243,-125,4,2,3,30,0,0
3628,-125,4,2,3,35,0,0
4933,-125,4,2,3,40,0,0
12677,-200,4,2,2,60,0,0
14308,-125,4,2,2,60,0,0
15612,-100,4,2,2,60,0,0
16753,-100,4,3,2,60,0,0
16835,-100,4,2,2,60,0,0
17569,-83.3333333333333,4,2,2,60,0,0
18058,-100,4,2,2,60,0,0
19199,-83.3333333333333,4,2,2,60,0,0
19525,-100,4,2,2,60,0,0
20503,-83.3333333333333,4,2,2,60,0,0
20829,-100,4,2,2,60,0,0
21971,-100,4,3,2,60,0,0
22052,-100,4,2,2,60,0,0
22623,-83.3333333333333,4,2,2,60,0,0
23112,-90.9090909090909,4,2,2,60,0,0
23764,-100,4,2,2,60,0,0
29308,-83.3333333333333,4,2,2,60,0,0
31916,-66.6666666666667,4,2,2,60,0,0
32242,-76.9230769230769,4,2,2,60,0,0
32895,-50,4,2,2,60,0,0
33221,-76.9230769230769,4,2,2,70,0,0
33547,-50,4,2,2,80,0,0
33628,-50,4,2,2,5,0,0
43982,-200,4,2,0,30,0,0
50422,-200,4,2,0,5,0,0
50503,-200,4,2,0,30,0,0
58329,-300,4,2,0,30,0,0
59145,-200,4,2,0,30,0,0
62242,-200,4,2,0,50,0,0
63547,-166.666666666667,4,2,0,30,0,0
63873,-142.857142857143,4,2,0,30,0,0
64199,-125,4,2,0,30,0,0
64525,-111.111111111111,4,2,0,30,0,0
64851,-142.857142857143,4,2,0,30,0,0
65340,-300,4,2,0,30,0,0
66156,-142.857142857143,4,2,0,30,0,0
66482,-300,4,2,0,35,0,0
67460,-125,4,2,0,40,0,0
67949,-300,4,2,0,40,0,0
68764,-125,4,2,0,45,0,0
69253,-200,4,2,0,45,0,0
70069,-300,4,2,0,50,0,0
71373,-125,4,2,2,35,0,0
72025,-125,4,2,2,40,0,0
72596,-125,4,2,2,45,0,0
73248,-125,4,2,2,50,0,0
73982,-125,4,2,2,55,0,0
74308,-117.647058823529,4,2,2,55,0,0
74634,-111.111111111111,4,2,2,60,0,0
74960,-105.263157894737,4,2,2,60,0,0
75286,-200,4,2,2,70,0,0
79199,-100,4,2,2,70,0,0
80503,-200,4,2,2,70,0,0
83112,-100,4,2,2,70,0,0
84416,-100,4,2,2,70,0,0
85150,-100,4,2,1,60,0,0
95503,-66.6666666666667,4,2,0,20,0,0
95585,-66.6666666666667,4,2,0,5,0,0
95666,-80,4,2,0,30,0,0
95748,-80,4,2,0,5,0,0
95829,-100,4,2,0,40,0,0
95911,-100,4,2,0,5,0,0
95992,-133.333333333333,4,2,0,50,0,0
96074,-133.333333333333,4,2,0,5,0,0
96156,-66.6666666666667,4,1,1,60,0,1
96808,-76.9230769230769,4,1,1,60,0,0
97786,-66.6666666666667,4,1,1,60,0,0
98112,-50,4,1,1,60,0,0
98438,-76.9230769230769,4,1,1,60,0,0
99416,-66.6666666666667,4,1,1,60,0,0
100558,-50,4,1,1,60,0,0
100721,-83.3333333333333,4,1,1,60,0,0
101373,-66.6666666666667,4,1,1,60,0,1
102025,-76.9230769230769,4,1,1,60,0,0
103003,-71.4285714285714,4,1,1,60,0,0
103329,-50,4,1,1,60,0,0
103656,-71.4285714285714,4,1,1,60,0,0
103819,-76.9230769230769,4,1,1,60,0,0
103982,-66.6666666666667,4,1,1,60,0,1
104634,-76.9230769230769,4,1,1,60,0,0
105123,-66.6666666666667,4,1,1,60,0,0
105286,-100,4,1,1,60,0,0
105938,-100,4,1,1,20,0,0
106020,-100,4,1,1,20,0,0
106101,-100,4,1,1,30,0,0
106183,-80,4,1,1,5,0,0
106264,-80,4,1,1,50,0,0
106346,-80,4,1,1,5,0,0
106427,-66.6666666666667,4,1,1,50,0,0
106509,-66.6666666666667,4,1,1,5,0,0
106590,-58.8235294117647,4,1,1,60,0,1
106916,-66.6666666666667,4,1,1,60,0,1
107242,-76.9230769230769,4,1,1,60,0,0
108221,-58.8235294117647,4,1,1,60,0,0
108547,-50,4,1,1,60,0,0
108873,-66.6666666666667,4,1,1,60,0,0
109851,-76.9230769230769,4,1,1,60,0,0
110992,-55.5555555555556,4,1,1,60,0,0
111156,-50,4,1,1,60,0,0
111482,-100,4,1,1,60,0,0
111808,-66.6666666666667,4,1,1,60,0,1
112460,-58.8235294117647,4,1,1,60,0,0
112949,-100,4,1,1,60,0,0
113438,-66.6666666666667,4,1,1,60,0,0
113764,-50,4,1,1,60,0,0
114090,-76.9230769230769,4,1,1,60,0,0
114253,-55.5555555555556,4,1,1,60,0,0
114742,-100,4,1,1,60,0,1
115069,-76.9230769230769,4,1,1,60,0,0
116373,-66.6666666666667,4,1,0,20,0,0
116454,-66.6666666666667,4,1,0,5,0,0
116536,-80,4,1,0,30,0,0
116617,-80,4,1,0,5,0,0
116699,-100,4,1,0,40,0,0
116781,-100,4,1,0,5,0,0
116862,-133.333333333333,4,1,0,50,0,0
116944,-133.333333333333,4,1,0,5,0,0
117025,-50,4,1,1,60,0,1
117677,-76.9230769230769,4,1,1,60,0,0
118574,-71.4285714285714,4,1,1,60,0,0
118656,-58.8235294117647,4,1,1,60,0,0
118981,-50,4,1,1,60,0,0
119308,-76.9230769230769,4,1,1,60,0,0
119633,-58.8235294117647,4,1,1,60,0,1
120286,-76.9230769230769,4,1,1,60,0,0
121427,-55.5555555555556,4,1,1,60,0,0
121590,-50,4,1,1,60,0,0
121916,-83.3333333333333,4,1,1,60,0,0
122242,-50,4,1,1,60,0,1
122895,-50,4,1,1,60,0,0
123384,-100,4,1,1,60,0,0
123873,-66.6666666666667,4,1,1,60,0,0
124199,-50,4,1,1,60,0,0
124525,-76.9230769230769,4,1,1,60,0,0
124688,-50,4,1,1,60,0,0
124851,-66.6666666666667,4,1,1,60,0,1
125177,-100,4,1,1,60,0,1
125503,-76.9230769230769,4,1,1,60,0,0
126237,-66.6666666666667,4,1,1,60,0,0
126808,-76.9230769230769,4,1,1,60,0,0
126971,-90.9090909090909,4,1,1,60,0,0
127134,-111.111111111111,4,1,1,60,0,0
127460,-90.9090909090909,4,1,1,60,0,1
128112,-76.9230769230769,4,1,1,60,0,0
129090,-66.6666666666667,4,1,1,60,0,0
129742,-76.9230769230769,4,1,1,60,0,0
130069,-90.9090909090909,4,1,1,60,0,1
130721,-90.9090909090909,4,1,1,60,0,0
130965,-76.9230769230769,4,1,1,60,0,0
132677,-90.9090909090909,4,1,1,60,0,1
133329,-76.9230769230769,4,1,1,60,0,0
134878,-90.9090909090909,4,1,1,60,0,0
135286,-58.8235294117647,4,1,1,60,0,1
135938,-66.6666666666667,4,1,1,60,0,0
136590,-90.9090909090909,4,1,1,60,0,0
136753,-90.9090909090909,4,1,1,30,0,0
136916,-142.857142857143,4,1,1,40,0,0
137079,-90.9090909090909,4,1,1,50,0,0
137242,-111.111111111111,4,1,1,60,0,0
137569,-90.9090909090909,4,1,1,60,0,0
137895,-90.9090909090909,4,1,1,60,0,1
147433,-76.9230769230769,4,1,1,60,0,1
148329,-50,4,1,1,60,0,0
158764,-133.333333333333,4,1,2,60,0,0
159253,-133.333333333333,4,1,2,5,0,0
159416,-133.333333333333,4,1,2,60,0,0
159906,-133.333333333333,4,1,2,5,0,0
160069,-133.333333333333,4,1,2,60,0,0
160558,-133.333333333333,4,1,2,5,0,0
160721,-133.333333333333,4,1,2,60,0,0
161862,-133.333333333333,4,1,2,5,0,0
162025,-133.333333333333,4,1,2,60,0,0
162514,-133.333333333333,4,1,2,5,0,0
162677,-133.333333333333,4,1,2,60,0,0
163166,-133.333333333333,4,1,2,5,0,0
163329,-133.333333333333,4,1,2,60,0,0
164145,-133.333333333333,4,1,2,5,0,0
164308,-133.333333333333,4,1,2,60,0,0
164797,-133.333333333333,4,1,2,5,0,0
164960,-133.333333333333,4,1,2,60,0,0
165449,-133.333333333333,4,1,2,5,0,0
165612,-133.333333333333,4,1,2,60,0,0
166101,-133.333333333333,4,1,2,5,0,0
166264,-133.333333333333,4,1,2,60,0,0
166753,-133.333333333333,4,1,2,5,0,0
166916,-133.333333333333,4,1,2,60,0,0
167406,-133.333333333333,4,1,2,5,0,0
167569,-133.333333333333,4,1,2,60,0,0
168058,-133.333333333333,4,1,2,5,0,0
168221,-133.333333333333,4,1,2,60,0,0
168547,-66.6666666666667,4,1,2,60,0,0
168628,-66.6666666666667,4,1,2,5,0,0
168710,-66.6666666666667,4,1,2,60,0,0
169199,-300,4,1,2,60,0,0
169444,-300,4,1,2,5,0,0
169525,-66.6666666666667,4,1,2,60,0,0
169607,-66.6666666666667,4,1,2,5,0,0
169851,-300,4,1,2,60,0,0
170014,-100,4,1,2,5,0,0
170177,-50,4,1,2,60,0,0
170259,-50,4,1,2,5,0,0
170503,-300,4,1,2,60,0,0
170748,-50,4,1,2,5,0,0
170829,-50,4,1,2,60,0,0
170911,-50,4,1,2,5,0,0
171156,-300,4,1,2,60,0,0
171319,-50,4,1,2,5,0,0
171482,-50,4,1,2,60,0,0
171808,-200,4,1,2,60,0,0
172052,-50,4,1,2,5,0,0
172134,-50,4,1,2,60,0,0
172215,-50,4,1,2,5,0,0
172460,-200,4,1,2,60,0,0
172704,-50,4,1,2,5,0,0
172786,-50,4,1,2,60,0,0
172867,-50,4,1,2,5,0,0
173112,-66.6666666666667,4,1,2,60,0,0
173764,-50,4,1,2,60,0,0
174416,-300,4,1,2,60,0,0
174661,-50,4,1,2,5,0,0
174742,-50,4,1,2,60,0,0
174824,-50,4,1,2,5,0,0
175069,-100,4,1,2,60,0,0
175232,-50,4,1,2,5,0,0
175395,-50,4,1,2,60,0,0
175476,-50,4,1,2,5,0,0
175721,-100,4,1,2,60,0,0
175965,-50,4,1,2,5,0,0
176047,-50,4,1,2,60,0,0
176128,-50,4,1,2,5,0,0
176373,-100,4,1,2,60,0,0
176699,-50,4,1,2,60,0,0
176781,-50,4,1,2,5,0,0
176862,-50,4,1,2,60,0,0
177025,-100,4,1,2,60,0,0
177677,-50,4,1,2,60,0,0
178003,-100,4,1,2,60,0,0
179634,-66.6666666666667,4,1,1,60,0,0
180449,-100,4,1,1,60,0,0
180612,-133.333333333333,4,1,1,60,0,0
180775,-200,4,1,1,60,0,0
180938,-66.6666666666667,4,1,1,60,0,0
180938,-80,4,1,1,60,0,0
181101,-100,4,1,1,60,0,0
181264,-133.333333333333,4,1,1,60,0,0
181427,-200,4,1,1,60,0,0
181590,-66.6666666666667,4,1,1,60,0,0
181753,-100,4,1,1,60,0,0
181916,-133.333333333333,4,1,1,60,0,0
182079,-200,4,1,1,60,0,0
182242,-66.6666666666667,4,1,1,60,0,0
182895,-100,4,1,1,60,0,0
183547,-80,4,1,1,60,0,0
184199,-66.6666666666667,4,1,1,60,0,0
185503,-100,4,1,1,60,0,0
186156,-80,4,1,1,60,0,0
186808,-66.6666666666667,4,1,1,60,0,0
188275,-100,4,1,1,60,0,0
188764,-80,4,1,1,60,0,0
189416,-66.6666666666667,4,1,1,60,0,0
190721,-100,4,1,1,60,0,0
191373,-80,4,1,1,60,0,0
192025,-66.6666666666667,4,1,1,60,0,0
193329,-100,4,1,1,60,0,0
193982,-80,4,1,1,60,0,0
194634,-66.6666666666667,4,1,1,60,0,0
195938,-100,4,1,1,60,0,0
197895,-66.6666666666667,4,1,1,60,0,0
199851,-200,4,1,1,60,0,0
200666,-200,4,2,1,10,0,0
201808,-181.818181818182,4,2,1,15,0,0
203112,-166.666666666667,4,2,1,20,0,0
204416,-153.846153846154,4,2,1,25,0,0
205721,-142.857142857143,4,2,2,30,0,0
207025,-133.333333333333,4,2,2,35,0,0
208329,-125,4,2,2,40,0,0
209634,-117.647058823529,4,2,2,45,0,0
210938,-100,4,2,2,60,0,0
214851,-50,4,2,2,60,0,0
216156,-100,4,2,2,60,0,0
218764,-50,4,2,2,60,0,0
220395,-100,4,2,2,60,0,0
220802,-100,4,2,1,60,0,0
231808,-58.8235294117647,4,1,1,60,0,1
232134,-66.6666666666667,4,1,1,60,0,1
232460,-66.6666666666667,4,1,1,60,0,1
233275,-66.6666666666667,4,1,1,60,0,1
233438,-58.8235294117647,4,1,1,60,0,1
233764,-100,4,1,1,60,0,1
234090,-58.8235294117647,4,1,1,60,0,1
234416,-50,4,1,1,60,0,1
234742,-66.6666666666667,4,1,1,60,0,1
235069,-66.6666666666667,4,1,1,60,0,1
236210,-55.5555555555556,4,1,1,60,0,1
236373,-76.9230769230769,4,1,1,60,0,1
237025,-50,4,1,1,60,0,1
237351,-66.6666666666667,4,1,1,60,0,1
238656,-58.8235294117647,4,1,1,60,0,1
238982,-100,4,1,1,60,0,1
239308,-58.8235294117647,4,1,1,60,0,1
239634,-50,4,1,1,60,0,1
239960,-66.6666666666667,4,1,1,60,0,1
240938,-100,4,1,1,60,0,0
242242,-50,4,1,1,60,0,1
242569,-66.6666666666667,4,1,1,60,0,1
243873,-58.8235294117647,4,1,1,60,0,1
244199,-100,4,1,1,60,0,1
244525,-58.8235294117647,4,1,1,60,0,1
244851,-58.8235294117647,4,1,1,60,0,1
245177,-66.6666666666667,4,1,1,60,0,1
246889,-76.9230769230769,4,1,1,60,0,1
247460,-58.8235294117647,4,1,1,60,0,1
247786,-83.3333333333333,4,1,1,60,0,1
248112,-58.8235294117647,4,1,1,60,0,1
248357,-83.3333333333333,4,1,1,60,0,1
248927,-66.6666666666667,4,1,1,60,0,1
249090,-58.8235294117647,4,1,1,60,0,1
249416,-100,4,1,1,60,0,1
249742,-58.8235294117647,4,1,1,60,0,1
250069,-50,4,1,1,60,0,1
250395,-66.6666666666667,4,1,1,60,0,1
251373,-200,4,2,0,30,0,0
251699,-133.333333333333,4,2,0,40,0,0
252025,-100,4,2,0,50,0,0
252188,-80,4,2,0,60,0,0
252351,-66.6666666666667,4,2,0,60,0,0
252514,-57.1428571428571,4,2,0,60,0,0
252677,-50,4,1,1,70,0,1
253003,-66.6666666666667,4,1,1,70,0,1
254308,-58.8235294117647,4,1,1,70,0,1
254634,-100,4,1,1,70,0,1
254960,-66.6666666666667,4,1,1,70,0,1
255286,-58.8235294117647,4,1,1,70,0,1
255612,-66.6666666666667,4,1,1,70,0,1
257324,-76.9230769230769,4,1,1,70,0,1
257895,-58.8235294117647,4,1,1,70,0,1
258221,-83.3333333333333,4,1,1,70,0,1
258547,-58.8235294117647,4,1,1,70,0,1
258791,-83.3333333333333,4,1,1,70,0,1
259362,-76.9230769230769,4,1,1,70,0,1
259525,-66.6666666666667,4,1,1,70,0,1
259851,-100,4,1,1,70,0,1
260014,-76.9230769230769,4,1,1,70,0,1
260177,-66.6666666666667,4,1,1,70,0,1
260503,-58.8235294117647,4,1,1,70,0,1
260829,-66.6666666666667,4,1,1,70,0,1
262786,-76.9230769230769,4,1,1,70,0,0
263112,-83.3333333333333,4,1,1,70,0,0
267514,-66.6666666666667,4,1,1,70,0,0
268329,-83.3333333333333,4,1,1,70,0,0
272242,-166.666666666667,4,2,0,20,0,0
272406,-83.3333333333333,4,2,0,30,0,0
272569,-125,4,2,0,40,0,0
272732,-83.3333333333333,4,2,0,50,0,0
272895,-100,4,2,0,60,0,0
273547,-66.6666666666667,4,1,1,70,0,1
277867,-66.6666666666667,4,1,1,70,0,1
288302,-66.6666666666667,4,1,1,70,0,1
293112,-100,4,1,1,70,0,1
294416,-66.6666666666667,4,1,1,70,0,0

[Colours]
Combo1 : 39,216,192
Combo2 : 226,226,226
Combo3 : 255,0,0
Combo4 : 132,115,32
Combo5 : 0,128,255
Combo6 : 155,155,155
Combo7 : 255,89,0
Combo8 : 98,74,210

[HitObjects]
68,107,1672,6,0,B|117:138|169:111|169:111|191:138|180:191|180:191|159:161|119:154,1,264,0|0,0:0|0:0,0:0:0:0:
237,77,2243,6,0,P|205:63|172:71,1,70.4,0|0,0:0|0:0,0:0:0:0:
116,234,2569,1,0,0:0:0:0:
184,191,2732,5,2,0:3:0:0:
154,305,2895,1,0,0:0:0:0:
149,319,2976,1,0,0:0:0:0:
195,303,3058,1,0,0:0:0:0:
271,282,3221,1,0,0:0:0:0:
505,221,3384,5,2,0:3:0:0:
381,255,3547,1,0,0:0:0:0:
444,105,3710,2,0,P|427:137|432:188,1,70.4,0|0,0:0|0:0,0:0:0:0:
463,303,4036,5,2,0:3:0:0:
381,255,4199,1,0,0:0:0:0:
373,267,4281,1,0,0:0:0:0:
350,301,4362,6,0,L|357:248,1,35.2,0|0,0:0|0:0,0:0:0:0:
374,122,4525,1,0,0:0:0:0:
276,261,4688,6,0,L|264:357,1,70.4,2|0,0:3|0:0,0:0:0:0:
288,149,5014,5,0,0:0:0:0:
182,286,5177,1,0,0:0:0:0:
207,91,5340,5,2,0:3:0:0:
182,286,5503,1,0,0:0:0:0:
167,292,5584,1,0,0:0:0:0:
213,309,5666,1,0,0:0:0:0:
285,129,5829,1,0,0:0:0:0:
291,255,5992,5,2,0:3:0:0:
192,97,6155,1,0,0:0:0:0:
151,297,6319,2,0,P|119:311|86:304,1,70.4,0|0,0:0|0:0,0:0:0:0:
176,103,6645,5,2,0:3:0:0:
136,307,6808,1,0,0:0:0:0:
95,347,6890,1,0,0:0:0:0:
90,335,6971,1,0,0:0:0:0:
39,361,7053,1,0,0:0:0:0:
39,348,7134,1,0,0:0:0:0:
162,110,7297,5,2,0:3:0:0:
2,106,7460,1,0,0:0:0:0:
238,81,7623,6,0,P|244:115|235:149,1,70.4,0|0,0:0|0:0,0:0:0:0:
2,106,7949,1,2,0:3:0:0:
93,22,8112,1,0,0:0:0:0:
104,35,8194,1,0,0:0:0:0:
117,50,8275,5,0,0:0:0:0:
83,100,8357,1,0,0:0:0:0:
93,148,8438,1,0,0:0:0:0:
116,49,8601,6,0,L|103:119,1,70.4,2|0,0:3|0:0,0:0:0:0:
252,227,8927,1,0,0:0:0:0:
238,114,9090,1,0,0:0:0:0:
252,227,9253,5,2,0:3:0:0:
126,337,9416,1,0,0:0:0:0:
122,322,9498,1,0,0:0:0:0:
129,352,9579,1,0,0:0:0:0:
169,165,9742,1,0,0:0:0:0:
11,291,9906,2,0,P|26:300|43:304,1,35.2,2|0,0:3|0:0,0:0:0:0:
166,255,10069,2,0,P|133:242|98:244,1,70.4,0|0,0:0|0:0,0:0:0:0:
446,347,10395,1,0,0:0:0:0:
340,317,10558,5,2,0:3:0:0:
300,276,10640,1,0,0:0:0:0:
312,271,10721,1,0,0:0:0:0:
286,220,10803,1,0,0:0:0:0:
299,220,10884,1,0,0:0:0:0:
391,336,11047,1,0,0:0:0:0:
434,148,11210,6,0,L|417:225,1,70.4,2|0,0:3|0:0,0:0:0:0:
190,96,11536,2,0,L|173:173,1,70.4,0|0,0:0|0:0,0:0:0:0:
325,113,11862,2,0,L|311:172,1,35.2,2|0,0:3|0:0,0:0:0:0:
299,220,12025,1,0,0:0:0:0:
250,250,12677,5,4,3:1:0:0:
264,254,12840,1,2,0:3:0:0:
9,231,13003,6,0,P|0:211|0:190,1,44,8|2,0:0|0:3,0:0:0:0:
280,258,13329,1,2,0:3:0:0:
262,377,13492,1,0,3:0:0:0:
9,231,13656,6,0,P|1:211|0:189,1,44,8|2,0:0|0:3,0:0:0:0:
162,238,13982,1,0,3:0:0:0:
144,357,14145,1,2,0:3:0:0:
83,189,14308,6,0,P|101:165|144:146,1,70.4,8|2,0:0|0:3,0:0:0:0:
143,146,14552,1,0,0:0:0:0:
150,146,14634,1,2,0:3:0:0:
144,357,14797,1,0,3:0:0:0:
90,177,14960,6,0,P|116:154|150:146,1,70.4,8|2,0:0|0:3,0:0:0:0:
262,377,15286,5,0,3:0:0:0:
162,238,15449,1,2,0:3:0:0:
404,276,15612,2,0,L|493:289,1,88,8|2,0:0|0:3,0:0:0:0:
144,357,15938,5,2,0:3:0:0:
283,257,16101,1,0,3:0:0:0:
162,238,16264,2,0,L|73:225,1,88,8|2,0:0|0:3,0:0:0:0:
301,138,16590,6,0,P|304:183|262:238,1,88,0|0,3:0|0:0,0:0:0:0:
95,129,16916,1,8,0:0:0:0:
162,238,17079,1,2,0:3:0:0:
238,46,17242,5,2,0:3:0:0:
191,35,17323,1,0,0:0:0:0:
209,61,17405,1,0,3:0:0:0:
219,19,17486,1,0,0:0:0:0:
272,8,17569,5,8,0:0:0:0:
315,54,17650,1,0,0:0:0:0:
360,64,17732,1,2,0:3:0:0:
392,56,17813,1,0,0:0:0:0:
405,48,17895,6,0,B|438:92|438:92|424:161,1,105.599996777344,0|2,3:0|0:3,0:0:0:0:
292,203,18221,6,0,B|338:179|379:208|379:208|419:233|458:217,1,176,8|2,0:0|0:3,0:0:0:0:
488,206,18628,1,0,0:0:0:0:
488,206,18710,1,0,3:0:0:0:
229,265,18873,2,0,P|184:269|136:246,1,88,8|2,0:0|0:3,0:0:0:0:
187,78,19199,6,0,L|197:184,1,105.599996777344,0|2,3:0|0:3,0:0:0:0:
399,383,19525,2,0,P|434:330|422:266,1,132,8|0,0:0|0:0,0:0:0:0:
346,259,19851,2,0,P|349:237|361:219,1,44,2|0,0:3|0:0,0:0:0:0:
391,196,20014,2,0,P|411:188|433:190,1,44,0|0,3:0|0:0,0:0:0:0:
508,222,20177,2,0,B|512:185|512:185|509:166|509:166|514:122,1,88,8|2,0:0|0:3,0:0:0:0:
156,135,20503,6,0,P|192:111|207:45,1,105.599996777344,0|2,3:0|0:3,0:0:0:0:
50,51,20829,2,0,P|88:71|130:62,1,88,8|2,0:0|0:3,0:0:0:0:
141,55,21074,1,0,2:0:0:0:
172,30,21156,2,0,L|165:90,1,44,2|0,0:3|2:0,0:0:0:0:
158,153,21319,2,0,L|152:196,1,44,0|0,3:0|0:0,0:0:0:0:
131,367,21482,6,0,B|172:347|172:347|134:325,1,88,8|2,0:0|0:3,0:0:0:0:
60,233,21808,6,0,L|98:253,1,44,0|0,3:0|0:0,0:0:0:0:
283,346,21971,2,0,L|244:325,1,44,2|0,0:3|0:0,0:0:0:0:
174,287,22134,1,8,0:0:0:0:
354,384,22297,1,2,0:3:0:0:
372,144,22460,5,2,3:3:0:0:
409,149,22541,1,0,0:0:0:0:
387,164,22623,1,0,3:0:0:0:
394,130,22704,1,2,0:2:0:0:
342,166,22786,5,8,0:0:0:0:
330,227,22867,1,2,0:2:0:0:
356,285,22949,1,2,0:2:0:0:
311,240,23031,1,0,0:0:0:0:
259,240,23112,6,0,P|221:239|173:291,1,96.8000029541017,4|0,3:3|0:2,0:0:0:0:
386,43,23438,2,0,P|373:78|407:140,1,96.8000029541017,12|2,0:3|0:2,0:0:0:0:
349,379,23764,6,0,P|334:339|347:298,1,88,4|2,0:3|3:2,0:0:0:0:
202,108,24090,2,0,P|231:131|300:118,1,88,12|2,0:3|0:2,0:0:0:0:
512,255,24416,6,0,P|468:257|433:232,1,88,4|2,3:3|0:2,0:0:0:0:
213,307,24742,2,0,P|243:286|252:216,1,88,12|2,0:3|0:2,0:0:0:0:
380,90,25069,6,0,P|382:111|393:130,1,44,4|0,0:3|0:0,0:0:0:0:
347,297,25232,1,4,3:3:0:0:
238,131,25395,6,0,P|259:135|281:131,1,44,12|0,0:3|0:0,0:0:0:0:
433,232,25558,1,4,0:3:0:0:
213,307,25721,6,0,P|243:286|252:216,1,88,4|0,3:3|0:0,0:0:0:0:
13,173,26047,2,0,P|1:214|17:254,1,88,12|2,0:3|0:2,0:0:0:0:
230,141,26373,6,0,P|225:104|167:63,1,88,4|2,0:3|3:2,0:0:0:0:
17,254,26699,2,0,P|47:283|90:288,1,88,12|0,0:3|0:0,0:0:0:0:
108,161,27025,6,0,L|9:166,1,88,4|0,3:3|0:0,0:0:0:0:
256,219,27351,2,0,L|157:224,1,88,12|0,0:3|0:0,0:0:0:0:
385,185,27677,5,4,0:3:0:0:
388,150,27759,1,4,0:3:0:0:
375,119,27840,1,4,3:3:0:0:
349,96,27922,1,0,0:0:0:0:
358,51,28004,5,12,0:3:0:0:
405,82,28085,1,0,0:0:0:0:
432,132,28167,1,4,0:3:0:0:
431,188,28248,1,0,0:0:0:0:
396,264,28329,6,0,P|436:248|479:257,1,88,0|0,3:0|0:1,0:0:0:0:
232,298,28656,2,0,B|235:333|235:333|229:350|229:350|232:385,1,88,8|2,0:0|0:2,0:0:0:0:
479,257,28982,6,0,P|466:216|433:189,1,88,2|2,0:2|3:2,0:0:0:0:
162,235,29308,2,0,B|204:240|204:240|237:256|237:256|273:247|273:247|315:252,1,158.399995166016,8|0,0:0|0:0,0:0:0:0:
398,265,29634,6,0,P|402:305|340:325,1,105.599996777344,0|0,3:0|0:0,0:0:0:0:
275,168,29960,2,0,P|312:135|356:158,1,105.599996777344,8|2,0:0|0:2,0:0:0:0:
210,339,30286,5,4,0:3:0:0:
32,273,30449,1,4,0:3:0:0:
104,97,30612,1,12,0:3:0:0:
275,168,30775,1,6,0:3:0:0:
210,339,30938,6,0,P|184:289|205:229,1,105.599996777344,0|2,3:0|0:2,0:0:0:0:
121,2,31264,2,0,P|130:52|105:97,1,105.599996777344,8|2,0:0|0:2,0:0:0:0:
7,190,31590,2,0,L|64:181,1,52.7999983886719,2|0,3:2|0:0,0:0:0:0:
223,159,31753,2,0,L|278:150,1,52.7999983886719,2|0,3:2|0:0,0:0:0:0:
128,278,31916,6,0,P|130:246|147:218,1,66.0000025177003,8|0,0:0|0:0,0:0:0:0:
206,64,32079,2,0,P|237:57|269:66,1,66.0000025177003,2|0,3:2|0:0,0:0:0:0:
386,89,32242,6,0,P|393:121|342:112,2,76.2666631754559,0|0|0,3:0|0:0|0:0,0:0:0:0:
399,348,32569,2,0,P|365:337|371:302,2,76.2666631754559,8|0|0,0:0|0:0|0:0,0:0:0:0:
399,225,32895,6,0,B|353:210|310:229|291:271|291:271|206:259|206:259|259:243,1,264,0|0,1:0|1:0,0:0:0:0:
365,356,33221,6,0,P|374:330|370:302,1,57.1999973815919,2|0,0:0|0:0,0:0:0:0:
229,165,33384,2,0,P|223:137|233:110,1,57.1999973815919,2|2,1:2|0:2,0:0:0:0:
447,38,33547,6,0,B|502:47|502:47|373:76,1,176,4|0,0:0|0:0,0:0:0:0:
77,321,43982,5,2,0:0:0:0:
87,328,44308,1,0,0:0:0:0:
107,335,44634,1,2,0:0:0:0:
137,340,44960,1,0,0:0:0:0:
174,328,45286,1,2,0:0:0:0:
207,292,45612,1,0,0:0:0:0:
218,235,45938,1,2,0:0:0:0:
201,163,46264,1,2,0:0:0:0:
435,321,46590,5,2,0:0:0:0:
425,328,46916,1,0,0:0:0:0:
405,335,47242,1,2,0:0:0:0:
375,340,47568,1,2,0:0:0:0:
338,328,47894,5,2,0:0:0:0:
305,292,48220,1,0,0:0:0:0:
294,235,48547,2,0,L|331:242,3,22,0|0|0|0,0:0|0:0|0:0|0:0,0:0:0:0:
307,162,48873,2,0,L|344:169,3,22,0|0|0|0,0:0|0:0|0:0|0:0,0:0:0:0:
218,231,49199,6,0,P|229:280|274:308,1,88,2|0,0:0|0:0,0:0:0:0:
307,85,49688,2,0,P|265:94|238:128,1,88,2|0,0:0|0:0,0:0:0:0:
175,168,50177,2,0,L|92:154,1,66,2|0,0:0|0:0,0:0:0:0:
99,158,50503,6,0,P|83:128|98:72,1,88,2|0,0:0|0:0,0:0:0:0:
89,159,51156,2,0,P|73:129|88:73,1,88,2|2,0:0|0:0,0:0:0:0:
294,231,51808,6,0,P|283:280|238:308,1,88,2|0,0:0|0:0,0:0:0:0:
205,85,52297,2,0,P|247:94|274:128,1,88,2|0,0:0|0:0,0:0:0:0:
337,168,52786,2,0,L|420:154,1,66,2|0,0:0|0:0,0:0:0:0:
412,153,53112,6,0,P|428:123|413:67,1,88,2|0,0:0|0:0,0:0:0:0:
308,100,53764,6,0,L|317:61,1,22,2|0,0:0|0:0,0:0:0:0:
226,112,53927,6,0,L|203:77,1,22,0|0,0:0|0:0,0:0:0:0:
144,124,54090,6,0,L|104:117,1,22,0|0,0:0|0:0,0:0:0:0:
68,136,54253,6,0,L|27:129,1,22,0|0,0:0|0:0,0:0:0:0:
6,146,54416,5,2,1:2:0:0:
160,318,54743,1,2,0:0:0:0:
85,291,54906,1,0,0:0:0:0:
147,237,55069,2,0,P|166:275|161:318,1,88,2|0,0:0|0:0,0:0:0:0:
350,318,55558,1,0,0:0:0:0:
350,318,55721,6,0,P|345:275|441:201,1,176,2|2,0:0|0:0,0:0:0:0:
438,200,56699,1,2,0:0:0:0:
69,207,57025,6,0,P|111:209|146:235,1,88,2|0,0:0|0:0,0:0:0:0:
195,310,57514,2,0,L|212:164,1,132,2|2,0:0|0:0,0:0:0:0:
299,82,58166,1,0,0:0:0:0:
299,82,58329,6,0,P|323:133|282:183,1,117.333333333333,2|0,0:2|0:0,0:0:0:0:
213,164,59145,1,2,0:0:0:0:
196,86,59308,1,0,0:0:0:0:
118,69,59471,1,0,0:0:0:0:
63,126,59634,6,0,L|71:180,1,44,2|0,0:0|0:0,0:0:0:0:
37,254,59960,2,0,L|80:247,1,44,0|2,0:0|0:0,0:0:0:0:
165,280,60286,5,0,0:0:0:0:
191,152,60449,1,2,0:0:0:0:
165,280,60612,1,0,0:0:0:0:
191,152,60775,1,2,0:0:0:0:
319,178,60938,6,0,L|276:185,1,44,2|0,0:0|0:0,0:0:0:0:
293,306,61264,2,0,L|286:262,1,44,2|0,0:0|0:0,0:0:0:0:
447,204,61590,5,2,0:0:0:0:
319,178,61753,1,0,0:0:0:0:
447,204,61916,1,2,0:0:0:0:
319,178,62079,1,0,0:0:0:0:
421,332,62242,6,0,L|477:325,1,44,2|0,0:0|0:0,0:0:0:0:
186,108,62569,2,0,L|190:151,1,44,0|0,0:0|0:0,0:0:0:0:
446,205,62895,5,2,0:0:0:0:
473,76,63058,1,0,0:0:0:0:
345,50,63221,1,2,0:0:0:0:
319,178,63384,1,2,0:0:0:0:
91,332,63547,6,0,L|35:325,1,52.7999983886719,2|0,0:1|0:0,0:0:0:0:
326,108,63874,2,0,P|331:137|320:169,1,61.5999981201172,2|0,0:1|0:0,0:0:0:0:
188,199,64117,1,0,0:0:0:0:
180,208,64199,2,0,L|223:201,1,35.2,2|0,0:0|0:0,0:0:0:0:
335,261,64362,2,0,L|292:254,1,35.2,0|0,0:0|0:0,0:0:0:0:
175,314,64525,2,0,L|214:308,1,39.5999987915039,0|0,0:0|0:0,0:0:0:0:
338,367,64688,2,0,L|300:361,1,39.5999987915039,2|0,0:0|0:0,0:0:0:0:
186,108,64851,6,0,P|181:79|192:47,1,61.5999981201172,4|0,0:1|0:0,0:0:0:0:
260,86,65177,1,0,0:0:0:0:
173,100,65340,6,0,P|169:77|177:52,1,44,2|0,0:1|0:0,0:0:0:0:
247,83,65666,5,0,0:0:0:0:
101,135,65829,1,2,1:2:0:0:
75,212,65992,1,0,0:0:0:0:
321,105,66156,6,0,P|326:76|315:44,1,61.5999981201172,2|0,0:1|0:0,0:0:0:0:
247,83,66482,1,0,1:0:0:0:
334,97,66645,6,0,P|338:74|330:49,1,44,2|0,0:1|0:0,0:0:0:0:
260,80,66971,5,0,0:0:0:0:
463,162,67134,1,2,1:1:0:0:
396,211,67297,1,0,0:0:0:0:
454,82,67460,5,2,0:1:0:0:
323,181,67623,1,2,0:0:0:0:
463,162,67786,5,0,1:0:0:0:
402,222,67949,2,0,L|403:251,1,29.3333333333333,2|0,0:1|0:0,0:0:0:0:
316,182,68275,1,2,0:1:0:0:
472,153,68438,1,2,1:2:0:0:
371,34,68601,1,2,0:1:0:0:
316,182,68764,6,0,P|233:233|165:163,1,211.2,0|2,0:0|0:0,0:0:0:0:
160,131,69579,5,2,0:1:0:0:
79,115,69742,1,2,1:2:0:0:
280,12,69906,1,2,0:0:0:0:
286,174,70069,6,0,L|292:243,1,58.6666666666667,2|0,0:0|1:0,0:0:0:0:
402,39,70558,2,0,P|373:28|341:32,1,58.6666666666667,2|2,0:1|0:1,0:0:0:0:
283,96,71047,1,0,1:0:0:0:
443,124,71210,1,2,0:1:0:0:
375,263,71373,6,0,L|370:193,1,70.4,0|0,3:0|0:0,0:0:0:0:
361,111,71699,1,10,0:1:0:0:
234,277,71862,2,0,L|387:261,1,140.8,2|2,0:2|3:2,0:0:0:0:
132,286,72351,2,0,P|134:327|127:364,1,70.4,10|2,0:1|0:2,0:0:0:0:
286,158,72677,6,0,P|240:121|143:145,1,140.8,0|8,3:0|0:0,0:0:0:0:
55,223,73166,1,0,0:0:0:0:
30,77,73329,1,2,0:1:0:0:
137,207,73492,1,2,3:2:0:0:
0,155,73655,1,10,0:1:0:0:
112,62,73818,1,2,0:1:0:0:
284,157,73982,6,0,P|314:140|336:113,1,70.4,2|0,3:1|0:0,0:0:0:0:
140,60,74308,6,0,P|140:97|161:128,1,74.8000014266968,10|0,0:1|0:0,0:0:0:0:
238,77,74635,6,0,L|254:-1,1,79.1999975830079,0|0,0:0|3:0,0:0:0:0:
193,281,74960,6,0,L|214:176,1,83.5999977676392,8|0,0:0|0:0,0:0:0:0:
164,383,75286,5,4,0:3:0:0:
330,358,75449,1,0,0:0:0:0:
496,333,75612,2,0,L|508:277,1,44,4|0,0:3|0:0,0:0:0:0:
284,240,75938,2,0,L|272:296,1,44,4|0,0:3|0:0,0:0:0:0:
423,316,76264,2,0,L|432:273,1,44,4|0,0:3|0:0,0:0:0:0:
357,257,76590,6,0,L|348:300,1,44,4|0,0:3|0:0,0:0:0:0:
339,319,76916,2,0,L|297:331,1,44,4|0,0:3|0:0,0:0:0:0:
275,334,77242,2,0,L|243:304,1,44,4|0,0:3|0:0,0:0:0:0:
231,285,77569,2,0,L|241:243,1,44,4|0,0:3|0:0,0:0:0:0:
141,0,77895,5,4,0:3:0:0:
134,2,78058,1,0,0:0:0:0:
12,54,78221,2,0,L|0:110,1,44,4|0,0:3|0:0,0:0:0:0:
223,147,78547,2,0,L|233:105,1,44,4|0,0:3|0:0,0:0:0:0:
85,71,78873,2,0,L|76:114,1,44,4|0,0:3|0:0,0:0:0:0:
151,131,79199,6,0,L|161:89,1,44,4|0,0:3|0:0,0:0:0:0:
169,68,79362,2,0,L|210:55,1,44,4|0,0:3|0:0,0:0:0:0:
233,53,79525,2,0,L|264:82,1,44,4|0,0:3|0:0,0:0:0:0:
276,103,79688,2,0,L|266:144,1,44,4|0,0:3|0:0,0:0:0:0:
275,164,79851,2,0,L|308:195,1,44,4|0,0:3|0:0,0:0:0:0:
311,217,80014,2,0,L|301:260,1,44,4|0,0:3|0:0,0:0:0:0:
413,87,80177,2,0,L|381:57,1,44,4|0,0:3|0:0,0:0:0:0:
384,233,80340,2,0,L|375:276,1,44,0|0,0:0|0:0,0:0:0:0:
433,169,80503,6,0,L|476:157,1,44,4|0,0:3|0:0,0:0:0:0:
268,213,80829,2,0,P|288:219|309:217,1,44,4|0,0:3|0:0,0:0:0:0:
150,109,81156,2,0,L|154:153,1,44,4|0,0:3|0:0,0:0:0:0:
216,42,81482,1,4,0:3:0:0:
96,31,81645,1,0,0:0:0:0:
164,231,81808,6,0,P|142:233|122:225,1,44,4|0,0:3|0:0,0:0:0:0:
80,16,82134,2,0,P|90:36|88:63,1,44,4|0,0:3|0:0,0:0:0:0:
0,120,82460,6,0,P|22:114|41:120,1,44,4|0,0:3|0:0,0:0:0:0:
181,53,82786,2,0,P|168:73|168:94,1,44,4|0,0:3|0:0,0:0:0:0:
94,369,83112,6,0,L|98:325,1,44,4|0,0:3|0:0,0:0:0:0:
110,200,83275,2,0,L|115:157,1,44,4|0,0:3|0:0,0:0:0:0:
220,233,83438,6,0,P|201:250|149:257,1,44,4|0,0:3|0:0,0:0:0:0:
0,218,83601,2,0,P|17:231|30:249,1,44,4|0,0:3|0:0,0:0:0:0:
94,369,83764,6,0,L|98:325,1,44,4|0,0:3|0:0,0:0:0:0:
110,200,83927,2,0,L|106:244,1,44,4|0,0:3|0:0,0:0:0:0:
94,368,84090,6,0,P|104:350|122:337,1,44,4|0,0:3|0:0,0:0:0:0:
200,320,84253,2,0,P|221:321|241:329,1,44,4|0,0:3|0:0,0:0:0:0:
324,362,84416,6,0,P|330:342|345:324,3,44,4|0|0|0,0:3|0:0|0:0|0:0,0:0:0:0:
349,245,84742,2,0,L|472:229,1,88,2|0,0:3|0:0,0:0:0:0:
479,228,84987,1,0,0:0:0:0:
479,228,85069,6,0,L|415:216,1,44,0|0,0:0|0:0,0:0:0:0:
356,199,85232,2,0,L|313:191,1,44,0|0,3:0|0:0,0:0:0:0:
434,23,85395,2,0,P|447:86|414:142,1,132,8|0,0:0|0:0,0:0:0:0:
364,198,85721,5,8,0:1:0:0:
315,17,85884,1,0,3:0:0:0:
134,67,86047,1,0,3:0:0:0:
291,105,86210,5,8,0:1:0:0:
200,130,86373,1,0,3:0:0:0:
291,105,86536,1,0,3:0:0:0:
250,284,86699,2,0,L|228:390,1,88,8|0,0:1|3:0,0:0:0:0:
126,64,87025,5,8,0:1:0:0:
375,205,87188,1,0,3:0:0:0:
319,7,87351,1,0,3:0:0:0:
200,130,87514,5,8,0:1:0:0:
291,105,87677,1,0,3:0:0:0:
200,130,87840,1,0,3:0:0:0:
427,70,88003,2,0,L|516:45,1,88,8|0,0:1|3:0,0:0:0:0:
118,61,88329,5,8,0:1:0:0:
74,299,88492,1,0,3:0:0:0:
200,130,88656,1,0,3:0:0:0:
184,268,88819,5,8,0:1:0:0:
429,274,88982,1,0,3:0:0:0:
305,342,89145,1,0,3:0:0:0:
432,132,89308,2,0,P|380:139|344:183,1,88,8|0,0:1|3:0,0:0:0:0:
91,384,89634,6,0,L|70:283,1,88,8|0,0:1|3:0,0:0:0:0:
47,154,89960,1,0,3:0:0:0:
301,222,90123,1,8,0:1:0:0:
165,254,90286,1,0,3:0:0:0:
160,263,90449,1,0,3:0:0:0:
347,87,90612,2,0,P|353:42|348:-13,1,88,8|0,0:1|3:0,0:0:0:0:
256,352,90938,5,8,0:1:0:0:
183,110,91101,1,0,3:0:0:0:
174,352,91264,5,8,0:1:0:0:
101,110,91427,1,0,3:0:0:0:
92,352,91590,5,8,0:1:0:0:
19,110,91753,1,0,3:0:0:0:
5,364,91916,5,8,0:1:0:0:
101,110,92079,1,0,3:0:0:0:
174,352,92242,5,8,0:1:0:0:
19,110,92406,1,0,3:0:0:0:
92,352,92569,5,8,0:1:0:0:
183,110,92732,1,0,3:0:0:0:
256,345,92895,5,8,0:1:0:0:
19,110,93058,1,0,3:0:0:0:
5,364,93221,5,8,0:1:0:0:
256,345,93384,1,0,3:0:0:0:
256,64,93547,5,8,0:1:0:0:
256,320,93710,1,8,0:1:0:0:
165,101,93873,5,8,0:1:0:0:
346,282,94036,1,8,0:1:0:0:
128,192,94199,5,8,0:1:0:0:
384,192,94362,1,8,0:1:0:0:
165,282,94525,5,8,0:1:0:0:
346,101,94688,1,8,0:1:0:0:
255,175,94851,5,8,0:0:0:0:
255,207,94933,1,8,0:0:0:0:
244,180,95014,5,8,0:0:0:0:
267,203,95096,1,8,0:0:0:0:
239,191,95177,5,8,0:0:0:0:
271,191,95259,1,8,0:0:0:0:
244,203,95340,5,8,0:0:0:0:
267,180,95422,1,8,0:0:0:0:
255,207,95503,6,0,P|285:217|317:208,1,66.0000025177003,2|0,0:1|0:0,0:0:0:0:
342,134,95666,6,0,P|368:124|395:127,1,55,2|0,0:1|0:0,0:0:0:0:
436,196,95829,6,0,P|461:205|488:202,1,44,2|0,0:1|0:0,0:0:0:0:
474,125,95992,6,0,P|499:115|526:118,1,33.0000012588501,2|0,0:1|0:0,0:0:0:0:
290,332,96156,6,0,P|253:232|354:231,1,198.000007553101,2|0,3:1|0:0,0:0:0:0:
440,119,96482,6,0,B|395:105|365:145|365:145|394:167|406:217|381:253,1,198.000007553101,0|0,3:0|2:0,0:0:0:0:
425,328,96808,6,0,L|368:321,1,57.1999973815919,8|0,0:2|2:0,0:0:0:0:
74,290,96971,2,0,P|103:288|127:272,1,57.1999973815919,2|0,0:2|2:0,0:0:0:0:
151,108,97134,2,0,P|128:126|118:153,1,57.1999973815919,2|0,0:2|2:0,0:0:0:0:
196,300,97297,1,0,3:0:0:0:
196,300,97460,6,0,P|203:271|195:243,1,57.1999973815919,0|0,0:0|2:0,0:0:0:0:
46,171,97623,2,0,P|56:197|79:216,1,57.1999973815919,0|0,3:0|0:0,0:0:0:0:
244,187,97786,6,0,P|221:174|124:274,1,198.000007553101,0|0,3:2|2:0,0:0:0:0:
24,336,98112,6,0,B|196:300,1,176,8|0,0:2|2:0,0:0:0:0:
373,148,98438,6,0,P|388:171|381:198,1,57.1999973815919,0|0,0:0|0:0,0:0:0:0:
283,369,98601,2,0,P|267:346|275:319,1,57.1999973815919,0|0,3:0|0:0,0:0:0:0:
303,184,98764,6,0,B|291:225|327:261|327:261|364:295|350:340,1,171.599992144776,0|0,3:0|2:0,0:0:0:0:
170,121,99090,2,0,B|221:88|281:108|281:108|246:116|225:157,1,171.599992144776,0|0,3:0|0:0,0:0:0:0:
237,139,99416,6,0,B|270:144|270:144|297:162,1,66.0000025177003,8|0,0:2|2:0,0:0:0:0:
469,223,99579,2,0,B|448:248|448:248|419:262,1,66.0000025177003,0|0,0:0|2:0,0:0:0:0:
284,383,99742,2,0,B|273:353|273:353|275:320,1,66.0000025177003,0|0,0:0|2:0,0:0:0:0:
331,248,99906,1,0,3:0:0:0:
131,308,100069,6,0,L|216:314,1,66.0000025177003,0|0,0:0|0:0,0:0:0:0:
275,319,100232,1,0,3:0:0:0:
113,147,100395,1,0,3:0:0:0:
58,351,100558,6,0,P|47:318|75:243,1,88,0|0,0:0|0:0,0:0:0:0:
194,120,100721,1,8,0:2:0:0:
38,164,100884,1,0,2:0:0:0:
206,115,101047,6,0,L|231:108,2,26.399999194336
38,164,101210,2,0,L|0:174,1,39.5999987915039,0|0,3:0|0:0,0:0:0:0:
315,212,101373,6,0,B|334:250|334:250|185:203,1,198.000007553101,0|0,3:0|0:0,0:0:0:0:
144,60,101699,2,0,B|87:26|87:26|56:84,1,132.000005035401,0|0,3:0|0:0,0:0:0:0:
346,61,102025,6,0,P|359:81|347:138,1,57.1999973815919,8|0,0:2|2:0,0:0:0:0:
226,91,102188,2,0,B|240:115|240:115|239:145,1,57.1999973815919,0|0,0:0|2:0,0:0:0:0:
118,143,102351,1,0,0:0:0:0:
365,204,102514,1,0,3:0:0:0:
98,146,102677,6,0,L|44:130,1,57.1999973815919,0|0,0:0|2:0,0:0:0:0:
365,204,102840,1,0,3:0:0:0:
167,347,103003,6,0,B|130:346|130:346|178:271|255:291,1,184.799994360352,0|0,3:0|2:0,0:0:0:0:
183,268,103329,6,0,P|105:297|95:380,1,176,8|0,0:2|2:0,0:0:0:0:
329,342,103656,6,0,B|330:317|330:317|332:307|332:307|334:281,1,61.5999981201172,0|0,0:0|0:0,0:0:0:0:
190,131,103819,2,0,B|191:156|193:165|193:165|195:192,1,57.1999973815919,0|0,0:0|0:0,0:0:0:0:
351,190,103982,6,0,B|306:192|281:219|281:219|317:190|375:195|403:237,1,198.000007553101,0|0,3:0|2:0,0:0:0:0:
429,294,104308,2,0,P|418:206|507:195,1,198.000007553101,0|0,3:0|2:0,0:0:0:0:
505,281,104634,6,0,P|506:310|495:336,1,57.1999973815919,8|0,0:2|2:0,0:0:0:0:
370,189,104797,2,0,P|358:161|371:111,1,57.1999973815919,0|0,0:0|2:0,0:0:0:0:
494,43,104960,2,0,L|480:98,1,57.1999973815919,0|0,0:0|2:0,0:0:0:0:
429,294,105123,1,0,3:0:0:0:
429,294,105286,5,0,2:0:0:0:
383,267,105367,1,0,2:0:0:0:
330,270,105449,1,0,3:2:0:0:
296,310,105531,1,0,2:2:0:0:
290,362,105612,2,0,P|271:339|234:333,2,58.6666666666667,0|0|0,3:0|0:0|0:0,0:0:0:0:
73,251,105938,6,0,P|60:268|55:290,1,44,2|0,0:1|0:0,0:0:0:0:
161,309,106101,6,0,L|165:352,1,44,2|0,0:1|0:0,0:0:0:0:
148,198,106264,6,0,L|154:253,1,55,2|0,0:1|0:0,0:0:0:0:
130,53,106427,6,0,L|137:119,1,66.0000025177003,2|0,0:1|0:0,0:0:0:0:
314,27,106590,6,0,P|226:41|286:145,1,224.40000428009,2|0,3:1|0:0,0:0:0:0:
260,250,106916,6,0,B|293:201|348:200|348:200|382:238|431:230,1,198.000007553101,0|0,3:0|2:0,0:0:0:0:
443,102,107242,6,0,P|422:123|417:169,1,57.1999973815919,8|0,0:2|2:0,0:0:0:0:
432,314,107406,2,0,P|446:338|471:353,1,57.1999973815919,0|0,0:0|2:0,0:0:0:0:
487,223,107569,2,0,L|431:229,1,57.1999973815919,0|0,0:0|2:0,0:0:0:0:
260,250,107732,1,0,3:0:0:0:
260,250,107895,6,0,B|247:275|247:275|261:301,1,57.1999973815919,0|0,0:0|2:0,0:0:0:0:
432,314,108058,1,0,3:0:0:0:
248,133,108221,6,0,B|221:113|221:113|356:95|356:95|328:142,1,224.40000428009,0|0,3:0|2:0,0:0:0:0:
430,230,108547,6,0,L|255:213,1,176,8|0,0:2|2:0,0:0:0:0:
120,73,108873,6,0,P|106:108|125:149,1,66.0000025177003,0|0,0:0|0:0,0:0:0:0:
153,289,109036,1,0,3:0:0:0:
0,203,109199,6,0,B|19:202|33:192|33:192|72:192|100:227|100:227|138:198|182:213,1,198.000007553101,0|0,3:0|2:0,0:0:0:0:
264,257,109525,2,0,B|284:303|284:303|240:338|170:341|133:254,1,198.000007553101,0|0,3:0|2:0,0:0:0:0:
74,301,109851,6,0,P|73:270|97:232,1,57.1999973815919,8|0,0:0|2:0,0:0:0:0:
241,183,110014,2,0,P|242:152|218:114,1,57.1999973815919,0|0,0:0|2:0,0:0:0:0:
144,66,110177,2,0,L|153:156,1,57.1999973815919,0|0,0:0|2:0,0:0:0:0:
176,360,110340,1,0,3:0:0:0:
176,360,110503,6,0,L|166:269,1,57.1999973815919,0|0,0:0|2:0,0:0:0:0:
159,213,110666,1,0,3:0:0:0:
159,213,110829,1,0,3:0:0:0:
386,241,110992,6,0,P|396:195|360:137,1,79.1999975830079,2|0,2:0|0:0,0:0:0:0:
292,24,111156,6,0,B|251:71|273:143|273:143|278:109|308:78,1,176,8|0,0:1|3:0,0:0:0:0:
367,62,111482,6,0,L|388:59,2,22
184,82,111645,2,0,L|140:87,1,44,0|0,3:0|0:0,0:0:0:0:
273,142,111808,6,0,B|322:193|305:273|305:273|301:234|269:212,1,198.000007553101,0|0,3:0|2:0,0:0:0:0:
222,280,112134,2,0,B|160:307|160:307|218:347,1,132.000005035401,0|0,3:0|2:0,0:0:0:0:
486,296,112460,6,0,P|432:263|490:322,1,299.200005706787,0|0,0:0|2:0,0:0:0:0:
222,280,112949,6,0,L|70:288,1,132,0|0,3:0|2:0,0:0:0:0:
59,289,113275,1,0,3:0:0:0:
131,79,113438,2,0,B|166:116|166:116|136:207|136:207|84:210,1,198.000007553101,0|0,3:0|2:0,0:0:0:0:
58,289,113764,6,0,B|27:364|27:364|138:358,1,176,8|0,0:0|0:0,0:0:0:0:
16,160,114090,6,0,B|34:139|34:139|62:130,1,57.1999973815919
292,193,114253,6,0,B|265:225|265:225|230:237,1,79.1999975830079,0|0,3:0|0:0,0:0:0:0:
134,75,114416,6,0,B|117:45|137:4|173:-9|200:36|205:103|162:90|137:124|128:154|150:199,1,237.599992749024,0|0,3:0|2:0,0:0:0:0:
105,254,114742,6,0,P|170:257|219:215,1,132,0|0,3:0|0:0,0:0:0:0:
328,319,115069,6,0,B|324:290|324:290|349:301,1,57.1999973815919,8|0,0:0|2:0,0:0:0:0:
345,154,115232,2,0,B|370:165|370:165|368:136,1,57.1999973815919,0|0,0:0|2:0,0:0:0:0:
433,313,115395,2,0,B|431:284|431:284|456:295,1,57.1999973815919,0|0,0:0|2:0,0:0:0:0:
450,144,115558,6,0,B|475:155|475:155|462:47,1,114.399994763184,0|0,3:0|0:0,0:0:0:0:
460,34,115802,1,0,0:0:0:0:
460,34,115884,2,0,B|431:23|431:23|397:48,1,57.1999973815919,0|0,3:0|2:0,0:0:0:0:
368,136,116047,2,0,B|313:131|313:131|289:143|289:143|266:127|266:127|197:120,1,171.599992144776,0|0,3:0|2:0,0:0:0:0:
149,65,116373,6,0,P|174:47|224:47,1,66.0000025177003,2|0,0:1|2:0,0:0:0:0:
209,203,116536,6,0,P|176:199|149:180,1,55,2|0,0:1|2:0,0:0:0:0:
204,120,116699,6,0,L|278:111,1,44,2|0,0:1|2:0,0:0:0:0:
322,108,116862,6,0,L|370:103,1,33.0000012588501,2|0,0:1|2:0,0:0:0:0:
79,24,117025,6,0,B|57:42|54:85|85:108|85:108|71:108|71:108|103:131|103:131|57:179|81:248|132:262,1,264,2|0,3:1|0:0,0:0:0:0:
66,310,117351,6,0,B|88:258|161:255|161:255|142:322|142:322|277:312,1,264,0|0,0:0|2:0,0:0:0:0:
285,362,117677,6,0,P|299:334|292:291,1,57.1999973815919
427,90,117840,2,0,P|427:119|441:144,1,57.1999973815919,0|0,0:0|2:0,0:0:0:0:
500,275,118003,2,0,L|443:264,1,57.1999973815919,0|0,0:0|2:0,0:0:0:0:
229,226,118166,1,0,0:0:0:0:
441,144,118329,6,0,L|501:133,1,57.1999973815919,0|0,0:0|2:0,0:0:0:0:
216,74,118492,1,0,0:0:0:0:
216,74,118656,6,0,B|150:61|150:61|217:143|217:143|267:155,1,224.40000428009,0|0,3:0|2:0,0:0:0:0:
355,175,118982,6,0,L|342:0,1,176,8|0,0:0|2:0,0:0:0:0:
184,257,119308,2,0,P|210:248|229:227,1,57.1999973815919,0|0,3:0|0:0,0:0:0:0:
266,154,119471,2,0,P|271:121|251:85,1,57.1999973815919,0|0,3:0|0:0,0:0:0:0:
47,46,119634,6,0,B|-11:82|18:172|96:143|97:96|97:96|37:114,1,224.40000428009,0|0,3:0|2:0,0:0:0:0:
24,209,119960,2,0,P|70:179|53:295,1,224.40000428009,0|0,3:0|2:0,0:0:0:0:
44,336,120286,6,0,P|30:303|46:251,1,57.1999973815919,0|0,3:0|2:0,0:0:0:0:
151,220,120449,2,0,P|165:187|149:135,1,57.1999973815919,0|0,0:0|2:0,0:0:0:0:
60,42,120612,2,0,L|69:98,1,57.1999973815919,0|0,0:0|2:0,0:0:0:0:
104,292,120775,1,0,3:0:0:0:
291,66,120938,6,0,L|270:118,1,57.1999973815919,0|0,0:0|2:0,0:0:0:0:
191,301,121101,1,0,3:0:0:0:
34,190,121264,1,0,3:0:0:0:
290,231,121427,6,0,P|313:268|299:337,1,79.1999975830079,0|0,0:0|2:0,0:0:0:0:
140,384,121590,6,0,L|149:278,2,88,8|0|0,0:0|0:0|3:0,0:0:0:0:
230,294,121916,6,0,L|233:320,2,26.399999194336,0|0|0,0:0|2:0|0:0,0:0:0:0:
215,210,122079,2,0,L|207:152,1,52.7999983886719,0|0,3:0|0:0,0:0:0:0:
197,74,122242,6,0,B|129:41|135:176|133:113|143:82|215:58|260:101|260:101|284:72|327:72,1,264,0|0,3:0|2:0,0:0:0:0:
372,26,122569,6,0,B|369:62|394:76|394:76|426:45|469:63|469:63|435:134|511:189,1,264,0|0,3:0|2:0,0:0:0:0:
512,256,122895,6,0,B|457:245|414:307|414:307|422:240|422:240|400:253|382:277|382:277|354:239|301:237|264:272,1,352,8|0,0:0|2:0,0:0:0:0:
77,384,123384,6,0,L|93:220,1,132,0|0,3:0|2:0,0:0:0:0:
92,227,123710,1,0,3:0:0:0:
40,3,123873,2,0,B|-6:59|22:133|22:133|29:91|66:77,1,198.000007553101,0|0,3:0|2:0,0:0:0:0:
277,132,124199,6,0,L|102:147,1,176,8|0,0:0|2:0,0:0:0:0:
362,148,124525,6,0,P|366:121|353:88,1,57.1999973815919
197,89,124688,2,0,P|186:131|197:174,1,88,0|0,3:0|0:0,0:0:0:0:
348,287,124851,6,0,B|282:254|214:310|214:310|290:330,1,198.000007553101,0|0,3:0|2:0,0:0:0:0:
137,315,125177,2,0,L|49:321,1,88,0|0,3:0|2:0,0:0:0:0:
394,170,125503,6,0,P|373:189|327:193,1,57.1999973815919,8|0,0:0|2:0,0:0:0:0:
194,147,125666,2,0,P|170:131|154:88,1,57.1999973815919,0|0,0:0|2:0,0:0:0:0:
214,349,125829,2,0,P|233:328|237:282,1,57.1999973815919,0|0,0:0|2:0,0:0:0:0:
261,211,125992,1,0,3:0:0:0:
121,255,126156,6,0,P|94:263|66:259,1,57.1999973815919,0|0,0:0|0:0,0:0:0:0:
0,216,126319,1,0,3:0:0:0:
257,196,126482,2,0,P|288:139|278:76,1,132.000005035401,0|2,3:0|2:0,0:0:0:0:
139,46,126808,6,0,P|127:64|123:105,1,57.1999973815919,0|0,2:0|0:0,0:0:0:0:
194,147,126971,2,0,L|203:97,1,48.4000014770508,0|0,3:0|0:0,0:0:0:0:
217,19,127134,2,0,L|222:-13,6,19.799999395752,0|0|0|0|0|0|0,2:0|2:0|2:0|2:0|2:0|2:0|2:0,0:0:0:0:
210,66,127460,6,0,L|388:45,1,145.200004431152,0|0,3:1|2:0,0:0:0:0:
354,48,127786,2,0,P|329:93|345:158,1,96.8000029541017,0|0,3:0|2:1,0:0:0:0:
495,187,128112,6,0,B|440:157|393:198|393:198|341:242|273:204,1,228.799989526368,8|2,0:0|0:2,0:0:0:0:
435,76,128601,1,2,3:2:0:0:
451,256,128764,6,0,L|455:313,2,57.1999973815919,0|0|0,2:1|0:0|3:0,0:0:0:0:
263,85,129090,6,0,P|340:52|327:132,1,198.000007553101,0|0,3:0|2:0,0:0:0:0:
256,166,129416,2,0,B|211:170|211:170|170:155|170:155|124:160,1,132.000005035401,8|0,0:0|0:0,0:0:0:0:
156,294,129742,2,0,L|162:222,1,57.1999973815919,2|0,0:0|2:0,0:0:0:0:
56,127,129906,2,0,P|49:154|53:183,1,57.1999973815919,0|0,3:0|0:0,0:0:0:0:
160,236,130069,6,0,L|148:64,1,145.200004431152,0|0,3:1|2:0,0:0:0:0:
144,72,130395,1,0,3:1:0:0:
325,217,130558,1,0,0:0:0:0:
215,13,130721,5,8,0:0:0:0:
249,273,130884,1,2,0:2:0:0:
387,91,131047,5,2,0:2:0:0:
62,128,131210,1,2,3:2:0:0:
336,200,131373,6,0,P|362:250|355:306,1,114.399994763184,0|0,2:1|3:0,0:0:0:0:
362,318,131617,1,0,0:0:0:0:
368,328,131699,2,0,P|338:323|313:331,1,57.1999973815919,0|0,3:0|0:0,0:0:0:0:
248,378,131862,2,0,P|221:385|194:379,1,57.1999973815919,0|0,0:0|2:0,0:0:0:0:
132,326,132025,5,8,0:0:0:0:
132,326,132188,2,0,L|144:256,1,57.1999973815919,2|0,2:1|0:0,0:0:0:0:
0,56,132351,2,0,P|26:47|54:51,1,57.1999973815919,2|0,2:2|0:0,0:0:0:0:
113,104,132514,2,0,P|141:108|168:99,1,57.1999973815919,2|0,2:1|0:0,0:0:0:0:
223,23,132677,6,0,P|211:94|234:163,1,145.200004431152,0|0,3:1|2:0,0:0:0:0:
241,288,133003,2,0,P|244:260|254:241,1,48.4000014770508,0|0,3:0|0:0,0:0:0:0:
343,111,133166,1,0,2:1:0:0:
512,302,133329,6,0,L|340:289,1,171.599992144776,8|0,0:0|0:0,0:0:0:0:
321,288,133656,2,0,P|341:273|376:275,1,57.1999973815919,0|0,0:0|2:0,0:0:0:0:
454,137,133819,6,0,P|418:180|363:190,1,114.399994763184,0|0,3:0|0:0,0:0:0:0:
228,15,134145,1,0,3:0:0:0:
512,28,134308,1,0,3:1:0:0:
364,191,134471,2,0,L|367:134,1,57.1999973815919,2|0,0:0|0:0,0:0:0:0:
415,71,134634,6,0,P|392:56|361:55,1,57.1999973815919,8|0,0:0|2:0,0:0:0:0:
362,273,134797,2,0,P|390:271|414:257,1,57.1999973815919,0|0,0:0|0:0,0:0:0:0:
280,163,134960,2,0,L|217:166,1,48.4000014770508,2|0,0:2|0:0,0:0:0:0:
100,171,135123,2,0,L|149:169,1,48.4000014770508,0|0,3:1|0:0,0:0:0:0:
338,351,135286,6,0,P|264:269|156:254,1,224.40000428009,0|0,3:1|0:0,0:0:0:0:
218,5,135612,2,0,P|184:109|226:211,1,224.40000428009,0|0,3:0|0:0,0:0:0:0:
14,307,135938,6,0,P|46:304|76:288,1,66.0000025177003,8|0,0:0|0:0,0:0:0:0:
135,230,136101,2,0,P|148:201|149:168,1,66.0000025177003,2|0,0:2|2:0,0:0:0:0:
267,285,136264,2,0,P|234:288|203:277,1,66.0000025177003,2|0,0:2|2:0,0:0:0:0:
135,231,136427,2,0,P|114:202|108:171,1,66.0000025177003,2|0,3:2|0:0,0:0:0:0:
85,95,136590,6,0,L|269:77,1,145.200004431152,0|0,3:0|0:0,0:0:0:0:
229,80,136916,2,0,L|221:156,1,61.5999981201172,0|2,0:0|0:0,0:0:0:0:
204,278,137242,2,0,L|196:356,1,79.1999975830079,0|2,0:0|0:0,0:0:0:0:
316,69,137569,2,0,P|325:115|310:161,1,96.8000029541017,0|2,0:0|0:0,0:0:0:0:
276,235,137813,1,0,0:0:0:0:
276,235,137895,6,0,L|111:249,1,145.200004431152,2|0,3:1|2:0,0:0:0:0:
121,248,138221,1,0,3:0:0:0:
307,325,138384,1,2,2:1:0:0:
52,356,138547,2,0,L|59:291,1,48.4000014770508,8|0,0:0|0:0,0:0:0:0:
71,181,138710,2,0,L|78:116,1,48.4000014770508,2|0,0:0|0:0,0:0:0:0:
141,328,138873,5,0,0:0:0:0:
6,241,139036,1,2,3:1:0:0:
153,164,139199,5,0,0:0:0:0:
141,328,139362,1,2,3:1:0:0:
371,328,139525,5,0,3:0:0:0:
359,164,139688,1,2,0:0:0:0:
218,292,139851,2,0,B|313:318|304:221|406:252,1,193.600005908203,8|2,0:0|0:0,0:0:0:0:
478,281,140259,1,0,0:0:0:0:
478,281,140340,1,2,0:0:0:0:
438,84,140503,6,0,P|419:128|434:173,1,96.8000029541017,2|2,3:1|0:0,0:0:0:0:
371,328,140829,1,0,3:0:0:0:
478,281,140992,2,0,L|423:259,1,48.4000014770508,0|0,0:0|0:0,0:0:0:0:
292,209,141156,2,0,P|238:282|282:362,1,193.600005908203,0|0,0:0|0:0,0:0:0:0:
236,35,141645,1,2,3:1:0:0:
248,45,141808,6,0,P|272:90|232:161,1,96.8000029541017,2|0,0:0|3:0,0:0:0:0:
304,301,142134,2,0,P|281:260|290:214,1,96.8000029541017,0|0,3:0|0:0,0:0:0:0:
392,127,142378,1,0,0:0:0:0:
396,141,142460,6,0,L|348:147,1,48.4000014770508,8|0,0:0|0:0,0:0:0:0:
187,168,142623,2,0,L|138:173,1,48.4000014770508,2|0,0:0|0:0,0:0:0:0:
277,86,142786,2,0,L|260:141,1,48.4000014770508,2|0,0:0|0:0,0:0:0:0:
304,259,142949,2,0,L|290:213,1,48.4000014770508,2|0,0:0|0:0,0:0:0:0:
423,49,143112,6,0,L|396:142,1,96.8000029541017,2|0,3:1|0:0,0:0:0:0:
401,155,143357,1,0,2:0:0:0:
407,167,143438,1,0,3:0:0:0:
455,328,143601,2,0,L|441:282,1,48.4000014770508,2|0,2:1|0:0,0:0:0:0:
471,332,143764,5,8,0:0:0:0:
307,291,143927,1,2,0:0:0:0:
445,329,144090,1,0,0:0:0:0:
307,291,144253,2,0,P|284:289|259:298,1,48.4000014770508,2|0,3:1|0:0,0:0:0:0:
105,368,144416,5,0,0:0:0:0:
105,368,144579,1,2,3:1:0:0:
160,181,144742,2,0,L|187:87,1,96.8000029541017,0|2,3:0|0:0,0:0:0:0:
12,229,145069,6,0,B|65:206|105:241|105:241|146:277|197:254,1,193.600005908203,8|2,0:0|0:0,0:0:0:0:
76,180,145476,1,0,0:0:0:0:
87,142,145558,1,2,0:0:0:0:
251,187,145721,6,0,L|435:179,1,145.200004431152,2|0,3:1|0:0,0:0:0:0:
411,180,146047,2,0,P|428:231|396:300,1,96.8000029541017,2|0,3:1|0:0,0:0:0:0:
314,336,146373,5,8,0:0:0:0:
340,85,146536,1,2,0:0:0:0:
40,84,146699,5,2,0:0:0:0:
66,335,146862,1,2,3:1:0:0:
249,65,147025,6,0,P|203:37|155:74,1,96.8000029541017,2|0,0:0|3:0,0:0:0:0:
155,357,147351,2,0,P|199:372|236:344,1,96.8000029541017,2|0,3:1|0:0,0:0:0:0:
312,192,147677,2,0,L|59:209,1,228.799989526368,10|2,0:0|0:0,0:0:0:0:
83,207,148166,1,2,1:2:0:0:
83,207,148329,6,0,B|136:250|136:250|259:242,1,176,0|0,0:0|0:0,0:0:0:0:
512,115,150938,6,0,B|505:169|505:169|516:201|516:201|500:231|500:231|494:286,1,176,0|0,0:0|0:0,0:0:0:0:
0,115,153547,6,0,B|6:169|6:169|-4:201|-4:201|12:231|12:231|18:286,1,176,0|0,0:0|0:0,0:0:0:0:
157,112,154851,6,0,B|150:166|150:166|161:198|161:198|145:228|145:228|139:283,1,176,0|0,0:0|0:0,0:0:0:0:
311,141,156156,6,0,B|306:179|306:179|287:203|287:203|282:241|282:241|262:268|262:268|257:304,1,176,0|0,0:0|0:0,0:0:0:0:
455,201,156645,6,0,B|436:220|441:246|441:246|415:252|415:252|423:280|423:280|415:325|368:349,1,176,0|0,0:0|0:0,0:0:0:0:
0,115,157134,6,0,B|6:169|6:169|-4:201|-4:201|12:231|12:231|17:284,1,176,0|0,0:0|0:0,0:0:0:0:
157,112,157623,6,0,B|150:166|150:166|161:198|161:198|145:228|145:228|139:281,1,176,0|0,0:0|0:0,0:0:0:0:
465,54,158112,6,0,B|411:54|411:54|400:44|400:44|359:56|359:56|348:45|348:45|287:45,1,176,0|0,0:0|0:0,0:0:0:0:
126,280,158438,1,0,0:0:0:0:
157,112,158601,1,0,0:0:0:0:
420,170,158764,5,0,3:0:0:0:
157,126,159090,1,4,0:3:0:0:
413,174,159416,5,0,3:0:0:0:
170,119,159742,1,4,0:3:0:0:
407,178,160069,5,0,3:0:0:0:
164,106,160395,1,4,0:3:0:0:
295,316,160721,5,0,3:0:0:0:
367,73,161047,1,4,0:3:0:0:
367,73,161210,1,4,0:3:0:0:
88,297,161373,5,0,3:0:0:0:
72,44,161699,1,4,0:3:0:0:
97,271,162025,5,0,3:0:0:0:
66,70,162351,1,4,0:3:0:0:
106,245,162677,5,0,3:0:0:0:
60,102,163003,1,4,0:3:0:0:
115,219,163329,5,0,3:0:0:0:
54,134,163492,1,4,0:3:0:0:
396,201,163656,5,8,0:0:0:0:
447,109,163819,1,4,0:3:0:0:
264,336,163982,5,0,3:0:0:0:
248,48,164308,1,4,0:3:0:0:
248,322,164634,5,0,3:0:0:0:
264,62,164960,1,4,0:3:0:0:
232,308,165286,5,0,3:0:0:0:
280,76,165612,1,4,0:3:0:0:
216,294,165938,5,0,3:0:0:0:
296,90,166264,1,4,0:3:0:0:
343,233,166427,1,4,0:3:0:0:
153,137,166590,5,0,3:0:0:0:
437,41,166916,1,4,0:3:0:0:
153,222,167242,5,0,3:0:0:0:
467,211,167568,1,4,0:3:0:0:
123,301,167895,5,0,3:0:0:0:
437,381,168221,1,4,0:3:0:0:
159,138,168547,5,0,3:0:0:0:
129,302,168710,1,4,0:3:0:0:
392,67,168873,5,8,0:0:0:0:
427,381,169036,1,4,0:3:0:0:
282,236,169199,6,0,L|228:241,1,44,0|0,3:0|0:0,0:0:0:0:
295,244,169525,6,0,B|324:191|306:106|277:161,1,132.000005035401,4|0,0:3|0:0,0:0:0:0:
163,307,169851,6,0,L|168:361,1,44,0|0,3:0|0:0,0:0:0:0:
170,293,170177,6,0,B|101:254|-10:278|62:315,1,176,4|0,0:3|0:0,0:0:0:0:
460,370,170503,6,0,L|523:363,1,44,0|0,3:0|0:0,0:0:0:0:
443,381,170829,6,0,B|438:329|438:329|464:265|464:265|457:203,1,176,4|0,0:3|0:0,0:0:0:0:
181,91,171156,6,0,L|118:98,1,44,0|0,3:0|0:0,0:0:0:0:
198,80,171482,6,0,B|203:132|203:132|177:196|177:196|184:258,1,176,4|4,0:3|0:3,0:0:0:0:
446,198,171808,6,0,P|423:180|372:183,1,66,0|0,3:0|0:0,0:0:0:0:
437,290,172134,6,0,P|452:259|337:260,1,176,4|0,0:3|0:0,0:0:0:0:
0,169,172460,6,0,P|23:187|74:184,1,66,0|0,3:0|0:0,0:0:0:0:
9,77,172786,6,0,P|-6:108|109:107,1,176,4|0,0:3|0:0,0:0:0:0:
315,36,173112,6,0,P|365:26|386:110,1,132.000005035401,0|0,3:0|2:0,0:0:0:0:
158,267,173438,5,4,0:3:0:0:
210,20,173601,1,4,0:3:0:0:
87,161,173764,5,0,3:0:0:0:
315,36,173927,1,4,0:3:0:0:
315,36,174090,1,4,0:3:0:0:
80,171,174253,5,4,0:3:0:0:
310,296,174416,6,0,L|364:290,1,44,0|0,3:0|0:0,0:0:0:0:
369,288,174742,6,0,B|373:228|196:145|301:271,1,176,4|0,0:3|0:0,0:0:0:0:
192,302,175069,6,0,B|195:348|54:415|138:315,1,132,0|0,3:0|0:0,0:0:0:0:
278,240,175395,6,0,B|282:181|105:97|210:223,1,176,4|0,0:3|0:0,0:0:0:0:
101,254,175721,6,0,B|104:300|-37:367|47:267,1,132,0|0,3:0|0:0,0:0:0:0:
187,193,176047,6,0,B|191:134|14:50|119:176,1,176,4|0,0:3|0:0,0:0:0:0:
13,254,176373,6,0,L|105:254,1,88,0|0,3:0|2:0,0:0:0:0:
499,254,176699,6,0,L|407:254,1,88,4|0,0:3|0:0,0:0:0:0:
256,256,176862,1,4,0:3:0:0:
499,254,177025,6,0,P|506:209|482:161,1,88,0|0,3:0|2:0,0:0:0:0:
78,118,177351,5,4,0:3:0:0:
434,118,177514,1,4,0:3:0:0:
148,41,177677,5,0,3:0:0:0:
364,41,177840,1,4,0:3:0:0:
256,0,178003,5,4,0:3:0:0:
256,0,178166,1,4,0:3:0:0:
255,205,178329,5,0,3:0:0:0:
255,205,178656,6,0,L|314:210,1,44,4|0,0:3|0:0,0:0:0:0:
454,226,178819,1,0,0:0:0:0:
256,288,178982,6,0,P|267:231|229:184,1,88,0|0,3:0|0:0,0:0:0:0:
68,256,179308,2,0,P|66:285|93:309,1,44,4|0,0:3|0:0,0:0:0:0:
165,271,179471,2,0,L|158:227,1,44,4|0,0:3|0:0,0:0:0:0:
396,244,179634,6,0,B|407:274|406:373|274:382|255:288|255:288|303:275|320:238|320:238|318:278|347:300,1,396.000015106202,0|0,3:0|2:0,0:0:0:0:
164,66,180286,5,0,3:0:0:0:
325,129,180449,6,0,P|347:112|362:84,1,44,2|0,0:2|2:0,0:0:0:0:
374,100,180612,6,0,P|379:72|373:41,1,33.0000012588501,2|0,0:2|2:0,0:0:0:0:
393,55,180775,6,0,P|382:38|364:26,1,22,2|0,0:2|2:0,0:0:0:0:
174,84,180938,5,0,3:0:0:0:
185,255,181101,6,0,P|207:270|239:276,1,44,2|0,0:2|2:0,0:0:0:0:
228,293,181264,6,0,P|256:289|283:273,1,33.0000012588501,2|0,0:2|2:0,0:0:0:0:
276,297,181427,6,0,P|288:281|294:260,1,22,2|0,0:2|2:0,0:0:0:0:
184,102,181590,5,0,3:0:0:0:
23,162,181753,6,0,P|15:188|19:220,1,44,2|0,0:2|2:0,0:0:0:0:
0,213,181916,6,0,P|12:238|35:260,1,33.0000012588501,2|0,0:2|2:0,0:0:0:0:
11,261,182079,6,0,P|29:268|51:267,1,22,2|0,0:2|2:0,0:0:0:0:
382,242,182242,6,0,B|430:215|415:127|415:127|332:141|325:215|325:215|295:152|226:137|169:182|230:220|261:205,1,462.000017623902,0|0,3:0|0:0,0:0:0:0:
133,194,182895,5,0,3:0:0:0:
151,60,183058,2,0,L|145:104,1,44,2|0,0:2|2:0,0:0:0:0:
101,108,183221,2,0,L|145:104,1,44,2|0,0:2|2:0,0:0:0:0:
188,99,183384,2,0,L|145:104,1,44,2|0,0:2|2:0,0:0:0:0:
115,330,183547,5,0,3:0:0:0:
133,194,183710,2,0,L|125:249,1,55,2|0,0:2|2:0,0:0:0:0:
69,253,183873,2,0,L|124:248,1,55,2|0,0:2|2:0,0:0:0:0:
179,243,184036,2,0,L|125:249,1,55,2|0,0:2|2:0,0:0:0:0:
3,246,184199,6,0,L|68:252,1,66.0000025177003,0|0,3:0|0:0,0:0:0:0:
179,243,184362,2,0,L|244:250,1,66.0000025177003,2|0,0:2|2:0,0:0:0:0:
277,165,184525,2,0,P|304:185|318:214,1,66.0000025177003,2|0,0:2|2:0,0:0:0:0:
398,208,184688,2,0,P|416:181|420:148,1,66.0000025177003,2|0,0:2|2:0,0:0:0:0:
165,16,184851,6,0,B|149:8|112:26|95:59|200:81|274:-5|274:-5|213:79|281:171,1,396.000015106202,0|0,3:0|2:0,0:0:0:0:
369,308,185503,5,0,3:0:0:0:
333,231,185666,2,0,P|353:224|375:223,1,44,2|0,0:2|2:0,0:0:0:0:
448,316,185829,2,0,P|446:338|433:356,1,44,2|0,0:2|2:0,0:0:0:0:
315,374,185992,2,0,P|299:361|288:342,1,44,2|0,0:2|2:0,0:0:0:0:
369,308,186156,5,0,3:0:0:0:
152,336,186319,2,0,L|207:330,1,55,2|0,0:2|2:0,0:0:0:0:
369,308,186482,2,0,L|424:302,1,55,2|0,0:2|2:0,0:0:0:0:
287,326,186645,2,0,L|280:272,1,55,2|0,0:2|2:0,0:0:0:0:
248,59,186808,5,0,3:0:0:0:
329,76,186971,2,0,L|400:85,1,66.0000025177003,2|0,0:2|2:0,0:0:0:0:
101,46,187134,2,0,L|167:54,1,66.0000025177003,2|0,0:2|2:0,0:0:0:0:
248,59,187297,2,0,L|239:125,1,66.0000025177003,2|0,0:2|2:0,0:0:0:0:
16,177,187460,6,0,B|-24:253|35:349|181:243|75:225|75:225|97:187|197:159|243:245,1,396.000015106202,0|0,3:0|2:0,0:0:0:0:
472,331,188112,5,0,3:0:0:0:
359,273,188275,2,0,L|365:229,1,44,2|0,0:2|2:0,0:0:0:0:
451,203,188438,2,0,L|444:246,1,44,2|0,0:2|2:0,0:0:0:0:
273,299,188601,2,0,L|279:255,1,44,2|0,0:2|2:0,0:0:0:0:
472,331,188764,5,0,3:0:0:0:
376,134,188927,6,0,L|383:77,1,55,2|0,0:2|2:0,0:0:0:0:
469,52,189090,2,0,L|461:107,1,55,2|0,0:2|2:0,0:0:0:0:
290,159,189253,2,0,L|299:93,1,55,2|0,0:2|2:0,0:0:0:0:
472,331,189416,5,0,0:0:0:0:
179,230,189579,1,0,0:0:0:0:
333,230,189742,5,0,0:0:0:0:
40,331,189906,1,0,3:0:0:0:
256,384,190069,6,0,B|281:343|263:272|198:263|198:263|258:244|313:172|311:91|239:74|158:144|253:200,1,462.000017623902,0|0,3:0|0:0,0:0:0:0:
360,142,190721,5,0,3:0:0:0:
105,99,190884,2,0,P|133:101|156:90,1,44,2|0,0:2|2:0,0:0:0:0:
388,68,191047,2,0,P|361:60|343:42,1,44,2|0,0:2|2:0,0:0:0:0:
118,25,191210,2,0,P|143:14|159:-3,1,44,2|0,0:2|2:0,0:0:0:0:
367,157,191373,5,0,3:0:0:0:
105,99,191536,2,0,P|133:97|156:108,1,55,2|0,0:2|2:0,0:0:0:0:
367,157,191699,2,0,P|339:169|321:187,1,55,2|0,0:2|2:0,0:0:0:0:
117,179,191862,2,0,P|144:191|162:209,1,55,2|0,0:2|2:0,0:0:0:0:
252,290,192025,5,0,3:0:0:0:
84,179,192188,2,0,P|112:177|146:193,1,66.0000025177003,2|0,0:2|2:0,0:0:0:0:
391,242,192351,2,0,P|365:253|343:284,1,66.0000025177003,2|0,0:2|2:0,0:0:0:0:
104,264,192514,2,0,P|130:271|157:298,1,66.0000025177003,2|0,0:2|2:0,0:0:0:0:
272,384,192677,6,0,B|221:321|270:256|270:256|330:327|395:220|337:195|281:170|355:69,1,396.000015106202,0|0,3:0|2:0,0:0:0:0:
415,149,193329,5,0,3:0:0:0:
304,16,193492,6,0,P|325:9|347:9,1,44,2|0,0:2|2:0,0:0:0:0:
325,163,193656,2,0,L|336:81,1,44,2|0,0:2|2:0,0:0:0:0:
376,17,193819,2,0,P|395:29|409:46,1,44,2|0,0:2|2:0,0:0:0:0:
403,283,193982,5,0,3:0:0:0:
177,150,194145,6,0,P|186:124|204:103,1,55,2|0,0:2|2:0,0:0:0:0:
325,163,194309,2,0,L|270:169,1,55,2|0,0:2|2:0,0:0:0:0:
194,226,194472,2,0,P|180:202|175:175,1,55,2|0,0:2|2:0,0:0:0:0:
506,233,194634,5,0,3:0:0:0:
325,163,194797,2,0,L|336:81,1,66.0000025177003,2|0,0:2|2:0,0:0:0:0:
303,321,194960,2,0,L|311:255,1,66.0000025177003,2|0,0:2|2:0,0:0:0:0:
302,21,195123,2,0,P|335:13|384:32,1,66.0000025177003,2|0,0:2|2:0,0:0:0:0:
421,240,195286,6,0,B|456:253|476:288|476:288|372:342|311:256|311:256|297:302|245:313|245:313|259:286|246:244,1,396.000015106202,0|0,3:0|0:0,0:0:0:0:
226,19,195938,5,0,3:0:0:0:
28,201,196101,2,0,L|81:196,1,44,2|0,0:2|0:0,0:0:0:0:
254,255,196264,2,0,L|297:250,1,44,2|0,0:2|0:0,0:0:0:0:
141,228,196427,2,0,L|184:223,1,44,2|0,0:2|0:0,0:0:0:0:
372,274,196590,5,0,3:0:0:0:
138,361,196753,2,0,L|133:308,1,44,2|0,0:2|0:0,0:0:0:0:
192,135,196916,2,0,L|187:91,1,44,2|0,0:2|0:0,0:0:0:0:
165,248,197079,2,0,L|160:204,1,44,2|0,0:2|0:0,0:0:0:0:
219,22,197242,5,0,3:0:0:0:
496,150,197406,1,2,0:2:0:0:
426,333,197569,5,2,0:2:0:0:
431,53,197732,1,2,0:2:0:0:
323,241,197895,6,0,P|270:252|291:203,1,132.000005035401,0|0,3:0|0:0,0:0:0:0:
496,150,198221,5,0,0:0:0:0:
414,326,198384,1,0,0:0:0:0:
423,56,198547,5,0,3:0:0:0:
498,262,198710,1,2,0:2:0:0:
332,21,198873,5,2,0:2:0:0:
407,227,199036,1,2,0:2:0:0:
180,21,199199,6,0,L|156:87,1,66.0000025177003,0|0,3:0|0:0,0:0:0:0:
105,227,199362,2,0,L|127:164,1,66.0000025177003,0|0,0:0|0:0,0:0:0:0:
89,56,199525,6,0,L|65:122,1,66.0000025177003,0|0,0:0|0:0,0:0:0:0:
14,262,199688,2,0,L|36:199,1,66.0000025177003,0|0,0:0|0:0,0:0:0:0:
256,4,199851,5,0,0:0:0:0:
215,362,200177,2,0,P|256:373|298:360,1,88,0|4,0:0|0:1,0:0:0:0:
498,211,200666,6,0,L|455:208,1,44,0|0,0:0|0:0,0:0:0:0:
333,197,200992,2,0,L|388:201,1,44,0|0,0:0|0:0,0:0:0:0:
455,208,201319,5,0,3:0:0:0:
254,189,201482,2,0,L|158:182,1,88,8|0,0:0|3:0,0:0:0:0:
322,69,201971,6,0,L|325:117,1,48.4000014770508,0|8,0:0|0:0,0:0:0:0:
336,245,202297,2,0,L|333:197,1,48.4000014770508,0|0,0:0|0:0,0:0:0:0:
343,324,202623,1,0,3:0:0:0:
325,117,202786,6,0,L|318:9,1,96.8000029541017,8|0,0:0|3:0,0:0:0:0:
4,212,203275,6,0,L|61:207,1,52.7999983886719,0|8,0:0|0:0,0:0:0:0:
187,196,203601,2,0,L|135:200,1,52.7999983886719,0|0,0:0|0:0,0:0:0:0:
57,208,203928,5,0,3:0:0:0:
267,190,204091,2,0,L|391:180,1,105.599996777344,8|0,0:0|0:0,0:0:0:0:
190,59,204580,6,0,L|187:117,1,57.1999973815919,0|8,0:0|0:0,0:0:0:0:
174,254,204906,2,0,L|179:197,1,57.1999973815919,0|0,0:0|0:0,0:0:0:0:
168,332,205232,1,0,3:0:0:0:
187,117,205395,5,8,0:0:0:0:
188,88,205476,1,0,0:0:0:0:
190,59,205558,1,0,0:0:0:0:
192,31,205639,1,0,0:0:0:0:
206,118,205721,6,0,L|211:180,1,61.5999981201172,0|0,3:0|0:0,0:0:0:0:
287,109,206047,2,0,L|292:171,1,61.5999981201172,8|0,0:0|0:0,0:0:0:0:
377,118,206373,6,0,L|372:180,1,61.5999981201172,0|0,0:0|3:0,0:0:0:0:
296,109,206699,2,0,L|291:171,1,61.5999981201172,8|0,0:0|0:0,0:0:0:0:
156,249,207025,6,0,L|161:319,1,66.0000025177003,0|0,3:0|0:0,0:0:0:0:
237,240,207351,2,0,L|242:308,1,66.0000025177003,8|0,0:0|0:0,0:0:0:0:
328,249,207677,6,0,L|322:318,1,66.0000025177003,0|0,0:0|3:0,0:0:0:0:
247,240,208003,2,0,L|241:309,1,66.0000025177003,8|0,0:0|0:0,0:0:0:0:
77,205,208329,6,0,P|99:202|136:167,1,70.4,0|0,3:0|0:0,0:0:0:0:
178,106,208656,2,0,P|186:85|174:35,1,70.4,8|0,0:0|0:0,0:0:0:0:
315,142,208982,6,0,P|294:150|244:138,1,70.4,0|0,0:0|3:0,0:0:0:0:
178,106,209309,2,0,P|160:92|145:43,1,70.4,8|0,0:0|0:0,0:0:0:0:
333,348,209634,6,0,P|322:313|334:277,1,74.8000014266968,0|0,3:0|0:0,0:0:0:0:
377,212,209961,2,0,P|403:189|446:184,1,74.8000014266968,8|0,0:0|0:0,0:0:0:0:
192,249,210287,6,0,P|226:235|262:242,1,74.8000014266968,0|0,0:0|3:0,0:0:0:0:
333,277,210612,2,0,P|358:303|367:339,1,74.8000014266968,8|0,0:0|0:0,0:0:0:0:
104,346,210938,6,0,L|97:244,1,88,4|0,0:3|0:0,0:0:0:0:
437,157,211264,2,0,L|430:55,1,88,12|0,0:3|0:0,0:0:0:0:
124,328,211590,6,0,L|117:240,1,88,4|0,0:3|3:0,0:0:0:0:
418,165,211916,2,0,L|411:77,1,88,12|0,0:3|0:0,0:0:0:0:
97,258,212242,6,0,L|104:346,1,88,4|0,3:3|0:0,0:0:0:0:
430,69,212568,2,0,L|437:157,1,88,12|0,0:3|0:0,0:0:0:0:
97,258,212894,6,0,L|104:346,1,88,4|0,0:3|3:0,0:0:0:0:
430,69,213220,2,0,L|437:157,1,88,12|0,0:3|0:0,0:0:0:0:
408,346,213547,6,0,L|415:244,1,88,4|0,3:3|0:0,0:0:0:0:
75,157,213873,2,0,L|82:55,1,88,12|0,0:3|0:0,0:0:0:0:
388,328,214199,6,0,L|395:240,1,88,4|0,0:3|3:0,0:0:0:0:
94,165,214525,2,0,L|101:77,1,88,12|0,0:3|0:0,0:0:0:0:
431,69,214851,6,0,L|437:157,1,88,4|0,0:3|0:0,0:0:0:0:
265,172,215014,2,0,L|271:260,1,88,12|0,0:3|0:0,0:0:0:0:
98,258,215177,6,0,L|104:346,1,88,12|0,0:3|0:0,0:0:0:0:
271,164,215340,2,0,L|277:252,1,88,12|0,0:3|0:0,0:0:0:0:
105,251,215503,6,0,L|111:339,1,88,12|0,0:3|0:0,0:0:0:0:
408,346,215666,2,0,L|414:258,1,88,12|0,0:3|0:0,0:0:0:0:
241,260,215829,6,0,L|247:172,1,88,12|0,0:3|0:0,0:0:0:0:
75,157,215992,2,0,L|81:69,1,88,4|0,0:3|0:0,0:0:0:0:
259,168,216156,6,0,P|217:189|143:166,1,88,4|0,3:3|0:0,0:0:0:0:
85,50,216482,1,12,0:3:0:0:
311,90,216645,1,0,0:0:0:0:
71,176,216808,5,4,0:3:0:0:
229,1,216971,1,0,3:0:0:0:
71,176,217134,5,12,0:3:0:0:
229,1,217297,1,0,0:0:0:0:
312,305,217460,6,0,P|271:273|172:278,1,132,4|0,3:3|0:0,0:0:0:0:
176,275,217786,1,12,0:3:0:0:
115,24,217949,1,0,0:0:0:0:
321,120,218112,6,0,L|417:113,1,88,4|0,0:3|3:0,0:0:0:0:
113,362,218438,2,0,L|201:369,1,88,12|0,0:3|0:0,0:0:0:0:
191,120,218764,6,0,L|95:113,1,88,4|0,3:3|0:0,0:0:0:0:
311,369,218927,2,0,L|399:362,1,88,4|0,0:3|0:0,0:0:0:0:
191,120,219090,6,0,L|95:113,1,88,12|0,0:3|0:0,0:0:0:0:
311,369,219253,2,0,L|399:362,1,88,4|0,0:3|0:0,0:0:0:0:
321,120,219416,6,0,L|417:113,1,88,4|0,0:3|0:0,0:0:0:0:
201,369,219579,2,0,L|113:362,1,88,4|0,3:3|0:0,0:0:0:0:
321,120,219742,6,0,L|417:113,1,88,12|0,0:3|0:0,0:0:0:0:
201,369,219905,2,0,L|113:362,1,88,4|0,0:3|0:0,0:0:0:0:
255,260,220069,5,4,3:3:0:0:
255,240,220150,1,4,0:3:0:0:
255,222,220232,1,4,0:3:0:0:
255,204,220313,1,4,0:3:0:0:
256,186,220395,2,0,P|203:218|154:209,1,88,12|0,0:3|0:0,0:0:0:0:
152,64,220721,2,0,P|153:125|120:163,1,88,0|0,0:0|3:0,0:0:0:0:
96,216,221047,2,0,L|122:361,1,132,8|0,0:0|0:0,0:0:0:0:
123,363,221373,5,8,0:1:0:0:
389,363,221536,1,0,3:0:0:0:
256,133,221699,1,0,3:0:0:0:
389,363,221862,5,8,0:1:0:0:
123,363,222025,1,0,3:0:0:0:
256,133,222188,1,0,3:0:0:0:
123,363,222351,5,8,0:1:0:0:
389,363,222514,1,0,3:0:0:0:
256,28,222677,5,8,0:1:0:0:
357,216,222840,1,0,3:0:0:0:
145,216,223003,5,0,3:0:0:0:
361,89,223166,1,8,0:1:0:0:
145,216,223329,1,0,3:0:0:0:
357,216,223492,1,0,3:0:0:0:
256,384,223656,5,8,0:1:0:0:
256,136,223819,1,0,3:0:0:0:
54,279,223982,5,8,0:1:0:0:
362,329,224145,1,0,3:0:0:0:
140,359,224308,1,0,3:0:0:0:
362,55,224471,5,8,0:1:0:0:
140,25,224634,1,0,3:0:0:0:
221,230,224797,1,0,3:0:0:0:
252,0,224960,5,8,0:1:0:0:
351,192,225123,1,0,3:0:0:0:
129,21,225286,5,8,0:1:0:0:
476,134,225449,1,0,3:0:0:0:
116,155,225612,1,0,3:0:0:0:
463,133,225775,6,0,P|478:92|470:50,1,88,8|0,0:1|3:0,0:0:0:0:
227,0,226101,1,0,3:0:0:0:
250,297,226264,2,0,L|260:424,1,88,8|0,0:1|3:0,0:0:0:0:
393,127,226590,5,8,0:1:0:0:
91,148,226753,1,0,3:0:0:0:
290,78,226916,5,8,0:1:0:0:
187,197,227079,1,0,3:0:0:0:
297,187,227242,5,8,0:1:0:0:
177,84,227405,1,0,3:0:0:0:
290,78,227569,5,8,0:1:0:0:
187,197,227732,1,0,3:0:0:0:
307,300,227895,5,8,0:1:0:0:
176,70,228058,1,0,3:0:0:0:
188,309,228221,5,8,0:1:0:0:
289,64,228384,1,0,3:0:0:0:
322,298,228547,5,8,0:1:0:0:
167,59,228710,1,0,3:0:0:0:
183,319,228873,5,8,0:1:0:0:
296,49,229036,1,0,3:0:0:0:
263,374,229199,5,8,0:1:0:0:
465,139,229362,1,8,0:1:0:0:
352,384,229525,5,8,0:1:0:0:
136,129,229688,1,8,0:1:0:0:
249,374,229851,5,8,0:1:0:0:
376,129,230015,1,8,0:1:0:0:
160,384,230177,5,8,0:1:0:0:
47,139,230341,1,8,0:1:0:0:
271,213,230503,5,8,0:0:0:0:
241,175,230584,1,8,0:0:0:0:
258,211,230666,5,8,0:0:0:0:
276,175,230748,1,8,0:0:0:0:
247,213,230829,5,8,0:0:0:0:
230,176,230911,1,8,0:0:0:0:
258,211,230992,5,8,0:0:0:0:
255,170,231074,1,8,0:0:0:0:
258,211,231156,6,0,L|200:225,1,44,2|0,0:1|0:0,0:0:0:0:
179,199,231319,2,0,L|121:213,1,44,2|0,0:1|0:0,0:0:0:0:
21,348,231482,6,0,L|79:362,1,44,2|0,0:1|0:0,0:0:0:0:
100,336,231645,2,0,L|158:350,1,44,2|0,0:1|0:0,0:0:0:0:
346,25,231808,6,0,B|287:64|210:29|210:29|250:52|250:107,1,224.40000428009,0|0,3:0|2:0,0:0:0:0:
146,277,232134,6,0,B|152:230|152:230|137:209|137:209|173:173|173:173|160:157|160:157|167:105,1,198.000007553101,8|0,0:0|2:0,0:0:0:0:
67,15,232460,6,0,P|94:33|127:30,1,66.0000025177003,2|0,0:2|2:0,0:0:0:0:
309,112,232623,2,0,P|285:95|248:97,1,66.0000025177003,0|0,3:0|0:0,0:0:0:0:
79,148,232786,1,10,0:2:0:0:
146,277,232949,2,0,L|158:187,1,66.0000025177003,2|0,0:2|2:0,0:0:0:0:
167,104,233112,5,0,3:0:0:0:
146,277,233275,2,0,P|173:255|207:251,1,66.0000025177003,2|2,0:2|2:2,0:0:0:0:
329,323,233438,6,0,B|340:355|375:369|375:369|382:321|345:260|288:255,1,224.40000428009,8|0,0:0|2:0,0:0:0:0:
206,330,233764,6,0,L|250:327,1,44,2|2,0:2|2:2,0:0:0:0:
329,322,233927,1,0,3:0:0:0:
95,372,234090,6,0,P|165:307|79:266,1,224.40000428009,8|0,0:0|0:0,0:0:0:0:
44,75,234416,6,0,B|-51:133|1:248|1:248|9:210|55:187,1,264,0|0,3:0|2:0,0:0:0:0:
219,214,234742,6,0,B|209:263|209:263|111:296|111:296|79:266,1,198.000007553101,8|0,0:0|2:0,0:0:0:0:
39,198,235069,6,0,P|63:186|114:196,1,66.0000025177003,2|0,0:2|2:0,0:0:0:0:
281,205,235232,2,0,P|251:218|219:214,1,66.0000025177003,0|0,3:0|0:0,0:0:0:0:
187,0,235395,2,0,L|179:64,1,66.0000025177003,10|0,0:2|2:0,0:0:0:0:
171,145,235558,1,2,0:2:0:0:
46,70,235721,5,0,3:0:0:0:
347,158,235884,2,0,P|359:130|355:90,1,66.0000025177003,2|2,0:2|2:2,0:0:0:0:
340,16,236047,1,8,0:0:0:0:
219,214,236210,6,0,B|260:194|299:221|299:221|336:249|385:229,1,158.399995166016,2|0,0:2|2:0,0:0:0:0:
255,344,236454,1,2,2:2:0:0:
251,339,236536,6,0,P|245:304|263:272,1,57.1999973815919,2|0,3:2|2:0,0:0:0:0:
394,230,236699,2,0,L|444:224,6,28.599998690796,8|0|0|0|0|0|0,0:0|2:0|2:0|2:0|2:0|2:0|2:0,0:0:0:0:
92,126,237025,6,0,B|161:177|144:282|144:282|191:256|193:189,1,264,0|0,3:0|2:0,0:0:0:0:
378,109,237351,6,0,B|331:115|331:115|310:100|310:100|274:136|274:136|258:123|258:123|206:130,1,198.000007553101,8|0,0:0|2:0,0:0:0:0:
214,65,237677,6,0,L|206:131,1,66.0000025177003,2|0,0:2|2:0,0:0:0:0:
190,248,237840,1,0,3:0:0:0:
466,117,238003,2,0,P|462:84|446:55,1,66.0000025177003,10|0,0:2|2:0,0:0:0:0:
326,48,238166,2,0,L|332:114,1,66.0000025177003,2|0,0:2|2:0,0:0:0:0:
350,348,238329,5,0,3:0:0:0:
331,113,238492,2,0,P|302:97|267:99,1,66.0000025177003,2|2,0:2|2:2,0:0:0:0:
12,119,238656,6,0,P|54:54|140:83,1,149.600002853394,8|0,0:0|0:0,0:0:0:0:
189,126,238982,6,0,L|196:50,1,44,2|2,0:2|2:2,0:0:0:0:
204,6,239145,1,0,3:0:0:0:
0,204,239308,6,0,B|70:199|70:199|125:259|125:259|212:254,1,224.40000428009,8|0,0:0|2:0,0:0:0:0:
420,127,239634,6,0,B|337:153|260:95|260:95|299:126|290:180,1,264,0|0,3:0|2:0,0:0:0:0:
217,351,239960,6,0,B|214:298|214:298|197:255|197:255|212:218|212:218|209:148,1,198.000007553101,8|0,0:0|2:0,0:0:0:0:
139,117,240286,6,0,P|127:147|130:180,1,66.0000025177003,2|0,0:2|2:0,0:0:0:0:
291,257,240449,1,0,3:0:0:0:
60,232,240612,6,0,P|85:252|117:259,1,66.0000025177003,10|0,0:2|2:0,0:0:0:0:
290,178,240775,1,2,0:2:0:0:
148,343,240938,6,0,P|171:325|185:299,2,58.6666666666667,2|0|0,3:2|0:0|0:0,0:0:0:0:
133,108,241264,6,0,P|121:136|121:166,1,44,10|2,2:0|2:2,0:0:0:0:
102,262,241427,2,0,L|59:266,1,44,2|0,2:2|2:0,0:0:0:0:
209,159,241590,6,0,L|252:162,1,44,2|0,1:1|0:0,0:0:0:0:
311,273,241753,5,2,0:1:0:0:
342,293,241835,5,0,1:0:0:0:
379,298,241916,5,2,0:1:0:0:
429,280,241998,5,0,0:0:0:0:
469,229,242079,6,0,L|463:166,1,44,2|0,1:1|2:0,0:0:0:0:
209,64,242242,6,0,P|301:41|354:189,1,264,0|0,3:0|2:0,0:0:0:0:
262,331,242569,6,0,B|271:387|319:375|319:375|361:315|294:257,1,198.000007553101,8|0,0:0|2:0,0:0:0:0:
182,281,242895,6,0,L|116:288,1,66.0000025177003,2|0,0:2|2:0,0:0:0:0:
412,258,243058,1,0,3:0:0:0:
181,171,243221,6,0,L|236:208,1,66.0000025177003,10|0,0:2|2:0,0:0:0:0:
479,382,243384,2,0,L|424:345,1,66.0000025177003,2|0,0:2|2:0,0:0:0:0:
356,134,243547,5,0,3:0:0:0:
287,385,243710,2,0,L|304:321,1,66.0000025177003,2|2,0:2|2:2,0:0:0:0:
350,120,243873,6,0,P|283:182|390:190,1,224.40000428009,8|0,0:0|2:0,0:0:0:0:
453,230,244199,6,0,L|445:167,1,44,2|2,0:2|2:2,0:0:0:0:
417,0,244362,1,0,3:0:0:0:
215,145,244525,6,0,B|297:184|350:119|350:119|308:93|260:147,1,224.40000428009,8|0,0:0|2:0,0:0:0:0:
52,137,244851,6,0,B|12:156|12:156|-5:88|39:22|39:22|64:53,1,224.40000428009,0|0,3:0|2:0,0:0:0:0:
145,20,245177,6,0,B|139:86|139:86|142:105|142:105|132:143|132:143|136:165|136:165|129:215,1,198.000007553101,8|0,0:0|0:0,0:0:0:0:
81,279,245503,6,0,P|111:294|154:290,1,66.0000025177003,2|0,0:2|2:0,0:0:0:0:
215,145,245666,1,0,3:0:0:0:
215,145,245829,6,0,P|245:130|288:134,1,66.0000025177003,10|0,0:2|2:0,0:0:0:0:
412,264,245992,2,0,L|332:249,1,66.0000025177003,2|0,0:2|2:0,0:0:0:0:
129,215,246156,5,0,3:0:0:0:
346,251,246319,2,0,P|378:251|408:237,1,66.0000025177003,2|2,0:2|2:2,0:0:0:0:
230,384,246482,1,8,0:0:0:0:
243,221,246645,6,0,L|258:49,1,132.000005035401,2|0,0:2|2:0,0:0:0:0:
266,8,246889,1,2,2:2:0:0:
281,16,246971,2,0,P|309:32|345:33,1,57.1999973815919,2|0,3:2|2:0,0:0:0:0:
404,2,247134,6,0,L|444:-2,6,28.599998690796,8|0|0|0|0|0|0,0:0|2:0|2:0|2:0|2:0|2:0|2:0,0:0:0:0:
243,221,247460,6,0,B|164:258|75:186|75:186|172:157,1,261.800004993439,0|0,3:0|0:0,0:0:0:0:
236,142,247786,6,0,L|251:300,1,158.399995166016,8|0,0:0|0:0,0:0:0:0:
362,81,248112,6,0,P|329:72|277:101,1,74.8000014266968,0|0,0:0|0:0,0:0:0:0:
161,309,248275,1,2,3:2:0:0:
121,33,248438,6,0,P|145:39|173:84,1,52.7999983886719,8|0,0:0|2:0,0:0:0:0:
261,183,248601,1,2,0:2:0:0:
0,216,248764,5,0,3:0:0:0:
276,179,248927,2,0,L|364:167,1,66.0000025177003,2|2,0:2|0:2,0:0:0:0:
104,203,249090,6,0,P|76:173|169:183,1,224.40000428009,8|0,0:0|2:0,0:0:0:0:
212,233,249416,6,0,L|209:292,1,44,2|2,0:2|0:2,0:0:0:0:
203,353,249579,1,0,3:0:0:0:
375,108,249742,6,0,P|412:172|272:180,1,224.40000428009,8|0,0:0|2:0,0:0:0:0:
215,207,250069,6,0,P|260:193|285:351,1,264,0|0,3:0|2:0,0:0:0:0:
422,144,250395,6,0,B|447:94|447:94|361:94|341:170,1,198.000007553101,8|0,0:0|2:0,0:0:0:0:
255,275,250721,6,0,P|227:286|178:276,1,66.0000025177003,2|0,0:2|2:0,0:0:0:0:
0,213,250884,2,0,P|32:210|62:221,1,66.0000025177003,0|0,3:0|0:0,0:0:0:0:
102,365,251047,6,0,L|108:299,1,66.0000025177003,10|0,0:2|2:0,0:0:0:0:
124,153,251210,2,0,L|131:87,1,66.0000025177003,2|0,0:2|2:0,0:0:0:0:
199,199,251373,6,0,L|228:196,2,29.3333333333333,0|0|0,2:0|0:0|0:0,0:0:0:0:
51,219,251699,6,0,L|7:214,2,44.0000016784669,0|0|0,2:0|0:0|0:0,0:0:0:0:
257,185,252025,6,0,P|275:202|325:211,1,44,2|0,0:1|2:0,0:0:0:0:
481,182,252188,6,0,P|461:164|436:154,1,55,2|0,0:1|2:0,0:0:0:0:
255,201,252351,6,0,P|287:223|324:224,1,66.0000025177003,2|0,0:1|2:0,0:0:0:0:
472,166,252514,6,0,P|440:144|403:143,1,77.0000007343292,2|0,0:1|2:0,0:0:0:0:
374,48,252677,6,0,B|353:117|353:117|398:221|398:221|375:296,1,264,0|0,3:0|2:0,0:0:0:0:
313,367,253003,6,0,B|380:301|475:334|475:334|422:363,1,198.000007553101,8|0,0:0|2:0,0:0:0:0:
167,373,253329,6,0,P|150:356|135:307,1,66.0000025177003,2|0,0:2|2:0,0:0:0:0:
135,159,253492,1,0,3:0:0:0:
59,292,253656,6,0,P|70:270|112:241,1,66.0000025177003,10|0,0:2|2:0,0:0:0:0:
253,196,253819,2,0,P|258:220|241:268,1,66.0000025177003,2|0,0:2|2:0,0:0:0:0:
167,373,253982,5,0,3:0:0:0:
202,113,254145,2,0,L|211:44,1,66.0000025177003,2|2,0:2|2:2,0:0:0:0:
419,300,254308,6,0,B|360:289|360:289|346:278|346:278|305:288|267:263,1,149.600002853394,8|0,0:0|0:0,0:0:0:0:
203,253,254552,1,0,2:0:0:0:
193,252,254634,2,0,L|201:315,1,44,2|2,0:2|2:2,0:0:0:0:
209,376,254797,1,0,3:0:0:0:
322,202,254960,6,0,P|376:190|336:275,1,198.000007553101,8|0,0:0|2:0,0:0:0:0:
169,279,255286,6,0,B|216:251|264:285|264:285|281:359|356:360,1,224.40000428009,0|0,3:0|2:0,0:0:0:0:
470,215,255612,6,0,P|381:194|346:278,1,198.000007553101,8|0,0:0|2:0,0:0:0:0:
470,216,255938,6,0,P|475:183|456:142,1,66.0000025177003,2|0,0:2|2:0,0:0:0:0:
199,109,256101,1,0,3:0:0:0:
464,152,256264,6,0,P|439:128|395:121,1,66.0000025177003,10|0,0:2|2:0,0:0:0:0:
184,111,256427,2,0,L|118:118,1,66.0000025177003,2|0,0:2|2:0,0:0:0:0:
287,167,256590,5,0,3:0:0:0:
307,8,256753,2,0,L|299:73,1,66.0000025177003,2|2,0:2|2:2,0:0:0:0:
267,357,256916,1,8,0:0:0:0:
403,191,257079,6,0,P|351:155|287:166,1,132.000005035401,0|0,0:0|2:0,0:0:0:0:
334,309,257324,1,2,2:0:0:0:
339,291,257406,2,0,P|341:262|330:236,1,57.1999973815919,2|0,3:2|2:0,0:0:0:0:
209,179,257569,2,0,L|180:182,6,28.599998690796,8|0|0|0|0|0|0,0:0|2:0|2:0|2:0|2:0|2:0|2:0,0:0:0:0:
233,92,257895,6,0,B|230:147|181:182|181:182|194:232|238:250|285:217,1,224.40000428009,0|0,3:0|2:0,0:0:0:0:
223,21,258221,6,0,P|173:51|196:153,1,158.399995166016,8|0,0:0|0:0,0:0:0:0:
276,134,258547,6,0,P|238:136|208:157,1,74.8000014266968
63,309,258710,1,0,3:0:0:0:
322,230,258873,6,0,L|269:225,1,52.7999983886719,8|0,0:0|0:0,0:0:0:0:
54,204,259036,1,2,0:2:0:0:
196,351,259199,5,0,3:0:0:0:
196,351,259362,2,0,L|252:345,1,57.1999973815919,2|0,0:2|0:0,0:0:0:0:
402,232,259525,6,0,B|455:199|455:199|409:333,1,198.000007553101,8|0,0:0|2:0,0:0:0:0:
337,381,259851,6,0,L|329:319,1,44,2|2,0:2|2:2,0:0:0:0:
320,256,260014,2,0,L|312:194,1,57.1999973815919,0|0,3:0|0:0,0:0:0:0:
295,51,260177,6,0,L|335:53,6,33.0000012588501,8|0|0|0|0|0|0,0:0|0:0|0:0|0:0|0:0|0:0|2:0,0:0:0:0:
461,105,260503,6,0,B|420:57|358:77|358:77|330:140|263:123,1,224.40000428009,0|0,3:0|2:0,0:0:0:0:
89,198,260829,6,0,B|70:71|70:71|115:123,1,198.000007553101,8|0,0:0|2:0,0:0:0:0:
41,260,261156,2,0,P|69:275|102:275,1,66.0000025177003,2|0,0:2|2:0,0:0:0:0:
189,166,261319,1,0,3:0:0:0:
134,347,261482,6,0,P|162:330|180:302,1,66.0000025177003,10|0,0:2|2:0,0:0:0:0:
115,123,261645,2,0,P|82:116|51:127,1,66.0000025177003,2|0,0:2|2:0,0:0:0:0:
0,189,261808,5,0,3:0:0:0:
188,81,261971,2,0,L|197:-3,1,66.0000025177003,2|2,0:2|2:2,0:0:0:0:
312,181,262134,5,8,0:0:0:0:
321,191,262215,1,0,0:0:0:0:
329,199,262297,2,0,P|297:207|258:192,1,66.0000025177003,2|0,0:2|0:0,0:0:0:0:
189,166,262460,5,0,2:0:0:0:
403,107,262623,1,0,3:0:0:0:
365,304,262786,2,0,L|360:332,6,28.599998690796,0|0|0|0|0|0|0,2:0|2:0|2:0|2:0|2:0|2:0|2:0,0:0:0:0:
440,358,263112,6,0,L|246:364,1,158.399995166016,0|0,3:0|2:0,0:0:0:0:
271,362,263438,2,0,L|289:284,1,52.7999983886719,8|0,0:0|0:0,0:0:0:0:
120,189,263601,2,0,L|131:240,1,52.7999983886719,0|0,0:0|0:0,0:0:0:0:
99,361,263764,2,0,P|143:326|203:325,1,105.599996777344,0|0,0:0|3:0,0:0:0:0:
357,361,264090,1,8,0:0:0:0:
207,163,264253,1,0,0:0:0:0:
441,110,264416,6,0,L|465:301,1,158.399995166016,0|0,3:0|0:0,0:0:0:0:
463,289,264742,2,0,B|442:298|442:298|412:292,1,52.7999983886719,8|0,0:0|0:0,0:0:0:0:
198,242,264906,1,0,0:0:0:0:
361,88,265069,1,0,0:0:0:0:
361,88,265150,1,0,2:0:0:0:
361,88,265232,1,0,3:0:0:0:
274,360,265395,2,0,B|297:340|297:340|303:319,1,52.7999983886719,8|0,0:0|0:0,0:0:0:0:
264,16,265558,2,0,B|259:37|259:37|271:66,1,52.7999983886719
326,195,265721,6,0,B|288:177|250:201|250:201|210:227|159:200,1,158.399995166016,0|0,3:0|2:0,0:0:0:0:
160,198,266047,1,8,0:0:0:0:
396,61,266210,1,0,0:0:0:0:
298,272,266373,5,0,0:0:0:0:
264,5,266536,1,0,0:0:0:0:
300,289,266699,1,8,0:0:0:0:
264,5,266862,1,0,3:0:0:0:
51,266,267025,6,0,L|166:256,1,105.599996777344,0|0,3:0|0:0,0:0:0:0:
171,255,267270,1,0,2:0:0:0:
186,252,267351,2,0,L|102:239,1,52.7999983886719,8|0,0:0|0:0,0:0:0:0:
325,211,267514,6,0,P|298:269|320:329,1,132.000005035401,0|0,0:0|2:0,0:0:0:0:
162,95,267840,1,0,3:0:0:0:
133,243,268003,2,0,P|153:216|159:168,1,66.0000025177003,8|0,0:0|0:0,0:0:0:0:
148,88,268166,1,0,0:0:0:0:
188,323,268329,6,0,P|144:261|160:186,1,158.399995166016,0|0,3:0|2:0,0:0:0:0:
170,176,268656,1,8,0:0:0:0:
428,92,268819,2,0,P|434:143|404:186,1,105.599996777344,0|0,0:0|2:0,0:0:0:0:
361,7,269145,1,0,3:0:0:0:
298,214,269308,1,8,0:0:0:0:
511,169,269471,1,0,0:0:0:0:
226,4,269634,6,0,P|275:63|262:139,1,158.399995166016,0|0,3:0|0:0,0:0:0:0:
310,121,269960,2,0,P|288:134|262:138,1,52.7999983886719,8|0,0:0|0:0,0:0:0:0:
1,114,270123,6,0,B|44:126|79:92|79:92|121:110|121:110|150:80|194:84,1,211.199993554688,0|0,0:0|3:0,0:0:0:0:
213,279,270612,2,0,P|200:266|195:251,2,26.399999194336,8|0|0,0:0|0:0|0:0,0:0:0:0:
175,187,270775,2,0,P|179:169|190:157,2,26.399999194336
387,122,270938,5,0,3:0:0:0:
371,242,271101,1,0,2:0:0:0:
290,35,271264,1,8,0:0:0:0:
501,64,271427,1,0,2:0:0:0:
367,255,271590,6,0,P|359:220|368:196,1,52.7999983886719,2|2,0:2|0:2,0:0:0:0:
284,25,271753,2,0,P|318:35|334:55,1,52.7999983886719,0|0,3:0|2:0,0:0:0:0:
512,57,271916,2,0,P|485:81|460:85,1,52.7999983886719,8|0,0:0|0:0,0:0:0:0:
387,122,272079,1,0,0:0:0:0:
386,121,272242,6,0,L|401:60,1,52.7999983886719,2|2,0:2|0:1,0:0:0:0:
265,147,272569,6,0,L|214:98,1,70.4,2|2,0:2|0:1,0:0:0:0:
351,239,272895,5,2,0:2:0:0:
387,217,272976,1,0,0:0:0:0:
429,211,273058,1,2,0:1:0:0:
468,224,273139,1,0,0:0:0:0:
495,256,273221,5,2,0:2:0:0:
443,229,273302,1,0,0:0:0:0:
430,171,273384,1,2,0:1:0:0:
445,115,273465,1,0,0:0:0:0:
499,67,273547,6,0,B|525:124|525:124|487:291,1,198.000007553101,2|0,3:1|2:0,0:0:0:0:
490,275,273873,1,8,0:0:0:0:
232,149,274036,2,0,B|175:142|175:142|109:169|109:169|41:159,1,198.000007553101,2|0,0:1|2:0,0:0:0:0:
20,156,274362,1,0,3:1:0:0:
281,5,274525,2,0,P|289:38|282:70,1,66.0000025177003,10|0,0:0|2:0,0:0:0:0:
99,63,274688,2,0,P|91:30|98:-1,1,66.0000025177003,2|0,0:0|2:0,0:0:0:0:
354,221,274851,6,0,P|435:224|385:153,1,198.000007553101,2|0,3:1|2:0,0:0:0:0:
317,151,275177,1,8,0:0:0:0:
119,325,275340,2,0,B|157:290|207:306|207:306|245:352|298:342,1,198.000007553101,2|0,0:1|2:0,0:0:0:0:
316,336,275666,1,0,3:0:0:0:
47,285,275829,2,0,L|64:206,1,66.0000025177003,10|0,0:0|0:0,0:0:0:0:
258,69,275992,2,0,L|244:133,1,66.0000025177003,2|0,0:0|0:0,0:0:0:0:
228,213,276156,5,2,3:1:0:0:
133,2,276319,1,2,0:0:0:0:
401,45,276482,1,8,0:0:0:0:
223,290,276645,6,0,B|234:231|193:199|193:199|152:165|164:113,1,198.000007553101,0|0,0:0|2:0,0:0:0:0:
173,95,276971,1,2,3:1:0:0:
139,267,277134,2,0,B|109:272|109:272|95:267|95:267|52:274,1,66.0000025177003,8|0,0:0|0:0,0:0:0:0:
248,132,277297,2,0,B|278:127|278:127|292:132|292:132|335:125,1,66.0000025177003,2|0,0:0|0:0,0:0:0:0:
431,358,277460,6,0,B|472:330|475:286|471:248|471:248|464:219|420:193|369:230|395:296|457:258,1,264.000010070801,2|8,3:1|0:0,0:0:0:0:
209,213,277949,1,0,0:0:0:0:
324,359,278112,6,0,P|317:327|333:269,1,66.0000025177003,0|0,2:0|0:0,0:0:0:0:
457,116,278275,1,2,3:1:0:0:
267,330,278438,6,0,P|291:307|349:292,1,66.0000025177003,10|0,0:0|0:0,0:0:0:0:
379,239,278601,2,0,P|354:221|319:214,1,66.0000025177003,2|0,0:0|0:0,0:0:0:0:
145,242,278764,6,0,P|129:179|162:124,1,132.000005035401,2|0,3:1|0:0,0:0:0:0:
360,60,279090,1,8,0:0:0:0:
490,319,279253,2,0,B|497:266|497:266|512:255|512:255|490:208|490:208|506:196|506:196|515:103,1,198.000007553101,2|0,0:1|0:0,0:0:0:0:
502,149,279579,1,2,3:1:0:0:
152,307,279742,6,0,L|144:241,1,66.0000025177003,10|0,0:1|2:0,0:0:0:0:
327,228,279906,2,0,L|319:162,1,66.0000025177003,2|0,0:1|2:0,0:0:0:0:
502,149,280069,6,0,B|486:13|486:13|446:97,1,198.000007553101,2|0,3:1|2:0,0:0:0:0:
512,142,280395,1,8,0:0:0:0:
256,54,280558,2,0,P|311:118|232:147,1,198.000007553101,2|0,0:0|2:0,0:0:0:0:
158,167,280884,2,0,P|155:134|168:104,1,66.0000025177003,0|0,3:0|2:0,0:0:0:0:
190,319,281047,2,0,P|192:352|179:382,1,66.0000025177003,10|0,0:0|0:0,0:0:0:0:
35,276,281210,2,0,L|100:265,1,66.0000025177003,2|0,0:0|0:0,0:0:0:0:
293,243,281373,6,0,B|215:257|215:257|190:319|190:319|266:305,1,198.000007553101,2|0,3:1|0:0,0:0:0:0:
260,307,281699,1,10,0:0:0:0:
404,192,281862,2,0,L|393:272,1,66.0000025177003,0|0,0:0|0:0,0:0:0:0:
383,336,282025,5,0,0:0:0:0:
241,148,282188,1,2,3:1:0:0:
429,6,282351,1,10,0:1:0:0:
241,148,282514,1,2,0:1:0:0:
478,89,282677,6,0,P|411:99|356:66,1,132.000005035401,2|0,3:1|0:0,0:0:0:0:
302,0,283003,1,10,0:1:0:0:
321,225,283166,1,0,0:0:0:0:
260,0,283329,6,0,L|280:73,1,66.0000025177003,2|0,0:0|2:0,0:0:0:0:
318,217,283492,1,0,3:0:0:0:
223,158,283656,2,0,B|194:151|194:151|166:176,1,66.0000025177003,10|0,0:0|2:0,0:0:0:0:
369,118,283819,2,0,B|397:93|397:93|425:100,1,66.0000025177003,2|0,0:0|2:0,0:0:0:0:
326,322,283982,6,0,L|124:301,1,198.000007553101,2|0,3:1|2:0,0:0:0:0:
109,300,284308,1,8,0:0:0:0:
27,68,284471,2,0,L|111:76,1,66.0000025177003,2|0,0:0|0:0,0:0:0:0:
308,99,284634,1,0,0:0:0:0:
47,230,284797,1,0,3:0:0:0:
175,0,284960,1,10,0:0:0:0:
217,260,285123,1,2,0:0:0:0:
454,98,285286,6,0,B|481:167|481:167|305:146,1,198.000007553101,2|0,3:1|2:0,0:0:0:0:
338,150,285612,1,8,0:0:0:0:
460,32,285775,2,0,L|453:98,1,66.0000025177003,2|0,0:0|0:0,0:0:0:0:
429,280,285938,1,0,0:0:0:0:
258,92,286101,1,0,3:0:0:0:
429,280,286264,2,0,L|335:290,1,66.0000025177003,10|0,0:0|0:0,0:0:0:0:
258,92,286427,2,0,P|226:88|193:99,1,66.0000025177003,2|0,0:0|0:0,0:0:0:0:
65,368,286590,6,0,P|97:371|130:361,1,66.0000025177003,2|0,3:1|0:0,0:0:0:0:
190,311,286753,2,0,P|209:284|216:250,1,66.0000025177003,2|0,0:0|0:0,0:0:0:0:
233,174,286916,1,8,0:0:0:0:
50,50,287079,2,0,B|34:115|34:115|46:175|46:175|29:254,1,198.000007553101,2|0,0:0|2:0,0:0:0:0:
26,269,287406,1,2,3:1:0:0:
248,171,287569,2,0,P|281:163|323:172,1,66.0000025177003,8|0,0:0|0:0,0:0:0:0:
477,237,287732,2,0,P|500:261|513:302,1,66.0000025177003,2|0,0:1|0:0,0:0:0:0:
435,27,287895,6,0,B|390:53|371:108|390:150|421:159|421:159|461:170|503:123|403:91,1,264.000010070801,2|10,3:1|0:0,0:0:0:0:
151,123,288384,1,0,0:0:0:0:
295,5,288547,2,0,P|307:41|303:97,1,66.0000025177003,0|0,2:0|0:0,0:0:0:0:
213,277,288710,2,0,P|210:244|199:213,1,66.0000025177003,2|0,3:1|0:0,0:0:0:0:
86,116,288873,6,0,L|161:125,1,66.0000025177003,10|0,0:0|0:0,0:0:0:0:
374,146,289036,2,0,L|449:155,1,66.0000025177003,2|0,0:0|0:0,0:0:0:0:
203,357,289199,6,0,P|137:309|212:276,1,198.000007553101,2|0,3:1|2:0,0:0:0:0:
278,325,289525,1,8,0:0:0:0:
262,184,289688,2,0,L|255:114,1,66.0000025177003,2|0,0:1|0:0,0:0:0:0:
280,340,289851,1,0,0:0:0:0:
279,331,290014,1,0,3:0:0:0:
365,140,290177,2,0,L|358:70,1,66.0000025177003,10|0,0:1|0:0,0:0:0:0:
468,96,290340,2,0,L|461:26,1,66.0000025177003,0|0,0:0|2:0,0:0:0:0:
159,333,290503,6,0,P|222:320|281:348,1,132.000005035401,0|2,3:0|0:0,0:0:0:0:
474,283,290829,1,8,0:0:0:0:
264,51,290992,1,2,0:0:0:0:
109,188,291156,5,2,0:0:0:0:
414,84,291319,1,2,3:1:0:0:
296,369,291482,5,8,0:0:0:0:
280,210,291645,1,2,0:0:0:0:
264,51,291808,6,0,P|211:17|118:68,1,132.000005035401,2|0,3:1|0:0,0:0:0:0:
20,246,292134,1,10,0:0:0:0:
206,114,292297,2,0,P|195:92|194:119,1,66.0000025177003,0|0,2:0|0:0,0:0:0:0:
114,295,292460,5,0,0:0:0:0:
59,32,292623,1,2,3:1:0:0:
297,159,292786,5,10,0:0:0:0:
20,246,292949,1,2,0:0:0:0:
214,382,293112,5,2,0:0:0:0:
200,286,293275,1,0,0:0:0:0:
186,190,293438,1,2,0:0:0:0:
366,261,293601,1,0,0:0:0:0:
214,382,293764,2,0,B|191:375|191:375|224:347,1,44,2|0,0:0|0:0,0:0:0:0:
200,286,293927,2,0,B|177:279|177:279|211:252,1,44,2|0,0:0|0:0,0:0:0:0:
186,190,294090,1,0,0:0:0:0:
366,261,294253,2,0,B|389:268|389:268|373:280,1,44,2|0,0:0|0:0,0:0:0:0:
214,382,294416,5,4,0:0:0:0:
