osu file format v14

[General]
AudioFilename: audio.mp3
AudioLeadIn: 0
PreviewTime: 89371
Countdown: 0
SampleSet: Soft
StackLeniency: 0.5
Mode: 0
LetterboxInBreaks: 0
WidescreenStoryboard: 0

[Editor]
DistanceSpacing: 2.5
BeatDivisor: 4
GridSize: 8
TimelineZoom: 3.499999

[Metadata]
Title:BroGamer
TitleUnicode:BroGamer
Artist:USAO
ArtistUnicode:USAO
Creator:joker-
Version:w
Source:beatmania IIDX 24 SINOBUZ
Tags:
BeatmapID:1549637
BeatmapSetID:734441

[Difficulty]
HPDrainRate:6.5
CircleSize:4
OverallDifficulty:8.8
ApproachRate:9.4
SliderMultiplier:1.98
SliderTickRate:1

[Events]
//Background and Video events
0,0,"bruh-1-iloveimg-resized.jpg",0,0
//Break Periods
//Storyboard Layer 0 (Background)
//Storyboard Layer 1 (Fail)
//Storyboard Layer 2 (Pass)
//Storyboard Layer 3 (Foreground)
//Storyboard Sound Samples

[TimingPoints]
1328,289.855072463768,4,2,42,60,1,0
1328,-153.846153846153,4,2,42,60,0,0
5675,-133.333333333333,4,2,42,60,0,0
6545,-117.647058823529,4,2,42,60,0,0
7125,-117.647058823529,4,2,42,60,0,0
10023,-117.647058823529,4,1,42,40,0,0
10313,-105.263157894737,4,2,42,60,0,0
11762,-90.9090909090909,4,2,42,60,0,0
16400,-90.9090909090909,4,3,42,70,0,0
21038,-90.9090909090909,4,3,42,80,0,0
27994,-90.9090909090909,4,1,42,30,0,0
28284,-90.9090909090909,4,1,42,30,0,0
28356,-90.9090909090909,4,1,42,30,0,0
28864,-90.9090909090909,4,1,42,30,0,0
28936,-90.9090909090909,4,1,42,30,0,0
29154,-90.9090909090909,4,1,42,30,0,0
29733,-90.9090909090909,4,3,42,80,0,0
29878,-111.111111111111,4,3,42,80,0,0
30023,-142.857142857143,4,3,42,80,0,0
30168,-200,4,3,42,80,0,0
30313,-90.9090909090909,4,3,42,80,0,0
34661,-333,4,3,42,80,0,0
34951,-90.9090909090909,4,3,42,80,0,0
35241,-90.9090909090909,4,3,42,80,0,0
37268,-83.3333333333333,4,3,42,80,0,0
37849,-90.9090909090909,4,3,42,80,0,0
38429,-100,4,3,42,80,0,0
39588,-90.9090909090909,4,3,42,80,0,0
46545,-99.9999999999999,4,3,42,80,0,0
47704,-83.3333333333333,4,3,42,80,0,0
48284,-90.9090909090909,4,3,42,80,0,0
48864,-200,4,3,42,80,0,0
49154,-142.857142857143,4,3,42,80,0,0
49443,-111.111111111111,4,3,42,80,0,0
49733,-90.9090909090909,4,3,42,80,0,0
50023,-90.9090909090909,4,3,42,80,0,0
52342,-50,4,3,42,80,0,0
53501,-111.111111111111,4,2,42,90,0,1
53719,-90.9090909090909,4,2,42,90,0,1
53936,-76.9230769230769,4,2,42,90,0,1
54036,-66.6666666666667,4,2,42,90,0,1
54371,-50,4,2,42,90,0,1
54661,-111.111111111111,4,2,42,90,0,1
54878,-90.9090909090909,4,2,42,90,0,1
55096,-76.9230769230769,4,2,42,90,0,1
55313,-66.6666666666667,4,2,42,90,0,1
55530,-50,4,2,42,90,0,1
55820,-111.111111111111,4,2,42,90,0,1
56038,-90.9090909090908,4,2,42,90,0,1
56255,-76.9230769230769,4,2,42,90,0,1
56472,-66.6666666666667,4,2,42,90,0,1
56690,-50,4,2,42,90,0,1
56980,-111.111111111111,4,2,42,90,0,1
57197,-90.9090909090908,4,2,42,90,0,1
57704,-66.6666666666667,4,2,42,90,0,1
57849,-50,4,2,42,90,0,1
58139,-111.111111111111,4,3,42,90,0,1
58356,-90.9090909090908,4,3,42,90,0,1
58574,-76.9230769230769,4,3,42,90,0,1
58791,-66.6666666666667,4,3,42,90,0,1
59009,-50,4,3,42,90,0,1
59299,-111.111111111111,4,3,42,90,0,1
59516,-90.9090909090909,4,3,42,90,0,1
59733,-76.9230769230769,4,3,42,90,0,1
59951,-66.6666666666667,4,3,42,90,0,1
60168,-50,4,3,42,90,0,1
60458,-111.111111111111,4,3,42,90,0,1
60675,-90.9090909090909,4,3,42,90,0,1
60893,-76.9230769230769,4,3,42,90,0,1
61110,-66.6666666666667,4,3,42,90,0,1
61327,-50,4,3,42,90,0,1
61617,-90.9090909090909,4,3,42,90,0,1
62777,-90.9090909090909,4,3,42,90,0,0
70893,-90.9090909090909,4,2,42,90,0,0
71762,-333.909090909091,4,2,42,90,0,0
72052,-76.9230769230769,4,2,42,60,0,0
72342,-90.9090909090909,4,2,42,60,0,0
76690,-76.9230769230769,4,2,42,60,0,0
76980,-90.9090909090909,4,2,42,60,0,0
79009,-66.6666666666667,4,2,42,60,0,0
79443,-76.9230769230769,4,2,42,60,0,0
80168,-66.6666666666667,4,2,42,60,0,0
81327,-76.9230769230769,4,2,42,70,0,0
81617,-90.9090909090909,4,2,42,70,0,0
82487,-90.9090909090909,4,2,42,70,0,0
82777,-100,4,2,42,70,0,0
83067,-111.111111111111,4,2,42,70,0,0
83356,-125,4,2,42,70,0,0
83646,-142.857142857143,4,2,42,70,0,0
83936,-125,4,2,42,70,0,0
84226,-111.111111111111,4,2,42,70,0,0
84516,-100,4,2,42,70,0,0
84806,-90.909090909091,4,2,42,70,0,0
87125,-83.3333333333333,4,2,42,70,0,0
87414,-76.9230769230769,4,2,42,70,0,0
87704,-71.4285714285714,4,2,42,70,0,0
87994,-66.6666666666667,4,2,42,70,0,0
88284,-66.6666666666667,4,2,42,70,0,0
88864,-58.8235294117647,4,2,42,70,0,0
89443,-50,4,2,42,70,0,0
90603,-83.3333333333333,4,2,42,80,0,1
98719,-100,4,2,42,80,0,0
99878,-90.9090909090909,4,2,42,80,0,1
107994,-100,4,2,42,80,0,0
109154,-90.9090909090909,4,2,42,80,0,1
117270,-100,4,2,42,80,0,0
118429,-83.3333333333333,4,2,42,90,0,1
125385,-83.3333333333333,4,3,42,90,0,1
126545,-100,4,3,42,90,0,0
127125,-100,4,2,42,80,0,0
127197,-100,4,2,42,45,0,0
127414,-100,4,2,42,80,0,0
127487,-100,4,2,42,45,0,0
127704,-100,4,2,42,60,0,0

[Colours]
Combo1 : 204,138,225
Combo2 : 241,88,80
Combo3 : 118,243,137
Combo4 : 121,155,236

[HitObjects]
182,145,2342,6,0,L|129:160,1,32.1749985271455
151,153,2487,6,0,B|202:140|202:140|228:147|228:147|295:136,1,128.699994108582
389,274,3067,2,0,B|338:261|338:261|312:268|312:268|245:257,1,128.699994108582
414,157,3646,2,0,B|400:69|400:69|417:24,3,128.699994108582
265,164,4806,5,0,0:0:0:0:
263,154,4878,1,0,0:0:0:0:
261,144,4951,1,0,0:0:0:0:
259,134,5023,1,0,0:0:0:0:
256,124,5096,2,0,L|208:113,1,32.1749985271455
150,59,5241,2,0,L|118:66,1,32.1749985271455
56,155,5385,1,0,0:0:0:0:
53,171,5458,1,0,0:0:0:0:
51,186,5530,1,0,0:0:0:0:
48,202,5603,1,0,0:0:0:0:
45,217,5675,6,0,P|50:251|52:256,1,37.1250014162064
155,319,5820,2,0,P|160:303|161:276,1,37.1250014162064
243,201,5965,2,0,P|243:217|249:239,1,37.1250014162064
328,339,6110,2,0,P|334:323|336:297,1,37.1250014162064
431,188,6255,1,0,0:0:0:0:
408,167,6327,1,0,0:0:0:0:
382,153,6400,1,0,0:0:0:0:
352,153,6472,1,0,0:0:0:0:
325,165,6545,6,0,P|313:127|301:107,1,42.075000802517
203,40,6690,2,0,P|195:59|191:80,1,42.075000802517
201,248,6835,2,0,P|189:207|175:185,1,42.075000802517
76,124,6980,2,0,P|68:143|64:164,1,42.075000802517
91,375,7125,5,0,0:0:0:0:
109,238,7270,1,0,0:0:0:0:
244,344,7414,5,0,0:0:0:0:
226,207,7559,1,0,0:0:0:0:
375,280,7704,5,0,0:0:0:0:
326,150,7849,1,0,0:0:0:0:
507,190,7994,5,0,0:0:0:0:
420,81,8139,1,0,0:0:0:0:
375,280,8284,5,0,0:0:0:0:
226,207,8429,1,0,0:0:0:0:
404,177,8574,5,0,0:0:0:0:
351,356,8719,1,0,0:0:0:0:
195,101,8864,5,0,0:0:0:0:
250,285,9009,1,0,0:0:0:0:
43,223,9154,6,0,L|28:284,1,42.075000802517
110,384,9299,2,0,L|120:343,1,42.075000802517
195,226,9443,5,0,0:0:0:0:
226,207,9515,1,0,0:0:0:0:
261,199,9587,1,0,0:0:0:0:
296,204,9660,1,0,0:0:0:0:
330,218,9732,1,0,0:0:0:0:
363,232,9805,1,0,0:0:0:0:
399,237,9877,1,0,0:0:0:0:
434,228,9950,1,0,0:0:0:0:
464,209,10023,6,0,L|475:165,5,28.0500005350113
387,130,10313,2,0,L|381:101,6,23.5124993721485
363,232,10603,5,0,0:0:0:0:
363,232,11762,6,0,B|315:227|315:227|305:221|305:221|251:214,1,108.900003323364
127,353,12052,2,0,B|122:305|122:305|116:295|116:295|109:246,1,108.900003323364
116,85,12342,2,0,P|169:51|223:64,1,108.900003323364
357,142,12632,2,0,P|410:146|452:114,1,108.900003323364
256,214,12922,6,0,B|244:288|244:288|263:336,1,108.900003323364
95,167,13212,2,0,B|107:241|107:241|88:289,1,108.900003323364
204,70,13501,1,0,0:0:0:0:
204,70,13646,1,0,0:0:0:0:
357,142,13791,2,0,L|368:28,1,108.900003323364
489,245,14081,6,0,B|466:241|466:241|408:258|408:258|372:253,1,108.900003323364
243,150,14371,2,0,B|220:154|220:154|162:137|162:137|126:142,1,108.900003323364
26,285,14661,2,0,P|79:319|133:306,1,108.900003323364
312,208,14951,2,0,P|259:242|205:229,1,108.900003323364
134,36,15241,6,0,B|148:61|148:61|136:149,1,108.900003323364
315,103,15530,2,0,B|301:128|301:128|313:216,1,108.900003323364
186,322,15820,1,0,0:0:0:0:
186,322,15965,1,0,0:0:0:0:
137,140,16110,1,0,0:0:0:0:
137,140,16255,1,0,0:0:0:0:
19,279,16400,6,0,L|92:291,1,54.4500016616822
165,238,16545,1,0,0:0:0:0:
301,384,16690,2,0,B|306:336|306:336|312:326|312:326|319:272,1,108.900003323364
416,121,16980,2,0,B|414:148|414:148|403:173,1,54.4500016616822
253,158,17125,2,0,B|254:185|254:185|265:210,1,54.4500016616822
499,259,17270,2,0,P|459:287|395:276,1,108.900003323364
308,82,17559,6,0,L|163:71,1,108.900003323364
69,173,17849,2,0,L|77:232,1,54.4500016616822
93,328,17994,1,0,0:0:0:0:
215,239,18139,2,0,P|270:209|327:223,1,108.900003323364
432,332,18429,2,0,B|460:330|460:330|473:323|473:323|513:318,2,72.6000022155762
397,251,18719,6,0,B|404:199|404:199|417:173|417:173|409:146|409:146|416:92,1,163.350004985047
349,22,19009,2,0,B|323:69|323:69|329:131,1,108.900003323364
155,95,19299,2,0,B|158:148|158:148|197:197,1,108.900003323364
258,245,19516,1,0,0:0:0:0:
258,245,19588,2,0,P|242:303|242:306,1,54.4500016616822
169,372,19733,1,0,0:0:0:0:
58,278,19878,6,0,P|45:241|79:254,1,54.4500016616822
192,191,20023,2,0,P|205:154|171:167,1,54.4500016616822
28,119,20168,2,0,P|-4:89|21:8,1,108.900003323364
198,1,20458,1,0,0:0:0:0:
198,1,20603,2,0,L|187:70,1,54.4500016616822
334,137,20748,1,0,0:0:0:0:
334,137,20893,2,0,L|325:83,1,54.4500016616822
192,191,21038,6,0,B|197:243|197:243|204:252|204:252|209:307,1,108.900003323364
353,220,21327,2,0,B|404:209|404:209|414:213|414:213|459:204,1,108.900003323364
325,83,21617,2,0,P|274:56|218:74,1,108.900003323364
115,148,21907,2,0,P|62:158|16:132,1,108.900003323364
232,179,22197,6,0,B|251:251|251:251|232:299,1,108.900003323364
412,367,22487,2,0,B|393:295|393:295|412:247,1,108.900003323364
460,129,22777,1,0,0:0:0:0:
460,129,22922,1,0,0:0:0:0:
284,191,23067,2,0,P|221:172|213:166,1,54.4500016616822
159,96,23212,1,0,0:0:0:0:
353,15,23356,6,0,B|345:63|345:63|349:76|349:76|340:130,1,108.900003323364
501,207,23646,2,0,B|509:255|509:255|505:268|505:268|514:322,1,108.900003323364
354,228,23936,2,0,P|289:270|247:257,1,108.900003323364
102,172,24226,2,0,P|86:228|85:241,1,54.4500016616822
133,318,24371,1,0,0:0:0:0:
222,171,24516,5,0,0:0:0:0:
222,171,24661,1,0,0:0:0:0:
142,0,24806,2,0,B|149:40|149:40|146:59|146:59|157:113,1,108.900003323364
183,246,25096,2,0,L|243:264,1,54.4500016616822
400,224,25241,1,0,0:0:0:0:
191,271,25385,2,0,L|251:289,1,54.4500016616822
396,250,25530,1,0,0:0:0:0:
303,132,25675,6,0,B|312:83|312:83|309:64|309:64|316:24,1,108.900003323364
100,103,25965,2,0,B|140:108|140:108|157:117|157:117|206:124,1,108.900003323364
377,202,26255,2,0,P|408:251|400:310,1,108.900003323364
234,230,26545,2,0,P|176:232|128:195,1,108.900003323364
212,18,26835,6,0,B|221:45|221:45|203:136,1,108.900003323364
370,96,27125,2,0,B|361:123|361:123|379:214,1,108.900003323364
414,354,27414,1,0,0:0:0:0:
414,354,27559,1,0,0:0:0:0:
268,281,27704,2,0,P|235:271|201:267,1,54.4500016616822
130,334,27849,1,0,0:0:0:0:
80,215,27994,5,0,0:0:0:0:
83,195,28067,1,0,0:0:0:0:
86,175,28139,1,0,0:0:0:0:
90,155,28212,1,0,0:0:0:0:
95,134,28284,2,0,L|162:144,1,54.4500016616822
251,158,28429,2,0,L|318:168,1,54.4500016616822
432,106,28574,1,0,0:0:0:0:
304,25,28719,5,0,0:0:0:0:
289,19,28791,1,0,0:0:0:0:
274,11,28864,2,0,L|286:77,1,54.4500016616822
304,166,29009,2,0,L|316:232,1,54.4500016616822
236,318,29154,6,0,L|257:344,6,27.2250008308411
225,239,29443,2,0,L|237:207,6,27.2250008308411
158,289,29733,6,0,P|131:283|106:272,1,54.4500016616822
24,218,29878,2,0,P|45:215|66:207,1,44.5499986404419
145,150,30023,2,0,P|128:148|112:143,1,34.649998942566
57,77,30168,2,0,P|69:75|80:71,1,24.75
216,26,30313,6,0,B|231:20|231:20|306:38|306:38|351:26,1,108.900003323364
453,0,30603,1,0,0:0:0:0:
453,0,30748,1,0,0:0:0:0:
414,155,30893,2,0,B|366:178|366:178|317:162|317:162|261:171|261:171|194:121,1,217.800006646729
114,43,31327,1,0,0:0:0:0:
20,183,31472,6,0,P|65:214|128:198,1,108.900003323364
312,114,31762,2,0,P|267:145|204:129,1,108.900003323364
114,43,32052,1,0,0:0:0:0:
114,43,32197,1,0,0:0:0:0:
207,236,32342,2,0,B|283:241|283:241|297:233|297:233|378:239,1,163.350004985047
470,245,32632,6,0,B|419:223|419:223|354:242,1,108.900003323364
264,336,32922,2,0,B|213:358|213:358|148:339,1,108.900003323364
39,263,33212,1,0,0:0:0:0:
39,263,33356,1,0,0:0:0:0:
207,236,33501,2,0,B|189:120|189:120|167:163,1,163.350004985047
68,151,33791,6,0,P|117:174|170:158,1,108.900003323364
238,33,34081,2,0,P|254:20|242:47,1,54.4500016616822
306,169,34226,1,0,0:0:0:0:
306,169,34371,2,0,P|311:192|332:181,1,54.4500016616822
425,58,34516,1,0,0:0:0:0:
431,102,34661,6,0,L|424:55,1,44.5945945945946
431,102,34951,6,0,B|473:152|473:152|461:239|461:239|391:276,1,217.800006646729
332,180,35385,1,0,0:0:0:0:
225,247,35530,2,0,P|181:232|162:220,1,54.4500016616822
109,150,35675,1,0,0:0:0:0:
222,23,35820,2,0,B|214:70|214:70|218:84|218:84|210:130,1,108.900003323364
0,150,36110,6,0,B|8:197|8:197|4:211|4:211|12:257,1,108.900003323364
126,375,36400,2,0,P|169:343|234:360,1,108.900003323364
349,243,36690,2,0,L|285:233,1,54.4500016616822
193,260,36835,2,0,L|129:250,1,54.4500016616822
46,203,36980,2,0,B|44:175|44:175|37:162|37:162|32:122,2,72.6000022155762
136,151,37270,6,0,B|174:178|214:180|214:180|254:148|270:100|270:100|247:52|207:31|207:31|163:32|122:70,1,356.399989123536
139,251,37849,2,0,B|188:278|188:278|265:257,1,108.900003323364
367,203,38139,1,0,0:0:0:0:
367,203,38212,1,0,0:0:0:0:
367,203,38284,2,0,L|380:255,1,54.4500016616822
320,381,38429,5,0,0:0:0:0:
320,381,39009,6,0,L|306:326,1,49.5
380,255,39154,2,0,L|393:307,1,49.5
307,333,39299,2,0,L|292:277,1,49.5
274,196,39443,1,0,0:0:0:0:
79,269,39588,6,0,P|133:299|196:268,1,108.900003323364
274,196,39878,1,0,0:0:0:0:
274,196,40023,1,0,0:0:0:0:
139,89,40168,2,0,B|-9:110|-9:110|88:151,1,217.800006646729
158,203,40603,1,0,0:0:0:0:
240,4,40748,6,0,B|248:54|248:54|244:69|244:69|257:125,1,108.900003323364
459,129,41038,2,0,B|411:147|411:147|400:158|400:158|359:170,1,108.900003323364
295,352,41327,1,0,0:0:0:0:
295,352,41472,1,0,0:0:0:0:
458,282,41617,2,0,B|406:274|406:274|380:260|380:260|353:268|353:268|299:260,1,163.350004985047
192,245,41907,6,0,L|314:262,1,108.900003323364
108,122,42197,2,0,L|215:106,1,108.900003323364
394,178,42487,1,0,0:0:0:0:
394,178,42632,1,0,0:0:0:0:
334,31,42777,2,0,B|316:-14|316:-14|302:148,1,163.350004985047
294,201,43067,6,0,P|317:149|292:83,1,108.900003323364
198,3,43356,1,0,0:0:0:0:
198,3,43501,1,0,0:0:0:0:
123,194,43646,1,0,0:0:0:0:
123,194,43791,1,0,0:0:0:0:
49,100,43936,2,0,B|59:172|59:172|67:183|67:183|77:259,1,163.350004985047
18,331,44226,6,0,P|80:353|134:331,1,108.900003323364
215,261,44516,2,0,P|246:249|275:244,1,54.4500016616822
381,339,44661,2,0,P|354:333|329:322,1,54.4500016616822
445,244,44806,1,0,0:0:0:0:
445,244,44951,1,0,0:0:0:0:
328,156,45096,1,0,0:0:0:0:
328,156,45168,1,0,0:0:0:0:
328,156,45241,2,0,L|318:87,1,54.4500016616822
364,11,45385,5,0,0:0:0:0:
474,127,45530,2,0,B|448:141|448:141|402:140,1,54.4500016616822
320,102,45675,1,0,0:0:0:0:
222,52,45820,2,0,B|208:26|208:26|209:2,1,54.4500016616822
259,211,45965,6,0,L|186:198,1,54.4500016616822
106,184,46110,2,0,L|33:171,1,54.4500016616822
33,76,46255,2,0,B|31:48|31:48|24:35|24:35|19:-5,2,72.6000022155762
128,103,46545,6,0,L|268:81,2,132
205,201,47028,1,0,0:0:0:0:
335,221,47125,2,0,L|195:199,2,132
90,210,47704,6,0,B|56:231|9:225|9:225|14:278|-2:321|-2:321|48:328|88:350|88:350|101:309|133:283,1,356.399989123536
211,146,48284,2,0,L|203:206,1,54.4500016616822
284,254,48429,2,0,L|276:314,1,54.4500016616822
199,360,48574,2,0,B|253:350|253:350|277:358|277:358|294:342|294:342|366:328,1,163.350004985047
425,362,48864,6,0,L|444:379,3,24.75
456,291,49154,2,0,L|423:284,3,34.649998942566
393,212,49443,2,0,L|437:203,3,44.5499986404419
397,115,49733,2,0,L|352:145,3,54.4500016616822
283,98,50023,5,0,0:0:0:0:
258,119,50095,1,0,0:0:0:0:
228,132,50167,1,0,0:0:0:0:
195,136,50240,1,0,0:0:0:0:
163,130,50312,1,0,0:0:0:0:
134,115,50385,1,0,0:0:0:0:
111,92,50457,1,0,0:0:0:0:
95,64,50530,1,0,0:0:0:0:
96,32,50603,5,0,0:0:0:0:
64,66,50675,1,0,0:0:0:0:
49,110,50747,1,0,0:0:0:0:
59,155,50820,1,0,0:0:0:0:
86,191,50893,1,0,0:0:0:0:
116,229,50965,1,0,0:0:0:0:
128,273,51037,1,0,0:0:0:0:
114,317,51110,1,0,0:0:0:0:
84,354,51183,6,0,L|30:347,3,54.4500016616822
0,263,51472,2,0,L|39:269,3,54.4500016616822
116,229,51762,6,0,L|96:192,1,27.2250008308411
137,215,51835,2,0,L|129:164,1,27.2250008308411
159,211,51907,2,0,L|171:172,1,27.2250008308411
191,211,51980,2,0,L|207:182,1,27.2250008308411
216,243,52052,6,0,L|196:280,1,27.2250008308411
237,257,52125,2,0,L|229:308,1,27.2250008308411
259,261,52197,2,0,L|271:300,1,27.2250008308411
291,261,52270,2,0,L|307:290,1,27.2250008308411
327,236,52342,6,0,B|362:218|402:233|402:233|347:183|283:199,1,198
291,197,53501,6,0,B|304:158|304:158|338:218,1,89.0999972808839
282,216,53719,2,0,B|304:158|304:158|328:200,1,108.900003323364
276,234,53936,2,0,B|303:158|303:158|336:214,1,128.699994108582
266,251,54154,2,0,B|303:157|303:157|340:223,1,148.500005664826
399,106,54371,6,0,B|352:244|352:244|284:123,1,198
326,199,54661,6,0,P|279:188|225:215,1,89.0999972808839
342,209,54878,2,0,P|278:187|224:214,1,108.900003323364
354,225,55096,2,0,P|277:187|224:214,1,128.699994108582
364,242,55313,2,0,P|277:187|223:214,1,148.500005664826
75,146,55530,6,0,P|202:214|256:187,1,198
240,198,55820,6,0,L|355:165,1,89.0999972808839
220,204,56038,2,0,L|351:164,1,108.900003323364
201,210,56255,2,0,L|329:170,1,128.699994108582
182,217,56473,2,0,L|344:166,1,148.500005664826
512,115,56690,6,0,L|304:178,1,198
322,172,56980,6,0,B|317:208|317:208|322:218|322:218|317:268,1,89.0999972808839
322,151,57197,2,0,B|318:207|318:207|322:219|322:219|315:273,1,108.900003323364
323,132,57414,5,0,0:0:0:0:
314,350,57559,1,0,0:0:0:0:
314,350,57632,1,0,0:0:0:0:
314,350,57704,2,0,P|283:341|245:320,1,74.2500028324128
204,217,57849,6,0,B|129:164|9:159|6:298|77:296|124:313|156:222,1,297
204,217,58139,6,0,B|217:178|217:178|251:238,1,89.0999972808839
204,217,58357,2,0,B|217:179|217:179|265:260,1,108.900003323364
204,217,58574,2,0,B|217:180|217:180|282:288,1,128.699994108582
204,217,58791,2,0,B|217:180|217:180|283:291,1,148.500005664826
204,217,59009,6,0,B|157:355|157:355|89:234,1,198
131,309,59299,6,0,P|99:340|57:350,1,89.0999972808839
131,310,59516,2,0,P|90:345|37:348,1,108.900003323364
131,310,59734,2,0,P|81:348|19:340,1,128.699994108582
131,310,59951,2,0,P|71:350|2:329,1,148.500005664826
131,310,60168,6,0,P|209:254|302:278,1,198
301,277,60458,6,0,L|388:295,1,89.0999972808839,0|0,3:0|3:0,3:0:0:0:
300,278,60676,2,0,L|406:300,1,108.900003323364,0|0,3:0|3:0,3:0:0:0:
299,278,60893,2,0,L|425:303,1,128.699994108582,0|0,3:0|3:0,3:0:0:0:
300,278,61111,2,0,L|445:307,1,148.500005664826,0|0,3:0|3:0,3:0:0:0:
299,278,61328,6,0,L|105:236,1,198,0|0,3:0|3:0,3:0:0:0:
0,58,61617,5,0,0:0:0:0:
22,52,61690,1,0,0:0:0:0:
45,47,61762,1,0,0:0:0:0:
68,43,61835,1,0,0:0:0:0:
90,38,61907,1,0,0:0:0:0:
113,35,61980,1,0,0:0:0:0:
136,31,62052,6,0,L|126:102,1,54.4500016616822
113,182,62197,2,0,L|103:253,1,54.4500016616822
89,330,62342,2,0,L|79:401,1,54.4500016616822
89,330,62487,2,0,B|115:290|151:274|151:274|186:280|229:315,1,163.350004985047
278,381,62777,5,0,0:0:0:0:
319,57,63356,1,0,0:0:0:0:
319,57,63646,1,0,0:0:0:0:
344,147,63791,1,0,0:0:0:0:
280,218,63936,1,0,0:0:0:0:
305,308,64081,5,0,0:0:0:0:
317,311,64371,1,0,0:0:0:0:
331,314,64661,1,0,0:0:0:0:
343,317,64951,1,0,0:0:0:0:
423,211,65241,5,0,0:0:0:0:
411,214,65531,1,0,0:0:0:0:
397,217,65821,1,0,0:0:0:0:
385,220,66111,1,0,0:0:0:0:
242,63,66255,6,0,B|249:134|249:134|239:178|239:178|277:241,1,163.350004985047
249,312,66545,2,0,L|193:330,1,54.4500016616822
46,313,66690,2,0,L|97:296,1,54.4500016616822
189,231,66835,2,0,L|241:215,1,54.4500016616822
89,199,66980,2,0,L|38:216,1,54.4500016616822
237,105,67125,2,0,L|185:121,1,54.4500016616822
34,106,67270,2,0,L|85:89,1,54.4500016616822
179,18,67414,5,0,0:0:0:0:
256,192,67487,12,0,70748,0:0:0:0:
98,260,70893,6,0,B|134:247|134:247|174:265|174:265|211:256|211:256|252:280,1,163.350004985047
334,332,71183,2,0,L|342:354,4,13.6125004154205
416,285,71327,2,0,L|412:273,4,13.6125004154205
328,217,71472,1,0,0:0:0:0:
328,217,71545,1,0,0:0:0:0:
328,217,71617,2,0,L|336:161,1,54.4500016616822
418,86,71762,6,0,L|425:132,1,44.4731830539651
418,86,72052,6,0,B|333:67|333:67|287:88,1,128.699994108582
198,145,72342,1,0,0:0:0:0:
198,145,72487,1,0,0:0:0:0:
109,0,72632,2,0,B|101:48|101:48|107:59|107:59|100:113,1,108.900003323364
21,230,72922,2,0,L|94:247,1,54.4500016616822
178,262,73067,1,0,0:0:0:0:
286,88,73212,6,0,B|297:119|297:119|293:150,1,54.4500016616822
258,235,73356,2,0,P|308:197|375:213,1,108.900003323364
440,345,73646,2,0,P|386:344|346:309,1,108.900003323364
457,212,73936,1,0,0:0:0:0:
457,212,74081,1,0,0:0:0:0:
374,56,74226,2,0,L|365:133,1,54.4500016616822
258,235,74371,6,0,B|235:247|235:247|128:224,1,108.900003323364
0,133,74661,2,0,L|65:114,1,54.4500016616822
95,42,74806,2,0,B|101:85|76:119|76:119|42:179|97:227,1,163.350004985047
71,196,75096,1,0,0:0:0:0:
174,133,75241,2,0,L|254:147,1,54.4500016616822
331,157,75385,1,0,0:0:0:0:
294,0,75530,6,0,B|282:21|282:21|279:50,1,54.4500016616822
372,253,75675,1,0,0:0:0:0:
174,133,75820,1,0,0:0:0:0:
403,113,75965,1,0,0:0:0:0:
227,265,76110,2,0,B|198:286|119:323|76:258,1,163.350004985047
80,263,76400,1,0,0:0:0:0:
174,133,76545,2,0,L|235:146,1,54.4500016616822
174,133,76690,6,0,B|259:113|259:113|300:134,1,128.699994108582
412,201,76980,1,0,0:0:0:0:
412,201,77125,1,0,0:0:0:0:
320,347,77270,2,0,B|311:326|311:326|322:256|322:256|305:217,1,108.900003323364
286,78,77559,2,0,L|298:147,1,54.4500016616822
316,241,77704,1,0,0:0:0:0:
121,121,77849,6,0,B|94:120|94:120|64:139,1,54.4500016616822
16,248,77994,2,0,P|65:278|127:261,1,108.900003323364
303,341,78284,2,0,P|254:371|192:354,1,108.900003323364
242,229,78574,1,0,0:0:0:0:
242,229,78719,1,0,0:0:0:0:
396,340,78864,2,0,L|404:278,1,54.4500016616822
423,87,79009,6,0,B|411:121|395:149|395:149|409:200|432:223|432:223|433:257|384:306,1,222.750008497238
402,285,79299,1,0,0:0:0:0:
242,229,79443,2,0,B|173:234|173:234|146:223|146:223|122:239|122:239|49:247,1,193.049991162873
1,166,79733,2,0,L|78:157,1,64.3499970542909
159,99,79878,1,0,0:0:0:0:
242,229,80023,5,0,0:0:0:0:
242,229,80096,1,0,0:0:0:0:
242,229,80168,6,0,B|276:275|323:293|323:293|383:271|421:220|421:220|412:154|373:113|373:113|320:97|256:127,1,445.500016994477
242,229,80748,2,0,B|197:212|146:227|146:227|154:168|105:117|105:117|181:102|209:51|209:51|237:107|297:125,1,445.500016994477
381,262,81327,6,0,B|463:287|463:287|510:268,1,128.699994108582
403,156,81617,1,0,0:0:0:0:
403,156,81762,1,0,0:0:0:0:
242,229,81907,2,0,B|174:252|174:252|139:237,1,108.900003323364
54,67,82197,2,0,L|40:131,1,54.4500016616822
16,229,82342,1,0,0:0:0:0:
165,123,82487,6,0,L|280:136,1,108.900003323364
242,229,82777,2,0,L|357:242,1,99
360,145,83067,2,0,L|475:158,1,89.0999972808839
431,247,83356,2,0,L|546:260,1,79.2
400,333,83646,6,0,L|361:319,3,34.649998942566
431,247,83936,2,0,L|474:239,3,39.6
393,169,84226,2,0,L|349:155,3,44.5499986404419
436,89,84516,2,0,L|484:73,3,49.5
392,6,84806,5,0,0:0:0:0:
373,8,84878,1,0,0:0:0:0:
354,10,84950,1,0,0:0:0:0:
335,13,85023,1,0,0:0:0:0:
316,15,85095,1,0,0:0:0:0:
297,18,85168,1,0,0:0:0:0:
278,20,85240,1,0,0:0:0:0:
259,22,85313,1,0,0:0:0:0:
240,26,85385,6,0,P|229:55|223:87,1,54.4500016616822
106,67,85530,2,0,P|112:97|123:127,1,54.4500016616822
252,278,85675,2,0,P|262:248|269:217,1,54.4500016616822
386,237,85820,2,0,P|379:206|368:176,1,54.4500016616822
224,77,85965,5,0,0:0:0:0:
204,104,86037,1,0,0:0:0:0:
192,134,86109,1,0,0:0:0:0:
189,167,86182,1,0,0:0:0:0:
193,200,86254,1,0,0:0:0:0:
204,231,86327,1,0,0:0:0:0:
226,257,86399,1,0,0:0:0:0:
252,278,86472,1,0,0:0:0:0:
288,296,86545,5,0,0:0:0:0:
252,329,86617,1,0,0:0:0:0:
212,351,86689,1,0,0:0:0:0:
166,357,86762,1,0,0:0:0:0:
122,346,86834,1,0,0:0:0:0:
83,320,86907,1,0,0:0:0:0:
58,282,86979,1,0,0:0:0:0:
47,237,87052,1,0,0:0:0:0:
53,191,87125,6,0,B|80:177|80:177|118:180,1,59.3999981872559
190,270,87270,1,0,0:0:0:0:
190,270,87342,1,0,0:0:0:0:
190,270,87414,2,0,B|217:282|217:282|256:277,1,64.3499970542909
305,155,87559,1,0,0:0:0:0:
305,155,87631,1,0,0:0:0:0:
305,155,87704,2,0,B|337:138|337:138|382:145,1,69.2999978851319
433,292,87849,1,0,0:0:0:0:
441,299,87921,1,0,0:0:0:0:
441,299,87994,2,0,B|480:311|480:311|529:299,1,74.2500028324128
452,151,88139,1,0,0:0:0:0:
359,337,88284,6,0,B|196:321|196:321|282:280,1,222.750008497238
296,236,88574,1,0,0:0:0:0:
223,225,88646,1,0,0:0:0:0:
150,214,88718,1,0,0:0:0:0:
76,203,88791,1,0,0:0:0:0:
4,185,88864,6,0,B|40:151|37:67|37:67|70:137|143:156,1,252.450004815102
205,178,89154,1,0,0:0:0:0:
288,190,89226,1,0,0:0:0:0:
361,153,89298,1,0,0:0:0:0:
398,77,89371,1,0,0:0:0:0:
363,0,89443,6,0,B|280:-31|234:37|234:37|259:14|304:21,1,198
281,18,90603,6,0,B|289:71|289:71|284:81|284:81|292:134,1,118.799996374512
192,309,90893,1,0,0:0:0:0:
192,309,91038,1,0,0:0:0:0:
103,188,91183,2,0,P|158:149|228:168,1,118.799996374512
323,276,91472,1,0,0:0:0:0:
387,178,91617,2,0,L|374:108,1,59.3999981872559
167,7,91762,6,0,B|220:15|220:15|230:10|230:10|283:18,1,118.799996374512
508,50,92052,2,0,B|492:111,1,59.3999981872559
387,178,92197,1,0,0:0:0:0:
509,263,92342,2,0,B|494:180,1,59.3999981872559
376,119,92487,1,0,0:0:0:0:
415,291,92632,1,0,0:0:0:0:
274,208,92777,2,0,P|239:195|200:190,1,59.3999981872559
78,382,92922,6,0,B|56:329|56:329|68:257,1,118.799996374512
229,77,93212,2,0,B|207:130|207:130|217:190,1,118.799996374512
