osu file format v14

[General]
AudioFilename: audio.mp3
AudioLeadIn: 0
PreviewTime: 89299
Countdown: 0
SampleSet: Soft
StackLeniency: 0.7
Mode: 3
LetterboxInBreaks: 0
SpecialStyle: 0
WidescreenStoryboard: 0

[Editor]
DistanceSpacing: 0.6
BeatDivisor: 4
GridSize: 8
TimelineZoom: 3.215199

[Metadata]
Title:BroGamer
TitleUnicode:BroGamer
Artist:USAO
ArtistUnicode:USAO
Creator:Spy
Version:KK's Another
Source:beatmania IIDX 24 SINOBUZ
Tags:BEMANI KONAMI SUPER ULTIMATE HYPER CORE trap 男の娘 雷振流 忍々七鍵伝 Kuo Kyoka Tofu1222 ExNeko
BeatmapID:1304319
BeatmapSetID:617846

[Difficulty]
HPDrainRate:8
CircleSize:4
OverallDifficulty:8
ApproachRate:5
SliderMultiplier:1.4
SliderTickRate:1

[Events]
//Background and Video events
0,0,"BG.jpg",0,0
//Break Periods
//Storyboard Layer 0 (Background)
//Storyboard Layer 1 (Fail)
//Storyboard Layer 2 (Pass)
//Storyboard Layer 3 (Foreground)
//Storyboard Sound Samples
Sample,7125,0,"kick.wav",70
Sample,9443,0,"drum.wav",45
Sample,9516,0,"drum.wav",45
Sample,9661,0,"drum.wav",45
Sample,10603,0,"kick.wav",70
Sample,15965,0,"hihat.wav",45
Sample,16110,0,"kick.wav",70
Sample,16255,0,"hihat.wav",45
Sample,18284,0,"kick.wav",70
Sample,18574,0,"hihat.wav",45
Sample,20168,0,"kick.wav",70
Sample,20458,0,"drum.wav",45
Sample,21038,0,"kick.wav",70
Sample,22632,0,"hihat.wav",45
Sample,27270,0,"hihat.wav",45
Sample,27994,0,"drum.wav",45
Sample,28139,0,"drum.wav",45
Sample,28284,0,"drum.wav",45
Sample,28429,0,"drum.wav",45
Sample,28719,0,"drum.wav",45
Sample,28864,0,"drum.wav",45
Sample,29009,0,"drum.wav",45
Sample,29299,0,"drum.wav",45
Sample,29443,0,"drum.wav",45
Sample,29443,0,"kick.wav",70
Sample,29588,0,"drum.wav",45
Sample,31038,0,"hihat.wav",45
Sample,32487,0,"hihat.wav",45
Sample,33646,0,"hihat.wav",45
Sample,34081,0,"snare.wav",70
Sample,34226,0,"hihat.wav",45
Sample,35096,0,"hihat.wav",45
Sample,35385,0,"hihat.wav",45
Sample,37125,0,"hihat.wav",45
Sample,39371,0,"drum.wav",45
Sample,39443,0,"drum.wav",45
Sample,41762,0,"hihat.wav",45
Sample,44081,0,"hihat.wav",45
Sample,46400,0,"hihat.wav",45
Sample,52342,0,"crash.wav",55
Sample,83501,0,"hihat.wav",45
Sample,85820,0,"hihat.wav",45
Sample,88284,0,"crash.wav",55
Sample,99371,0,"drum.wav",45
Sample,117487,0,"drum.wav",45
Sample,117632,0,"drum.wav",45
Sample,117922,0,"drum.wav",45
Sample,126545,0,"crash.wav",55

[TimingPoints]
1328,289.855072463768,4,2,1,45,1,0
46545,-66.6666666666667,4,2,1,45,0,0
46642,-200,4,2,1,45,0,0
46738,-66.6666666666667,4,2,1,45,0,0
46835,-200,4,2,1,45,0,0
46931,-66.6666666666667,4,2,1,45,0,0
46980,-200,4,2,1,45,0,0
47028,-66.6666666666667,4,2,1,45,0,0
47076,-200,4,2,1,45,0,0
47125,-66.6666666666667,4,2,1,45,0,0
47222,-200,4,2,1,45,0,0
47318,-66.6666666666667,4,2,1,45,0,0
47415,-200,4,2,1,45,0,0
47511,-66.6666666666667,4,2,1,45,0,0
47608,-200,4,2,1,45,0,0
47704,-100,4,2,1,45,0,0
83356,-200,4,2,1,45,0,0
83501,-133.333333333333,4,2,1,45,0,0
83550,-66.6666666666667,4,2,1,45,0,0
83598,-44.4444444444445,4,2,1,45,0,0
83646,-100,4,2,1,45,0,0
85675,-200,4,2,1,45,0,0
85820,-133.333333333333,4,2,1,45,0,0
85869,-66.6666666666667,4,2,1,45,0,0
85917,-44.4444444444445,4,2,1,45,0,0
85965,-100,4,2,1,45,0,0
90603,-100,4,2,1,45,0,1
108864,-200,4,2,1,45,0,0
109009,-133.333333333333,4,2,1,45,0,0
109058,-66.6666666666667,4,2,1,45,0,0
109106,-44.4444444444445,4,2,1,45,0,0
109154,-100,4,2,1,45,0,1
118429,-100,4,2,1,45,0,0

[HitObjects]
64,192,1328,5,0,0:0:0:40:crash.wav
448,192,1328,1,0,0:0:0:0:
448,192,1617,128,0,2342:0:0:0:0:
64,192,2342,128,0,2487:0:0:0:0:
448,192,2487,1,0,0:0:0:25:drum.wav
192,192,2487,128,0,2632:0:0:0:40:kick.wav
320,192,2632,128,0,2777:0:0:0:0:
448,192,2777,128,0,3067:0:0:0:25:drum.wav
64,192,3067,128,0,3212:0:0:0:25:drum.wav
64,192,3356,128,0,3501:0:0:0:25:drum.wav
64,192,3646,128,0,3791:0:0:0:25:drum.wav
64,192,3936,128,0,4081:0:0:0:25:drum.wav
64,192,4226,128,0,4371:0:0:0:25:drum.wav
64,192,4516,128,0,4661:0:0:0:25:drum.wav
448,192,4806,1,0,0:0:0:45:drum.wav
64,192,4806,128,0,4951:0:0:0:0:
448,192,5096,1,0,0:0:0:45:drum.wav
64,192,5096,128,0,5241:0:0:0:0:
448,192,5385,1,0,0:0:0:45:drum.wav
64,192,5385,128,0,5530:0:0:0:0:
448,192,5675,1,0,0:0:0:45:drum.wav
64,192,5675,128,0,5820:0:0:0:0:
448,192,5965,1,0,0:0:0:45:drum.wav
64,192,5965,128,0,6110:0:0:0:0:
320,192,6110,1,0,0:0:0:0:
448,192,6255,1,0,0:0:0:45:drum.wav
64,192,6255,128,0,6400:0:0:0:0:
320,192,6400,1,0,0:0:0:0:
448,192,6545,1,0,0:0:0:45:drum.wav
64,192,6545,128,0,6690:0:0:0:0:
320,192,6690,1,0,0:0:0:0:
448,192,6835,1,0,0:0:0:45:drum.wav
64,192,6835,128,0,6980:0:0:0:0:
320,192,6980,1,0,0:0:0:0:
448,192,7125,1,0,0:0:0:45:drum.wav
64,192,7125,1,0,0:0:0:55:crash.wav
64,192,7270,1,0,0:0:0:70:kick.wav
320,192,7414,1,0,0:0:0:70:clap.wav
448,192,7414,1,0,0:0:0:70:kick.wav
448,192,7559,1,0,0:0:0:70:kick.wav
64,192,7704,1,0,0:0:0:70:kick.wav
64,192,7849,1,0,0:0:0:70:kick.wav
320,192,7994,1,0,0:0:0:70:clap.wav
448,192,7994,1,0,0:0:0:70:kick.wav
448,192,8139,1,0,0:0:0:70:kick.wav
64,192,8284,1,0,0:0:0:70:kick.wav
64,192,8429,1,0,0:0:0:70:kick.wav
448,192,8574,1,0,0:0:0:70:kick.wav
320,192,8574,1,0,0:0:0:70:clap.wav
448,192,8719,1,0,0:0:0:70:kick.wav
64,192,8864,1,0,0:0:0:70:kick.wav
64,192,9009,1,0,0:0:0:70:kick.wav
448,192,9154,1,0,0:0:0:70:kick.wav
320,192,9154,1,0,0:0:0:70:clap.wav
448,192,9299,1,0,0:0:0:70:kick.wav
64,192,9443,1,0,0:0:0:70:kick.wav
448,192,9443,1,0,0:0:0:55:crash.wav
64,192,9588,1,0,0:0:0:45:drum.wav
64,192,9733,1,0,0:0:0:45:drum.wav
448,192,9733,1,0,0:0:0:70:clap.wav
192,192,9806,1,0,0:0:0:45:drum.wav
320,192,9878,1,0,0:0:0:45:drum.wav
448,192,9951,1,0,0:0:0:45:drum.wav
192,192,10023,1,0,0:0:0:45:drum.wav
64,192,10023,1,0,0:0:0:0:
320,192,10096,1,0,0:0:0:45:drum.wav
64,192,10168,1,0,0:0:0:45:drum.wav
192,192,10241,1,0,0:0:0:45:drum.wav
320,192,10313,1,0,0:0:0:45:drum.wav
448,192,10313,1,0,0:0:0:70:clap.wav
192,192,10385,1,0,0:0:0:45:drum.wav
64,192,10458,1,0,0:0:0:45:drum.wav
448,192,10458,1,0,0:0:0:0:
320,192,10530,1,0,0:0:0:45:drum.wav
64,192,10603,128,0,11110:0:0:0:45:drum.wav
192,192,10603,1,0,0:0:0:55:crash.wav
448,192,10893,128,0,11110:0:0:0:0:
64,192,11183,128,0,11400:0:0:0:0:
448,192,11183,128,0,11400:0:0:0:0:
64,192,11472,128,0,11690:0:0:0:0:
448,192,11472,128,0,11690:0:0:0:0:
64,192,11762,1,0,0:0:0:70:kick.wav
448,192,11762,1,0,0:0:0:55:crash.wav
64,192,11907,128,0,12052:0:0:0:45:hihat.wav
320,192,12052,1,0,0:0:0:70:kick.wav
448,192,12052,1,0,0:0:0:70:snare.wav
192,192,12197,128,0,12342:0:0:0:45:hihat.wav
448,192,12342,1,0,0:0:0:70:kick.wav
64,192,12487,128,0,12632:0:0:0:45:hihat.wav
320,192,12632,1,0,0:0:0:70:snare.wav
448,192,12632,1,0,0:0:0:70:kick.wav
192,192,12777,128,0,12922:0:0:0:45:hihat.wav
448,192,12922,1,0,0:0:0:70:kick.wav
64,192,13067,128,0,13212:0:0:0:45:hihat.wav
448,192,13212,1,0,0:0:0:70:kick.wav
320,192,13212,1,0,0:0:0:70:snare.wav
192,192,13356,128,0,13501:0:0:0:45:hihat.wav
448,192,13501,1,0,0:0:0:70:kick.wav
64,192,13646,128,0,13791:0:0:0:45:hihat.wav
448,192,13791,1,0,0:0:0:70:snare.wav
320,192,13791,1,0,0:0:0:70:kick.wav
192,192,13936,128,0,14081:0:0:0:45:hihat.wav
448,192,14081,1,0,0:0:0:70:kick.wav
64,192,14226,128,0,14371:0:0:0:45:hihat.wav
320,192,14371,1,0,0:0:0:70:snare.wav
448,192,14371,1,0,0:0:0:70:kick.wav
192,192,14516,128,0,14661:0:0:0:45:hihat.wav
448,192,14661,1,0,0:0:0:70:kick.wav
64,192,14806,128,0,14951:0:0:0:45:hihat.wav
320,192,14951,1,0,0:0:0:70:kick.wav
448,192,14951,1,0,0:0:0:70:snare.wav
192,192,15096,128,0,15241:0:0:0:45:hihat.wav
448,192,15241,1,0,0:0:0:70:kick.wav
64,192,15385,128,0,15530:0:0:0:45:hihat.wav
448,192,15530,1,0,0:0:0:70:kick.wav
320,192,15530,1,0,0:0:0:70:snare.wav
192,192,15675,128,0,15820:0:0:0:45:hihat.wav
448,192,15820,128,0,16038:0:0:0:70:kick.wav
64,192,15965,128,0,16110:0:0:0:0:
448,192,16110,128,0,16327:0:0:0:70:snare.wav
320,192,16110,1,0,0:0:0:0:
192,192,16255,128,0,16400:0:0:0:0:
448,192,16400,1,0,0:0:0:70:kick.wav
64,192,16400,1,0,0:0:0:0:
64,192,16545,1,0,0:0:0:45:hihat.wav
320,192,16545,128,0,16690:0:0:0:70:kick.wav
64,192,16690,1,0,0:0:0:70:snare.wav
192,192,16690,1,0,0:0:0:70:kick.wav
448,192,16835,128,0,16980:0:0:0:45:hihat.wav
64,192,16980,1,0,0:0:0:70:kick.wav
320,192,17125,128,0,17270:0:0:0:45:hihat.wav
192,192,17270,1,0,0:0:0:70:kick.wav
64,192,17270,1,0,0:0:0:70:snare.wav
448,192,17414,128,0,17559:0:0:0:45:hihat.wav
64,192,17559,1,0,0:0:0:70:kick.wav
320,192,17704,128,0,17849:0:0:0:45:hihat.wav
192,192,17849,1,0,0:0:0:70:kick.wav
64,192,17849,1,0,0:0:0:70:snare.wav
448,192,17994,128,0,18139:0:0:0:45:hihat.wav
64,192,18139,1,0,0:0:0:70:kick.wav
64,192,18284,1,0,0:0:0:45:hihat.wav
64,192,18429,1,0,0:0:0:70:snare.wav
448,192,18429,1,0,0:0:0:70:kick.wav
320,192,18526,1,0,0:0:0:70:kick.wav
192,192,18622,1,0,0:0:0:70:kick.wav
448,192,18719,1,0,0:0:0:70:kick.wav
64,192,18719,1,0,0:0:0:0:
448,192,18864,128,0,19009:0:0:0:45:hihat.wav
64,192,19009,1,0,0:0:0:70:snare.wav
192,192,19009,1,0,0:0:0:70:kick.wav
320,192,19154,128,0,19299:0:0:0:45:hihat.wav
64,192,19299,1,0,0:0:0:70:kick.wav
448,192,19443,128,0,19588:0:0:0:45:hihat.wav
64,192,19443,1,0,0:0:0:70:kick.wav
64,192,19588,1,0,0:0:0:70:kick.wav
192,192,19588,1,0,0:0:0:70:snare.wav
320,192,19733,128,0,19878:0:0:0:45:hihat.wav
448,192,19878,1,0,0:0:0:70:kick.wav
64,192,19878,1,0,0:0:0:0:
448,192,20023,128,0,20748:0:0:0:45:hihat.wav
64,192,20168,1,0,0:0:0:70:snare.wav
64,192,20313,128,0,21038:0:0:0:45:hihat.wav
320,192,20458,1,0,0:0:0:70:kick.wav
320,192,20603,128,0,20748:0:0:0:45:drum.wav
192,192,20748,1,0,0:0:0:45:drum.wav
192,192,20893,128,0,21038:0:0:0:45:drum.wav
320,192,21038,1,0,0:0:0:45:drum.wav
448,192,21038,1,0,0:0:0:55:crash.wav
192,192,21183,1,0,0:0:0:45:hihat.wav
64,192,21327,1,0,0:0:0:70:kick.wav
448,192,21327,1,0,0:0:0:70:snare.wav
320,192,21472,1,0,0:0:0:45:hihat.wav
192,192,21617,1,0,0:0:0:70:kick.wav
64,192,21617,1,0,0:0:0:0:
448,192,21762,1,0,0:0:0:45:hihat.wav
320,192,21907,1,0,0:0:0:70:snare.wav
64,192,21907,1,0,0:0:0:70:kick.wav
192,192,22052,1,0,0:0:0:45:hihat.wav
448,192,22197,1,0,0:0:0:70:kick.wav
64,192,22197,1,0,0:0:0:0:
320,192,22342,1,0,0:0:0:45:hihat.wav
192,192,22487,128,0,22704:0:0:0:70:snare.wav
64,192,22487,128,0,22704:0:0:0:70:kick.wav
192,192,22777,128,0,22849:0:0:0:70:kick.wav
64,192,22777,128,0,22849:0:0:0:0:
192,192,22922,128,0,22994:0:0:0:45:hihat.wav
64,192,22922,128,0,22994:0:0:0:70:kick.wav
192,192,23067,128,0,23284:0:0:0:70:kick.wav
64,192,23067,128,0,23284:0:0:0:70:snare.wav
448,192,23212,128,0,23356:0:0:0:45:hihat.wav
192,192,23356,1,0,0:0:0:70:kick.wav
64,192,23356,1,0,0:0:0:0:
320,192,23501,1,0,0:0:0:45:hihat.wav
448,192,23646,1,0,0:0:0:70:kick.wav
64,192,23646,1,0,0:0:0:70:snare.wav
192,192,23791,1,0,0:0:0:45:hihat.wav
320,192,23936,1,0,0:0:0:70:kick.wav
448,192,23936,1,0,0:0:0:0:
64,192,24081,1,0,0:0:0:45:hihat.wav
192,192,24226,1,0,0:0:0:70:snare.wav
448,192,24226,1,0,0:0:0:70:kick.wav
320,192,24371,1,0,0:0:0:45:hihat.wav
448,192,24516,1,0,0:0:0:70:kick.wav
64,192,24516,1,0,0:0:0:0:
448,192,24661,1,0,0:0:0:45:hihat.wav
320,192,24733,1,0,0:0:0:0:
192,192,24806,1,0,0:0:0:70:snare.wav
64,192,24806,1,0,0:0:0:70:kick.wav
320,192,24951,1,0,0:0:0:45:hihat.wav
192,192,25023,1,0,0:0:0:0:
64,192,25096,1,0,0:0:0:70:kick.wav
448,192,25096,1,0,0:0:0:0:
448,192,25241,1,0,0:0:0:45:hihat.wav
64,192,25241,1,0,0:0:0:70:kick.wav
64,192,25385,1,0,0:0:0:70:kick.wav
448,192,25385,1,0,0:0:0:70:snare.wav
192,192,25530,1,0,0:0:0:45:hihat.wav
320,192,25530,1,0,0:0:0:70:kick.wav
64,192,25675,1,0,0:0:0:70:kick.wav
448,192,25675,1,0,0:0:0:0:
192,192,25820,1,0,0:0:0:70:kick.wav
320,192,25820,1,0,0:0:0:45:hihat.wav
448,192,25965,1,0,0:0:0:70:kick.wav
64,192,25965,1,0,0:0:0:70:snare.wav
192,192,26110,1,0,0:0:0:45:hihat.wav
320,192,26255,1,0,0:0:0:70:kick.wav
448,192,26255,1,0,0:0:0:0:
64,192,26400,1,0,0:0:0:45:hihat.wav
192,192,26545,1,0,0:0:0:70:snare.wav
448,192,26545,1,0,0:0:0:70:kick.wav
320,192,26690,1,0,0:0:0:45:hihat.wav
448,192,26835,1,0,0:0:0:70:kick.wav
64,192,26835,1,0,0:0:0:0:
192,192,26980,1,0,0:0:0:45:hihat.wav
448,192,27125,128,0,27342:0:0:0:70:snare.wav
320,192,27125,128,0,27342:0:0:0:70:kick.wav
448,192,27414,128,0,27487:0:0:0:70:kick.wav
320,192,27414,128,0,27487:0:0:0:0:
320,192,27559,128,0,27632:0:0:0:45:hihat.wav
448,192,27559,128,0,27632:0:0:0:70:kick.wav
320,192,27704,128,0,27922:0:0:0:70:kick.wav
448,192,27704,128,0,27922:0:0:0:70:snare.wav
64,192,27849,128,0,27994:0:0:0:45:hihat.wav
448,192,27994,1,0,0:0:0:70:kick.wav
320,192,27994,1,0,0:0:0:0:
64,192,28067,1,0,0:0:0:45:drum.wav
192,192,28139,1,0,0:0:0:45:hihat.wav
320,192,28212,1,0,0:0:0:45:drum.wav
64,192,28284,1,0,0:0:0:70:kick.wav
448,192,28284,1,0,0:0:0:70:snare.wav
448,192,28429,1,0,0:0:0:45:hihat.wav
320,192,28501,1,0,0:0:0:45:drum.wav
192,192,28574,1,0,0:0:0:70:kick.wav
64,192,28574,1,0,0:0:0:45:drum.wav
448,192,28646,1,0,0:0:0:45:drum.wav
320,192,28719,1,0,0:0:0:45:hihat.wav
192,192,28791,1,0,0:0:0:45:drum.wav
64,192,28864,1,0,0:0:0:70:snare.wav
448,192,28864,1,0,0:0:0:70:kick.wav
64,192,29009,1,0,0:0:0:45:hihat.wav
192,192,29081,1,0,0:0:0:45:drum.wav
448,192,29154,1,0,0:0:0:70:kick.wav
320,192,29154,1,0,0:0:0:45:drum.wav
64,192,29226,1,0,0:0:0:45:drum.wav
192,192,29299,1,0,0:0:0:45:hihat.wav
320,192,29371,1,0,0:0:0:45:drum.wav
448,192,29443,1,0,0:0:0:70:snare.wav
64,192,29443,1,0,0:0:0:0:
448,192,29588,1,0,0:0:0:45:hihat.wav
320,192,29661,1,0,0:0:0:45:drum.wav
192,192,29733,128,0,29806:0:0:0:45:drum.wav
64,192,29733,128,0,29806:0:0:0:0:
64,192,29878,128,0,29951:0:0:0:0:
192,192,29878,128,0,29951:0:0:0:0:
192,192,30023,128,0,30096:0:0:0:0:
320,192,30023,128,0,30096:0:0:0:0:
320,192,30168,128,0,30241:0:0:0:0:
448,192,30168,128,0,30241:0:0:0:0:
64,192,30313,1,0,0:0:0:55:crash.wav
448,192,30313,128,0,30530:0:0:0:70:kick.wav
320,192,30313,128,0,30530:0:0:0:0:
64,192,30458,1,0,0:0:0:45:hihat.wav
320,192,30603,1,0,0:0:0:70:snare.wav
448,192,30603,1,0,0:0:0:70:kick.wav
448,192,30748,1,0,0:0:0:45:hihat.wav
192,192,30893,128,0,31183:0:0:0:70:kick.wav
64,192,30893,128,0,31183:0:0:0:0:
448,192,31183,1,0,0:0:0:70:kick.wav
320,192,31183,1,0,0:0:0:70:snare.wav
448,192,31327,128,0,31617:0:0:0:45:hihat.wav
192,192,31472,1,0,0:0:0:70:kick.wav
64,192,31472,1,0,0:0:0:0:
320,192,31617,1,0,0:0:0:45:hihat.wav
448,192,31762,1,0,0:0:0:70:kick.wav
64,192,31762,1,0,0:0:0:70:snare.wav
192,192,31907,1,0,0:0:0:45:hihat.wav
320,192,32052,128,0,32125:0:0:0:70:kick.wav
448,192,32052,128,0,32125:0:0:0:0:
320,192,32197,128,0,32270:0:0:0:45:hihat.wav
192,192,32197,128,0,32270:0:0:0:0:
64,192,32342,128,0,32559:0:0:0:70:snare.wav
192,192,32342,128,0,32559:0:0:0:70:kick.wav
64,192,32632,1,0,0:0:0:70:kick.wav
192,192,32632,1,0,0:0:0:0:
64,192,32777,1,0,0:0:0:45:hihat.wav
320,192,32922,1,0,0:0:0:70:snare.wav
448,192,32922,1,0,0:0:0:70:kick.wav
448,192,33067,1,0,0:0:0:45:hihat.wav
64,192,33212,1,0,0:0:0:70:kick.wav
192,192,33212,1,0,0:0:0:0:
192,192,33356,1,0,0:0:0:45:hihat.wav
320,192,33356,1,0,0:0:0:70:kick.wav
320,192,33501,128,0,33719:0:0:0:70:kick.wav
448,192,33501,128,0,33719:0:0:0:70:snare.wav
448,192,33791,128,0,34226:0:0:0:70:kick.wav
320,192,33791,128,0,34226:0:0:0:0:
192,192,33936,128,0,34226:0:0:0:45:hihat.wav
64,192,34081,128,0,34226:0:0:0:70:kick.wav
192,192,34371,128,0,34806:0:0:0:70:kick.wav
64,192,34371,128,0,34806:0:0:0:0:
320,192,34516,128,0,34806:0:0:0:45:hihat.wav
448,192,34661,128,0,34806:0:0:0:70:snare.wav
448,192,34951,128,0,35385:0:0:0:70:kick.wav
320,192,34951,128,0,35385:0:0:0:55:crash.wav
64,192,34951,1,0,0:0:0:0:
192,192,35241,1,0,0:0:0:70:snare.wav
64,192,35241,1,0,0:0:0:70:kick.wav
64,192,35530,1,0,0:0:0:70:kick.wav
448,192,35530,128,0,35675:0:0:0:0:
320,192,35675,128,0,35820:0:0:0:45:hihat.wav
64,192,35675,1,0,0:0:0:70:kick.wav
64,192,35820,1,0,0:0:0:70:kick.wav
192,192,35820,128,0,35965:0:0:0:70:snare.wav
320,192,35965,128,0,36110:0:0:0:45:hihat.wav
64,192,36110,1,0,0:0:0:70:kick.wav
448,192,36110,128,0,36255:0:0:0:0:
64,192,36255,1,0,0:0:0:45:hihat.wav
192,192,36327,1,0,0:0:0:0:
320,192,36400,1,0,0:0:0:70:kick.wav
448,192,36400,1,0,0:0:0:70:snare.wav
64,192,36472,1,0,0:0:0:0:
192,192,36545,1,0,0:0:0:45:hihat.wav
320,192,36617,1,0,0:0:0:0:
448,192,36690,1,0,0:0:0:70:kick.wav
64,192,36690,1,0,0:0:0:0:
192,192,36835,1,0,0:0:0:45:hihat.wav
320,192,36835,1,0,0:0:0:70:kick.wav
64,192,36980,1,0,0:0:0:70:snare.wav
448,192,36980,1,0,0:0:0:70:kick.wav
320,192,37076,1,0,0:0:0:70:kick.wav
192,192,37173,1,0,0:0:0:70:kick.wav
64,192,37270,1,0,0:0:0:70:kick.wav
448,192,37270,1,0,0:0:0:0:
64,192,37414,128,0,37704:0:0:0:0:
448,192,37559,1,0,0:0:0:70:snare.wav
320,192,37559,1,0,0:0:0:0:
448,192,37849,1,0,0:0:0:70:kick.wav
64,192,37849,1,0,0:0:0:0:
448,192,37994,128,0,38284:0:0:0:0:
192,192,38139,1,0,0:0:0:70:snare.wav
64,192,38139,1,0,0:0:0:0:
448,192,38429,1,0,0:0:0:70:kick.wav
64,192,38429,1,0,0:0:0:55:crash.wav
64,192,38719,128,0,39443:0:0:0:0:
448,192,39009,128,0,39443:0:0:0:45:drum.wav
320,192,39154,128,0,39443:0:0:0:45:drum.wav
192,192,39299,128,0,39443:0:0:0:45:drum.wav
448,192,39588,1,0,0:0:0:55:crash.wav
64,192,39588,1,0,0:0:0:70:kick.wav
192,192,39588,1,0,0:0:0:0:
320,192,39588,1,0,0:0:0:0:
64,192,39733,1,0,0:0:0:45:hihat.wav
320,192,39878,1,0,0:0:0:70:snare.wav
448,192,39878,1,0,0:0:0:70:kick.wav
64,192,40023,1,0,0:0:0:45:hihat.wav
320,192,40168,128,0,40385:0:0:0:70:kick.wav
448,192,40168,128,0,40385:0:0:0:0:
64,192,40313,1,0,0:0:0:45:hihat.wav
448,192,40458,128,0,40675:0:0:0:70:kick.wav
320,192,40458,128,0,40675:0:0:0:70:snare.wav
64,192,40603,1,0,0:0:0:45:hihat.wav
448,192,40748,1,0,0:0:0:0:
320,192,40748,1,0,0:0:0:70:kick.wav
448,192,40893,128,0,41038:0:0:0:45:hihat.wav
64,192,41038,1,0,0:0:0:70:kick.wav
192,192,41038,1,0,0:0:0:70:snare.wav
64,192,41183,1,0,0:0:0:45:hihat.wav
320,192,41327,1,0,0:0:0:70:kick.wav
448,192,41327,1,0,0:0:0:0:
448,192,41472,128,0,41617:0:0:0:45:hihat.wav
64,192,41617,128,0,41907:0:0:0:70:kick.wav
192,192,41617,128,0,41907:0:0:0:70:snare.wav
448,192,41907,128,0,42052:0:0:0:70:kick.wav
320,192,41907,1,0,0:0:0:0:
64,192,42052,1,0,0:0:0:45:hihat.wav
320,192,42197,128,0,42342:0:0:0:70:snare.wav
448,192,42197,1,0,0:0:0:70:kick.wav
192,192,42342,1,0,0:0:0:45:hihat.wav
192,192,42487,128,0,42632:0:0:0:70:kick.wav
64,192,42487,1,0,0:0:0:0:
320,192,42632,1,0,0:0:0:45:hihat.wav
64,192,42777,128,0,42922:0:0:0:70:kick.wav
192,192,42777,1,0,0:0:0:70:snare.wav
448,192,42922,1,0,0:0:0:45:hihat.wav
64,192,43067,1,0,0:0:0:70:kick.wav
320,192,43067,1,0,0:0:0:0:
192,192,43212,1,0,0:0:0:45:hihat.wav
64,192,43356,1,0,0:0:0:70:kick.wav
448,192,43356,1,0,0:0:0:70:snare.wav
448,192,43501,1,0,0:0:0:45:hihat.wav
64,192,43646,1,0,0:0:0:70:kick.wav
320,192,43646,1,0,0:0:0:0:
192,192,43791,1,0,0:0:0:45:hihat.wav
64,192,43936,128,0,44154:0:0:0:70:snare.wav
448,192,43936,1,0,0:0:0:70:kick.wav
448,192,44226,1,0,0:0:0:70:kick.wav
64,192,44226,128,0,44299:0:0:0:55:crash.wav
320,192,44371,1,0,0:0:0:45:hihat.wav
448,192,44516,1,0,0:0:0:70:snare.wav
64,192,44516,128,0,44588:0:0:0:70:kick.wav
320,192,44661,1,0,0:0:0:45:hihat.wav
64,192,44661,128,0,44733:0:0:0:0:
448,192,44806,1,0,0:0:0:70:kick.wav
64,192,44806,1,0,0:0:0:0:
192,192,44951,1,0,0:0:0:45:hihat.wav
320,192,44951,1,0,0:0:0:70:kick.wav
64,192,45096,1,0,0:0:0:70:kick.wav
448,192,45096,1,0,0:0:0:70:snare.wav
320,192,45241,1,0,0:0:0:45:hihat.wav
64,192,45385,1,0,0:0:0:70:kick.wav
448,192,45385,1,0,0:0:0:0:
64,192,45530,1,0,0:0:0:45:hihat.wav
192,192,45603,1,0,0:0:0:0:
448,192,45675,1,0,0:0:0:70:kick.wav
320,192,45675,1,0,0:0:0:70:snare.wav
64,192,45820,1,0,0:0:0:45:hihat.wav
192,192,45893,1,0,0:0:0:0:
320,192,45965,1,0,0:0:0:70:kick.wav
448,192,45965,1,0,0:0:0:0:
320,192,46110,1,0,0:0:0:45:hihat.wav
448,192,46110,1,0,0:0:0:70:kick.wav
64,192,46255,1,0,0:0:0:70:snare.wav
448,192,46255,1,0,0:0:0:70:kick.wav
320,192,46352,1,0,0:0:0:70:kick.wav
192,192,46448,1,0,0:0:0:70:kick.wav
64,192,46545,1,0,0:0:0:70:kick.wav
448,192,46545,1,0,0:0:0:0:
320,192,46738,1,0,0:0:0:70:kick.wav
192,192,46738,1,0,0:0:0:0:
64,192,46931,1,0,0:0:0:70:kick.wav
448,192,46931,1,0,0:0:0:0:
192,192,47028,1,0,0:0:0:70:kick.wav
448,192,47125,1,0,0:0:0:70:kick.wav
320,192,47125,1,0,0:0:0:0:
320,192,47318,1,0,0:0:0:70:kick.wav
192,192,47318,1,0,0:0:0:0:
64,192,47511,1,0,0:0:0:70:kick.wav
192,192,47511,1,0,0:0:0:0:
448,192,47704,1,0,0:0:0:70:kick.wav
64,192,47704,128,0,48212:0:0:0:55:crash.wav
448,192,47994,128,0,48067:0:0:0:0:
448,192,48139,128,0,48212:0:0:0:0:
320,192,48284,128,0,48356:0:0:0:0:
192,192,48429,128,0,48501:0:0:0:0:
64,192,48574,128,0,48646:0:0:0:0:
448,192,48574,128,0,48791:0:0:0:0:
64,192,48719,128,0,48791:0:0:0:0:
64,192,48864,1,0,0:0:0:55:crash.wav
448,192,48864,1,0,0:0:0:70:kick.wav
64,192,49009,1,0,0:0:0:45:drum.wav
192,192,49081,1,0,0:0:0:45:drum.wav
320,192,49154,1,0,0:0:0:45:drum.wav
448,192,49154,1,0,0:0:0:70:kick.wav
64,192,49299,1,0,0:0:0:45:drum.wav
192,192,49371,1,0,0:0:0:45:drum.wav
320,192,49443,1,0,0:0:0:45:drum.wav
448,192,49443,1,0,0:0:0:70:kick.wav
64,192,49588,1,0,0:0:0:45:drum.wav
192,192,49661,1,0,0:0:0:45:drum.wav
320,192,49733,1,0,0:0:0:45:drum.wav
448,192,49733,1,0,0:0:0:70:kick.wav
64,192,49878,1,0,0:0:0:45:drum.wav
192,192,49951,1,0,0:0:0:45:drum.wav
320,192,50023,1,0,0:0:0:45:drum.wav
448,192,50023,1,0,0:0:0:70:kick.wav
448,192,50168,1,0,0:0:0:45:drum.wav
320,192,50241,1,0,0:0:0:45:drum.wav
192,192,50313,1,0,0:0:0:70:kick.wav
64,192,50313,1,0,0:0:0:45:drum.wav
448,192,50458,1,0,0:0:0:45:drum.wav
320,192,50530,1,0,0:0:0:45:drum.wav
192,192,50603,1,0,0:0:0:45:drum.wav
64,192,50603,1,0,0:0:0:70:kick.wav
448,192,50748,1,0,0:0:0:45:drum.wav
320,192,50820,1,0,0:0:0:45:drum.wav
192,192,50893,1,0,0:0:0:45:drum.wav
64,192,50893,1,0,0:0:0:70:kick.wav
448,192,51038,1,0,0:0:0:45:drum.wav
320,192,51110,1,0,0:0:0:45:drum.wav
192,192,51183,1,0,0:0:0:45:drum.wav
64,192,51183,1,0,0:0:0:70:kick.wav
320,192,51255,1,0,0:0:0:45:drum.wav
448,192,51327,1,0,0:0:0:70:kick.wav
64,192,51327,1,0,0:0:0:45:drum.wav
192,192,51400,1,0,0:0:0:45:drum.wav
320,192,51472,1,0,0:0:0:70:kick.wav
448,192,51472,1,0,0:0:0:45:drum.wav
64,192,51545,1,0,0:0:0:45:drum.wav
192,192,51617,1,0,0:0:0:70:kick.wav
448,192,51617,1,0,0:0:0:45:drum.wav
320,192,51690,1,0,0:0:0:45:drum.wav
64,192,51762,1,0,0:0:0:70:kick.wav
448,192,51762,1,0,0:0:0:45:drum.wav
192,192,51835,1,0,0:0:0:70:kick.wav
320,192,51835,1,0,0:0:0:45:drum.wav
64,192,51907,1,0,0:0:0:70:kick.wav
448,192,51907,1,0,0:0:0:45:drum.wav
192,192,51980,1,0,0:0:0:70:kick.wav
320,192,51980,1,0,0:0:0:45:drum.wav
64,192,52052,1,0,0:0:0:70:kick.wav
448,192,52052,1,0,0:0:0:45:drum.wav
192,192,52125,1,0,0:0:0:70:kick.wav
320,192,52125,1,0,0:0:0:45:drum.wav
64,192,52197,1,0,0:0:0:70:kick.wav
448,192,52197,1,0,0:0:0:45:drum.wav
192,192,52270,1,0,0:0:0:70:kick.wav
320,192,52270,1,0,0:0:0:45:drum.wav
64,192,52342,1,0,0:0:0:70:kick.wav
448,192,52342,1,0,0:0:0:45:drum.wav
448,192,52487,128,0,53356:0:0:0:0:
64,192,52777,128,0,53356:0:0:0:0:
192,192,52922,128,0,53356:0:0:0:0:
320,192,53067,128,0,53356:0:0:0:0:
448,192,53501,1,0,0:0:0:70:kick.wav
320,192,53501,1,0,0:0:0:70:cymbal.wav
320,192,53719,1,0,0:0:0:70:kick.wav
448,192,53719,1,0,0:0:0:70:cymbal.wav
320,192,53936,1,0,0:0:0:70:kick.wav
448,192,53936,1,0,0:0:0:70:cymbal.wav
320,192,54154,1,0,0:0:0:70:kick.wav
448,192,54154,1,0,0:0:0:70:cymbal.wav
192,192,54371,1,0,0:0:0:70:kick.wav
64,192,54371,1,0,0:0:0:70:snare.wav
320,192,54371,1,0,0:0:0:0:
448,192,54371,1,0,0:0:0:0:
192,192,54661,1,0,0:0:0:70:kick.wav
320,192,54661,1,0,0:0:0:70:cymbal.wav
192,192,54878,1,0,0:0:0:70:cymbal.wav
320,192,54878,1,0,0:0:0:70:kick.wav
192,192,55096,1,0,0:0:0:70:cymbal.wav
320,192,55096,1,0,0:0:0:70:kick.wav
192,192,55313,1,0,0:0:0:70:cymbal.wav
320,192,55313,1,0,0:0:0:70:kick.wav
64,192,55530,1,0,0:0:0:70:kick.wav
192,192,55530,1,0,0:0:0:70:snare.wav
320,192,55530,1,0,0:0:0:0:
448,192,55530,1,0,0:0:0:0:
192,192,55820,1,0,0:0:0:70:cymbal.wav
64,192,55820,1,0,0:0:0:70:kick.wav
192,192,56038,1,0,0:0:0:70:kick.wav
64,192,56038,1,0,0:0:0:70:cymbal.wav
192,192,56255,1,0,0:0:0:70:kick.wav
64,192,56255,1,0,0:0:0:70:cymbal.wav
192,192,56472,1,0,0:0:0:70:kick.wav
64,192,56472,1,0,0:0:0:70:cymbal.wav
64,192,56690,1,0,0:0:0:70:snare.wav
192,192,56690,1,0,0:0:0:70:kick.wav
320,192,56690,1,0,0:0:0:0:
448,192,56690,1,0,0:0:0:0:
448,192,56980,1,0,0:0:0:70:kick.wav
64,192,56980,1,0,0:0:0:70:cymbal.wav
64,192,57197,1,0,0:0:0:70:cymbal.wav
448,192,57197,1,0,0:0:0:70:kick.wav
64,192,57414,1,0,0:0:0:70:cymbal.wav
448,192,57414,1,0,0:0:0:70:kick.wav
192,192,57559,1,0,0:0:0:70:kick.wav
320,192,57632,1,0,0:0:0:70:kick.wav
192,192,57777,1,0,0:0:0:70:kick.wav
320,192,57849,1,0,0:0:0:70:kick.wav
448,192,57849,1,0,0:0:0:70:snare.wav
192,192,57994,1,0,0:0:0:70:kick.wav
320,192,57994,1,0,0:0:0:0:
192,192,58139,1,0,0:0:0:70:kick.wav
64,192,58139,1,0,0:0:0:70:cymbal.wav
192,192,58356,1,0,0:0:0:70:cymbal.wav
64,192,58356,1,0,0:0:0:70:kick.wav
192,192,58574,1,0,0:0:0:70:cymbal.wav
64,192,58574,1,0,0:0:0:70:kick.wav
192,192,58791,1,0,0:0:0:70:cymbal.wav
64,192,58791,1,0,0:0:0:70:kick.wav
64,192,59009,1,0,0:0:0:70:kick.wav
192,192,59009,1,0,0:0:0:70:snare.wav
320,192,59009,1,0,0:0:0:0:
448,192,59009,1,0,0:0:0:0:
192,192,59299,1,0,0:0:0:70:cymbal.wav
320,192,59299,1,0,0:0:0:70:kick.wav
192,192,59516,1,0,0:0:0:70:kick.wav
320,192,59516,1,0,0:0:0:70:cymbal.wav
192,192,59733,1,0,0:0:0:70:kick.wav
320,192,59733,1,0,0:0:0:70:cymbal.wav
192,192,59951,1,0,0:0:0:70:kick.wav
320,192,59951,1,0,0:0:0:70:cymbal.wav
64,192,60168,1,0,0:0:0:70:snare.wav
192,192,60168,1,0,0:0:0:70:kick.wav
320,192,60168,1,0,0:0:0:0:
448,192,60168,1,0,0:0:0:0:
320,192,60458,1,0,0:0:0:70:kick.wav
448,192,60458,1,0,0:0:0:70:cymbal.wav
320,192,60675,1,0,0:0:0:70:cymbal.wav
448,192,60675,1,0,0:0:0:70:kick.wav
320,192,60893,1,0,0:0:0:70:cymbal.wav
448,192,60893,1,0,0:0:0:70:kick.wav
320,192,61110,1,0,0:0:0:70:cymbal.wav
448,192,61110,1,0,0:0:0:70:kick.wav
448,192,61327,1,0,0:0:0:70:kick.wav
320,192,61327,1,0,0:0:0:70:snare.wav
192,192,61327,1,0,0:0:0:0:
64,192,61327,1,0,0:0:0:0:
64,192,61617,1,0,0:0:0:70:kick.wav
448,192,61617,1,0,0:0:0:45:drum.wav
192,192,61690,1,0,0:0:0:45:drum.wav
320,192,61762,1,0,0:0:0:45:drum.wav
192,192,61835,1,0,0:0:0:70:kick.wav
448,192,61835,1,0,0:0:0:45:drum.wav
64,192,61907,1,0,0:0:0:45:drum.wav
320,192,61980,1,0,0:0:0:45:drum.wav
192,192,62052,1,0,0:0:0:70:kick.wav
64,192,62052,1,0,0:0:0:45:drum.wav
448,192,62125,1,0,0:0:0:45:drum.wav
320,192,62197,1,0,0:0:0:45:drum.wav
64,192,62197,1,0,0:0:0:0:
192,192,62270,1,0,0:0:0:45:drum.wav
448,192,62270,1,0,0:0:0:0:
64,192,62342,128,0,62487:0:0:0:45:drum.wav
320,192,62487,128,0,62704:0:0:0:70:snare.wav
448,192,62487,128,0,62704:0:0:0:70:kick.wav
64,192,62632,128,0,62777:0:0:0:0:
320,192,62777,1,0,0:0:0:55:crash.wav
448,192,62777,1,0,0:0:0:0:
192,192,62922,128,0,63067:0:0:0:0:
448,192,62922,1,0,0:0:0:0:
448,192,63067,128,0,63284:0:0:0:0:
64,192,63212,128,0,63356:0:0:0:0:
448,192,63356,128,0,63501:0:0:0:0:
192,192,63501,128,0,63646:0:0:0:0:
448,192,63646,128,0,63791:0:0:0:0:
64,192,63791,128,0,63936:0:0:0:0:
448,192,63936,128,0,64081:0:0:0:0:
192,192,64081,128,0,64226:0:0:0:0:
64,192,64371,128,0,64516:0:0:0:0:
192,192,64661,128,0,64806:0:0:0:0:
64,192,64951,128,0,65096:0:0:0:0:
448,192,65096,1,0,0:0:0:0:
192,192,65241,128,0,65385:0:0:0:0:
448,192,65241,128,0,65530:0:0:0:0:
64,192,65530,128,0,65675:0:0:0:0:
448,192,65675,128,0,65820:0:0:0:0:
192,192,65820,128,0,65965:0:0:0:0:
448,192,65965,128,0,66110:0:0:0:0:
64,192,66110,128,0,66255:0:0:0:0:
448,192,66255,128,0,66762:0:0:0:0:
64,192,66545,128,0,66617:0:0:0:0:
64,192,66690,128,0,66762:0:0:0:0:
192,192,66835,128,0,66907:0:0:0:0:
320,192,66980,128,0,67052:0:0:0:0:
448,192,67125,128,0,67197:0:0:0:0:
64,192,67125,128,0,67342:0:0:0:0:
448,192,67270,128,0,67342:0:0:0:0:
448,192,67414,1,0,0:0:0:70:kick.wav
64,192,67414,1,0,0:0:0:55:crash.wav
448,192,67704,128,0,68139:0:0:0:0:
320,192,67849,128,0,68139:0:0:0:0:
192,192,67994,128,0,68139:0:0:0:0:
320,192,68284,128,0,68719:0:0:0:0:
192,192,68429,128,0,68719:0:0:0:0:
64,192,68574,128,0,68719:0:0:0:0:
448,192,68719,128,0,68864:0:0:0:0:
448,192,69009,128,0,69154:0:0:0:0:
448,192,69299,128,0,69443:0:0:0:0:
448,192,69588,128,0,69878:0:0:0:0:
64,192,69733,128,0,69878:0:0:0:0:
192,192,70313,128,0,70458:0:0:0:0:
320,192,70458,128,0,70603:0:0:0:0:
64,192,70893,1,0,0:0:0:70:kick.wav
448,192,70893,128,0,71400:0:0:0:0:
64,192,71183,128,0,71255:0:0:0:0:
64,192,71327,128,0,71400:0:0:0:0:
192,192,71472,128,0,71545:0:0:0:0:
320,192,71617,128,0,71690:0:0:0:0:
448,192,71762,128,0,71835:0:0:0:0:
64,192,71762,128,0,71980:0:0:0:0:
448,192,71907,128,0,71980:0:0:0:0:
448,192,72052,1,0,0:0:0:55:crash.wav
64,192,72052,1,0,0:0:0:70:kick.wav
192,192,72197,1,0,0:0:0:45:hihat.wav
320,192,72342,1,0,0:0:0:70:clap.wav
448,192,72342,1,0,0:0:0:0:
192,192,72487,1,0,0:0:0:45:hihat.wav
64,192,72632,1,0,0:0:0:0:
192,192,72777,1,0,0:0:0:45:hihat.wav
320,192,72922,1,0,0:0:0:70:clap.wav
448,192,72922,1,0,0:0:0:0:
192,192,73067,1,0,0:0:0:45:hihat.wav
64,192,73212,1,0,0:0:0:0:
192,192,73356,1,0,0:0:0:45:hihat.wav
320,192,73501,1,0,0:0:0:70:clap.wav
448,192,73501,1,0,0:0:0:0:
192,192,73646,1,0,0:0:0:45:hihat.wav
64,192,73791,1,0,0:0:0:0:
192,192,73936,1,0,0:0:0:45:hihat.wav
320,192,74081,1,0,0:0:0:70:clap.wav
448,192,74081,1,0,0:0:0:0:
192,192,74226,1,0,0:0:0:45:hihat.wav
64,192,74371,1,0,0:0:0:0:
448,192,74371,1,0,0:0:0:0:
320,192,74516,1,0,0:0:0:45:hihat.wav
192,192,74661,1,0,0:0:0:70:clap.wav
64,192,74661,1,0,0:0:0:0:
320,192,74806,1,0,0:0:0:45:hihat.wav
448,192,74951,1,0,0:0:0:0:
320,192,75096,1,0,0:0:0:45:hihat.wav
192,192,75241,1,0,0:0:0:70:clap.wav
64,192,75241,1,0,0:0:0:0:
320,192,75385,1,0,0:0:0:45:hihat.wav
448,192,75530,1,0,0:0:0:0:
320,192,75675,1,0,0:0:0:45:hihat.wav
192,192,75820,1,0,0:0:0:70:clap.wav
64,192,75820,1,0,0:0:0:0:
320,192,75965,1,0,0:0:0:45:hihat.wav
448,192,76110,1,0,0:0:0:0:
320,192,76255,1,0,0:0:0:45:hihat.wav
192,192,76400,1,0,0:0:0:70:clap.wav
64,192,76400,1,0,0:0:0:0:
320,192,76545,1,0,0:0:0:45:hihat.wav
448,192,76690,1,0,0:0:0:70:kick.wav
64,192,76690,1,0,0:0:0:0:
192,192,76835,1,0,0:0:0:45:hihat.wav
320,192,76980,1,0,0:0:0:70:clap.wav
448,192,76980,1,0,0:0:0:0:
192,192,77125,1,0,0:0:0:45:hihat.wav
64,192,77270,1,0,0:0:0:0:
192,192,77414,1,0,0:0:0:45:hihat.wav
320,192,77559,1,0,0:0:0:70:clap.wav
448,192,77559,1,0,0:0:0:0:
192,192,77704,1,0,0:0:0:45:hihat.wav
64,192,77849,1,0,0:0:0:0:
192,192,77994,1,0,0:0:0:45:hihat.wav
320,192,78139,1,0,0:0:0:70:clap.wav
448,192,78139,1,0,0:0:0:0:
192,192,78284,1,0,0:0:0:45:hihat.wav
64,192,78429,1,0,0:0:0:0:
192,192,78574,1,0,0:0:0:45:hihat.wav
320,192,78719,1,0,0:0:0:70:clap.wav
448,192,78719,1,0,0:0:0:0:
192,192,78864,1,0,0:0:0:45:hihat.wav
64,192,79009,1,0,0:0:0:70:kick.wav
448,192,79009,1,0,0:0:0:0:
320,192,79154,1,0,0:0:0:45:hihat.wav
192,192,79299,1,0,0:0:0:70:clap.wav
64,192,79299,1,0,0:0:0:0:
320,192,79443,1,0,0:0:0:45:hihat.wav
448,192,79588,1,0,0:0:0:0:
320,192,79733,1,0,0:0:0:45:hihat.wav
192,192,79878,1,0,0:0:0:70:clap.wav
64,192,79878,1,0,0:0:0:0:
320,192,80023,1,0,0:0:0:45:hihat.wav
448,192,80168,1,0,0:0:0:70:kick.wav
64,192,80168,128,0,80675:0:0:0:0:
448,192,80458,128,0,80675:0:0:0:0:
64,192,80748,128,0,80820:0:0:0:0:
448,192,80748,128,0,81255:0:0:0:0:
192,192,80893,128,0,80965:0:0:0:0:
320,192,81038,128,0,81110:0:0:0:0:
192,192,81183,128,0,81255:0:0:0:0:
448,192,81327,1,0,0:0:0:70:kick.wav
64,192,81327,128,0,81545:0:0:0:55:crash.wav
192,192,81327,1,0,0:0:0:0:
448,192,81472,1,0,0:0:0:45:hihat.wav
64,192,81617,1,0,0:0:0:70:clap.wav
192,192,81617,1,0,0:0:0:0:
448,192,81617,128,0,81762:0:0:0:0:
320,192,81762,1,0,0:0:0:45:hihat.wav
448,192,81907,128,0,82052:0:0:0:0:
192,192,81907,1,0,0:0:0:0:
320,192,82052,1,0,0:0:0:45:hihat.wav
448,192,82197,128,0,82342:0:0:0:70:clap.wav
192,192,82197,1,0,0:0:0:0:
64,192,82197,1,0,0:0:0:0:
320,192,82342,1,0,0:0:0:45:hihat.wav
448,192,82487,128,0,82632:0:0:0:0:
192,192,82487,1,0,0:0:0:0:
320,192,82632,1,0,0:0:0:45:hihat.wav
448,192,82777,128,0,82922:0:0:0:70:clap.wav
192,192,82777,1,0,0:0:0:0:
64,192,82777,1,0,0:0:0:0:
320,192,82922,1,0,0:0:0:45:hihat.wav
448,192,83067,128,0,83212:0:0:0:0:
192,192,83067,1,0,0:0:0:0:
320,192,83212,1,0,0:0:0:45:hihat.wav
64,192,83356,1,0,0:0:0:70:clap.wav
192,192,83356,1,0,0:0:0:0:
448,192,83356,128,0,83646:0:0:0:0:
64,192,83646,128,0,83791:0:0:0:70:kick.wav
320,192,83646,1,0,0:0:0:0:
192,192,83791,1,0,0:0:0:45:hihat.wav
64,192,83936,128,0,84081:0:0:0:70:clap.wav
320,192,83936,1,0,0:0:0:0:
448,192,83936,1,0,0:0:0:0:
192,192,84081,1,0,0:0:0:45:hihat.wav
64,192,84226,128,0,84371:0:0:0:0:
320,192,84226,1,0,0:0:0:0:
192,192,84371,1,0,0:0:0:45:hihat.wav
64,192,84516,128,0,84661:0:0:0:70:clap.wav
320,192,84516,1,0,0:0:0:0:
448,192,84516,1,0,0:0:0:0:
192,192,84661,1,0,0:0:0:45:hihat.wav
64,192,84806,128,0,84951:0:0:0:0:
320,192,84806,1,0,0:0:0:0:
192,192,84951,1,0,0:0:0:45:hihat.wav
64,192,85096,128,0,85241:0:0:0:70:clap.wav
320,192,85096,1,0,0:0:0:0:
448,192,85096,1,0,0:0:0:0:
192,192,85241,1,0,0:0:0:45:hihat.wav
64,192,85385,128,0,85530:0:0:0:0:
320,192,85385,1,0,0:0:0:0:
192,192,85530,1,0,0:0:0:45:hihat.wav
320,192,85675,1,0,0:0:0:70:clap.wav
448,192,85675,1,0,0:0:0:70:kick.wav
64,192,85675,128,0,85965:0:0:0:0:
448,192,85965,1,0,0:0:0:70:kick.wav
320,192,85965,1,0,0:0:0:55:crash.wav
64,192,86110,1,0,0:0:0:0:
192,192,86183,1,0,0:0:0:0:
320,192,86255,1,0,0:0:0:70:kick.wav
448,192,86255,1,0,0:0:0:0:
64,192,86400,1,0,0:0:0:0:
192,192,86472,1,0,0:0:0:0:
320,192,86545,1,0,0:0:0:70:kick.wav
448,192,86545,1,0,0:0:0:0:
64,192,86690,1,0,0:0:0:0:
192,192,86762,1,0,0:0:0:0:
320,192,86835,5,0,0:0:0:70:kick.wav
448,192,86835,1,0,0:0:0:0:
192,192,86980,1,0,0:0:0:70:kick.wav
320,192,86980,1,0,0:0:0:0:
192,192,87125,1,0,0:0:0:70:kick.wav
64,192,87125,1,0,0:0:0:55:crash.wav
448,192,87270,1,0,0:0:0:0:
320,192,87342,1,0,0:0:0:0:
192,192,87414,1,0,0:0:0:70:kick.wav
64,192,87414,1,0,0:0:0:0:
448,192,87559,1,0,0:0:0:0:
320,192,87632,1,0,0:0:0:0:
192,192,87704,1,0,0:0:0:70:kick.wav
64,192,87704,1,0,0:0:0:0:
448,192,87849,1,0,0:0:0:0:
320,192,87922,1,0,0:0:0:0:
192,192,87994,1,0,0:0:0:70:kick.wav
64,192,87994,1,0,0:0:0:0:
192,192,88139,1,0,0:0:0:70:kick.wav
320,192,88139,1,0,0:0:0:0:
320,192,88284,1,0,0:0:0:70:kick.wav
448,192,88284,1,0,0:0:0:45:drum.wav
192,192,88356,1,0,0:0:0:45:drum.wav
320,192,88429,1,0,0:0:0:45:drum.wav
192,192,88501,1,0,0:0:0:45:drum.wav
320,192,88574,1,0,0:0:0:70:kick.wav
448,192,88574,1,0,0:0:0:45:drum.wav
192,192,88646,1,0,0:0:0:70:kick.wav
64,192,88646,1,0,0:0:0:0:
320,192,88719,1,0,0:0:0:70:kick.wav
448,192,88719,1,0,0:0:0:0:
192,192,88791,1,0,0:0:0:70:kick.wav
64,192,88791,1,0,0:0:0:0:
320,192,88864,1,0,0:0:0:70:kick.wav
448,192,88864,1,0,0:0:0:55:crash.wav
192,192,89009,1,0,0:0:0:45:drum.wav
320,192,89081,1,0,0:0:0:45:drum.wav
448,192,89154,1,0,0:0:0:45:drum.wav
64,192,89154,1,0,0:0:0:70:kick.wav
320,192,89226,1,0,0:0:0:70:kick.wav
192,192,89226,1,0,0:0:0:0:
448,192,89299,1,0,0:0:0:70:kick.wav
64,192,89299,1,0,0:0:0:0:
320,192,89371,1,0,0:0:0:70:kick.wav
192,192,89371,1,0,0:0:0:0:
448,192,89443,1,0,0:0:0:70:kick.wav
64,192,89443,128,0,89951:0:0:0:0:
448,192,89733,128,0,89951:0:0:0:0:
448,192,90023,128,0,90241:0:0:0:0:
64,192,90023,128,0,90241:0:0:0:0:
64,192,90313,128,0,90530:0:0:0:0:
448,192,90313,128,0,90530:0:0:0:0:
448,192,90603,1,0,0:0:0:70:kick.wav
64,192,90603,128,0,90748:0:0:0:55:crash.wav
320,192,90748,1,0,0:0:0:45:hihat.wav
192,192,90893,1,0,0:0:0:70:snare.wav
64,192,90893,1,0,0:0:0:70:kick.wav
64,192,91038,128,0,91183:0:0:0:45:hihat.wav
192,192,91183,128,0,91327:0:0:0:70:kick.wav
448,192,91183,1,0,0:0:0:0:
320,192,91327,128,0,91472:0:0:0:45:hihat.wav
64,192,91472,1,0,0:0:0:70:snare.wav
448,192,91472,1,0,0:0:0:70:kick.wav
192,192,91617,128,0,91762:0:0:0:45:hihat.wav
320,192,91762,128,0,91907:0:0:0:70:kick.wav
64,192,91762,1,0,0:0:0:0:
448,192,91907,128,0,92052:0:0:0:45:hihat.wav
320,192,92052,1,0,0:0:0:70:kick.wav
192,192,92052,1,0,0:0:0:70:snare.wav
448,192,92197,128,0,92342:0:0:0:45:hihat.wav
64,192,92342,1,0,0:0:0:70:kick.wav
448,192,92487,128,0,92632:0:0:0:45:hihat.wav
320,192,92632,1,0,0:0:0:70:kick.wav
192,192,92632,1,0,0:0:0:70:snare.wav
448,192,92777,128,0,92922:0:0:0:45:hihat.wav
192,192,92922,128,0,93067:0:0:0:70:kick.wav
64,192,92922,1,0,0:0:0:0:
448,192,93067,1,0,0:0:0:45:hihat.wav
320,192,93212,1,0,0:0:0:70:snare.wav
64,192,93212,1,0,0:0:0:70:kick.wav
192,192,93356,1,0,0:0:0:45:hihat.wav
320,192,93501,128,0,93646:0:0:0:70:kick.wav
64,192,93501,1,0,0:0:0:0:
64,192,93646,128,0,93791:0:0:0:45:hihat.wav
320,192,93791,1,0,0:0:0:70:snare.wav
448,192,93791,1,0,0:0:0:70:kick.wav
64,192,93936,128,0,94081:0:0:0:45:hihat.wav
192,192,94081,128,0,94226:0:0:0:70:kick.wav
448,192,94081,1,0,0:0:0:0:
320,192,94226,128,0,94371:0:0:0:45:hihat.wav
448,192,94371,128,0,94516:0:0:0:70:kick.wav
64,192,94371,1,0,0:0:0:70:snare.wav
192,192,94516,128,0,94661:0:0:0:45:hihat.wav
320,192,94661,128,0,94806:0:0:0:70:kick.wav
448,192,94661,1,0,0:0:0:0:
64,192,94806,128,0,94951:0:0:0:45:hihat.wav
192,192,94951,128,0,95096:0:0:0:70:kick.wav
448,192,94951,1,0,0:0:0:70:snare.wav
320,192,95096,128,0,95241:0:0:0:45:hihat.wav
64,192,95241,1,0,0:0:0:55:crash.wav
448,192,95241,128,0,95385:0:0:0:70:kick.wav
192,192,95385,1,0,0:0:0:45:hihat.wav
320,192,95530,1,0,0:0:0:70:snare.wav
448,192,95530,1,0,0:0:0:70:kick.wav
448,192,95675,128,0,95820:0:0:0:45:hihat.wav
320,192,95820,128,0,95965:0:0:0:70:kick.wav
64,192,95820,1,0,0:0:0:0:
192,192,95965,128,0,96110:0:0:0:45:hihat.wav
448,192,96110,1,0,0:0:0:70:snare.wav
64,192,96110,1,0,0:0:0:70:kick.wav
320,192,96255,128,0,96400:0:0:0:45:hihat.wav
192,192,96400,128,0,96545:0:0:0:70:kick.wav
448,192,96400,1,0,0:0:0:0:
64,192,96545,128,0,96690:0:0:0:45:hihat.wav
192,192,96690,1,0,0:0:0:70:kick.wav
320,192,96690,1,0,0:0:0:70:snare.wav
64,192,96835,128,0,96980:0:0:0:45:hihat.wav
448,192,96980,1,0,0:0:0:70:kick.wav
64,192,97125,128,0,97270:0:0:0:45:hihat.wav
448,192,97125,1,0,0:0:0:70:kick.wav
192,192,97270,1,0,0:0:0:70:kick.wav
320,192,97270,1,0,0:0:0:70:snare.wav
64,192,97414,128,0,97559:0:0:0:45:hihat.wav
320,192,97559,128,0,97704:0:0:0:70:kick.wav
448,192,97559,1,0,0:0:0:0:
64,192,97704,1,0,0:0:0:45:hihat.wav
192,192,97849,1,0,0:0:0:70:snare.wav
448,192,97849,1,0,0:0:0:70:kick.wav
320,192,97994,1,0,0:0:0:45:hihat.wav
192,192,98139,128,0,98284:0:0:0:70:kick.wav
448,192,98139,1,0,0:0:0:0:
448,192,98284,128,0,98429:0:0:0:45:hihat.wav
64,192,98429,1,0,0:0:0:70:snare.wav
192,192,98429,1,0,0:0:0:70:kick.wav
448,192,98574,128,0,98719:0:0:0:45:hihat.wav
320,192,98719,128,0,98864:0:0:0:45:drum.wav
64,192,98719,1,0,0:0:0:0:
192,192,98864,128,0,99009:0:0:0:45:drum.wav
64,192,99009,128,0,99154:0:0:0:45:drum.wav
448,192,99009,1,0,0:0:0:0:
320,192,99154,128,0,99299:0:0:0:45:drum.wav
192,192,99299,128,0,99443:0:0:0:45:drum.wav
64,192,99299,1,0,0:0:0:0:
448,192,99443,128,0,99588:0:0:0:45:drum.wav
320,192,99588,128,0,99733:0:0:0:45:drum.wav
64,192,99588,128,0,99878:0:0:0:0:
320,192,99878,1,0,0:0:0:55:crash.wav
448,192,99878,128,0,100023:0:0:0:70:kick.wav
64,192,100023,1,0,0:0:0:45:hihat.wav
192,192,100168,1,0,0:0:0:70:kick.wav
320,192,100168,1,0,0:0:0:70:snare.wav
448,192,100168,128,0,100313:0:0:0:0:
64,192,100313,1,0,0:0:0:45:hihat.wav
320,192,100458,1,0,0:0:0:70:kick.wav
448,192,100458,128,0,100603:0:0:0:0:
64,192,100603,1,0,0:0:0:45:hihat.wav
448,192,100748,128,0,100893:0:0:0:70:kick.wav
320,192,100748,1,0,0:0:0:70:snare.wav
192,192,100748,1,0,0:0:0:0:
64,192,100893,1,0,0:0:0:45:hihat.wav
448,192,101038,128,0,101183:0:0:0:70:kick.wav
320,192,101038,1,0,0:0:0:0:
64,192,101183,1,0,0:0:0:45:hihat.wav
448,192,101327,128,0,101617:0:0:0:70:snare.wav
192,192,101327,1,0,0:0:0:70:kick.wav
320,192,101327,1,0,0:0:0:0:
64,192,101472,1,0,0:0:0:45:hihat.wav
192,192,101617,128,0,101690:0:0:0:70:kick.wav
64,192,101617,128,0,101690:0:0:0:0:
192,192,101762,128,0,101835:0:0:0:45:hihat.wav
320,192,101762,128,0,101835:0:0:0:0:
320,192,101907,128,0,102125:0:0:0:70:snare.wav
448,192,101907,128,0,102125:0:0:0:70:kick.wav
64,192,102052,128,0,102197:0:0:0:45:hihat.wav
448,192,102197,1,0,0:0:0:70:kick.wav
320,192,102197,1,0,0:0:0:0:
64,192,102342,1,0,0:0:0:45:hihat.wav
448,192,102487,1,0,0:0:0:70:kick.wav
320,192,102487,1,0,0:0:0:70:snare.wav
192,192,102487,1,0,0:0:0:0:
64,192,102632,128,0,102777:0:0:0:45:hihat.wav
448,192,102777,1,0,0:0:0:70:kick.wav
320,192,102777,1,0,0:0:0:0:
64,192,102922,128,0,103067:0:0:0:45:hihat.wav
320,192,103067,1,0,0:0:0:70:kick.wav
448,192,103067,1,0,0:0:0:70:snare.wav
192,192,103067,1,0,0:0:0:0:
64,192,103212,128,0,103356:0:0:0:45:hihat.wav
448,192,103356,1,0,0:0:0:70:kick.wav
320,192,103356,1,0,0:0:0:0:
448,192,103501,1,0,0:0:0:45:hihat.wav
320,192,103574,1,0,0:0:0:0:
192,192,103646,1,0,0:0:0:70:snare.wav
64,192,103646,1,0,0:0:0:70:kick.wav
448,192,103719,1,0,0:0:0:0:
320,192,103791,1,0,0:0:0:45:hihat.wav
192,192,103864,1,0,0:0:0:0:
64,192,103936,1,0,0:0:0:70:kick.wav
448,192,103936,1,0,0:0:0:0:
192,192,104081,1,0,0:0:0:45:hihat.wav
320,192,104081,1,0,0:0:0:70:kick.wav
64,192,104226,1,0,0:0:0:70:snare.wav
448,192,104226,1,0,0:0:0:70:kick.wav
448,192,104371,128,0,104516:0:0:0:45:hihat.wav
320,192,104516,1,0,0:0:0:55:crash.wav
64,192,104516,1,0,0:0:0:70:kick.wav
64,192,104661,1,0,0:0:0:70:kick.wav
192,192,104661,1,0,0:0:0:45:hihat.wav
64,192,104806,128,0,104951:0:0:0:70:kick.wav
320,192,104806,1,0,0:0:0:70:snare.wav
448,192,104806,1,0,0:0:0:0:
192,192,104951,1,0,0:0:0:45:hihat.wav
64,192,105096,128,0,105241:0:0:0:70:kick.wav
320,192,105096,1,0,0:0:0:0:
192,192,105241,1,0,0:0:0:45:hihat.wav
64,192,105385,128,0,105530:0:0:0:70:kick.wav
320,192,105385,1,0,0:0:0:70:snare.wav
448,192,105385,1,0,0:0:0:0:
192,192,105530,1,0,0:0:0:45:hihat.wav
64,192,105675,128,0,105820:0:0:0:70:kick.wav
320,192,105675,1,0,0:0:0:0:
192,192,105820,1,0,0:0:0:45:hihat.wav
64,192,105965,128,0,106255:0:0:0:70:snare.wav
320,192,105965,1,0,0:0:0:70:kick.wav
448,192,105965,1,0,0:0:0:0:
192,192,106110,1,0,0:0:0:45:hihat.wav
320,192,106255,128,0,106327:0:0:0:70:kick.wav
448,192,106255,128,0,106327:0:0:0:0:
320,192,106400,128,0,106472:0:0:0:45:hihat.wav
192,192,106400,128,0,106472:0:0:0:0:
192,192,106545,128,0,106762:0:0:0:70:snare.wav
64,192,106545,128,0,106762:0:0:0:70:kick.wav
448,192,106690,128,0,106835:0:0:0:45:hihat.wav
192,192,106835,1,0,0:0:0:70:kick.wav
64,192,106835,1,0,0:0:0:45:drum.wav
320,192,106907,1,0,0:0:0:45:drum.wav
64,192,106980,1,0,0:0:0:45:drum.wav
192,192,107052,1,0,0:0:0:70:kick.wav
448,192,107052,1,0,0:0:0:45:drum.wav
320,192,107125,1,0,0:0:0:45:drum.wav
64,192,107125,1,0,0:0:0:0:
64,192,107270,1,0,0:0:0:70:kick.wav
448,192,107270,1,0,0:0:0:45:drum.wav
320,192,107342,1,0,0:0:0:70:kick.wav
192,192,107342,1,0,0:0:0:45:drum.wav
448,192,107414,1,0,0:0:0:70:kick.wav
64,192,107414,1,0,0:0:0:45:drum.wav
64,192,107559,1,0,0:0:0:45:drum.wav
192,192,107632,1,0,0:0:0:70:kick.wav
448,192,107632,1,0,0:0:0:45:drum.wav
320,192,107704,1,0,0:0:0:45:drum.wav
192,192,107777,1,0,0:0:0:45:drum.wav
64,192,107849,1,0,0:0:0:70:kick.wav
448,192,107849,1,0,0:0:0:45:drum.wav
192,192,107994,5,0,0:0:0:70:kick.wav
64,192,107994,1,0,0:0:0:45:drum.wav
320,192,108067,1,0,0:0:0:45:drum.wav
448,192,108139,1,0,0:0:0:45:drum.wav
64,192,108212,1,0,0:0:0:45:drum.wav
192,192,108284,1,0,0:0:0:45:drum.wav
448,192,108284,1,0,0:0:0:0:
320,192,108356,1,0,0:0:0:0:
64,192,108429,1,0,0:0:0:45:drum.wav
448,192,108574,1,0,0:0:0:45:drum.wav
64,192,108574,1,0,0:0:0:0:
192,192,108646,1,0,0:0:0:0:
320,192,108719,1,0,0:0:0:45:drum.wav
192,192,108864,1,0,0:0:0:45:drum.wav
64,192,108864,1,0,0:0:0:70:snare.wav
448,192,109154,5,0,0:0:0:55:crash.wav
64,192,109154,128,0,109299:0:0:0:70:kick.wav
320,192,109299,1,0,0:0:0:45:hihat.wav
192,192,109443,1,0,0:0:0:70:kick.wav
64,192,109443,1,0,0:0:0:70:snare.wav
64,192,109588,128,0,109733:0:0:0:45:hihat.wav
192,192,109733,128,0,109878:0:0:0:70:kick.wav
448,192,109733,1,0,0:0:0:0:
320,192,109878,128,0,110023:0:0:0:45:hihat.wav
64,192,110023,1,0,0:0:0:70:kick.wav
448,192,110023,1,0,0:0:0:70:snare.wav
192,192,110168,128,0,110313:0:0:0:45:hihat.wav
320,192,110313,128,0,110458:0:0:0:70:kick.wav
64,192,110313,1,0,0:0:0:0:
448,192,110458,128,0,110603:0:0:0:45:hihat.wav
320,192,110603,1,0,0:0:0:70:snare.wav
192,192,110603,1,0,0:0:0:70:kick.wav
448,192,110748,128,0,110893:0:0:0:45:hihat.wav
64,192,110893,1,0,0:0:0:70:kick.wav
448,192,111038,128,0,111183:0:0:0:45:hihat.wav
320,192,111183,1,0,0:0:0:70:snare.wav
192,192,111183,1,0,0:0:0:70:kick.wav
448,192,111327,128,0,111472:0:0:0:45:hihat.wav
192,192,111472,128,0,111617:0:0:0:70:kick.wav
64,192,111472,1,0,0:0:0:0:
448,192,111617,1,0,0:0:0:45:hihat.wav
320,192,111762,1,0,0:0:0:70:kick.wav
64,192,111762,1,0,0:0:0:70:snare.wav
192,192,111907,1,0,0:0:0:45:hihat.wav
320,192,112052,128,0,112197:0:0:0:70:kick.wav
64,192,112052,1,0,0:0:0:0:
64,192,112197,128,0,112342:0:0:0:45:hihat.wav
448,192,112342,1,0,0:0:0:70:kick.wav
320,192,112342,1,0,0:0:0:70:snare.wav
64,192,112487,128,0,112632:0:0:0:45:hihat.wav
192,192,112632,128,0,112777:0:0:0:70:kick.wav
448,192,112632,1,0,0:0:0:0:
320,192,112777,128,0,112922:0:0:0:45:hihat.wav
448,192,112922,128,0,113067:0:0:0:70:snare.wav
64,192,112922,1,0,0:0:0:70:kick.wav
192,192,113067,1,0,0:0:0:45:hihat.wav
320,192,113212,1,0,0:0:0:70:kick.wav
448,192,113212,128,0,113356:0:0:0:0:
192,192,113356,1,0,0:0:0:45:hihat.wav
320,192,113356,128,0,113501:0:0:0:70:kick.wav
64,192,113501,1,0,0:0:0:70:snare.wav
192,192,113501,128,0,113646:0:0:0:70:kick.wav
320,192,113646,128,0,113791:0:0:0:45:hihat.wav
64,192,113791,1,0,0:0:0:55:crash.wav
448,192,113791,128,0,113936:0:0:0:70:kick.wav
192,192,113936,1,0,0:0:0:70:kick.wav
320,192,113936,1,0,0:0:0:45:hihat.wav
64,192,114081,1,0,0:0:0:70:kick.wav
448,192,114081,1,0,0:0:0:70:snare.wav
448,192,114226,128,0,114371:0:0:0:45:hihat.wav
320,192,114371,128,0,114516:0:0:0:70:kick.wav
64,192,114371,1,0,0:0:0:0:
192,192,114516,128,0,114661:0:0:0:45:hihat.wav
448,192,114661,1,0,0:0:0:70:kick.wav
64,192,114661,1,0,0:0:0:70:snare.wav
320,192,114806,128,0,114951:0:0:0:45:hihat.wav
192,192,114951,128,0,115096:0:0:0:70:kick.wav
448,192,114951,1,0,0:0:0:0:
64,192,115096,128,0,115241:0:0:0:45:hihat.wav
192,192,115241,1,0,0:0:0:70:snare.wav
320,192,115241,1,0,0:0:0:70:kick.wav
64,192,115385,128,0,115530:0:0:0:45:hihat.wav
448,192,115530,1,0,0:0:0:70:kick.wav
64,192,115675,128,0,115820:0:0:0:45:hihat.wav
192,192,115820,1,0,0:0:0:70:snare.wav
320,192,115820,1,0,0:0:0:70:kick.wav
64,192,115965,128,0,116110:0:0:0:45:hihat.wav
320,192,116110,128,0,116255:0:0:0:70:kick.wav
448,192,116110,1,0,0:0:0:0:
64,192,116255,1,0,0:0:0:45:hihat.wav
192,192,116400,1,0,0:0:0:70:kick.wav
448,192,116400,1,0,0:0:0:70:snare.wav
320,192,116545,1,0,0:0:0:45:hihat.wav
192,192,116690,128,0,116835:0:0:0:70:kick.wav
448,192,116690,1,0,0:0:0:0:
448,192,116835,128,0,116980:0:0:0:45:hihat.wav
64,192,116980,1,0,0:0:0:70:kick.wav
192,192,116980,1,0,0:0:0:70:snare.wav
448,192,117125,128,0,117270:0:0:0:45:hihat.wav
320,192,117270,128,0,117414:0:0:0:70:kick.wav
64,192,117270,1,0,0:0:0:45:drum.wav
192,192,117414,128,0,117559:0:0:0:0:
64,192,117559,128,0,117704:0:0:0:45:drum.wav
448,192,117559,1,0,0:0:0:0:
320,192,117704,128,0,117849:0:0:0:0:
192,192,117849,128,0,117994:0:0:0:45:drum.wav
64,192,117849,1,0,0:0:0:0:
448,192,117994,128,0,118139:0:0:0:45:drum.wav
320,192,118139,128,0,118284:0:0:0:45:drum.wav
64,192,118139,128,0,118429:0:0:0:70:snare.wav
320,192,118429,5,0,0:0:0:70:cymbal.wav
448,192,118429,1,0,0:0:0:70:kick.wav
320,192,118646,1,0,0:0:0:70:cymbal.wav
448,192,118646,1,0,0:0:0:70:kick.wav
320,192,118864,1,0,0:0:0:70:kick.wav
448,192,118864,1,0,0:0:0:70:cymbal.wav
448,192,119081,1,0,0:0:0:70:cymbal.wav
320,192,119081,1,0,0:0:0:70:kick.wav
448,192,119299,1,0,0:0:0:70:kick.wav
320,192,119299,1,0,0:0:0:70:snare.wav
64,192,119299,1,0,0:0:0:0:
192,192,119299,1,0,0:0:0:0:
192,192,119588,1,0,0:0:0:70:cymbal.wav
320,192,119588,1,0,0:0:0:70:kick.wav
192,192,119806,1,0,0:0:0:70:kick.wav
320,192,119806,1,0,0:0:0:70:cymbal.wav
192,192,120023,1,0,0:0:0:70:cymbal.wav
320,192,120023,1,0,0:0:0:70:kick.wav
320,192,120241,1,0,0:0:0:70:kick.wav
192,192,120241,1,0,0:0:0:70:cymbal.wav
64,192,120458,1,0,0:0:0:70:kick.wav
192,192,120458,1,0,0:0:0:70:snare.wav
320,192,120458,1,0,0:0:0:0:
448,192,120458,1,0,0:0:0:0:
192,192,120748,1,0,0:0:0:70:kick.wav
64,192,120748,1,0,0:0:0:70:cymbal.wav
192,192,120965,1,0,0:0:0:70:cymbal.wav
64,192,120965,1,0,0:0:0:70:kick.wav
192,192,121183,1,0,0:0:0:70:kick.wav
64,192,121183,1,0,0:0:0:70:cymbal.wav
192,192,121400,1,0,0:0:0:70:cymbal.wav
64,192,121400,1,0,0:0:0:70:kick.wav
64,192,121617,1,0,0:0:0:70:snare.wav
192,192,121617,1,0,0:0:0:70:kick.wav
320,192,121617,1,0,0:0:0:0:
448,192,121617,1,0,0:0:0:0:
64,192,121907,1,0,0:0:0:70:cymbal.wav
448,192,121907,1,0,0:0:0:70:kick.wav
64,192,122125,1,0,0:0:0:70:kick.wav
448,192,122125,1,0,0:0:0:70:cymbal.wav
64,192,122342,1,0,0:0:0:70:cymbal.wav
448,192,122342,1,0,0:0:0:70:kick.wav
192,192,122487,1,0,0:0:0:70:kick.wav
320,192,122559,1,0,0:0:0:70:kick.wav
192,192,122704,1,0,0:0:0:70:kick.wav
320,192,122777,1,0,0:0:0:70:kick.wav
448,192,122777,1,0,0:0:0:70:snare.wav
192,192,122922,1,0,0:0:0:70:kick.wav
320,192,122922,1,0,0:0:0:0:
192,192,123067,1,0,0:0:0:70:kick.wav
64,192,123067,1,0,0:0:0:70:cymbal.wav
192,192,123284,1,0,0:0:0:70:cymbal.wav
64,192,123284,1,0,0:0:0:70:kick.wav
192,192,123501,1,0,0:0:0:70:kick.wav
64,192,123501,1,0,0:0:0:70:cymbal.wav
64,192,123719,1,0,0:0:0:70:cymbal.wav
192,192,123719,1,0,0:0:0:70:kick.wav
64,192,123936,1,0,0:0:0:70:snare.wav
192,192,123936,1,0,0:0:0:70:kick.wav
320,192,123936,1,0,0:0:0:0:
448,192,123936,1,0,0:0:0:0:
192,192,124226,1,0,0:0:0:70:cymbal.wav
320,192,124226,1,0,0:0:0:70:kick.wav
192,192,124443,1,0,0:0:0:70:kick.wav
320,192,124443,1,0,0:0:0:70:cymbal.wav
192,192,124661,1,0,0:0:0:70:cymbal.wav
320,192,124661,1,0,0:0:0:70:kick.wav
192,192,124878,1,0,0:0:0:70:kick.wav
320,192,124878,1,0,0:0:0:70:cymbal.wav
64,192,125096,1,0,0:0:0:70:kick.wav
192,192,125096,1,0,0:0:0:70:snare.wav
320,192,125096,1,0,0:0:0:0:
448,192,125096,1,0,0:0:0:0:
448,192,125385,1,0,0:0:0:70:kick.wav
64,192,125385,1,0,0:0:0:45:drum.wav
192,192,125458,1,0,0:0:0:45:drum.wav
320,192,125530,1,0,0:0:0:45:drum.wav
192,192,125603,1,0,0:0:0:70:kick.wav
448,192,125603,1,0,0:0:0:45:drum.wav
64,192,125675,1,0,0:0:0:45:drum.wav
320,192,125748,1,0,0:0:0:45:drum.wav
192,192,125820,1,0,0:0:0:70:kick.wav
64,192,125820,1,0,0:0:0:45:drum.wav
448,192,125893,1,0,0:0:0:45:drum.wav
320,192,125965,1,0,0:0:0:45:drum.wav
64,192,126038,1,0,0:0:0:70:kick.wav
448,192,126038,1,0,0:0:0:45:drum.wav
192,192,126110,1,0,0:0:0:45:drum.wav
64,192,126183,1,0,0:0:0:45:drum.wav
320,192,126255,1,0,0:0:0:70:kick.wav
448,192,126255,1,0,0:0:0:45:drum.wav
192,192,126327,1,0,0:0:0:45:drum.wav
448,192,126400,1,0,0:0:0:70:kick.wav
64,192,126400,1,0,0:0:0:45:drum.wav
320,192,126472,1,0,0:0:0:45:drum.wav
192,192,126545,128,0,126835:0:0:0:70:kick.wav
64,192,126545,128,0,126835:0:0:0:45:drum.wav
320,192,126690,128,0,126835:0:0:0:0:
448,192,126690,128,0,126835:0:0:0:0:
448,192,127125,1,0,0:0:0:45:drum.wav
64,192,127125,1,0,0:0:0:0:
320,192,127197,1,0,0:0:0:45:drum.wav
192,192,127197,1,0,0:0:0:0:
64,192,127270,1,0,0:0:0:45:drum.wav
448,192,127270,1,0,0:0:0:0:
320,192,127342,1,0,0:0:0:45:drum.wav
192,192,127414,1,0,0:0:0:70:kick.wav
64,192,127414,1,0,0:0:0:45:drum.wav
448,192,127487,1,0,0:0:0:70:kick.wav
320,192,127487,1,0,0:0:0:0:
192,192,127559,1,0,0:0:0:70:kick.wav
64,192,127559,1,0,0:0:0:0:
320,192,127632,1,0,0:0:0:70:kick.wav
448,192,127632,1,0,0:0:0:0:
192,192,127704,128,0,127994:0:0:0:70:kick.wav
64,192,127704,128,0,127994:0:0:0:55:crash.wav
