osu file format v14

[General]
AudioFilename: audio.mp3
AudioLeadIn: 0
PreviewTime: 89299
Countdown: 0
SampleSet: Soft
StackLeniency: 0.7
Mode: 3
LetterboxInBreaks: 0
SpecialStyle: 0
WidescreenStoryboard: 0

[Editor]
DistanceSpacing: 0.6
BeatDivisor: 4
GridSize: 8
TimelineZoom: 1.920001

[Metadata]
Title:BroGamer
TitleUnicode:BroGamer
Artist:USAO
ArtistUnicode:USAO
Creator:Spy
Version:ExNeko's Normal
Source:beatmania IIDX 24 SINOBUZ
Tags:BEMANI KONAMI SUPER ULTIMATE HYPER CORE trap 男の娘 雷振流 忍々七鍵伝 Kuo Kyoka Tofu1222 ExNeko
BeatmapID:1313630
BeatmapSetID:617846

[Difficulty]
HPDrainRate:7
CircleSize:4
OverallDifficulty:7
ApproachRate:5
SliderMultiplier:1.4
SliderTickRate:1

[Events]
//Background and Video events
0,0,"BG2.jpg",0,0
//Break Periods
//Storyboard Layer 0 (Background)
//Storyboard Layer 1 (Fail)
//Storyboard Layer 2 (Pass)
//Storyboard Layer 3 (Foreground)
//Storyboard Sound Samples
Sample,2487,0,"kick.wav",40
Sample,7125,0,"kick.wav",70
Sample,7414,0,"kick.wav",70
Sample,7994,0,"kick.wav",70
Sample,8574,0,"clap.wav",70
Sample,9154,0,"clap.wav",70
Sample,9443,0,"drum.wav",45
Sample,9516,0,"drum.wav",45
Sample,9661,0,"drum.wav",45
Sample,9733,0,"clap.wav",70
Sample,9806,0,"drum.wav",45
Sample,9878,0,"drum.wav",45
Sample,9951,0,"drum.wav",45
Sample,10096,0,"drum.wav",45
Sample,10168,0,"drum.wav",45
Sample,10241,0,"drum.wav",45
Sample,10313,0,"clap.wav",70
Sample,10385,0,"drum.wav",45
Sample,10458,0,"drum.wav",45
Sample,10530,0,"drum.wav",45
Sample,10603,0,"kick.wav",70
Sample,11762,0,"crash.wav",55
Sample,11907,0,"hihat.wav",45
Sample,12197,0,"hihat.wav",45
Sample,12487,0,"hihat.wav",45
Sample,12777,0,"hihat.wav",45
Sample,13067,0,"hihat.wav",45
Sample,13356,0,"hihat.wav",45
Sample,13646,0,"hihat.wav",45
Sample,13936,0,"hihat.wav",45
Sample,14226,0,"hihat.wav",45
Sample,14516,0,"hihat.wav",45
Sample,14806,0,"hihat.wav",45
Sample,15096,0,"hihat.wav",45
Sample,15385,0,"hihat.wav",45
Sample,15675,0,"hihat.wav",45
Sample,15965,0,"hihat.wav",45
Sample,16255,0,"hihat.wav",45
Sample,16545,0,"kick.wav",70
Sample,16835,0,"hihat.wav",45
Sample,17125,0,"hihat.wav",45
Sample,17414,0,"hihat.wav",45
Sample,17704,0,"hihat.wav",45
Sample,17994,0,"hihat.wav",45
Sample,18284,0,"kick.wav",70
Sample,18429,0,"kick.wav",70
Sample,18574,0,"hihat.wav",45
Sample,18864,0,"hihat.wav",45
Sample,19154,0,"hihat.wav",45
Sample,19443,0,"kick.wav",70
Sample,19733,0,"hihat.wav",45
Sample,20023,0,"hihat.wav",45
Sample,20313,0,"hihat.wav",45
Sample,20458,0,"drum.wav",45
Sample,20603,0,"drum.wav",45
Sample,20748,0,"drum.wav",45
Sample,21038,0,"kick.wav",70
Sample,21038,0,"crash.wav",55
Sample,21762,0,"hihat.wav",45
Sample,22052,0,"hihat.wav",45
Sample,22342,0,"hihat.wav",45
Sample,22632,0,"hihat.wav",45
Sample,22922,0,"kick.wav",70
Sample,23212,0,"hihat.wav",45
Sample,23646,0,"snare.wav",70
Sample,24081,0,"hihat.wav",45
Sample,24371,0,"hihat.wav",45
Sample,24661,0,"hihat.wav",45
Sample,24951,0,"hihat.wav",45
Sample,25241,0,"kick.wav",70
Sample,25385,0,"snare.wav",70
Sample,25530,0,"kick.wav",70
Sample,25820,0,"hihat.wav",45
Sample,25965,0,"snare.wav",70
Sample,26110,0,"hihat.wav",45
Sample,26400,0,"hihat.wav",45
Sample,26690,0,"hihat.wav",45
Sample,27270,0,"hihat.wav",45
Sample,27559,0,"kick.wav",70
Sample,27849,0,"hihat.wav",45
Sample,27994,0,"drum.wav",45
Sample,28067,0,"drum.wav",45
Sample,28139,0,"drum.wav",45
Sample,28212,0,"drum.wav",45
Sample,28284,0,"drum.wav",45
Sample,28284,0,"snare.wav",70
Sample,28356,0,"drum.wav",45
Sample,28429,0,"drum.wav",45
Sample,28501,0,"drum.wav",45
Sample,28574,0,"drum.wav",45
Sample,28646,0,"drum.wav",45
Sample,28719,0,"drum.wav",45
Sample,28791,0,"drum.wav",45
Sample,28864,0,"kick.wav",70
Sample,28864,0,"drum.wav",45
Sample,28936,0,"drum.wav",45
Sample,29009,0,"drum.wav",45
Sample,29081,0,"drum.wav",45
Sample,29154,0,"drum.wav",45
Sample,29226,0,"drum.wav",45
Sample,29299,0,"drum.wav",45
Sample,29299,0,"hihat.wav",45
Sample,29371,0,"drum.wav",45
Sample,29443,0,"kick.wav",70
Sample,29443,0,"drum.wav",45
Sample,29516,0,"drum.wav",45
Sample,29588,0,"drum.wav",45
Sample,29661,0,"drum.wav",45
Sample,30458,0,"hihat.wav",45
Sample,30748,0,"hihat.wav",45
Sample,31038,0,"hihat.wav",45
Sample,31327,0,"hihat.wav",45
Sample,31617,0,"hihat.wav",45
Sample,31907,0,"hihat.wav",45
Sample,32197,0,"hihat.wav",45
Sample,32487,0,"hihat.wav",45
Sample,32777,0,"hihat.wav",45
Sample,33067,0,"hihat.wav",45
Sample,33356,0,"kick.wav",70
Sample,33646,0,"hihat.wav",45
Sample,33936,0,"hihat.wav",45
Sample,34081,0,"snare.wav",70
Sample,34516,0,"hihat.wav",45
Sample,35096,0,"hihat.wav",45
Sample,35385,0,"hihat.wav",45
Sample,35675,0,"kick.wav",70
Sample,36255,0,"hihat.wav",45
Sample,36545,0,"hihat.wav",45
Sample,36835,0,"kick.wav",70
Sample,37076,0,"kick.wav",70
Sample,37173,0,"kick.wav",70
Sample,39154,0,"drum.wav",45
Sample,39371,0,"drum.wav",45
Sample,39443,0,"drum.wav",45
Sample,39588,0,"kick.wav",70
Sample,39733,0,"hihat.wav",45
Sample,39878,0,"kick.wav",70
Sample,40023,0,"hihat.wav",45
Sample,40313,0,"hihat.wav",45
Sample,40458,0,"snare.wav",70
Sample,40603,0,"hihat.wav",45
Sample,40893,0,"hihat.wav",45
Sample,41038,0,"snare.wav",70
Sample,41183,0,"hihat.wav",45
Sample,41472,0,"hihat.wav",45
Sample,41617,0,"kick.wav",70
Sample,41762,0,"hihat.wav",45
Sample,42052,0,"hihat.wav",45
Sample,42197,0,"kick.wav",70
Sample,42342,0,"hihat.wav",45
Sample,42632,0,"hihat.wav",45
Sample,42777,0,"snare.wav",70
Sample,42922,0,"hihat.wav",45
Sample,43212,0,"hihat.wav",45
Sample,43356,0,"snare.wav",70
Sample,43501,0,"hihat.wav",45
Sample,43791,0,"hihat.wav",45
Sample,43936,0,"kick.wav",70
Sample,44081,0,"hihat.wav",45
Sample,44371,0,"hihat.wav",45
Sample,44516,0,"kick.wav",70
Sample,44951,0,"kick.wav",70
Sample,45096,0,"snare.wav",70
Sample,45241,0,"hihat.wav",45
Sample,45675,0,"snare.wav",70
Sample,46110,0,"kick.wav",70
Sample,46255,0,"kick.wav",70
Sample,46352,0,"kick.wav",70
Sample,46448,0,"kick.wav",70
Sample,46738,0,"kick.wav",70
Sample,46931,0,"kick.wav",70
Sample,47028,0,"kick.wav",70
Sample,47318,0,"kick.wav",70
Sample,47511,0,"kick.wav",70
Sample,49009,0,"drum.wav",45
Sample,49081,0,"drum.wav",45
Sample,49154,0,"kick.wav",70
Sample,49299,0,"drum.wav",45
Sample,49371,0,"drum.wav",45
Sample,49443,0,"kick.wav",70
Sample,49588,0,"drum.wav",45
Sample,49661,0,"drum.wav",45
Sample,49733,0,"kick.wav",70
Sample,49878,0,"drum.wav",45
Sample,49951,0,"drum.wav",45
Sample,50168,0,"drum.wav",45
Sample,50241,0,"drum.wav",45
Sample,50313,0,"drum.wav",45
Sample,50458,0,"drum.wav",45
Sample,50530,0,"drum.wav",45
Sample,50603,0,"kick.wav",70
Sample,50748,0,"drum.wav",45
Sample,50820,0,"drum.wav",45
Sample,50893,0,"kick.wav",70
Sample,51038,0,"drum.wav",45
Sample,51110,0,"drum.wav",45
Sample,51183,0,"kick.wav",70
Sample,51255,0,"drum.wav",45
Sample,51327,0,"drum.wav",45
Sample,51400,0,"drum.wav",45
Sample,51472,0,"drum.wav",45
Sample,51545,0,"drum.wav",45
Sample,51617,0,"drum.wav",45
Sample,51690,0,"drum.wav",45
Sample,51762,0,"drum.wav",45
Sample,51835,0,"kick.wav",70
Sample,51835,0,"drum.wav",45
Sample,51907,0,"drum.wav",45
Sample,51980,0,"drum.wav",45
Sample,51980,0,"kick.wav",70
Sample,52052,0,"drum.wav",45
Sample,52125,0,"kick.wav",70
Sample,52125,0,"drum.wav",45
Sample,52197,0,"drum.wav",45
Sample,52270,0,"drum.wav",45
Sample,52270,0,"kick.wav",70
Sample,52342,0,"crash.wav",55
Sample,53501,0,"cymbal.wav",70
Sample,53719,0,"cymbal.wav",70
Sample,53936,0,"cymbal.wav",70
Sample,54154,0,"cymbal.wav",70
Sample,54661,0,"cymbal.wav",70
Sample,54878,0,"kick.wav",70
Sample,55096,0,"kick.wav",70
Sample,55313,0,"kick.wav",70
Sample,55820,0,"kick.wav",70
Sample,56038,0,"cymbal.wav",70
Sample,56255,0,"cymbal.wav",70
Sample,56472,0,"cymbal.wav",70
Sample,56980,0,"cymbal.wav",70
Sample,57197,0,"kick.wav",70
Sample,57414,0,"kick.wav",70
Sample,57849,0,"snare.wav",70
Sample,57994,0,"kick.wav",70
Sample,58139,0,"cymbal.wav",70
Sample,58356,0,"kick.wav",70
Sample,58574,0,"kick.wav",70
Sample,58791,0,"kick.wav",70
Sample,59009,0,"snare.wav",70
Sample,59299,0,"kick.wav",70
Sample,59516,0,"cymbal.wav",70
Sample,59733,0,"cymbal.wav",70
Sample,59951,0,"cymbal.wav",70
Sample,60168,0,"kick.wav",70
Sample,60458,0,"cymbal.wav",70
Sample,60675,0,"kick.wav",70
Sample,60893,0,"kick.wav",70
Sample,61110,0,"kick.wav",70
Sample,61327,0,"snare.wav",70
Sample,61617,0,"drum.wav",45
Sample,61690,0,"drum.wav",45
Sample,61762,0,"drum.wav",45
Sample,61835,0,"drum.wav",45
Sample,61907,0,"drum.wav",45
Sample,61980,0,"drum.wav",45
Sample,62052,0,"drum.wav",45
Sample,62125,0,"drum.wav",45
Sample,62487,0,"kick.wav",70
Sample,72777,0,"hihat.wav",45
Sample,73936,0,"hihat.wav",45
Sample,74516,0,"hihat.wav",45
Sample,75096,0,"hihat.wav",45
Sample,76255,0,"hihat.wav",45
Sample,77414,0,"hihat.wav",45
Sample,78574,0,"hihat.wav",45
Sample,79154,0,"hihat.wav",45
Sample,79443,0,"hihat.wav",45
Sample,79733,0,"hihat.wav",45
Sample,80023,0,"hihat.wav",45
Sample,82052,0,"hihat.wav",45
Sample,83212,0,"hihat.wav",45
Sample,83791,0,"hihat.wav",45
Sample,84081,0,"hihat.wav",45
Sample,84371,0,"hihat.wav",45
Sample,84661,0,"hihat.wav",45
Sample,84951,0,"hihat.wav",45
Sample,85241,0,"hihat.wav",45
Sample,85530,0,"hihat.wav",45
Sample,85820,0,"hihat.wav",45
Sample,88284,0,"crash.wav",55
Sample,88356,0,"drum.wav",45
Sample,88429,0,"drum.wav",45
Sample,88501,0,"drum.wav",45
Sample,88574,0,"drum.wav",45
Sample,88646,0,"kick.wav",70
Sample,88719,0,"kick.wav",70
Sample,88791,0,"kick.wav",70
Sample,89009,0,"drum.wav",45
Sample,89081,0,"drum.wav",45
Sample,89154,0,"kick.wav",70
Sample,89226,0,"kick.wav",70
Sample,89299,0,"kick.wav",70
Sample,89371,0,"kick.wav",70
Sample,90603,0,"crash.wav",55
Sample,90748,0,"hihat.wav",45
Sample,91038,0,"hihat.wav",45
Sample,91327,0,"hihat.wav",45
Sample,91617,0,"hihat.wav",45
Sample,91907,0,"hihat.wav",45
Sample,92197,0,"hihat.wav",45
Sample,92487,0,"hihat.wav",45
Sample,92777,0,"hihat.wav",45
Sample,93067,0,"hihat.wav",45
Sample,93356,0,"hihat.wav",45
Sample,93646,0,"hihat.wav",45
Sample,93936,0,"hihat.wav",45
Sample,94371,0,"snare.wav",70
Sample,94951,0,"snare.wav",70
Sample,95096,0,"hihat.wav",45
Sample,95241,0,"kick.wav",70
Sample,95385,0,"hihat.wav",45
Sample,95675,0,"hihat.wav",45
Sample,95965,0,"hihat.wav",45
Sample,96255,0,"hihat.wav",45
Sample,96545,0,"hihat.wav",45
Sample,96835,0,"hihat.wav",45
Sample,97125,0,"kick.wav",70
Sample,97414,0,"hihat.wav",45
Sample,97704,0,"hihat.wav",45
Sample,97994,0,"hihat.wav",45
Sample,98284,0,"hihat.wav",45
Sample,98574,0,"hihat.wav",45
Sample,99371,0,"drum.wav",45
Sample,99443,0,"drum.wav",45
Sample,100023,0,"hihat.wav",45
Sample,100313,0,"hihat.wav",45
Sample,100603,0,"hihat.wav",45
Sample,100893,0,"hihat.wav",45
Sample,101183,0,"hihat.wav",45
Sample,101472,0,"hihat.wav",45
Sample,101762,0,"hihat.wav",45
Sample,102052,0,"hihat.wav",45
Sample,102342,0,"hihat.wav",45
Sample,102632,0,"hihat.wav",45
Sample,102922,0,"hihat.wav",45
Sample,103212,0,"hihat.wav",45
Sample,103501,0,"hihat.wav",45
Sample,103791,0,"hihat.wav",45
Sample,104081,0,"kick.wav",70
Sample,104371,0,"hihat.wav",45
Sample,104516,0,"kick.wav",70
Sample,104661,0,"hihat.wav",45
Sample,104951,0,"hihat.wav",45
Sample,105241,0,"hihat.wav",45
Sample,105530,0,"hihat.wav",45
Sample,105820,0,"hihat.wav",45
Sample,106110,0,"hihat.wav",45
Sample,106400,0,"hihat.wav",45
Sample,106690,0,"hihat.wav",45
Sample,106907,0,"drum.wav",45
Sample,107052,0,"drum.wav",45
Sample,107052,0,"kick.wav",70
Sample,107197,0,"drum.wav",45
Sample,107270,0,"drum.wav",45
Sample,107342,0,"drum.wav",45
Sample,107342,0,"kick.wav",70
Sample,107414,0,"drum.wav",45
Sample,107487,0,"drum.wav",45
Sample,107632,0,"drum.wav",45
Sample,107632,0,"kick.wav",70
Sample,107777,0,"drum.wav",45
Sample,107849,0,"drum.wav",45
Sample,107922,0,"drum.wav",45
Sample,108067,0,"drum.wav",45
Sample,108212,0,"drum.wav",45
Sample,108791,0,"drum.wav",45
Sample,108864,0,"snare.wav",70
Sample,109299,0,"hihat.wav",45
Sample,109443,0,"snare.wav",70
Sample,109878,0,"hihat.wav",45
Sample,110023,0,"snare.wav",70
Sample,110603,0,"kick.wav",70
Sample,111038,0,"hihat.wav",45
Sample,111617,0,"hihat.wav",45
Sample,111762,0,"snare.wav",70
Sample,112342,0,"snare.wav",70
Sample,112777,0,"hihat.wav",45
Sample,113067,0,"hihat.wav",45
Sample,113356,0,"kick.wav",70
Sample,113646,0,"hihat.wav",45
Sample,113936,0,"hihat.wav",45
Sample,114226,0,"hihat.wav",45
Sample,115241,0,"kick.wav",70
Sample,115675,0,"hihat.wav",45
Sample,116255,0,"hihat.wav",45
Sample,116980,0,"snare.wav",70
Sample,117487,0,"drum.wav",45
Sample,117632,0,"drum.wav",45
Sample,117922,0,"drum.wav",45
Sample,117994,0,"drum.wav",45
Sample,118429,0,"kick.wav",70
Sample,118646,0,"kick.wav",70
Sample,118864,0,"cymbal.wav",70
Sample,119081,0,"kick.wav",70
Sample,119588,0,"kick.wav",70
Sample,119806,0,"cymbal.wav",70
Sample,120023,0,"kick.wav",70
Sample,120241,0,"cymbal.wav",70
Sample,120748,0,"cymbal.wav",70
Sample,120965,0,"kick.wav",70
Sample,121183,0,"cymbal.wav",70
Sample,121400,0,"kick.wav",70
Sample,121907,0,"kick.wav",70
Sample,122125,0,"cymbal.wav",70
Sample,122342,0,"kick.wav",70
Sample,122704,0,"kick.wav",70
Sample,122922,0,"kick.wav",70
Sample,123067,0,"cymbal.wav",70
Sample,123284,0,"kick.wav",70
Sample,123501,0,"cymbal.wav",70
Sample,123719,0,"kick.wav",70
Sample,124226,0,"kick.wav",70
Sample,124443,0,"cymbal.wav",70
Sample,124661,0,"kick.wav",70
Sample,124878,0,"cymbal.wav",70
Sample,125385,0,"drum.wav",45
Sample,125458,0,"drum.wav",45
Sample,125603,0,"kick.wav",70
Sample,125603,0,"drum.wav",45
Sample,125748,0,"drum.wav",45
Sample,125820,0,"drum.wav",45
Sample,125893,0,"drum.wav",45
Sample,126038,0,"drum.wav",45
Sample,126038,0,"kick.wav",70
Sample,126183,0,"drum.wav",45
Sample,126255,0,"drum.wav",45
Sample,126327,0,"drum.wav",45
Sample,126400,0,"drum.wav",45
Sample,126472,0,"drum.wav",45
Sample,126545,0,"crash.wav",55
Sample,127197,0,"drum.wav",45
Sample,127270,0,"drum.wav",45
Sample,127342,0,"drum.wav",45
Sample,127414,0,"drum.wav",45
Sample,127487,0,"kick.wav",70
Sample,127559,0,"kick.wav",70
Sample,127632,0,"kick.wav",70

[TimingPoints]
1328,289.855072463768,4,2,1,45,1,0
90603,-100,4,2,1,45,0,1
118429,-100,4,2,1,45,0,0

[HitObjects]
64,192,1328,5,0,0:0:0:40:crash.wav
192,192,1328,1,0,0:0:0:0:
448,192,1617,1,0,0:0:0:0:
448,192,2197,128,0,2487:0:0:0:0:
64,192,2342,1,0,0:0:0:0:
320,192,2487,1,0,0:0:0:25:drum.wav
192,192,2632,1,0,0:0:0:0:
448,192,2777,1,0,0:0:0:25:drum.wav
64,192,2922,1,0,0:0:0:0:
320,192,3067,1,0,0:0:0:25:drum.wav
320,192,3356,1,0,0:0:0:25:drum.wav
64,192,3646,1,0,0:0:0:25:drum.wav
64,192,3936,1,0,0:0:0:25:drum.wav
448,192,4226,1,0,0:0:0:25:drum.wav
448,192,4516,1,0,0:0:0:25:drum.wav
192,192,4806,128,0,5096:0:0:0:45:drum.wav
320,192,5096,1,0,0:0:0:45:drum.wav
448,192,5385,128,0,5675:0:0:0:45:drum.wav
64,192,5675,1,0,0:0:0:45:drum.wav
192,192,5965,128,0,6255:0:0:0:45:drum.wav
448,192,6255,1,0,0:0:0:45:drum.wav
320,192,6545,128,0,6835:0:0:0:45:drum.wav
64,192,6835,1,0,0:0:0:45:drum.wav
192,192,7125,1,0,0:0:0:45:drum.wav
448,192,7125,1,0,0:0:0:55:crash.wav
64,192,7270,1,0,0:0:0:70:kick.wav
320,192,7414,1,0,0:0:0:70:clap.wav
192,192,7559,1,0,0:0:0:70:kick.wav
448,192,7704,1,0,0:0:0:70:kick.wav
320,192,7849,1,0,0:0:0:70:kick.wav
64,192,7994,1,0,0:0:0:70:clap.wav
448,192,8139,1,0,0:0:0:70:kick.wav
192,192,8284,1,0,0:0:0:70:kick.wav
64,192,8429,1,0,0:0:0:70:kick.wav
448,192,8574,1,0,0:0:0:70:kick.wav
320,192,8719,1,0,0:0:0:70:kick.wav
64,192,8864,1,0,0:0:0:70:kick.wav
448,192,9009,1,0,0:0:0:70:kick.wav
192,192,9154,1,0,0:0:0:70:kick.wav
320,192,9299,1,0,0:0:0:70:kick.wav
448,192,9443,1,0,0:0:0:70:kick.wav
64,192,9443,1,0,0:0:0:55:crash.wav
192,192,9588,1,0,0:0:0:45:drum.wav
320,192,9733,128,0,10603:0:0:0:45:drum.wav
64,192,10023,1,0,0:0:0:45:drum.wav
192,192,10313,1,0,0:0:0:55:crash.wav
448,192,10603,1,0,0:0:0:45:drum.wav
64,192,10603,1,0,0:0:0:45:drum.wav
320,192,11762,1,0,0:0:0:70:kick.wav
448,192,12052,1,0,0:0:0:70:kick.wav
192,192,12052,1,0,0:0:0:70:snare.wav
64,192,12342,1,0,0:0:0:70:kick.wav
192,192,12632,1,0,0:0:0:70:snare.wav
320,192,12632,1,0,0:0:0:70:kick.wav
448,192,12922,1,0,0:0:0:70:kick.wav
64,192,13212,1,0,0:0:0:70:kick.wav
192,192,13212,1,0,0:0:0:70:snare.wav
448,192,13501,1,0,0:0:0:70:kick.wav
192,192,13791,1,0,0:0:0:70:snare.wav
320,192,13791,1,0,0:0:0:70:kick.wav
64,192,14081,1,0,0:0:0:70:kick.wav
192,192,14371,1,0,0:0:0:70:snare.wav
448,192,14371,1,0,0:0:0:70:kick.wav
320,192,14661,1,0,0:0:0:70:kick.wav
64,192,14951,1,0,0:0:0:70:kick.wav
192,192,14951,1,0,0:0:0:70:snare.wav
448,192,15241,1,0,0:0:0:70:kick.wav
64,192,15530,1,0,0:0:0:70:kick.wav
320,192,15530,1,0,0:0:0:70:snare.wav
192,192,15820,128,0,16110:0:0:0:70:kick.wav
448,192,16110,128,0,16400:0:0:0:70:snare.wav
64,192,16110,1,0,0:0:0:70:kick.wav
320,192,16400,1,0,0:0:0:70:kick.wav
192,192,16545,1,0,0:0:0:45:hihat.wav
64,192,16690,1,0,0:0:0:70:snare.wav
448,192,16690,1,0,0:0:0:70:kick.wav
320,192,16980,1,0,0:0:0:70:kick.wav
192,192,17270,1,0,0:0:0:70:kick.wav
64,192,17270,1,0,0:0:0:70:snare.wav
320,192,17559,1,0,0:0:0:70:kick.wav
448,192,17849,1,0,0:0:0:70:kick.wav
64,192,17849,1,0,0:0:0:70:snare.wav
320,192,18139,1,0,0:0:0:70:kick.wav
192,192,18284,1,0,0:0:0:45:hihat.wav
64,192,18429,1,0,0:0:0:70:snare.wav
192,192,18526,1,0,0:0:0:70:kick.wav
320,192,18622,1,0,0:0:0:70:kick.wav
448,192,18719,1,0,0:0:0:70:kick.wav
192,192,19009,1,0,0:0:0:70:snare.wav
320,192,19009,1,0,0:0:0:70:kick.wav
64,192,19299,1,0,0:0:0:70:kick.wav
192,192,19443,1,0,0:0:0:45:hihat.wav
448,192,19588,1,0,0:0:0:70:kick.wav
320,192,19588,1,0,0:0:0:70:snare.wav
64,192,19878,1,0,0:0:0:70:kick.wav
192,192,20168,1,0,0:0:0:70:snare.wav
448,192,20168,1,0,0:0:0:70:kick.wav
320,192,20458,128,0,21038:0:0:0:70:kick.wav
64,192,20893,1,0,0:0:0:45:drum.wav
192,192,21038,1,0,0:0:0:45:drum.wav
320,192,21183,1,0,0:0:0:45:hihat.wav
448,192,21327,1,0,0:0:0:70:kick.wav
64,192,21327,1,0,0:0:0:70:snare.wav
192,192,21472,1,0,0:0:0:45:hihat.wav
320,192,21617,1,0,0:0:0:70:kick.wav
64,192,21907,1,0,0:0:0:70:snare.wav
448,192,21907,1,0,0:0:0:70:kick.wav
320,192,22197,1,0,0:0:0:70:kick.wav
448,192,22487,1,0,0:0:0:70:snare.wav
64,192,22487,128,0,22777:0:0:0:70:kick.wav
320,192,22777,1,0,0:0:0:70:kick.wav
192,192,22922,1,0,0:0:0:45:hihat.wav
64,192,23067,1,0,0:0:0:70:kick.wav
448,192,23067,1,0,0:0:0:70:snare.wav
192,192,23356,1,0,0:0:0:70:kick.wav
64,192,23501,1,0,0:0:0:45:hihat.wav
320,192,23646,1,0,0:0:0:70:kick.wav
192,192,23791,1,0,0:0:0:45:hihat.wav
448,192,23936,1,0,0:0:0:70:kick.wav
64,192,24226,1,0,0:0:0:70:snare.wav
320,192,24226,1,0,0:0:0:70:kick.wav
192,192,24516,1,0,0:0:0:70:kick.wav
64,192,24806,1,0,0:0:0:70:snare.wav
320,192,24806,1,0,0:0:0:70:kick.wav
192,192,25096,1,0,0:0:0:70:kick.wav
320,192,25241,1,0,0:0:0:45:hihat.wav
64,192,25385,1,0,0:0:0:70:kick.wav
192,192,25530,1,0,0:0:0:45:hihat.wav
448,192,25675,1,0,0:0:0:70:kick.wav
64,192,25820,1,0,0:0:0:70:kick.wav
320,192,25965,1,0,0:0:0:70:kick.wav
192,192,26255,1,0,0:0:0:70:kick.wav
64,192,26545,1,0,0:0:0:70:snare.wav
448,192,26545,1,0,0:0:0:70:kick.wav
320,192,26835,1,0,0:0:0:70:kick.wav
448,192,26980,1,0,0:0:0:45:hihat.wav
64,192,27125,1,0,0:0:0:70:snare.wav
192,192,27125,1,0,0:0:0:70:kick.wav
320,192,27414,1,0,0:0:0:70:kick.wav
192,192,27559,1,0,0:0:0:45:hihat.wav
64,192,27704,1,0,0:0:0:70:kick.wav
448,192,27704,1,0,0:0:0:70:snare.wav
320,192,27994,1,0,0:0:0:70:kick.wav
64,192,28139,1,0,0:0:0:45:hihat.wav
448,192,28284,1,0,0:0:0:70:kick.wav
192,192,28429,1,0,0:0:0:45:hihat.wav
320,192,28574,1,0,0:0:0:70:kick.wav
64,192,28719,1,0,0:0:0:45:hihat.wav
192,192,28864,1,0,0:0:0:70:snare.wav
448,192,29009,1,0,0:0:0:45:hihat.wav
64,192,29154,128,0,29733:0:0:0:70:kick.wav
320,192,29443,1,0,0:0:0:70:snare.wav
448,192,29588,1,0,0:0:0:45:hihat.wav
192,192,29733,128,0,30023:0:0:0:45:drum.wav
448,192,30023,128,0,30313:0:0:0:0:
192,192,30313,1,0,0:0:0:55:crash.wav
320,192,30313,1,0,0:0:0:70:kick.wav
64,192,30603,1,0,0:0:0:70:snare.wav
448,192,30603,1,0,0:0:0:70:kick.wav
320,192,30893,1,0,0:0:0:70:kick.wav
192,192,31183,1,0,0:0:0:70:kick.wav
64,192,31183,1,0,0:0:0:70:snare.wav
320,192,31472,1,0,0:0:0:70:kick.wav
64,192,31762,1,0,0:0:0:70:kick.wav
448,192,31762,1,0,0:0:0:70:snare.wav
192,192,32052,1,0,0:0:0:70:kick.wav
320,192,32342,1,0,0:0:0:70:snare.wav
448,192,32342,1,0,0:0:0:70:kick.wav
64,192,32632,1,0,0:0:0:70:kick.wav
192,192,32922,1,0,0:0:0:70:snare.wav
448,192,32922,1,0,0:0:0:70:kick.wav
64,192,33212,1,0,0:0:0:70:kick.wav
192,192,33356,1,0,0:0:0:45:hihat.wav
320,192,33501,1,0,0:0:0:70:kick.wav
448,192,33501,1,0,0:0:0:70:snare.wav
64,192,33791,1,0,0:0:0:70:kick.wav
192,192,33791,1,0,0:0:0:0:
448,192,34081,1,0,0:0:0:70:kick.wav
320,192,34226,1,0,0:0:0:45:hihat.wav
64,192,34371,128,0,34516:0:0:0:0:
192,192,34371,1,0,0:0:0:70:kick.wav
448,192,34516,1,0,0:0:0:0:
192,192,34661,1,0,0:0:0:70:snare.wav
320,192,34661,1,0,0:0:0:0:
64,192,34951,1,0,0:0:0:70:kick.wav
192,192,34951,1,0,0:0:0:55:crash.wav
64,192,35241,1,0,0:0:0:70:snare.wav
448,192,35241,1,0,0:0:0:70:kick.wav
320,192,35530,1,0,0:0:0:70:kick.wav
192,192,35675,1,0,0:0:0:45:hihat.wav
64,192,35820,1,0,0:0:0:70:kick.wav
448,192,35820,1,0,0:0:0:70:snare.wav
320,192,35965,1,0,0:0:0:45:hihat.wav
192,192,36110,1,0,0:0:0:70:kick.wav
320,192,36400,1,0,0:0:0:70:kick.wav
448,192,36400,1,0,0:0:0:70:snare.wav
64,192,36690,1,0,0:0:0:70:kick.wav
192,192,36835,1,0,0:0:0:45:hihat.wav
448,192,36980,1,0,0:0:0:70:snare.wav
320,192,37076,1,0,0:0:0:45:hihat.wav
192,192,37173,1,0,0:0:0:45:hihat.wav
64,192,37270,1,0,0:0:0:70:kick.wav
448,192,37559,128,0,37849:0:0:0:70:snare.wav
192,192,37849,1,0,0:0:0:70:kick.wav
64,192,37849,1,0,0:0:0:0:
192,192,38139,128,0,38429:0:0:0:70:snare.wav
320,192,38429,1,0,0:0:0:70:kick.wav
448,192,38429,1,0,0:0:0:55:crash.wav
64,192,38719,1,0,0:0:0:0:
192,192,38864,1,0,0:0:0:0:
320,192,39009,128,0,39299:0:0:0:45:drum.wav
64,192,39299,128,0,39588:0:0:0:45:drum.wav
448,192,39588,1,0,0:0:0:55:crash.wav
320,192,39878,1,0,0:0:0:70:snare.wav
192,192,40168,1,0,0:0:0:70:kick.wav
64,192,40458,1,0,0:0:0:70:kick.wav
320,192,40748,1,0,0:0:0:70:kick.wav
448,192,41038,1,0,0:0:0:70:kick.wav
64,192,41327,1,0,0:0:0:70:kick.wav
192,192,41617,1,0,0:0:0:70:snare.wav
320,192,41907,1,0,0:0:0:70:kick.wav
64,192,42197,1,0,0:0:0:70:snare.wav
448,192,42487,1,0,0:0:0:70:kick.wav
192,192,42777,1,0,0:0:0:70:kick.wav
64,192,43067,1,0,0:0:0:70:kick.wav
448,192,43356,1,0,0:0:0:70:kick.wav
64,192,43646,1,0,0:0:0:70:kick.wav
320,192,43936,1,0,0:0:0:70:snare.wav
64,192,44226,1,0,0:0:0:70:kick.wav
192,192,44226,1,0,0:0:0:55:crash.wav
448,192,44516,1,0,0:0:0:70:snare.wav
64,192,44661,1,0,0:0:0:45:hihat.wav
320,192,44806,1,0,0:0:0:70:kick.wav
192,192,44951,1,0,0:0:0:45:hihat.wav
64,192,45096,1,0,0:0:0:70:kick.wav
320,192,45385,1,0,0:0:0:70:kick.wav
64,192,45530,128,0,45675:0:0:0:45:hihat.wav
192,192,45675,1,0,0:0:0:70:kick.wav
448,192,45820,128,0,45965:0:0:0:45:hihat.wav
320,192,45965,1,0,0:0:0:70:kick.wav
64,192,46110,1,0,0:0:0:45:hihat.wav
192,192,46255,1,0,0:0:0:70:snare.wav
448,192,46352,1,0,0:0:0:45:hihat.wav
320,192,46448,1,0,0:0:0:45:hihat.wav
64,192,46545,1,0,0:0:0:70:kick.wav
448,192,46738,1,0,0:0:0:0:
64,192,46931,1,0,0:0:0:0:
192,192,47028,1,0,0:0:0:70:kick.wav
320,192,47125,1,0,0:0:0:0:
192,192,47318,1,0,0:0:0:0:
320,192,47511,1,0,0:0:0:0:
448,192,47704,1,0,0:0:0:70:kick.wav
64,192,47704,1,0,0:0:0:55:crash.wav
64,192,48864,1,0,0:0:0:55:crash.wav
320,192,48864,1,0,0:0:0:70:kick.wav
448,192,49154,1,0,0:0:0:45:drum.wav
192,192,49443,1,0,0:0:0:45:drum.wav
320,192,49733,1,0,0:0:0:45:drum.wav
448,192,50023,1,0,0:0:0:45:drum.wav
64,192,50023,1,0,0:0:0:70:kick.wav
320,192,50313,1,0,0:0:0:70:kick.wav
192,192,50603,1,0,0:0:0:45:drum.wav
320,192,50748,1,0,0:0:0:0:
64,192,50893,1,0,0:0:0:45:drum.wav
448,192,51183,1,0,0:0:0:45:drum.wav
64,192,51327,1,0,0:0:0:70:kick.wav
320,192,51472,1,0,0:0:0:70:kick.wav
192,192,51617,1,0,0:0:0:70:kick.wav
448,192,51762,1,0,0:0:0:70:kick.wav
320,192,51907,1,0,0:0:0:70:kick.wav
64,192,52052,1,0,0:0:0:70:kick.wav
192,192,52197,1,0,0:0:0:70:kick.wav
320,192,52342,1,0,0:0:0:70:kick.wav
448,192,52342,1,0,0:0:0:45:drum.wav
64,192,53501,1,0,0:0:0:70:kick.wav
448,192,53719,1,0,0:0:0:70:kick.wav
64,192,53936,1,0,0:0:0:70:kick.wav
448,192,54154,1,0,0:0:0:70:kick.wav
64,192,54371,1,0,0:0:0:70:kick.wav
192,192,54371,1,0,0:0:0:70:snare.wav
320,192,54661,1,0,0:0:0:70:kick.wav
192,192,54878,1,0,0:0:0:70:cymbal.wav
320,192,55096,1,0,0:0:0:70:cymbal.wav
192,192,55313,1,0,0:0:0:70:cymbal.wav
320,192,55530,1,0,0:0:0:70:kick.wav
448,192,55530,1,0,0:0:0:70:snare.wav
192,192,55820,1,0,0:0:0:70:cymbal.wav
448,192,56038,1,0,0:0:0:70:kick.wav
192,192,56255,1,0,0:0:0:70:kick.wav
448,192,56472,1,0,0:0:0:70:kick.wav
192,192,56690,1,0,0:0:0:70:snare.wav
64,192,56690,1,0,0:0:0:70:kick.wav
320,192,56980,1,0,0:0:0:70:kick.wav
64,192,57197,1,0,0:0:0:70:cymbal.wav
320,192,57414,1,0,0:0:0:70:cymbal.wav
192,192,57559,1,0,0:0:0:70:kick.wav
64,192,57632,1,0,0:0:0:70:kick.wav
448,192,57777,1,0,0:0:0:70:kick.wav
320,192,57849,128,0,58139:0:0:0:70:kick.wav
64,192,58139,1,0,0:0:0:70:kick.wav
192,192,58356,1,0,0:0:0:70:cymbal.wav
320,192,58574,1,0,0:0:0:70:cymbal.wav
448,192,58791,1,0,0:0:0:70:cymbal.wav
320,192,59009,1,0,0:0:0:70:kick.wav
64,192,59009,1,0,0:0:0:0:
192,192,59299,1,0,0:0:0:70:cymbal.wav
64,192,59516,1,0,0:0:0:70:kick.wav
192,192,59733,1,0,0:0:0:70:kick.wav
320,192,59951,1,0,0:0:0:70:kick.wav
448,192,60168,1,0,0:0:0:70:snare.wav
192,192,60168,1,0,0:0:0:0:
64,192,60458,1,0,0:0:0:70:kick.wav
320,192,60675,1,0,0:0:0:70:cymbal.wav
192,192,60893,1,0,0:0:0:70:cymbal.wav
64,192,61110,1,0,0:0:0:70:cymbal.wav
448,192,61327,1,0,0:0:0:70:kick.wav
320,192,61327,1,0,0:0:0:0:
192,192,61617,1,0,0:0:0:70:kick.wav
320,192,61835,1,0,0:0:0:70:kick.wav
64,192,62052,1,0,0:0:0:70:kick.wav
448,192,62197,1,0,0:0:0:45:drum.wav
192,192,62270,1,0,0:0:0:45:drum.wav
320,192,62342,1,0,0:0:0:45:drum.wav
64,192,62487,128,0,62777:0:0:0:70:snare.wav
448,192,62777,1,0,0:0:0:55:crash.wav
64,192,63067,1,0,0:0:0:0:
320,192,63356,1,0,0:0:0:0:
192,192,63646,1,0,0:0:0:0:
448,192,63936,1,0,0:0:0:0:
448,192,66255,1,0,0:0:0:0:
192,192,66545,1,0,0:0:0:0:
320,192,66690,1,0,0:0:0:0:
64,192,66835,1,0,0:0:0:0:
320,192,66980,1,0,0:0:0:0:
448,192,67125,1,0,0:0:0:0:
192,192,67270,1,0,0:0:0:0:
320,192,67414,1,0,0:0:0:70:kick.wav
64,192,67414,128,0,67704:0:0:0:55:crash.wav
448,192,67704,128,0,67994:0:0:0:0:
192,192,67994,128,0,68284:0:0:0:0:
320,192,68284,128,0,68574:0:0:0:0:
64,192,68574,128,0,68864:0:0:0:0:
192,192,68864,128,0,69154:0:0:0:0:
448,192,69154,128,0,69443:0:0:0:0:
320,192,69443,128,0,69733:0:0:0:0:
64,192,69733,128,0,70023:0:0:0:0:
448,192,70023,128,0,70313:0:0:0:0:
320,192,70313,128,0,70603:0:0:0:0:
192,192,70603,128,0,70893:0:0:0:0:
64,192,70893,1,0,0:0:0:70:kick.wav
448,192,70893,1,0,0:0:0:0:
64,192,71183,1,0,0:0:0:0:
192,192,71327,1,0,0:0:0:0:
320,192,71472,128,0,71617:0:0:0:0:
448,192,71617,128,0,71762:0:0:0:0:
64,192,71762,128,0,72052:0:0:0:0:
192,192,72052,1,0,0:0:0:55:crash.wav
320,192,72052,1,0,0:0:0:70:kick.wav
448,192,72197,1,0,0:0:0:45:hihat.wav
64,192,72342,1,0,0:0:0:70:clap.wav
192,192,72487,1,0,0:0:0:45:hihat.wav
320,192,72632,1,0,0:0:0:0:
64,192,72922,1,0,0:0:0:70:clap.wav
192,192,73067,1,0,0:0:0:45:hihat.wav
448,192,73212,1,0,0:0:0:0:
64,192,73356,1,0,0:0:0:45:hihat.wav
320,192,73501,1,0,0:0:0:70:clap.wav
192,192,73646,1,0,0:0:0:45:hihat.wav
448,192,73791,1,0,0:0:0:0:
64,192,74081,1,0,0:0:0:70:clap.wav
192,192,74226,1,0,0:0:0:45:hihat.wav
320,192,74371,1,0,0:0:0:0:
448,192,74661,1,0,0:0:0:70:clap.wav
320,192,74806,1,0,0:0:0:45:hihat.wav
192,192,75096,1,0,0:0:0:0:
64,192,75241,1,0,0:0:0:70:clap.wav
192,192,75385,1,0,0:0:0:45:hihat.wav
320,192,75530,1,0,0:0:0:0:
64,192,75675,1,0,0:0:0:45:hihat.wav
192,192,75820,1,0,0:0:0:70:clap.wav
448,192,75965,1,0,0:0:0:45:hihat.wav
320,192,76110,1,0,0:0:0:0:
64,192,76400,1,0,0:0:0:70:clap.wav
192,192,76545,1,0,0:0:0:45:hihat.wav
320,192,76690,1,0,0:0:0:70:kick.wav
448,192,76690,1,0,0:0:0:0:
64,192,76835,1,0,0:0:0:45:hihat.wav
448,192,76980,1,0,0:0:0:70:clap.wav
192,192,77125,1,0,0:0:0:45:hihat.wav
64,192,77270,1,0,0:0:0:0:
320,192,77559,1,0,0:0:0:70:clap.wav
192,192,77704,1,0,0:0:0:45:hihat.wav
64,192,77849,1,0,0:0:0:0:
320,192,77994,1,0,0:0:0:45:hihat.wav
192,192,78139,1,0,0:0:0:70:clap.wav
448,192,78284,1,0,0:0:0:45:hihat.wav
320,192,78429,1,0,0:0:0:0:
64,192,78719,1,0,0:0:0:70:clap.wav
448,192,78864,128,0,79009:0:0:0:45:hihat.wav
320,192,79009,1,0,0:0:0:70:kick.wav
192,192,79009,1,0,0:0:0:0:
448,192,79299,1,0,0:0:0:70:clap.wav
448,192,79878,1,0,0:0:0:70:clap.wav
64,192,80168,1,0,0:0:0:70:kick.wav
320,192,80168,128,0,80458:0:0:0:0:
192,192,80458,128,0,80748:0:0:0:0:
448,192,80748,128,0,81038:0:0:0:0:
320,192,81038,128,0,81327:0:0:0:0:
448,192,81327,1,0,0:0:0:70:kick.wav
64,192,81327,1,0,0:0:0:55:crash.wav
192,192,81472,1,0,0:0:0:45:hihat.wav
320,192,81617,1,0,0:0:0:70:clap.wav
64,192,81762,1,0,0:0:0:45:hihat.wav
448,192,81907,1,0,0:0:0:0:
192,192,82197,1,0,0:0:0:70:clap.wav
320,192,82342,1,0,0:0:0:45:hihat.wav
64,192,82487,1,0,0:0:0:0:
448,192,82632,1,0,0:0:0:45:hihat.wav
320,192,82777,1,0,0:0:0:70:clap.wav
192,192,82922,1,0,0:0:0:45:hihat.wav
64,192,83067,1,0,0:0:0:0:
320,192,83356,1,0,0:0:0:70:clap.wav
192,192,83501,1,0,0:0:0:45:hihat.wav
64,192,83646,1,0,0:0:0:70:kick.wav
448,192,83646,1,0,0:0:0:0:
320,192,83936,1,0,0:0:0:70:clap.wav
192,192,84226,1,0,0:0:0:0:
448,192,84516,1,0,0:0:0:70:clap.wav
192,192,84806,1,0,0:0:0:0:
320,192,85096,1,0,0:0:0:70:clap.wav
192,192,85385,1,0,0:0:0:0:
448,192,85675,1,0,0:0:0:70:clap.wav
320,192,85675,1,0,0:0:0:70:kick.wav
64,192,85965,1,0,0:0:0:70:kick.wav
192,192,85965,1,0,0:0:0:55:crash.wav
192,192,86255,1,0,0:0:0:70:kick.wav
320,192,86255,1,0,0:0:0:0:
64,192,86545,1,0,0:0:0:70:kick.wav
448,192,86835,1,0,0:0:0:70:kick.wav
320,192,86980,1,0,0:0:0:70:kick.wav
64,192,87125,1,0,0:0:0:70:kick.wav
192,192,87125,1,0,0:0:0:55:crash.wav
448,192,87414,1,0,0:0:0:70:kick.wav
320,192,87414,1,0,0:0:0:0:
192,192,87704,1,0,0:0:0:70:kick.wav
64,192,87994,1,0,0:0:0:70:kick.wav
320,192,88139,1,0,0:0:0:70:kick.wav
192,192,88284,1,0,0:0:0:70:kick.wav
64,192,88284,1,0,0:0:0:45:drum.wav
320,192,88574,128,0,88864:0:0:0:70:kick.wav
64,192,88864,1,0,0:0:0:70:kick.wav
448,192,88864,1,0,0:0:0:55:crash.wav
192,192,89154,128,0,89443:0:0:0:45:drum.wav
320,192,89443,1,0,0:0:0:70:kick.wav
448,192,89443,1,0,0:0:0:0:
192,192,89733,1,0,0:0:0:0:
64,192,90023,128,0,90313:0:0:0:0:
448,192,90313,128,0,90603:0:0:0:0:
192,192,90603,1,0,0:0:0:70:kick.wav
64,192,90893,1,0,0:0:0:70:snare.wav
320,192,90893,1,0,0:0:0:70:kick.wav
448,192,91183,1,0,0:0:0:70:kick.wav
192,192,91472,1,0,0:0:0:70:snare.wav
320,192,91472,1,0,0:0:0:70:kick.wav
448,192,91762,1,0,0:0:0:70:kick.wav
64,192,92052,1,0,0:0:0:70:kick.wav
192,192,92052,1,0,0:0:0:70:snare.wav
320,192,92342,1,0,0:0:0:70:kick.wav
64,192,92632,1,0,0:0:0:70:kick.wav
448,192,92632,1,0,0:0:0:70:snare.wav
192,192,92922,128,0,93212:0:0:0:70:kick.wav
320,192,93212,1,0,0:0:0:70:snare.wav
448,192,93212,1,0,0:0:0:70:kick.wav
192,192,93501,1,0,0:0:0:70:kick.wav
64,192,93791,1,0,0:0:0:70:snare.wav
448,192,93791,1,0,0:0:0:70:kick.wav
320,192,94081,1,0,0:0:0:70:kick.wav
192,192,94226,128,0,94371:0:0:0:45:hihat.wav
64,192,94371,1,0,0:0:0:70:kick.wav
320,192,94516,1,0,0:0:0:45:hihat.wav
192,192,94661,1,0,0:0:0:70:kick.wav
448,192,94806,1,0,0:0:0:45:hihat.wav
64,192,94951,1,0,0:0:0:70:kick.wav
320,192,95241,1,0,0:0:0:55:crash.wav
64,192,95530,1,0,0:0:0:70:snare.wav
192,192,95530,1,0,0:0:0:70:kick.wav
320,192,95820,1,0,0:0:0:70:kick.wav
448,192,96110,1,0,0:0:0:70:snare.wav
64,192,96110,1,0,0:0:0:70:kick.wav
192,192,96400,1,0,0:0:0:70:kick.wav
320,192,96690,1,0,0:0:0:70:kick.wav
448,192,96690,1,0,0:0:0:70:snare.wav
64,192,96980,1,0,0:0:0:70:kick.wav
192,192,97125,1,0,0:0:0:45:hihat.wav
320,192,97270,1,0,0:0:0:70:kick.wav
448,192,97270,1,0,0:0:0:70:snare.wav
64,192,97559,1,0,0:0:0:70:kick.wav
320,192,97849,1,0,0:0:0:70:snare.wav
192,192,97849,1,0,0:0:0:70:kick.wav
448,192,98139,1,0,0:0:0:70:kick.wav
320,192,98429,1,0,0:0:0:70:snare.wav
64,192,98429,1,0,0:0:0:70:kick.wav
192,192,98719,1,0,0:0:0:45:drum.wav
448,192,98864,1,0,0:0:0:45:drum.wav
192,192,99009,1,0,0:0:0:45:drum.wav
448,192,99154,1,0,0:0:0:45:drum.wav
64,192,99299,128,0,99878:0:0:0:45:drum.wav
320,192,99588,128,0,99878:0:0:0:45:drum.wav
192,192,99878,1,0,0:0:0:55:crash.wav
448,192,99878,1,0,0:0:0:70:kick.wav
64,192,100168,1,0,0:0:0:70:kick.wav
320,192,100168,1,0,0:0:0:70:snare.wav
192,192,100458,1,0,0:0:0:70:kick.wav
64,192,100748,1,0,0:0:0:70:kick.wav
448,192,100748,1,0,0:0:0:70:snare.wav
320,192,101038,1,0,0:0:0:70:kick.wav
448,192,101038,1,0,0:0:0:0:
192,192,101327,1,0,0:0:0:70:snare.wav
64,192,101327,1,0,0:0:0:70:kick.wav
320,192,101617,1,0,0:0:0:70:kick.wav
64,192,101907,1,0,0:0:0:70:snare.wav
448,192,101907,1,0,0:0:0:70:kick.wav
192,192,102197,1,0,0:0:0:70:kick.wav
64,192,102197,1,0,0:0:0:0:
320,192,102487,1,0,0:0:0:70:kick.wav
448,192,102487,1,0,0:0:0:70:snare.wav
64,192,102777,1,0,0:0:0:70:kick.wav
192,192,103067,1,0,0:0:0:70:kick.wav
448,192,103067,1,0,0:0:0:70:snare.wav
64,192,103356,1,0,0:0:0:70:kick.wav
192,192,103356,1,0,0:0:0:0:
448,192,103646,1,0,0:0:0:70:snare.wav
320,192,103646,1,0,0:0:0:70:kick.wav
192,192,103936,1,0,0:0:0:70:kick.wav
320,192,104081,1,0,0:0:0:45:hihat.wav
448,192,104226,1,0,0:0:0:70:snare.wav
64,192,104226,1,0,0:0:0:70:kick.wav
320,192,104516,1,0,0:0:0:55:crash.wav
192,192,104661,1,0,0:0:0:70:kick.wav
64,192,104806,1,0,0:0:0:70:kick.wav
448,192,104806,1,0,0:0:0:70:snare.wav
192,192,105096,1,0,0:0:0:70:kick.wav
64,192,105385,1,0,0:0:0:70:kick.wav
320,192,105385,1,0,0:0:0:70:snare.wav
320,192,105675,1,0,0:0:0:70:kick.wav
448,192,105675,1,0,0:0:0:0:
192,192,105965,1,0,0:0:0:70:snare.wav
64,192,105965,1,0,0:0:0:70:kick.wav
448,192,106255,1,0,0:0:0:70:kick.wav
64,192,106545,1,0,0:0:0:70:snare.wav
320,192,106545,1,0,0:0:0:70:kick.wav
64,192,106835,1,0,0:0:0:70:kick.wav
192,192,106835,128,0,107994:0:0:0:45:drum.wav
448,192,107414,128,0,107994:0:0:0:70:kick.wav
320,192,107994,1,0,0:0:0:70:kick.wav
64,192,107994,1,0,0:0:0:45:drum.wav
448,192,108139,1,0,0:0:0:45:drum.wav
192,192,108284,1,0,0:0:0:45:drum.wav
320,192,108429,1,0,0:0:0:45:drum.wav
64,192,108574,1,0,0:0:0:45:drum.wav
448,192,108719,1,0,0:0:0:45:drum.wav
320,192,108864,128,0,109154:0:0:0:45:drum.wav
64,192,109154,1,0,0:0:0:55:crash.wav
192,192,109154,1,0,0:0:0:70:kick.wav
448,192,109443,1,0,0:0:0:70:kick.wav
320,192,109588,1,0,0:0:0:45:hihat.wav
192,192,109733,1,0,0:0:0:70:kick.wav
64,192,109733,1,0,0:0:0:0:
320,192,110023,1,0,0:0:0:70:kick.wav
192,192,110168,1,0,0:0:0:45:hihat.wav
448,192,110313,1,0,0:0:0:70:kick.wav
320,192,110458,1,0,0:0:0:45:hihat.wav
192,192,110603,1,0,0:0:0:70:snare.wav
448,192,110748,1,0,0:0:0:45:hihat.wav
64,192,110893,1,0,0:0:0:70:kick.wav
192,192,111183,1,0,0:0:0:70:snare.wav
448,192,111183,1,0,0:0:0:70:kick.wav
320,192,111327,1,0,0:0:0:45:hihat.wav
64,192,111472,1,0,0:0:0:70:kick.wav
448,192,111762,1,0,0:0:0:70:kick.wav
64,192,111907,1,0,0:0:0:45:hihat.wav
320,192,112052,1,0,0:0:0:70:kick.wav
192,192,112197,1,0,0:0:0:45:hihat.wav
448,192,112342,1,0,0:0:0:70:kick.wav
320,192,112487,1,0,0:0:0:45:hihat.wav
192,192,112632,1,0,0:0:0:70:kick.wav
64,192,112632,1,0,0:0:0:0:
320,192,112922,1,0,0:0:0:70:snare.wav
448,192,112922,1,0,0:0:0:70:kick.wav
64,192,113212,1,0,0:0:0:70:kick.wav
192,192,113356,1,0,0:0:0:45:hihat.wav
448,192,113501,1,0,0:0:0:70:snare.wav
320,192,113501,1,0,0:0:0:70:kick.wav
64,192,113791,1,0,0:0:0:55:crash.wav
192,192,113791,1,0,0:0:0:70:kick.wav
448,192,113936,1,0,0:0:0:70:kick.wav
320,192,114081,1,0,0:0:0:70:kick.wav
64,192,114081,1,0,0:0:0:70:snare.wav
192,192,114371,1,0,0:0:0:70:kick.wav
448,192,114516,1,0,0:0:0:45:hihat.wav
320,192,114661,1,0,0:0:0:70:kick.wav
64,192,114661,1,0,0:0:0:70:snare.wav
448,192,114806,1,0,0:0:0:45:hihat.wav
192,192,114951,1,0,0:0:0:70:kick.wav
64,192,115096,1,0,0:0:0:45:hihat.wav
320,192,115241,1,0,0:0:0:70:snare.wav
192,192,115385,1,0,0:0:0:45:hihat.wav
448,192,115530,1,0,0:0:0:70:kick.wav
64,192,115530,1,0,0:0:0:0:
192,192,115820,1,0,0:0:0:70:snare.wav
320,192,115820,1,0,0:0:0:70:kick.wav
64,192,115965,1,0,0:0:0:45:hihat.wav
320,192,116110,1,0,0:0:0:70:kick.wav
192,192,116400,1,0,0:0:0:70:kick.wav
64,192,116400,1,0,0:0:0:70:snare.wav
448,192,116545,1,0,0:0:0:45:hihat.wav
320,192,116690,1,0,0:0:0:70:kick.wav
64,192,116835,1,0,0:0:0:45:hihat.wav
192,192,116980,1,0,0:0:0:70:kick.wav
448,192,117125,1,0,0:0:0:45:hihat.wav
320,192,117270,1,0,0:0:0:70:kick.wav
64,192,117270,1,0,0:0:0:45:drum.wav
192,192,117559,128,0,117849:0:0:0:45:drum.wav
448,192,117849,128,0,118139:0:0:0:45:drum.wav
320,192,118139,1,0,0:0:0:45:drum.wav
192,192,118139,1,0,0:0:0:70:snare.wav
64,192,118429,128,0,118646:0:0:0:70:cymbal.wav
448,192,118646,128,0,118864:0:0:0:70:cymbal.wav
64,192,118864,128,0,119081:0:0:0:70:kick.wav
448,192,119081,128,0,119299:0:0:0:70:cymbal.wav
64,192,119299,1,0,0:0:0:70:kick.wav
192,192,119299,1,0,0:0:0:70:snare.wav
448,192,119588,128,0,119806:0:0:0:70:cymbal.wav
64,192,119806,128,0,120023:0:0:0:70:kick.wav
448,192,120023,128,0,120241:0:0:0:70:cymbal.wav
64,192,120241,128,0,120458:0:0:0:70:kick.wav
320,192,120458,1,0,0:0:0:70:kick.wav
448,192,120458,1,0,0:0:0:70:snare.wav
192,192,120748,128,0,120965:0:0:0:70:kick.wav
320,192,120965,128,0,121183:0:0:0:70:cymbal.wav
192,192,121183,128,0,121400:0:0:0:70:kick.wav
320,192,121400,128,0,121617:0:0:0:70:cymbal.wav
64,192,121617,1,0,0:0:0:70:snare.wav
448,192,121617,1,0,0:0:0:70:kick.wav
320,192,121907,128,0,122125:0:0:0:70:cymbal.wav
192,192,122125,128,0,122342:0:0:0:70:kick.wav
320,192,122342,128,0,122487:0:0:0:70:cymbal.wav
64,192,122487,1,0,0:0:0:70:kick.wav
192,192,122559,1,0,0:0:0:70:kick.wav
448,192,122704,1,0,0:0:0:70:kick.wav
320,192,122777,1,0,0:0:0:70:kick.wav
64,192,122777,1,0,0:0:0:70:snare.wav
192,192,122922,1,0,0:0:0:70:kick.wav
448,192,123067,1,0,0:0:0:70:kick.wav
320,192,123284,1,0,0:0:0:70:cymbal.wav
192,192,123501,1,0,0:0:0:70:kick.wav
64,192,123719,1,0,0:0:0:70:cymbal.wav
448,192,123936,1,0,0:0:0:70:snare.wav
192,192,123936,1,0,0:0:0:70:kick.wav
320,192,124226,1,0,0:0:0:70:cymbal.wav
192,192,124443,1,0,0:0:0:70:kick.wav
64,192,124661,1,0,0:0:0:70:cymbal.wav
320,192,124878,1,0,0:0:0:70:kick.wav
192,192,125096,1,0,0:0:0:70:kick.wav
448,192,125096,1,0,0:0:0:70:snare.wav
64,192,125385,1,0,0:0:0:70:kick.wav
320,192,125530,1,0,0:0:0:45:drum.wav
192,192,125675,1,0,0:0:0:45:drum.wav
448,192,125820,1,0,0:0:0:70:kick.wav
320,192,125965,1,0,0:0:0:45:drum.wav
64,192,126110,1,0,0:0:0:45:drum.wav
192,192,126255,1,0,0:0:0:70:kick.wav
320,192,126400,1,0,0:0:0:70:kick.wav
448,192,126545,1,0,0:0:0:70:kick.wav
64,192,126545,1,0,0:0:0:45:drum.wav
192,192,127125,128,0,127704:0:0:0:45:drum.wav
320,192,127414,128,0,127704:0:0:0:70:kick.wav
64,192,127704,1,0,0:0:0:70:kick.wav
448,192,127704,1,0,0:0:0:55:crash.wav
