osu file format v14

[General]
AudioFilename: audio.mp3
AudioLeadIn: 0
PreviewTime: 89233
Countdown: 0
SampleSet: None
StackLeniency: 0.3
Mode: 2
LetterboxInBreaks: 0
WidescreenStoryboard: 1

[Editor]
Bookmarks: 11624,20900,30175,39450,48726,53363,58653,59450,62639,71914,81189,90465,111624,118291,127566
DistanceSpacing: 1.3
BeatDivisor: 4
GridSize: 8
TimelineZoom: 2.5

[Metadata]
Title:BroGamer
TitleUnicode:BroGamer
Artist:USAO
ArtistUnicode:USAO
Creator:Emiru
Version:Spec's Overdose
Source:beatmania IIDX 24 SINOBUZ
Tags:headshot gg noob dubstep camping fire in the hole hardstyle bemani konami
BeatmapID:1518690
BeatmapSetID:701726

[Difficulty]
HPDrainRate:6
CircleSize:4.3
OverallDifficulty:9.6
ApproachRate:9.6
SliderMultiplier:1.8
SliderTickRate:2

[Events]
//Background and Video events
0,0,"BRUH.jpg",0,0
//Break Periods
2,62839,66767
//Storyboard Layer 0 (Background)
//Storyboard Layer 1 (Fail)
//Storyboard Layer 2 (Pass)
//Storyboard Layer 3 (Foreground)
//Storyboard Sound Samples

[TimingPoints]
1190,289.855072463768,4,2,42,60,1,0
9885,-100,4,1,42,40,0,0
10465,-100,4,2,42,60,0,0
16262,-100,4,3,42,70,0,0
20900,-100,4,2,42,80,0,0
27856,-100,4,1,42,60,0,0
28146,-100,4,1,42,80,0,0
28218,-100,4,1,42,60,0,0
28726,-100,4,1,42,80,0,0
28798,-100,4,1,42,60,0,0
29016,-100,4,1,42,80,0,0
29595,-100,4,3,42,80,0,0
33653,-100,4,3,42,80,0,0
33943,-100,4,3,42,80,0,0
34523,-50,4,3,42,80,0,0
34813,-100,4,3,42,80,0,0
48726,-100,4,3,42,80,0,0
53363,-100,4,2,42,75,0,1
58001,-100,4,3,42,90,0,1
61479,-100,4,3,42,90,0,1
62639,-100,4,3,42,90,0,0
67276,-100,4,2,42,60,0,0
68146,-100,4,2,42,60,0,0
70755,-100,4,2,42,90,0,0
71914,-100,4,2,42,50,0,0
81189,-100,4,2,42,60,0,0
85827,-100,4,2,42,70,0,0
90465,-100,4,2,42,80,0,1
108146,-100,4,2,42,80,0,1
108726,-100,4,2,42,80,0,0
109016,-100,4,2,42,80,0,1
112784,-100,4,2,42,80,0,1
113363,-100,4,2,42,80,0,1
118291,-100,4,2,42,90,0,0
125247,-100,4,3,42,90,0,0
126987,-100,4,2,42,80,0,0
127059,-100,4,2,42,45,0,0
127276,-100,4,2,42,80,0,0
127349,-100,4,2,42,45,0,0
127566,-100,4,2,42,60,0,0

[Colours]
Combo1 : 204,138,225
Combo2 : 241,88,80
Combo3 : 118,243,137
Combo4 : 208,252,105

[HitObjects]
256,192,1190,12,0,2059,0:0:0:0:
256,232,2204,5,0,0:0:0:0:
371,234,2349,2,0,L|383:135,1,90,0|0,0:0|0:0,0:0:0:0:
261,133,2639,2,0,L|243:35,1,90,0|0,0:0|0:0,0:0:0:0:
467,54,2929,5,0,0:0:0:0:
245,64,3218,1,0,0:0:0:0:
467,54,3508,1,0,0:0:0:0:
245,64,3797,1,0,0:0:0:0:
467,54,4088,1,0,0:0:0:0:
245,64,4377,1,0,0:0:0:0:
467,54,4668,1,0,0:0:0:0:
173,248,4813,6,0,L|110:242,2,45,0|0|0,0:0|0:0|0:0,0:0:0:0:
284,250,5103,2,0,L|347:244,2,45,0|0|0,0:0|0:0|0:0,0:0:0:0:
177,141,5392,2,0,L|114:135,2,45,0|0|0,0:0|0:0|0:0,0:0:0:0:
286,141,5682,2,0,L|349:135,1,45,0|0,0:0|0:0,0:0:0:0:
173,271,5827,5,0,0:0:0:0:
134,247,5900,1,0,0:0:0:0:
114,206,5972,1,0,0:0:0:0:
124,161,6045,1,0,0:0:0:0:
304,193,6117,1,0,0:0:0:0:
300,148,6189,1,0,0:0:0:0:
271,112,6262,1,0,0:0:0:0:
227,102,6334,1,0,0:0:0:0:
360,274,6407,5,0,0:0:0:0:
399,250,6480,1,0,0:0:0:0:
419,209,6552,1,0,0:0:0:0:
409,164,6625,1,0,0:0:0:0:
229,196,6697,1,0,0:0:0:0:
233,151,6769,1,0,0:0:0:0:
262,115,6842,1,0,0:0:0:0:
306,105,6914,1,0,0:0:0:0:
475,261,6987,6,0,L|465:162,1,90,4|0,0:0|0:0,0:0:0:0:
252,182,7276,1,8,1:0:0:0:
366,179,7421,1,2,0:0:0:0:
485,177,7566,2,0,L|470:73,1,90,0|0,0:0|0:0,0:0:0:0:
226,77,7856,1,8,1:0:0:0:
37,261,8146,6,0,L|47:162,1,90,2|0,0:0|0:0,0:0:0:0:
260,182,8435,1,8,1:0:0:0:
146,179,8580,1,0,0:0:0:0:
27,177,8726,2,0,L|42:73,1,90,2|0,0:0|0:0,0:0:0:0:
286,77,9016,1,8,1:0:0:0:
165,77,9161,2,0,L|114:78,1,45,0|0,0:0|0:0,0:0:0:0:
339,307,9305,6,0,L|355:200,1,90,4|0,0:0|0:0,0:0:0:0:
293,180,9523,1,0,0:0:0:0:
138,258,9595,2,0,L|131:187,1,45,8|0,1:0|0:0,0:0:0:0:
294,137,9740,2,0,L|351:135,1,45,0|0,0:0|0:0,0:0:0:0:
191,44,9885,2,0,L|138:45,1,45,2|0,0:0|0:0,0:0:0:0:
374,258,10030,2,0,L|381:187,1,45,0|0,0:0|0:0,0:0:0:0:
184,176,10175,1,8,1:0:0:0:
208,173,10211,1,0,0:0:0:0:
232,170,10247,1,0,0:0:0:0:
257,167,10284,1,0,0:0:0:0:
281,164,10320,1,0,0:0:0:0:
305,161,10356,1,0,0:0:0:0:
329,158,10392,1,0,0:0:0:0:
96,272,10465,6,0,L|80:160,1,90,4|0,1:0|0:0,0:0:0:0:
440,192,10755,1,0,0:0:0:0:
309,182,11045,1,0,0:0:0:0:
452,197,11334,1,0,0:0:0:0:
68,309,11624,6,0,P|76:258|181:212,1,135,6|0,0:0|0:0,0:0:0:0:
177,133,11914,2,0,L|60:124,1,90,8|0,0:0|0:0,0:0:0:0:
297,230,12204,1,2,0:0:0:0:
201,262,12349,1,0,0:0:0:0:
335,133,12494,2,0,L|452:124,1,90,8|0,0:0|0:0,0:0:0:0:
215,230,12784,1,2,0:0:0:0:
311,262,12929,1,0,0:0:0:0:
177,133,13074,2,0,L|60:124,1,90,8|0,0:0|0:0,0:0:0:0:
332,254,13363,1,2,0:0:0:0:
236,286,13508,1,0,0:0:0:0:
370,157,13653,2,0,L|487:148,1,90,8|0,0:0|0:0,0:0:0:0:
76,324,13943,6,0,L|50:211,1,90,2|0,0:0|0:0,0:0:0:0:
286,158,14233,2,0,L|184:158,1,90,8|0,0:0|0:0,0:0:0:0:
436,324,14523,2,0,L|462:211,1,90,2|0,0:0|0:0,0:0:0:0:
226,158,14813,2,0,L|328:158,1,90,8|0,0:0|0:0,0:0:0:0:
84,326,15103,6,0,L|214:320,1,90,2|0,0:0|0:0,0:0:0:0:
429,323,15392,2,0,L|314:319,1,90,8|0,0:0|0:0,0:0:0:0:
74,217,15682,2,0,L|204:211,1,90,2|0,0:0|0:0,0:0:0:0:
419,214,15971,2,0,L|304:210,1,90,8|0,0:0|0:0,0:0:0:0:
72,312,16262,6,0,P|56:264|104:224,1,90,2|0,0:0|0:0,0:0:0:0:
308,212,16552,1,8,0:0:0:0:
189,215,16697,1,2,0:0:0:0:
432,312,16842,2,0,L|456:200,1,90,0|0,0:0|0:0,0:0:0:0:
299,196,17132,2,0,L|282:95,1,90,8|0,0:0|0:0,0:0:0:0:
344,63,17349,1,0,0:0:0:0:
128,304,17421,5,2,0:0:0:0:
226,295,17566,1,0,0:0:0:0:
323,280,17711,1,8,0:0:0:0:
56,192,17856,1,0,0:0:0:0:
312,160,18001,2,0,L|208:152,1,90,2|0,0:0|0:0,0:0:0:0:
470,106,18291,1,12,0:1:0:0:
392,119,18388,1,2,0:0:0:0:
315,132,18484,1,2,0:0:0:0:
108,147,18581,6,0,L|43:138,2,45,2|0|0,0:0|0:0|0:0,0:0:0:0:
269,213,18871,2,0,L|164:224,1,90,8|0,0:0|0:0,0:0:0:0:
459,270,19161,1,2,0:0:0:0:
472,214,19233,1,0,0:0:0:0:
443,164,19305,1,0,0:0:0:0:
389,145,19378,1,0,0:0:0:0:
211,142,19450,2,0,L|132:139,2,45,8|0|0,0:0|0:0|0:0,0:0:0:0:
346,149,19740,5,2,0:0:0:0:
90,141,19885,1,0,0:0:0:0:
214,152,20030,2,0,L|224:39,1,90,0|0,0:0|0:0,0:0:0:0:
99,300,20320,2,0,L|84:187,1,90,8|0,3:0|3:0,0:0:0:0:
159,209,20537,1,0,3:0:0:0:
324,210,20610,2,0,L|259:211,1,45,8|8,3:0|3:0,0:0:0:0:
93,214,20755,1,4,3:0:0:0:
346,291,20900,6,0,L|462:292,1,90,6|0,0:0|0:0,0:0:0:0:
166,291,21189,2,0,L|50:292,1,90,8|0,0:0|0:0,0:0:0:0:
317,339,21479,6,0,L|334:211,1,90,2|0,0:0|0:0,0:0:0:0:
199,216,21769,2,0,L|185:108,1,90,8|0,0:0|0:0,0:0:0:0:
445,188,22059,2,0,L|462:60,1,90,2|0,0:0|0:0,0:0:0:0:
296,110,22349,2,0,L|274:77,4,22.5,8|0|0|0|0,0:0|0:0|0:0|0:0|0:0,0:0:0:0:
384,216,22639,2,0,L|399:180,2,22.5,2|0|0,0:0|0:0|0:0,0:0:0:0:
134,214,22784,2,0,L|112:180,2,22.5,2|0|0,0:0|0:0|0:0,0:0:0:0:
346,315,22929,1,0,0:0:0:0:
393,303,23001,1,0,0:0:0:0:
425,265,23074,1,0,0:0:0:0:
439,218,23146,1,0,0:0:0:0:
158,137,23218,6,0,L|39:128,1,90,2|0,0:0|0:0,0:0:0:0:
303,253,23508,2,0,L|184:244,1,90,10|2,0:0|0:0,0:0:0:0:
354,137,23798,6,0,L|473:128,1,90,0|0,0:0|0:0,0:0:0:0:
209,253,24088,2,0,L|328:244,1,90,10|0,0:0|0:0,0:0:0:0:
72,328,24378,2,0,L|88:232,1,90,2|0,0:0|0:0,0:0:0:0:
161,237,24595,1,0,0:0:0:0:
337,236,24668,2,0,L|326:160,1,45,0|0,0:0|0:0,0:0:0:0:
249,145,24813,2,0,L|177:145,1,45,0|0,0:0|0:0,0:0:0:0:
376,335,24958,2,0,L|498:334,1,90,2|0,0:0|0:0,0:0:0:0:
233,250,25247,2,0,L|350:250,1,90,2|2,0:0|0:0,0:0:0:0:
65,252,25537,5,2,0:0:0:0:
179,250,25682,1,2,0:0:0:0:
61,315,25827,2,0,L|51:192,1,90,8|0,0:0|0:0,0:0:0:0:
331,103,26117,2,0,L|225:89,1,90,2|0,0:0|0:0,0:0:0:0:
451,315,26407,2,0,L|461:192,1,90,8|0,0:0|0:0,0:0:0:0:
181,103,26697,2,0,L|287:89,1,90,2|0,0:0|0:0,0:0:0:0:
131,90,26987,2,0,L|118:52,4,22.5,8|0|0|0|0,0:0|0:0|0:0|0:0|0:0,0:0:0:0:
384,216,27276,2,0,L|399:180,2,22.5,2|0|0,0:0|0:0|0:0,0:0:0:0:
134,214,27421,2,0,L|112:180,2,22.5,2|0|0,0:0|0:0|0:0,0:0:0:0:
346,315,27566,1,0,0:0:0:0:
393,303,27638,1,0,0:0:0:0:
425,265,27711,1,0,0:0:0:0:
439,218,27783,1,0,0:0:0:0:
246,331,27856,5,2,0:0:0:0:
207,299,27929,1,0,0:0:0:0:
200,250,28001,1,0,0:0:0:0:
232,211,28074,1,0,0:0:0:0:
416,217,28146,1,10,0:0:0:0:
428,169,28218,1,0,0:0:0:0:
409,122,28291,1,2,0:0:0:0:
364,100,28363,1,0,0:0:0:0:
151,136,28436,2,0,L|218:135,1,45,0|0,0:0|0:0,0:0:0:0:
274,135,28581,2,0,L|335:134,1,45,0|0,0:0|0:0,0:0:0:0:
96,217,28726,1,2,0:0:0:0:
84,169,28798,1,0,0:0:0:0:
103,122,28871,1,0,0:0:0:0:
148,100,28943,1,0,0:0:0:0:
329,251,29016,6,0,L|338:157,1,90,2|2,0:0|0:0,0:0:0:0:
257,161,29233,1,0,0:0:0:0:
173,161,29305,2,0,L|109:160,3,45,10|0|2|0,0:0|0:0|0:0|0:0,0:0:0:0:
352,312,29595,2,0,L|464:312,1,90,2|2,0:3|0:0,0:0:0:0:
153,237,29885,2,0,L|78:237,2,45,8|0|8,0:3|0:0|0:3,0:0:0:0:
441,318,30175,6,0,L|452:198,1,90,6|0,0:0|0:0,0:0:0:0:
319,212,30465,2,0,L|326:103,1,90,8|0,0:0|0:0,0:0:0:0:
450,117,30755,2,0,L|263:116,1,180,2|8,0:0|0:0,0:0:0:0:
371,114,31189,1,0,0:0:0:0:
121,280,31334,6,0,L|237:271,1,90,2|0,0:0|0:0,0:0:0:0:
341,318,31624,2,0,L|456:308,1,90,8|0,0:0|0:0,0:0:0:0:
321,212,31914,2,0,L|204:222,1,90,2|0,0:0|0:0,0:0:0:0:
343,107,32204,2,0,L|454:98,1,90,8|0,0:0|0:0,0:0:0:0:
71,318,32494,6,0,L|60:198,1,90,2|0,0:0|0:0,0:0:0:0:
193,212,32784,2,0,L|186:103,1,90,8|0,0:0|0:0,0:0:0:0:
62,117,33074,2,0,L|249:116,1,180,2|8,0:0|0:0,0:0:0:0:
141,114,33508,1,0,0:0:0:0:
391,280,33653,6,0,L|275:271,1,90,2|0,0:0|0:0,0:0:0:0:
419,181,33943,2,0,L|482:180,2,45,8|0|0,0:0|0:0|0:0,0:0:0:0:
288,100,34233,2,0,L|225:99,2,45,2|0|2,0:0|0:0|0:0,0:0:0:0:
443,93,34523,2,0,P|353:71|232:118,1,180,8|0,0:0|0:0,0:0:0:0:
71,318,34813,6,0,L|60:198,1,90,2|0,0:0|0:0,0:0:0:0:
193,212,35103,2,0,L|186:103,1,90,8|0,0:0|0:0,0:0:0:0:
62,117,35393,2,0,L|249:116,1,180,2|8,0:0|0:0,0:0:0:0:
141,114,35827,1,2,0:0:0:0:
374,318,35972,6,0,L|477:302,1,90,2|0,0:0|0:0,0:0:0:0:
342,227,36262,2,0,L|281:217,2,45,0|0|0,0:0|0:0|0:0,0:0:0:0:
473,193,36552,2,0,L|483:95,1,90,2|0,0:0|0:0,0:0:0:0:
337,110,36842,1,12,0:1:0:0:
400,95,36938,1,2,0:0:0:0:
464,80,37035,1,2,0:0:0:0:
131,311,37132,5,2,0:0:0:0:
86,289,37204,1,0,0:0:0:0:
55,250,37276,1,0,0:0:0:0:
43,201,37349,1,0,0:0:0:0:
65,157,37421,1,8,0:0:0:0:
106,129,37494,1,0,0:0:0:0:
155,124,37566,1,0,0:0:0:0:
381,311,37711,5,2,0:0:0:0:
426,289,37783,1,0,0:0:0:0:
457,250,37855,1,0,0:0:0:0:
469,201,37928,1,0,0:0:0:0:
447,157,38000,1,8,0:0:0:0:
406,129,38073,1,0,0:0:0:0:
357,124,38145,1,0,0:0:0:0:
124,272,38291,6,0,L|217:267,1,90,4|0,0:0|0:0,0:0:0:0:
324,187,38581,2,0,L|227:179,1,90,0|0,0:0|0:0,0:0:0:0:
102,189,38871,2,0,L|84:93,1,90,0|0,0:0|0:0,0:0:0:0:
434,107,39161,1,0,0:0:0:0:
71,318,39450,6,0,L|60:198,1,90,6|0,0:0|0:0,0:0:0:0:
193,212,39740,2,0,L|186:103,1,90,8|0,0:0|0:0,0:0:0:0:
62,117,40030,2,0,L|249:116,1,180,2|8,0:0|0:0,0:0:0:0:
141,114,40464,1,0,0:0:0:0:
391,280,40609,6,0,L|275:271,1,90,2|0,0:0|0:0,0:0:0:0:
171,318,40899,2,0,L|56:308,1,90,8|0,0:0|0:0,0:0:0:0:
191,212,41189,2,0,L|308:222,1,90,2|0,0:0|0:0,0:0:0:0:
169,107,41479,2,0,L|58:98,1,90,8|0,0:0|0:0,0:0:0:0:
368,316,41769,6,0,L|382:219,1,90,2|0,0:0|0:0,0:0:0:0:
144,316,42059,2,0,L|130:219,1,90,8|0,0:0|0:0,0:0:0:0:
273,174,42349,2,0,L|146:173,1,90,2|0,0:0|0:0,0:0:0:0:
326,78,42639,2,0,L|445:76,1,90,8|0,0:0|0:0,0:0:0:0:
130,228,42929,6,0,P|79:167|157:98,1,180,2|8,0:0|0:0,0:0:0:0:
369,92,43363,1,0,0:0:0:0:
256,89,43508,1,2,0:0:0:0:
369,92,43653,1,0,0:0:0:0:
156,163,43798,2,0,L|48:166,1,90,8|0,0:0|0:0,0:0:0:0:
409,333,44088,6,0,L|424:230,1,90,6|0,0:0|0:0,0:0:0:0:
292,235,44378,1,2,0:0:0:0:
416,232,44523,1,10,0:0:0:0:
174,245,44668,1,0,0:0:0:0:
287,245,44813,1,0,0:0:0:0:
159,185,44958,2,0,L|88:186,2,45,8|0|2,0:0|0:0|0:0,0:0:0:0:
284,196,45247,6,0,P|312:146|275:97,1,90,2|0,0:0|0:0,0:0:0:0:
243,72,45465,1,0,0:0:0:0:
103,63,45537,2,0,L|36:63,2,45,0|0|0,0:0|0:0|0:0,0:0:0:0:
346,169,45827,1,2,0:0:0:0:
214,167,45972,1,0,0:0:0:0:
429,85,46117,1,6,0:1:0:0:
496,83,46214,1,2,0:0:0:0:
429,85,46310,1,12,0:0:0:0:
220,249,46407,6,0,P|163:237|121:254,1,90,2|0,0:0|0:0,0:0:0:0:
383,253,46697,2,0,P|440:241|482:258,1,90,0|0,0:0|0:0,0:0:0:0:
191,310,46987,2,0,P|164:263|188:218,1,90,2|0,0:0|0:0,0:0:0:0:
248,194,47204,2,0,P|275:147|251:102,1,90,2|0,0:0|0:0,0:0:0:0:
193,72,47421,1,2,0:0:0:0:
470,73,47566,1,2,0:0:0:0:
160,192,48436,2,0,P|125:160|146:105,1,90,8|8,0:3|0:3,0:0:0:0:
431,210,48726,5,6,0:0:0:0:
321,183,48871,1,0,0:0:0:0:
310,134,48943,1,0,0:0:0:0:
299,85,49016,1,8,0:0:0:0:
413,40,49161,1,0,0:0:0:0:
81,210,49305,1,2,0:0:0:0:
191,183,49450,1,0,0:0:0:0:
202,134,49522,1,0,0:0:0:0:
213,85,49595,1,8,0:0:0:0:
99,40,49740,1,0,0:0:0:0:
214,216,49885,6,0,L|150:207,2,45,2|0|0,0:0|0:0|0:0,0:0:0:0:
330,148,50175,2,0,L|394:139,2,45,8|0|0,0:0|0:0|0:0,0:0:0:0:
113,83,50465,2,0,L|17:97,1,90,2|0,0:0|0:0,0:0:0:0:
349,291,50755,2,0,L|445:305,1,90,8|0,0:0|0:0,0:0:0:0:
191,314,51045,6,0,L|130:305,1,45,6|0,0:3|0:0,0:0:0:0:
311,215,51189,2,0,L|397:200,1,45,2|0,0:0|0:0,0:0:0:0:
157,207,51334,2,0,L|96:198,1,45,2|0,0:0|0:0,0:0:0:0:
277,108,51478,2,0,L|363:93,1,45,2|0,0:3|0:3,0:0:0:0:
78,191,51624,6,0,L|63:152,6,22.5,2|0|2|0|2|0|2,0:0|0:0|0:0|0:0|0:0|0:0|0:0,0:0:0:0:
268,110,51914,2,0,L|283:71,6,22.5,2|0|2|0|2|0|2,0:0|0:0|0:0|0:0|0:0|0:0|0:0,0:0:0:0:
485,103,52204,1,4,0:0:0:0:
168,344,53363,6,0,P|148:295|179:249,1,90,4|0,0:0|0:0,0:0:0:0:
236,252,53581,2,0,P|256:203|225:157,1,90,4|0,0:0|0:0,0:0:0:0:
326,194,53798,2,0,P|306:145|337:99,1,90,4|0,0:0|0:0,0:0:0:0:
394,102,54016,2,0,P|414:53|383:7,1,90,4|0,0:0|0:0,0:0:0:0:
179,37,54233,1,8,1:0:0:0:
353,341,54523,6,0,P|373:292|342:246,1,90,4|0,0:0|0:0,0:0:0:0:
285,249,54741,2,0,P|265:200|296:154,1,90,4|0,0:0|0:0,0:0:0:0:
195,191,54958,2,0,P|215:142|184:96,1,90,4|0,0:0|0:0,0:0:0:0:
127,99,55176,2,0,P|107:50|138:4,1,90,4|0,0:0|0:0,0:0:0:0:
342,34,55393,1,8,1:0:0:0:
210,67,55682,6,0,L|117:68,1,90,4|0,0:0|0:0,0:0:0:0:
176,148,55900,2,0,L|269:149,1,90,4|0,0:0|0:0,0:0:0:0:
210,67,56117,2,0,L|117:68,1,90,4|0,0:0|0:0,0:0:0:0:
176,148,56335,2,0,L|269:149,1,90,4|0,0:0|0:0,0:0:0:0:
435,150,56552,1,8,1:0:0:0:
264,216,56842,6,0,L|357:217,1,90,4|0,0:0|0:0,0:0:0:0:
296,296,57060,2,0,L|203:297,1,90,4|0,0:0|0:0,0:0:0:0:
264,216,57277,2,0,L|328:216,1,45,4|0,0:0|0:0,0:0:0:0:
115,195,57421,5,2,0:0:0:0:
42,194,57494,1,4,0:0:0:0:
171,195,57639,1,2,0:0:0:0:
342,200,57711,2,0,L|462:195,1,90,12|0,1:3|0:0,0:0:0:0:
142,352,58001,6,0,L|134:234,1,90,4|0,0:0|0:0,0:0:0:0:
204,213,58218,2,0,L|212:95,1,90,4|0,0:0|0:0,0:0:0:0:
142,352,58436,2,0,L|134:234,1,90,4|0,0:0|0:0,0:0:0:0:
204,213,58653,2,0,L|212:95,1,90,4|0,0:0|0:0,0:0:0:0:
41,118,58871,1,8,1:0:0:0:
258,321,59161,6,0,L|266:203,1,90,4|0,0:0|0:0,0:0:0:0:
177,182,59378,2,0,L|169:64,1,90,4|0,0:0|0:0,0:0:0:0:
258,321,59596,2,0,L|266:203,1,90,4|0,0:0|0:0,0:0:0:0:
177,182,59813,2,0,L|169:64,1,90,4|0,0:0|0:0,0:0:0:0:
359,87,60031,1,8,1:0:0:0:
323,348,60320,6,0,L|315:230,1,90,4|0,0:0|0:0,0:0:0:0:
476,203,60537,2,0,L|484:85,1,90,4|0,0:0|0:0,0:0:0:0:
323,348,60755,2,0,L|315:230,1,90,4|0,0:0|0:0,0:0:0:0:
476,203,60972,2,0,L|484:85,1,90,4|0,0:0|0:0,0:0:0:0:
294,108,61190,1,8,1:0:0:0:
244,107,61262,1,0,0:0:0:0:
194,106,61334,1,0,0:0:0:0:
144,106,61407,1,0,0:0:0:0:
324,222,61479,6,0,L|405:216,1,45,8|8,3:0|3:0,0:0:0:0:
192,323,61624,2,0,L|188:264,1,45,4|4,3:0|3:0,0:0:0:0:
268,226,61769,2,0,L|276:162,1,45,4|4,3:0|3:0,0:0:0:0:
117,171,61914,2,0,L|58:164,1,45,4|4,3:0|3:0,0:0:0:0:
248,136,62059,1,8,0:0:0:0:
297,132,62132,1,8,0:0:0:0:
346,129,62204,1,8,0:0:0:0:
468,172,62349,2,0,P|479:120|466:55,1,90,4|0,0:1|0:0,0:0:0:0:
44,80,62639,1,0,0:0:0:0:
256,160,67276,5,4,0:1:0:0:
256,192,67421,12,0,70465,0:0:0:0:
336,280,70755,6,0,P|392:256|432:152,1,135,4|0,0:0|0:0,0:0:0:0:
268,102,71045,2,0,L|196:102,2,45,0|0|0,0:0|0:0|0:0,0:0:0:0:
142,94,71334,2,0,L|126:62,4,30,0|0|0|0|0,0:0|0:0|0:0|0:0|0:0,0:0:0:0:
440,72,71624,2,0,L|328:64,1,90,0|0,0:0|0:0,0:0:0:0:
86,311,71914,6,0,P|63:257|142:182,1,180,6|8,0:0|0:0,0:0:0:0:
252,182,72349,1,2,0:0:0:0:
122,179,72494,2,0,P|99:125|178:50,1,180,2|8,0:0|0:0,0:0:0:0:
288,50,72929,1,2,0:0:0:0:
424,310,73074,6,0,P|442:227|371:181,1,180,2|8,0:0|0:0,0:0:0:0:
259,182,73509,1,2,0:0:0:0:
388,178,73654,2,0,P|406:95|335:49,1,180,0|0,0:0|0:0,0:0:0:0:
223,50,74089,1,2,0:0:0:0:
339,299,74233,6,0,L|349:181,1,90,2|0,0:0|0:0,0:0:0:0:
227,184,74523,2,0,L|220:82,1,90,8|2,0:0|0:0,0:0:0:0:
357,235,74813,2,0,P|404:196|343:103,1,180,2|8,0:0|0:0,0:0:0:0:
245,104,75247,1,2,0:0:0:0:
378,283,75392,2,0,P|425:244|364:151,1,180,0|10,0:0|0:0,0:0:0:0:
266,152,75826,1,0,0:0:0:0:
143,200,75972,2,0,L|250:191,1,90,2|0,0:0|0:0,0:0:0:0:
373,264,76262,2,0,L|494:251,1,90,8|0,0:0|0:0,0:0:0:0:
153,322,76552,6,0,P|122:270|149:207,1,90,6|0,0:0|0:0,0:0:0:0:
235,240,76842,2,0,P|266:188|239:125,1,90,8|0,0:0|0:0,0:0:0:0:
140,155,77132,2,0,P|143:95|265:32,1,180,2|8,0:0|0:0,0:0:0:0:
345,28,77566,1,0,0:0:0:0:
192,217,77711,2,0,P|195:157|317:94,1,180,2|8,0:0|0:0,0:0:0:0:
399,93,78145,1,2,0:0:0:0:
288,264,78291,2,0,L|176:248,1,90,0|2,0:0|0:0,0:0:0:0:
304,160,78581,2,0,L|432:144,1,90,0|2,0:0|0:0,0:0:0:0:
105,188,78871,6,0,P|49:142|112:77,1,180,6|8,0:0|0:0,0:0:0:0:
340,228,79305,2,0,P|321:149|218:88,1,180,2|2,0:0|0:0,0:0:0:0:
104,132,79740,2,0,L|88:30,1,90,0|0,0:0|0:0,0:0:0:0:
463,127,80030,5,4,0:0:0:0:
189,316,81189,6,0,L|174:203,1,90,6|0,0:0|0:0,0:0:0:0:
323,316,81479,2,0,L|338:203,1,90,8|0,0:0|0:0,0:0:0:0:
191,207,81769,2,8,P|141:155|214:83,1,180,2|8,0:0|0:0,0:0:0:0:
316,78,82204,1,0,0:0:0:0:
211,131,82349,6,0,L|114:126,1,90,2|2,0:0|0:0,0:0:0:0:
247,232,82639,2,0,L|344:227,1,90,8|2,0:0|0:0,0:0:0:0:
207,332,82929,2,0,P|135:296|147:196,1,180,0|0,0:0|0:0,0:0:0:0:
268,207,83363,1,2,0:0:0:0:
34,210,83508,6,0,L|24:84,1,90,6|0,0:0|0:0,0:0:0:0:
288,208,83798,2,0,L|298:82,1,90,8|0,0:0|0:0,0:0:0:0:
167,210,84088,2,0,L|159:120,1,90,2|0,0:0|0:0,0:0:0:0:
420,208,84378,2,0,L|427:118,1,90,8|0,0:0|0:0,0:0:0:0:
308,68,84668,6,0,L|208:51,1,90,2|0,0:0|0:0,0:0:0:0:
95,151,84958,2,0,L|195:134,1,90,8|0,0:0|0:0,0:0:0:0:
308,68,85247,2,0,L|208:51,1,90,2|0,0:0|0:0,0:0:0:0:
468,168,85537,2,0,L|478:68,1,90,12|0,0:0|0:0,0:0:0:0:
168,262,85827,6,0,L|361:253,1,180,6|8,0:0|0:0,0:0:0:0:
160,132,86407,2,0,L|353:123,1,180,2|10,0:0|0:0,0:0:0:0:
191,105,86842,1,2,0:0:0:0:
459,227,86987,6,0,L|265:214,1,180,6|8,0:0|0:0,0:0:0:0:
457,114,87566,2,0,L|330:106,1,90,2|0,0:0|0:0,0:0:0:0:
128,226,87856,2,0,L|17:221,1,90,10|2,0:0|0:0,0:0:0:0:
424,352,88146,6,0,P|464:304|416:256,1,135,6|0,0:0|0:0,0:0:0:0:
244,251,88436,1,10,0:0:0:0:
211,213,88508,1,10,0:0:0:0:
227,165,88581,1,10,0:0:0:0:
275,157,88653,1,10,0:0:0:0:
88,352,88726,6,0,P|48:304|96:256,1,135,2|0,0:0|0:0,0:0:0:0:
280,256,89016,2,0,L|344:256,1,45,10|10,0:0|0:0,0:0:0:0:
120,112,89161,2,0,L|48:112,1,45,10|10,0:0|0:0,0:0:0:0:
392,104,89305,1,4,0:1:0:0:
412,277,90465,6,0,L|422:150,1,90,4|0,0:3|0:0,0:0:0:0:
182,143,90755,1,8,0:0:0:0:
308,141,90900,1,2,0:0:0:0:
100,277,91045,2,0,L|90:150,1,90,2|0,0:0|0:0,0:0:0:0:
330,143,91335,1,8,0:0:0:0:
204,141,91480,1,2,0:0:0:0:
459,261,91624,5,2,0:0:0:0:
337,263,91769,2,0,L|324:169,1,90,2|8,0:0|0:0,0:0:0:0:
175,263,92059,2,0,L|188:169,1,90,2|0,0:0|0:0,0:0:0:0:
320,173,92349,1,2,0:0:0:0:
59,167,92494,2,0,L|171:168,1,90,8|2,0:0|0:0,0:0:0:0:
447,171,92784,6,0,L|245:162,1,180,2|8,0:0|0:0,0:0:0:0:
386,153,93218,1,2,0:0:0:0:
159,228,93363,2,0,L|62:236,1,90,2|2,0:0|0:0,0:0:0:0:
353,228,93653,2,0,L|450:236,1,90,8|2,0:0|0:0,0:0:0:0:
173,150,93943,5,0,0:0:0:0:
310,149,94088,1,2,0:0:0:0:
176,293,94233,2,0,L|170:219,1,45,8|0,0:0|0:0,0:0:0:0:
231,186,94378,1,0,0:0:0:0:
339,93,94523,2,0,L|283:95,1,45,2|0,0:0|0:0,0:0:0:0:
147,1,94668,2,0,L|207:-1,1,45,0|0,0:0|0:0,0:0:0:0:
350,193,94813,2,0,L|463:205,1,90,0|0,0:0|0:0,0:0:0:0:
121,243,95103,6,0,L|16:253,1,90,4|0,0:0|0:0,0:0:0:0:
253,163,95392,1,8,0:0:0:0:
128,145,95537,1,2,0:0:0:0:
391,243,95682,2,0,L|496:253,1,90,2|0,0:0|0:0,0:0:0:0:
259,163,95971,1,8,0:0:0:0:
384,145,96116,1,2,0:0:0:0:
128,234,96262,5,2,0:0:0:0:
248,235,96407,2,0,L|156:236,1,90,2|8,0:0|0:0,0:0:0:0:
289,134,96697,2,0,L|160:133,1,90,2|0,0:0|0:0,0:0:0:0:
415,138,96987,1,2,0:0:0:0:
164,212,97132,2,0,L|53:212,1,90,8|2,0:0|0:0,0:0:0:0:
389,311,97421,6,0,L|400:204,1,90,2|0,0:0|0:0,0:0:0:0:
262,215,97711,1,8,0:0:0:0:
396,212,97856,1,2,0:0:0:0:
163,183,98001,2,0,L|56:184,1,90,2|0,0:0|0:0,0:0:0:0:
349,183,98291,2,0,L|456:184,1,90,8|0,0:0|0:0,0:0:0:0:
169,283,98581,5,8,0:0:0:0:
295,242,98726,1,0,0:0:0:0:
166,180,98871,2,0,L|90:177,2,45,4|0|4,3:0|0:0|3:0,0:0:0:0:
443,132,99161,1,4,3:0:0:0:
384,135,99233,1,0,0:0:0:0:
325,138,99305,1,4,3:0:0:0:
45,111,99450,1,4,0:0:0:0:
148,113,99595,1,0,0:0:0:0:
441,332,99740,6,0,L|453:222,1,90,6|0,0:3|0:0,0:0:0:0:
187,192,100030,1,8,0:0:0:0:
312,189,100175,1,2,0:0:0:0:
91,296,100320,2,0,L|72:175,1,90,2|0,0:0|0:0,0:0:0:0:
322,123,100610,2,0,L|341:2,1,90,8|2,0:0|0:0,0:0:0:0:
176,295,100900,6,0,L|157:174,1,90,2|2,0:0|0:0,0:0:0:0:
407,122,101190,2,0,L|426:1,1,90,8|2,0:0|0:0,0:0:0:0:
192,184,101479,1,0,0:0:0:0:
320,184,101624,1,2,0:0:0:0:
81,168,101769,2,0,L|59:65,1,90,8|2,0:0|0:0,0:0:0:0:
336,280,102059,6,0,L|208:264,1,90,2|0,0:0|0:0,0:0:0:0:
392,184,102349,2,0,L|472:176,2,45,8|0|2,0:0|0:0|0:0,0:0:0:0:
84,171,102639,2,0,L|187:150,1,90,2|2,0:0|0:0,0:0:0:0:
301,150,102929,1,8,0:0:0:0:
170,148,103074,1,2,0:0:0:0:
448,288,103218,6,0,L|464:168,1,90,4|2,0:3|0:0,0:0:0:0:
339,109,103508,2,0,L|265:110,2,45,10|0|0,0:0|0:0|0:0,0:0:0:0:
64,104,103798,1,2,0:0:0:0:
200,104,103943,1,2,0:0:0:0:
456,104,104088,2,0,L|352:96,1,90,8|0,0:0|0:0,0:0:0:0:
99,323,104378,6,0,L|80:212,1,90,6|2,0:0|0:0,0:0:0:0:
321,182,104668,2,0,L|340:71,1,90,8|2,0:0|0:0,0:0:0:0:
197,48,104958,2,0,L|85:40,1,90,2|0,0:0|0:0,0:0:0:0:
315,48,105247,2,0,L|427:40,1,90,8|2,0:0|0:0,0:0:0:0:
184,176,105537,2,0,L|72:168,1,90,2|2,0:0|0:0,0:0:0:0:
302,176,105826,2,0,L|414:168,1,90,8|2,0:0|0:0,0:0:0:0:
176,280,106117,1,0,0:0:0:0:
320,280,106262,1,2,0:0:0:0:
72,288,106407,1,8,0:0:0:0:
65,230,106479,1,0,0:0:0:0:
59,171,106552,1,2,0:0:0:0:
358,134,106697,6,0,L|423:130,2,45,6|0|0,0:0|0:0|0:0,0:0:0:0:
129,266,106987,2,0,L|71:256,1,45,0|0,0:0|0:0,0:0:0:0:
278,334,107132,2,0,L|336:324,1,45,10|8,0:0|0:0,0:0:0:0:
71,160,107276,1,8,0:0:0:0:
189,130,107421,1,0,0:0:0:0:
426,140,107566,2,0,L|497:137,2,45,0|0|2,0:0|0:0|0:0,0:0:0:0:
182,152,107856,5,2,0:0:0:0:
311,153,108001,1,8,3:0:0:0:
319,94,108074,1,0,0:0:0:0:
327,36,108146,1,4,0:0:0:0:
209,32,108291,1,0,0:0:0:0:
444,104,108436,1,4,0:0:0:0:
312,106,108581,1,0,0:0:0:0:
30,78,108726,1,4,0:0:0:0:
304,335,109016,6,0,L|313:238,1,90,6|0,0:3|0:0,0:0:0:0:
170,213,109305,1,8,0:0:0:0:
285,213,109450,1,2,0:0:0:0:
38,167,109595,2,0,L|29:70,1,90,2|0,0:0|0:0,0:0:0:0:
172,45,109884,1,8,0:0:0:0:
57,45,110029,1,2,0:0:0:0:
384,168,110175,5,2,0:0:0:0:
262,98,110320,2,0,L|144:105,1,90,2|8,0:0|0:0,0:0:0:0:
290,194,110610,2,0,L|172:201,1,90,2|0,0:0|0:0,0:0:0:0:
385,255,110900,1,2,0:0:0:0:
129,281,111045,1,8,0:0:0:0:
264,285,111189,1,2,0:0:0:0:
472,288,111334,6,0,L|480:176,1,90,2|0,0:0|0:0,0:0:0:0:
336,151,111624,1,8,0:0:0:0:
332,92,111697,1,0,0:0:0:0:
328,33,111769,1,2,0:0:0:0:
41,101,111914,1,2,0:0:0:0:
172,103,112059,1,2,0:0:0:0:
421,61,112204,2,0,L|301:62,1,90,8|2,0:0|0:0,0:0:0:0:
60,195,112494,6,0,L|45:80,1,90,0|2,0:0|0:0,0:0:0:0:
307,96,112784,2,0,L|381:88,2,45,8|0|0,0:0|0:0|0:0,0:0:0:0:
172,233,113074,2,0,L|162:149,1,45,2|0,0:0|0:0,0:0:0:0:
236,152,113218,2,0,L|226:81,1,45,2|0,0:0|0:0,0:0:0:0:
165,60,113363,1,8,0:0:0:0:
297,57,113508,1,0,0:0:0:0:
50,57,113653,5,4,0:1:0:0:
297,57,113798,1,2,0:0:0:0:
48,63,113943,2,0,L|170:64,1,90,8|2,0:0|0:0,0:0:0:0:
272,144,114233,1,2,0:0:0:0:
144,152,114378,1,0,0:0:0:0:
424,256,114523,2,0,L|448:136,1,90,8|2,0:0|0:0,0:0:0:0:
152,225,114813,5,2,0:0:0:0:
271,260,114958,2,0,L|295:166,1,90,2|8,0:0|0:0,0:0:0:0:
170,132,115247,2,0,L|155:37,1,90,2|0,0:0|0:0,0:0:0:0:
286,47,115537,1,2,0:0:0:0:
46,131,115682,1,8,0:0:0:0:
165,133,115827,1,2,0:0:0:0:
440,227,115972,6,0,L|307:217,1,90,2|0,0:0|0:0,0:0:0:0:
210,178,116262,1,8,0:0:0:0:
268,173,116335,1,0,0:0:0:0:
325,169,116407,1,2,0:0:0:0:
79,258,116552,2,0,L|67:152,1,90,2|0,0:0|0:0,0:0:0:0:
321,80,116842,1,8,0:0:0:0:
177,78,116987,1,0,0:0:0:0:
432,275,117132,6,0,L|452:164,1,90,6|0,0:0|0:0,0:0:0:0:
163,90,117421,2,0,L|87:92,2,45,8|0|8,3:0|0:0|3:0,0:0:0:0:
304,160,117711,2,0,L|250:161,1,45,4|0,3:0|0:0,0:0:0:0:
73,165,117856,1,4,3:0:0:0:
331,161,118001,1,4,0:0:0:0:
429,359,118291,6,0,P|449:310|418:264,1,90,4|0,0:0|0:0,0:0:0:0:
361,267,118509,2,0,P|341:218|372:172,1,90,4|0,0:0|0:0,0:0:0:0:
271,209,118726,2,0,P|291:160|260:114,1,90,4|0,0:0|0:0,0:0:0:0:
203,117,118944,2,0,P|183:68|214:22,1,90,4|0,0:0|0:0,0:0:0:0:
418,52,119161,1,8,1:0:0:0:
292,355,119450,6,0,P|312:306|281:260,1,90,4|0,0:0|0:0,0:0:0:0:
224,263,119668,2,0,P|204:214|235:168,1,90,4|0,0:0|0:0,0:0:0:0:
134,205,119885,2,0,P|154:156|123:110,1,90,4|0,0:0|0:0,0:0:0:0:
66,113,120103,2,0,P|46:64|77:18,1,90,4|0,0:0|0:0,0:0:0:0:
281,48,120320,1,8,1:0:0:0:
133,352,120610,6,0,P|113:303|144:257,1,90,4|0,0:0|0:0,0:0:0:0:
201,260,120828,2,0,P|221:211|190:165,1,90,4|0,0:0|0:0,0:0:0:0:
291,202,121045,2,0,P|271:153|302:107,1,90,4|0,0:0|0:0,0:0:0:0:
359,110,121263,2,0,P|379:61|348:15,1,90,4|0,0:0|0:0,0:0:0:0:
144,45,121480,1,8,1:0:0:0:
312,344,121769,6,0,P|332:295|301:249,1,90,4|0,0:0|0:0,0:0:0:0:
244,252,121987,2,0,P|224:203|255:157,1,90,4|0,0:0|0:0,0:0:0:0:
154,194,122204,2,0,P|174:145|143:99,1,90,4|2,0:0|0:0,0:0:0:0:
344,117,122421,2,0,L|470:119,1,90,4|2,0:0|0:0,0:0:0:0:
160,64,122639,1,12,1:0:0:0:
32,64,122784,1,0,0:0:0:0:
310,254,122929,6,0,L|424:248,1,90,4|0,0:0|0:0,0:0:0:0:
211,166,123146,2,0,L|102:153,1,90,4|0,0:0|0:0,0:0:0:0:
327,179,123363,2,0,L|441:173,1,90,4|0,0:0|0:0,0:0:0:0:
228,91,123580,2,0,L|119:78,1,90,4|0,0:0|0:0,0:0:0:0:
381,64,123798,1,8,1:0:0:0:
202,254,124088,6,0,L|88:248,1,90,4|0,0:0|0:0,0:0:0:0:
339,162,124305,2,0,L|448:149,1,90,4|0,0:0|0:0,0:0:0:0:
185,179,124522,2,0,L|71:173,1,90,4|0,0:0|0:0,0:0:0:0:
322,87,124739,2,0,L|431:74,1,90,4|0,0:0|0:0,0:0:0:0:
160,45,124957,1,8,1:0:0:0:
40,71,125103,1,0,0:0:0:0:
185,270,125247,6,0,L|305:254,1,90,4|0,0:0|0:0,0:0:0:0:
194,187,125465,2,0,L|116:177,2,45,4|0|0,0:0|0:0|0:0,0:0:0:0:
364,107,125682,2,0,L|423:102,1,45,4|0,0:0|0:0,0:0:0:0:
152,327,125827,6,0,L|146:248,1,45,0|4,0:0|0:0,0:0:0:0:
292,191,125972,2,0,L|297:120,1,45,0|0,0:0|0:0,0:0:0:0:
98,113,126117,2,0,L|68:85,6,22.5,4|0|0|0|0|0|0,0:0|0:0|0:0|0:0|0:0|0:0|0:0,0:0:0:0:
394,121,126407,5,4,0:0:0:0:
127,280,126987,1,8,3:0:0:0:
100,228,127059,1,8,3:0:0:0:
125,174,127132,1,4,3:0:0:0:
182,168,127204,1,4,3:0:0:0:
385,280,127276,1,8,3:0:0:0:
412,228,127348,1,8,3:0:0:0:
387,174,127421,1,4,3:0:0:0:
330,168,127493,1,4,3:0:0:0:
70,168,127566,1,4,0:0:0:0:
