osu file format v14

[General]
AudioFilename: audio.mp3
AudioLeadIn: 0
PreviewTime: 89233
Countdown: 0
SampleSet: None
StackLeniency: 0.3
Mode: 2
LetterboxInBreaks: 0
WidescreenStoryboard: 1

[Editor]
Bookmarks: 11624,20900,29161,30175,39450,48726,53363,58653,59450,62639,64958,71914,81189,90465,109016,111624,118291,127566
DistanceSpacing: 1.2
BeatDivisor: 4
GridSize: 4
TimelineZoom: 2.5

[Metadata]
Title:BroGamer
TitleUnicode:BroGamer
Artist:USAO
ArtistUnicode:USAO
Creator:Emiru
Version:AFB's Overdose
Source:beatmania IIDX 24 SINOBUZ
Tags:headshot gg noob dubstep camping fire in the hole hardstyle bemani konami
BeatmapID:1531338
BeatmapSetID:701726

[Difficulty]
HPDrainRate:6
CircleSize:4
OverallDifficulty:9.3
ApproachRate:9.3
SliderMultiplier:1.73
SliderTickRate:2

[Events]
//Background and Video events
0,0,"BRUH.jpg",0,0
//Break Periods
2,62839,64958
//Storyboard Layer 0 (Background)
//Storyboard Layer 1 (Fail)
//Storyboard Layer 2 (Pass)
//Storyboard Layer 3 (Foreground)
//Storyboard Sound Samples

[TimingPoints]
1190,289.855072463768,4,2,42,60,1,0
3218,-100,4,2,42,30,0,0
3508,-100,4,2,42,60,0,0
3798,-100,4,2,42,30,0,0
4088,-100,4,2,42,60,0,0
4378,-100,4,2,42,30,0,0
4668,-100,4,2,42,60,0,0
4958,-100,4,2,42,30,0,0
5103,-100,4,2,42,60,0,0
5537,-100,4,2,42,30,0,0
5610,-100,4,2,42,60,0,0
6117,-100,4,2,42,30,0,0
6190,-100,4,2,42,60,0,0
6697,-90.9090909090909,4,2,42,30,0,0
6769,-90.9090909090909,4,2,42,60,0,0
6842,-90.9090909090909,4,2,42,30,0,0
6914,-90.9090909090909,4,2,42,60,0,0
6987,-100,4,2,42,60,0,0
9595,-90.9090909090909,4,2,42,60,0,0
9885,-100,4,1,42,40,0,0
9921,-100,4,1,42,20,0,0
10175,-100,4,1,42,15,0,0
10247,-100,4,1,42,12,0,0
10320,-100,4,1,42,10,0,0
10465,-100,4,2,42,60,0,0
16262,-100,4,3,42,70,0,0
20900,-100,4,2,42,80,0,0
27856,-100,4,1,42,80,0,0
27929,-100,4,1,42,60,0,0
28291,-100,4,1,42,80,0,0
28363,-100,4,1,42,60,0,0
28726,-100,4,1,42,80,0,0
28871,-100,4,1,42,60,0,0
29016,-100,4,1,42,80,0,0
29595,-100,4,3,42,80,0,0
51987,-76.9230769230769,4,3,42,80,0,0
52204,-100,4,3,42,80,0,0
53363,-100,4,2,42,75,0,1
57711,-90.9090909090909,4,2,42,75,0,1
58001,-83.3333333333333,4,3,42,90,0,1
62639,-100,4,3,42,90,0,0
67276,-100,4,2,42,60,0,0
67421,-100,4,2,42,30,0,0
67856,-100,4,2,42,40,0,0
68436,-100,4,2,42,48,0,0
69016,-100,4,2,42,55,0,0
69595,-100,4,2,42,60,0,0
70175,-100,4,2,42,53,0,0
70465,-100,4,2,42,50,0,0
70755,-100,4,3,42,90,0,0
71914,-100,4,2,42,50,0,0
76552,-100,4,2,42,80,0,0
76697,-100,4,2,42,50,0,0
78871,-100,4,2,42,80,0,0
79016,-100,4,2,42,50,0,0
81189,-100,4,2,42,60,0,0
83508,-100,4,2,42,90,0,0
83581,-100,4,2,42,60,0,0
84668,-100,4,2,42,90,0,0
84741,-100,4,2,42,60,0,0
85537,-90.9090909090909,4,2,42,60,0,0
85827,-100,4,2,42,70,0,0
88146,-100,4,2,42,90,0,0
88219,-100,4,2,42,60,0,0
88726,-90.9090909090909,4,2,42,90,0,0
88798,-90.9090909090909,4,2,42,70,0,0
90465,-100,4,2,42,80,0,1
102204,-90.9090909090909,4,2,42,80,0,1
102349,-100,4,2,42,80,0,1
106697,-90.9090909090909,4,2,42,80,0,1
106987,-100,4,2,42,80,0,1
108726,-100,4,2,42,80,0,0
109016,-100,4,2,42,80,0,1
118291,-100,4,2,42,90,0,0
123581,-83.3333333333333,4,2,42,90,0,0
123798,-100,4,2,42,90,0,0
124740,-83.3333333333333,4,2,42,90,0,0
124957,-100,4,2,42,90,0,0
125247,-83.3333333333333,4,3,42,90,0,0
126987,-100,4,2,42,80,0,0
127059,-100,4,2,42,45,0,0
127276,-100,4,2,42,80,0,0
127349,-100,4,2,42,45,0,0
127566,-100,4,2,42,60,0,0

[Colours]
Combo1 : 204,138,225
Combo2 : 241,88,80
Combo3 : 118,243,137
Combo4 : 208,252,105

[HitObjects]
256,192,1190,12,0,2059,0:0:0:0:
184,344,2204,5,0,0:0:0:0:
116,280,2349,1,2,0:0:0:0:
96,188,2494,1,0,0:0:0:0:
132,100,2639,1,2,0:0:0:0:
212,48,2784,1,0,0:0:0:0:
388,24,2929,5,2,0:0:0:0:
256,232,3218,1,0,1:0:0:0:
124,24,3508,1,0,0:0:0:0:
304,108,3798,1,0,1:0:0:0:
40,192,4088,1,0,0:0:0:0:
312,276,4378,1,0,1:0:0:0:
116,360,4668,6,0,L|108:273,1,86.5,2|0,0:0|0:0,0:0:0:0:
212,232,4958,2,0,L|219:145,1,86.5,0|0,1:0|0:0,0:0:0:0:
52,104,5247,2,0,L|137:92,1,86.5,2|0,0:0|0:0,0:0:0:0:
304,180,5537,6,0,L|320:140,2,43.25,0|0|0,1:0|0:0|0:0,0:0:0:0:
192,247,5827,2,0,P|188:290|198:332,1,86.5,2|0,0:0|0:0,0:0:0:0:
244,336,6045,1,0,0:0:0:0:
392,356,6117,5,0,1:0:0:0:
432,332,6189,1,0,0:0:0:0:
464,296,6262,1,0,0:0:0:0:
480,252,6334,1,0,0:0:0:0:
484,204,6407,1,2,0:0:0:0:
472,160,6479,1,0,0:0:0:0:
444,120,6552,1,0,0:0:0:0:
408,92,6624,1,0,0:0:0:0:
360,80,6697,2,0,L|312:87,3,47.5750014518738,0|0|0|0,1:0|0:0|1:0|0:0,0:0:0:0:
164,336,6987,6,0,L|157:249,1,86.5,4|0,0:0|0:0,0:0:0:0:
332,132,7276,2,0,L|339:45,1,86.5,8|2,1:0|0:0,0:0:0:0:
232,120,7566,1,0,0:0:0:0:
400,192,7711,1,0,0:0:0:0:
240,348,7856,2,0,L|233:261,1,86.5,8|0,1:0|0:0,0:0:0:0:
340,220,8146,5,0,0:0:0:0:
448,176,8291,2,0,L|464:136,2,43.25,0|0|8,0:0|0:0|1:0,0:0:0:0:
328,132,8581,1,0,0:0:0:0:
208,88,8726,2,0,L|293:76,1,86.5,2|0,0:0|0:0,0:0:0:0:
468,32,9016,1,8,1:0:0:0:
496,72,9088,1,0,0:0:0:0:
504,120,9161,1,0,0:0:0:0:
484,164,9233,1,0,0:0:0:0:
236,308,9305,5,0,0:0:0:0:
192,276,9378,1,0,0:0:0:0:
176,224,9450,1,0,0:0:0:0:
192,172,9523,1,0,0:0:0:0:
240,140,9595,2,0,L|288:133,3,47.5750014518738,8|0|0|0,1:0|0:0|0:0|0:0,0:0:0:0:
452,252,9885,6,0,L|465:235,6,21.625,2|0|0|0|0|0|0,1:0|0:0|0:0|0:0|0:0|0:0|0:0,0:0:0:0:
424,204,10175,1,0,0:0:0:0:
380,168,10247,1,0,0:0:0:0:
324,152,10320,1,0,0:0:0:0:
268,152,10392,1,0,0:0:0:0:
40,296,10465,5,4,0:0:0:0:
48,260,10755,1,0,0:0:0:0:
56,224,11045,1,2,0:0:0:0:
64,188,11334,1,2,0:0:0:0:
240,104,11624,6,0,L|325:92,1,86.5,4|0,0:0|0:0,0:0:0:0:
496,176,11914,2,0,L|411:164,1,86.5,8|0,1:0|0:0,0:0:0:0:
312,336,12204,1,2,0:0:0:0:
308,292,12276,1,0,0:0:0:0:
304,248,12349,1,0,0:0:0:0:
472,164,12494,2,0,L|479:77,1,86.5,8|0,1:0|0:0,0:0:0:0:
152,200,12784,6,0,L|145:113,1,86.5,2|0,0:0|0:0,0:0:0:0:
312,28,13074,2,0,L|227:16,1,86.5,8|0,1:0|0:0,0:0:0:0:
112,296,13363,1,2,0:0:0:0:
68,292,13436,1,0,0:0:0:0:
24,288,13508,1,0,0:0:0:0:
156,196,13653,1,8,1:0:0:0:
16,104,13798,1,0,0:0:0:0:
288,288,13943,6,0,L|373:276,1,86.5,2|0,0:0|0:0,0:0:0:0:
200,192,14233,2,0,L|115:180,1,86.5,8|0,1:0|0:0,0:0:0:0:
212,8,14523,1,2,0:0:0:0:
216,52,14595,1,0,0:0:0:0:
220,96,14668,1,0,0:0:0:0:
392,12,14813,2,0,L|477:0,1,86.5,8|0,1:0|0:0,0:0:0:0:
204,16,15103,5,2,0:0:0:0:
136,80,15248,1,0,0:0:0:0:
116,172,15393,1,8,1:0:0:0:
152,260,15538,1,0,0:0:0:0:
232,312,15682,1,4,0:0:0:0:
496,228,15972,1,4,0:0:0:0:
136,144,16262,6,0,L|120:104,2,43.25,2|0|0,0:0|0:0|0:0,0:0:0:0:
268,236,16552,1,8,0:0:0:0:
128,328,16697,2,0,L|43:316,1,86.5,2|0,0:0|0:0,0:0:0:0:
200,232,16987,2,0,L|207:145,1,86.5,0|8,0:0|0:0,0:0:0:0:
40,148,17277,1,0,0:0:0:0:
36,104,17349,1,0,0:0:0:0:
32,60,17422,1,0,0:0:0:0:
316,40,17566,5,0,0:0:0:0:
424,132,17711,1,8,0:0:0:0:
308,224,17856,1,0,0:0:0:0:
192,316,18001,2,0,L|185:229,1,86.5,2|0,0:0|0:0,0:0:0:0:
468,336,18291,1,6,0:0:0:0:
472,280,18388,1,2,0:0:0:0:
476,224,18484,1,2,0:0:0:0:
308,188,18581,6,0,L|292:148,2,43.25,2|0|0,0:0|0:0|0:0,0:0:0:0:
440,96,18871,1,8,0:0:0:0:
300,4,19016,2,0,L|215:16,1,86.5,2|0,0:0|0:0,0:0:0:0:
56,100,19305,2,0,P|52:143|62:185,1,86.5,0|8,0:0|0:0,0:0:0:0:
108,189,19523,1,0,0:0:0:0:
156,192,19595,1,0,0:0:0:0:
400,324,19740,5,2,0:0:0:0:
468,260,19885,1,0,0:0:0:0:
488,168,20030,1,8,0:0:0:0:
452,80,20175,1,0,0:0:0:0:
372,28,20320,1,2,0:0:0:0:
196,52,20465,2,0,L|199:95,1,43.25
280,164,20610,2,0,L|323:166,2,43.25,8|0|0,0:0|0:0|0:0,0:0:0:0:
44,320,20900,6,0,L|37:233,1,86.5,4|0,0:0|0:0,0:0:0:0:
144,180,21189,2,0,L|151:93,1,86.5,8|0,1:0|0:0,0:0:0:0:
328,40,21479,2,0,L|413:28,1,86.5,2|0,0:0|0:0,0:0:0:0:
184,196,21769,2,0,L|99:184,1,86.5,8|0,1:0|0:0,0:0:0:0:
336,352,22059,6,0,L|343:265,1,86.5,2|0,0:0|0:0,0:0:0:0:
164,216,22349,2,0,L|157:129,1,86.5,8|0,1:0|0:0,0:0:0:0:
264,56,22639,1,2,0:0:0:0:
48,192,22784,1,2,0:0:0:0:
272,328,22929,1,8,1:0:0:0:
308,288,23001,1,0,0:0:0:0:
320,232,23074,1,0,0:0:0:0:
296,180,23146,1,0,0:0:0:0:
248,148,23218,6,0,L|205:146,2,43.25,2|0|0,0:0|0:0|0:0,0:0:0:0:
388,56,23508,1,8,1:0:0:0:
168,304,23653,2,0,L|161:217,1,86.5,0|2,0:0|0:0,0:0:0:0:
292,124,23943,1,0,0:0:0:0:
152,32,24088,2,0,L|67:20,1,86.5,8|0,1:0|0:0,0:0:0:0:
288,312,24378,5,2,0:0:0:0:
396,220,24523,2,0,L|412:180,2,43.25,2|0|8,0:0|0:0|1:0,0:0:0:0:
180,128,24813,2,0,L|164:88,1,43.25,2|0,0:0|0:0,0:0:0:0:
188,48,24958,2,0,L|273:36,1,86.5,2|0,0:0|0:0,0:0:0:0:
496,200,25247,1,8,1:0:0:0:
448,197,25320,1,0,0:0:0:0:
400,194,25392,1,0,0:0:0:0:
196,356,25537,6,0,L|189:269,1,86.5,2|0,0:0|0:0,0:0:0:0:
296,216,25827,2,0,L|303:129,1,86.5,8|0,1:0|0:0,0:0:0:0:
124,76,26117,2,0,L|39:64,1,86.5,2|0,0:0|0:0,0:0:0:0:
388,180,26407,2,0,L|473:168,1,86.5,8|0,1:0|0:0,0:0:0:0:
132,364,26697,6,0,L|125:277,1,86.5,2|0,0:0|0:0,0:0:0:0:
284,228,26987,1,8,1:0:0:0:
392,136,27131,1,0,0:0:0:0:
276,44,27276,1,2,0:0:0:0:
492,192,27421,1,2,0:0:0:0:
268,340,27566,2,0,L|225:338,3,43.25,8|0|0|0,1:0|0:0|0:0|0:0,0:0:0:0:
144,268,27856,5,2,0:0:0:0:
140,224,27928,1,0,0:0:0:0:
136,180,28001,1,0,0:0:0:0:
276,88,28146,1,8,1:0:0:0:
496,268,28291,2,0,L|503:181,1,86.5,2|0,0:0|0:0,0:0:0:0:
268,340,28581,1,0,0:0:0:0:
220,337,28653,1,0,0:0:0:0:
172,334,28725,1,2,0:0:0:0:
288,242,28871,1,0,0:0:0:0:
240,239,28943,1,0,0:0:0:0:
76,368,29016,5,2,0:0:0:0:
40,328,29088,1,0,0:0:0:0:
28,272,29161,1,0,0:0:0:0:
52,220,29233,1,0,0:0:0:0:
100,188,29305,1,2,0:0:0:0:
136,148,29378,1,0,0:0:0:0:
148,92,29451,1,0,0:0:0:0:
124,40,29523,1,0,0:0:0:0:
76,8,29595,6,0,L|69:95,1,86.5,2|2,0:0|0:0,0:0:0:0:
228,152,29885,2,0,L|231:195,1,43.25,8|0,0:0|0:0,0:0:0:0:
176,244,30030,1,8,0:0:0:0:
404,304,30175,6,0,L|489:292,1,86.5,4|0,1:0|0:0,0:0:0:0:
380,96,30465,2,0,L|295:84,1,86.5,8|0,0:0|0:0,0:0:0:0:
456,200,30755,2,0,P|504:136|450:76,1,173,2|8,0:0|0:0,0:0:0:0:
320,168,31189,1,0,0:0:0:0:
460,260,31334,6,0,L|375:272,1,86.5,2|0,0:0|0:0,0:0:0:0:
156,332,31624,2,0,L|163:245,1,86.5,8|0,0:0|0:0,0:0:0:0:
296,152,31914,2,0,L|289:65,1,86.5,2|0,0:0|0:0,0:0:0:0:
68,124,32204,1,8,0:0:0:0:
244,360,32494,6,0,L|260:320,2,43.25,2|0|0,0:0|0:0|0:0,0:0:0:0:
136,268,32784,2,0,L|51:256,1,86.5,8|0,0:0|0:0,0:0:0:0:
188,164,33074,2,0,L|360:140,1,173,2|8,0:0|0:0,0:0:0:0:
228,232,33508,1,0,0:0:0:0:
96,324,33653,6,0,L|89:237,1,86.5,2|0,0:0|0:0,0:0:0:0:
320,176,33943,1,8,0:0:0:0:
324,132,34016,1,0,0:0:0:0:
328,88,34089,1,0,0:0:0:0:
196,132,34233,1,2,0:0:0:0:
192,88,34305,1,0,0:0:0:0:
188,44,34378,1,0,0:0:0:0:
428,192,34523,1,4,1:0:0:0:
252,316,34813,6,0,L|236:276,2,43.25,2|0|0,0:0|0:0|0:0,0:0:0:0:
360,212,35103,2,0,L|445:200,2,86.5,8|0|2,0:0|0:0|0:0,0:0:0:0:
28,348,35537,1,0,0:0:0:0:
136,256,35682,1,8,0:0:0:0:
20,164,35827,1,0,0:0:0:0:
244,220,35972,5,2,0:0:0:0:
136,128,36117,1,0,0:0:0:0:
360,36,36262,1,8,0:0:0:0:
396,76,36335,1,0,0:0:0:0:
408,132,36408,1,0,0:0:0:0:
384,184,36480,1,0,0:0:0:0:
336,216,36552,2,0,L|251:204,1,86.5,2|0,0:0|0:0,0:0:0:0:
480,144,36842,2,0,L|496:104,3,43.25,8|0|0|0,0:0|0:0|0:0|0:0,0:0:0:0:
448,100,37132,5,2,0:0:0:0:
400,97,37204,1,0,0:0:0:0:
352,94,37276,2,0,P|348:51|358:9,1,86.5,0|8,0:0|0:0,0:0:0:0:
496,200,37566,2,0,L|493:243,1,43.25
208,328,37711,2,0,L|123:316,1,86.5,2|0,0:0|0:0,0:0:0:0:
280,184,38001,1,8,0:0:0:0:
328,180,38074,1,0,0:0:0:0:
376,176,38146,1,0,0:0:0:0:
128,112,38291,6,0,L|135:25,1,86.5,2|0,0:0|0:0,0:0:0:0:
60,84,38581,1,8,0:0:0:0:
32,176,38726,1,0,0:0:0:0:
64,264,38871,1,2,0:0:0:0:
140,320,39016,1,0,0:0:0:0:
384,180,39161,1,4,1:0:0:0:
124,304,39450,6,0,L|39:292,1,86.5,4|0,1:0|0:0,0:0:0:0:
148,96,39740,2,0,L|233:84,1,86.5,8|0,0:0|0:0,0:0:0:0:
72,200,40030,2,0,P|24:136|78:76,1,173,2|8,0:0|0:0,0:0:0:0:
208,168,40465,1,0,0:0:0:0:
68,260,40610,6,0,L|153:272,1,86.5,2|0,0:0|0:0,0:0:0:0:
372,216,40900,2,0,L|287:204,1,86.5,8|0,0:0|0:0,0:0:0:0:
380,308,41189,2,0,L|295:296,1,86.5,2|0,0:0|0:0,0:0:0:0:
60,252,41479,1,8,0:0:0:0:
240,12,41769,6,0,L|247:99,1,86.5,2|0,0:0|0:0,0:0:0:0:
140,152,42059,2,0,L|133:239,1,86.5,8|0,0:0|0:0,0:0:0:0:
256,292,42349,2,0,L|341:304,1,86.5,2|0,0:0|0:0,0:0:0:0:
480,356,42639,2,0,L|395:368,1,86.5,8|0,0:0|0:0,0:0:0:0:
148,368,42929,6,0,L|155:281,1,86.5,2|0,0:0|0:0,0:0:0:0:
312,320,43218,1,8,0:0:0:0:
420,228,43362,1,0,0:0:0:0:
304,136,43507,1,2,0:0:0:0:
428,44,43653,1,0,0:0:0:0:
192,88,43798,1,4,1:0:0:0:
452,344,44088,5,2,0:0:0:0:
456,300,44160,1,0,0:0:0:0:
460,256,44233,1,0,0:0:0:0:
352,192,44378,2,8,L|345:105,1,86.5,8|2,0:0|0:0,0:0:0:0:
452,40,44668,1,2,0:0:0:0:
148,364,44813,1,0,0:0:0:0:
256,272,44958,1,8,0:0:0:0:
364,180,45103,1,0,0:0:0:0:
140,248,45247,5,2,0:0:0:0:
248,156,45392,1,0,0:0:0:0:
24,224,45537,1,8,0:0:0:0:
32,172,45610,1,0,0:0:0:0:
64,132,45682,1,0,0:0:0:0:
108,104,45755,1,0,0:0:0:0:
160,96,45827,2,0,P|164:53|154:11,1,86.5,2|0,0:0|0:0,0:0:0:0:
384,72,46117,2,0,L|441:64,2,57.6666666666667,12|2|2,0:1|0:0|0:0,0:0:0:0:
168,104,46407,6,0,P|164:147|174:189,1,86.5,2|0,0:0|0:0,0:0:0:0:
264,260,46624,2,0,P|268:303|258:345,1,86.5,2|0,0:0|0:0,0:0:0:0:
212,349,46842,1,2,0:0:0:0:
164,352,46914,1,0,0:0:0:0:
364,348,46987,6,0,L|449:336,1,86.5,2|0,0:0|0:0,0:0:0:0:
360,264,47204,2,0,L|275:252,1,86.5,2|0,0:0|0:0,0:0:0:0:
228,228,47421,1,2,0:0:0:0:
276,204,47494,1,0,0:0:0:0:
476,252,47566,5,4,0:0:0:0:
484,216,47711,1,0,0:0:0:0:
260,88,47856,1,8,0:0:0:0:
252,52,48001,1,0,0:0:0:0:
28,332,48146,1,4,0:0:0:0:
36,296,48291,1,0,0:0:0:0:
304,172,48436,1,8,0:0:0:0:
480,256,48726,6,0,P|484:213|474:171,1,86.5,6|0,0:0|0:0,0:0:0:0:
396,168,48943,1,0,0:0:0:0:
320,164,49016,2,0,P|316:121|326:79,1,86.5,8|0,0:0|0:0,0:0:0:0:
380,28,49233,1,0,0:0:0:0:
324,56,49306,1,2,0:0:0:0:
300,108,49378,1,0,0:0:0:0:
304,164,49450,1,0,0:0:0:0:
340,208,49523,1,0,0:0:0:0:
392,228,49595,1,8,0:0:0:0:
236,300,49740,1,0,0:0:0:0:
188,303,49813,1,0,0:0:0:0:
32,376,49885,6,0,P|28:333|38:291,1,86.5,6|0,0:0|0:0,0:0:0:0:
116,288,50102,1,0,0:0:0:0:
192,284,50175,2,0,P|196:241|186:199,1,86.5,8|0,0:0|0:0,0:0:0:0:
132,148,50392,1,0,0:0:0:0:
188,176,50466,1,2,0:0:0:0:
212,228,50538,1,0,0:0:0:0:
208,284,50610,1,0,0:0:0:0:
172,328,50683,1,0,0:0:0:0:
120,348,50755,2,0,L|123:305,3,43.25,8|0|0|0,0:0|0:0|0:0|0:0,0:0:0:0:
272,240,51045,6,0,L|315:238,1,43.25,2|0,0:0|0:0,0:0:0:0:
464,164,51189,2,0,L|467:121,1,43.25,2|0,0:0|0:0,0:0:0:0:
240,176,51334,2,0,L|197:174,1,43.25,2|0,0:0|0:0,0:0:0:0:
48,100,51479,2,0,L|45:57,1,43.25,2|0,0:0|0:0,0:0:0:0:
256,28,51624,5,2,0:0:0:0:
284,40,51661,1,0,0:0:0:0:
308,56,51697,1,0,0:0:0:0:
324,76,51733,1,0,0:0:0:0:
336,100,51769,1,0,0:0:0:0:
340,128,51805,1,0,0:0:0:0:
340,156,51842,1,0,0:0:0:0:
332,184,51878,1,0,0:0:0:0:
320,208,51914,1,2,0:0:0:0:
300,228,51950,1,0,0:0:0:0:
276,244,51987,2,0,L|248:239,4,28.1124987131119
488,272,52204,1,4,0:0:0:0:
156,344,53363,5,4,0:0:0:0:
56,252,53508,2,0,L|53:209,1,43.25,0|4,0:0|0:0,0:0:0:0:
212,252,53726,2,0,L|215:209,1,43.25,0|4,0:0|0:0,0:0:0:0:
108,116,53943,1,0,0:0:0:0:
40,112,54016,2,0,L|33:25,1,86.5,4|0,0:0|0:0,0:0:0:0:
192,24,54233,1,8,0:1:0:0:
356,344,54523,5,4,0:0:0:0:
456,252,54668,2,0,L|459:209,1,43.25,0|4,0:0|0:0,0:0:0:0:
300,252,54886,2,0,L|297:209,1,43.25,0|4,0:0|0:0,0:0:0:0:
404,116,55103,1,0,0:0:0:0:
472,112,55176,2,0,L|479:25,1,86.5,4|0,0:0|0:0,0:0:0:0:
320,24,55393,1,8,0:1:0:0:
156,356,55682,5,4,0:0:0:0:
256,288,55827,2,0,L|259:245,1,43.25,0|4,0:0|0:0,0:0:0:0:
360,176,56045,2,0,L|363:133,1,43.25,0|4,0:0|0:0,0:0:0:0:
256,64,56262,1,0,0:0:0:0:
188,68,56334,2,0,P|184:111|194:153,1,86.5,4|0,0:0|0:0,0:0:0:0:
476,156,56552,1,8,0:1:0:0:
356,356,56842,5,4,0:0:0:0:
256,288,56987,2,0,L|253:245,1,43.25,0|4,0:0|0:0,0:0:0:0:
152,176,57205,2,0,L|149:133,1,43.25,0|4,0:0|0:0,0:0:0:0:
300,64,57421,1,2,0:0:0:0:
336,104,57494,1,4,0:0:0:0:
348,160,57567,1,0,0:0:0:0:
324,212,57639,1,2,0:0:0:0:
276,244,57711,2,0,L|133:237,1,142.725004355621,12|0,1:3|0:0,0:0:0:0:
392,356,58001,5,4,0:0:0:0:
492,264,58146,2,0,L|487:212,1,51.8999984161377,0|4,0:0|0:0,0:0:0:0:
328,264,58363,2,0,L|332:212,1,51.8999984161377,0|4,0:0|0:0,0:0:0:0:
500,128,58581,1,0,0:0:0:0:
488,76,58653,2,0,L|384:72,1,103.799996832275,4|0,0:0|0:0,0:0:0:0:
200,72,58871,1,8,0:1:0:0:
84,128,59161,5,4,0:0:0:0:
184,268,59305,2,0,L|180:216,1,51.8999984161377,0|4,0:0|0:0,0:0:0:0:
20,268,59523,2,0,L|25:216,1,51.8999984161377,0|4,0:0|0:0,0:0:0:0:
184,268,59740,1,0,0:0:0:0:
196,216,59813,2,0,L|300:212,1,103.799996832275,4|0,0:0|0:0,0:0:0:0:
484,212,60030,1,8,0:1:0:0:
256,336,60320,5,4,0:0:0:0:
156,244,60465,2,0,L|151:192,1,51.8999984161377,0|4,0:0|0:0,0:0:0:0:
356,244,60682,2,0,L|361:192,1,51.8999984161377,0|4,0:0|0:0,0:0:0:0:
112,100,60900,2,0,L|107:48,1,51.8999984161377,0|4,0:0|0:0,0:0:0:0:
212,44,61117,1,0,0:0:0:0:
400,100,61189,1,8,0:1:0:0:
256,336,61479,5,4,0:0:0:0:
356,244,61624,2,0,L|361:192,1,51.8999984161377,0|4,0:0|0:0,0:0:0:0:
156,244,61841,2,0,L|151:192,1,51.8999984161377,0|4,0:0|0:0,0:0:0:0:
400,100,62059,2,0,L|405:48,1,51.8999984161377,0|4,0:0|0:0,0:0:0:0:
300,44,62276,1,0,0:0:0:0:
112,99,62349,2,0,P|99:149|112:199,1,103.799996832275,4|0,0:1|0:0,0:0:0:0:
400,240,62639,1,4,0:1:0:0:
140,320,66117,5,8,0:0:0:0:
32,228,66262,1,0,0:0:0:0:
148,136,66407,1,0,0:0:0:0:
364,44,66552,1,0,0:0:0:0:
140,144,66697,2,0,L|55:132,1,86.5,2|0,0:0|0:0,0:0:0:0:
372,244,66987,2,0,L|457:232,1,86.5,2|0,0:0|0:0,0:0:0:0:
232,332,67276,1,4,0:1:0:0:
256,192,67421,12,0,70610,0:0:0:0:
36,252,70755,5,4,0:0:0:0:
28,216,70900,1,0,0:0:0:0:
252,88,71045,1,8,0:0:0:0:
260,52,71190,1,0,0:0:0:0:
484,332,71335,1,4,0:0:0:0:
476,296,71480,1,0,0:0:0:0:
208,172,71625,1,8,0:0:0:0:
32,256,71914,6,0,L|117:244,1,86.5,4|0,0:0|0:0,0:0:0:0:
264,336,72204,2,0,L|271:249,1,86.5,8|0,0:0|0:0,0:0:0:0:
164,148,72494,2,0,L|157:61,1,86.5
304,152,72784,2,0,L|389:140,1,86.5,8|0,0:0|0:0,0:0:0:0:
496,240,73074,6,0,L|411:228,1,86.5
264,320,73363,2,0,L|257:233,1,86.5,8|0,0:0|0:0,0:0:0:0:
364,160,73653,1,0,0:0:0:0:
196,88,73798,1,2,0:0:0:0:
364,16,73943,2,0,L|371:103,1,86.5,8|2,0:0|0:0,0:0:0:0:
100,276,74233,6,0,L|15:264,2,86.5,0|0|8,0:0|0:0|0:0,0:0:0:0:
248,364,74668,2,0,L|255:277,1,86.5
148,204,74958,1,0,0:0:0:0:
40,132,75103,2,0,L|47:45,1,86.5,8|0,0:0|0:0,0:0:0:0:
200,36,75392,5,0,0:0:0:0:
268,100,75537,1,2,0:0:0:0:
288,192,75682,1,8,0:0:0:0:
252,280,75827,1,2,0:0:0:0:
172,332,75972,2,0,L|87:320,1,86.5
256,112,76262,2,0,L|341:100,1,86.5,8|0,0:0|0:0,0:0:0:0:
76,328,76552,6,0,L|69:241,1,86.5,4|0,3:0|0:0,0:0:0:0:
216,336,76843,1,8,0:0:0:0:
308,244,76987,1,0,0:0:0:0:
208,152,77132,1,0,0:0:0:0:
300,60,77276,1,0,0:0:0:0:
448,152,77421,2,0,L|455:239,1,86.5,8|0,0:0|0:0,0:0:0:0:
348,336,77711,6,0,L|263:324,1,86.5
116,336,78001,2,0,L|109:249,1,86.5,8|0,0:0|0:0,0:0:0:0:
216,176,78291,2,0,L|223:89,1,86.5,0|2,0:0|0:0,0:0:0:0:
56,160,78581,1,8,0:0:0:0:
224,232,78726,1,2,0:0:0:0:
459,304,78871,6,0,P|435:223|358:190,1,173,4|8,3:0|0:0,0:0:0:0:
208,184,79305,2,0,L|201:97,1,86.5
368,24,79595,1,0,0:0:0:0:
476,116,79740,1,8,0:0:0:0:
360,208,79885,1,0,0:0:0:0:
28,300,80030,5,4,0:0:0:0:
24,256,80102,1,0,0:0:0:0:
20,212,80175,1,0,0:0:0:0:
16,168,80247,1,0,0:0:0:0:
12,124,80320,1,2,0:0:0:0:
120,196,80465,1,0,0:0:0:0:
324,268,80610,2,0,L|317:181,1,86.5,4|0,0:0|0:0,0:0:0:0:
172,88,80900,2,0,L|214:81,1,43.25,2|0,0:0|0:0,0:0:0:0:
360,208,81045,2,0,L|402:201,1,43.25,2|0,0:0|0:0,0:0:0:0:
208,336,81189,6,0,L|123:324,1,86.5,4|0,0:0|0:0,0:0:0:0:
352,256,81479,2,0,L|345:169,1,86.5,8|0,0:0|0:0,0:0:0:0:
240,96,81769,2,0,L|247:9,1,86.5
472,76,82059,2,0,L|387:64,2,86.5,8|0|0,0:0|0:0|0:0,0:0:0:0:
220,328,82494,5,0,0:0:0:0:
112,236,82639,1,8,0:0:0:0:
228,144,82784,1,0,0:0:0:0:
384,216,82929,2,0,L|391:129,1,86.5,0|2,0:0|0:0,0:0:0:0:
128,288,83218,2,0,L|121:201,1,86.5,8|2,0:0|0:0,0:0:0:0:
356,360,83508,5,4,3:0:0:0:
404,344,83581,1,0,0:0:0:0:
444,312,83653,1,0,0:0:0:0:
464,264,83726,1,0,0:0:0:0:
256,248,83798,1,8,0:0:0:0:
216,216,83871,1,0,0:0:0:0:
196,168,83943,1,0,0:0:0:0:
204,116,84016,1,0,0:0:0:0:
236,76,84088,5,2,3:0:0:0:
284,56,84161,1,0,0:0:0:0:
368,52,84233,2,0,L|365:95,1,43.25,2|0,3:0|0:0,0:0:0:0:
156,112,84377,1,8,0:0:0:0:
108,96,84450,1,0,0:0:0:0:
68,64,84522,1,0,0:0:0:0:
48,16,84595,1,0,0:0:0:0:
256,0,84668,5,4,3:0:0:0:
292,36,84740,1,0,0:0:0:0:
304,88,84813,1,0,0:0:0:0:
284,136,84885,1,0,0:0:0:0:
120,152,84958,1,8,0:0:0:0:
84,188,85030,1,0,0:0:0:0:
72,240,85103,1,0,0:0:0:0:
92,288,85175,1,0,0:0:0:0:
176,292,85247,6,0,L|179:249,1,43.25,2|0,3:0|0:0,0:0:0:0:
16,152,85392,2,0,L|13:109,1,43.25,2|0,3:0|0:0,0:0:0:0:
172,240,85537,2,0,L|266:226,1,95.1500029037476,8|0,0:0|0:0,0:0:0:0:
472,356,85827,5,4,0:0:0:0:
372,264,85972,2,0,L|356:224,2,43.25,0|0|8,0:0|0:0|0:0,0:0:0:0:
500,168,86262,1,0,0:0:0:0:
204,252,86407,5,4,0:0:0:0:
304,160,86552,1,0,0:0:0:0:
256,157,86625,1,0,0:0:0:0:
208,154,86697,1,8,0:0:0:0:
336,58,86842,1,0,0:0:0:0:
40,356,86987,5,4,0:0:0:0:
140,288,87132,1,0,0:0:0:0:
144,244,87203,1,0,0:0:0:0:
148,200,87276,1,12,0:0:0:0:
364,224,87422,1,0,0:0:0:0:
360,180,87493,1,0,0:0:0:0:
356,136,87566,5,4,0:0:0:0:
256,44,87711,2,0,L|213:37,2,43.25,0|0|12,0:0|0:0|0:0,0:0:0:0:
472,192,88001,1,0,0:0:0:0:
248,340,88146,5,2,3:0:0:0:
208,316,88218,1,0,0:0:0:0:
176,280,88291,1,2,3:0:0:0:
160,236,88363,1,0,0:0:0:0:
156,188,88436,1,2,3:0:0:0:
168,144,88508,1,0,0:0:0:0:
196,104,88581,1,2,3:0:0:0:
232,76,88653,1,0,0:0:0:0:
280,64,88726,6,0,L|328:71,1,47.5750014518738,2|0,3:0|0:0,0:0:0:0:
160,136,88871,2,0,L|112:143,1,47.5750014518738,2|0,3:0|0:0,0:0:0:0:
376,208,89016,2,0,L|424:215,1,47.5750014518738,2|0,3:0|0:0,0:0:0:0:
256,280,89161,2,0,L|208:287,1,47.5750014518738,2|0,3:0|0:0,0:0:0:0:
472,352,89305,5,4,0:0:0:0:
464,316,89596,1,0,0:0:0:0:
456,280,89886,1,2,0:0:0:0:
448,244,90175,1,2,0:0:0:0:
272,160,90465,6,0,L|187:148,1,86.5,4|0,0:0|0:0,0:0:0:0:
16,232,90755,2,0,L|101:220,1,86.5,8|0,0:1|0:0,0:0:0:0:
208,312,91045,2,0,L|224:272,2,43.25,2|0|0,0:0|0:0|0:0,0:0:0:0:
92,228,91334,1,8,0:1:0:0:
324,144,91479,1,0,0:0:0:0:
84,220,91624,6,0,L|91:133,1,86.5,2|0,0:0|0:0,0:0:0:0:
248,48,91914,2,0,L|241:135,1,86.5,8|0,0:1|0:0,0:0:0:0:
16,344,92204,1,2,0:0:0:0:
124,252,92349,1,2,0:0:0:0:
8,160,92494,1,8,0:1:0:0:
240,244,92639,1,0,0:0:0:0:
472,328,92784,6,0,P|476:285|466:243,1,86.5,2|0,0:0|0:0,0:0:0:0:
308,196,93074,1,8,0:1:0:0:
200,104,93219,1,0,0:0:0:0:
316,12,93364,1,2,0:0:0:0:
84,160,93508,1,0,0:0:0:0:
308,308,93653,1,8,0:1:0:0:
356,305,93726,1,0,0:0:0:0:
404,302,93798,2,0,P|408:259|398:217,1,86.5,0|2,0:0|0:0,0:0:0:0:
72,296,94088,5,0,0:0:0:0:
180,204,94233,1,8,0:1:0:0:
64,112,94378,1,0,0:0:0:0:
296,32,94523,1,2,0:0:0:0:
332,72,94596,1,0,0:0:0:0:
344,128,94669,1,2,0:0:0:0:
320,180,94741,1,0,0:0:0:0:
272,212,94813,2,0,L|275:298,1,86.5,8|0,0:1|0:0,0:0:0:0:
496,376,95103,6,0,L|411:364,1,86.5,2|0,0:0|0:0,0:0:0:0:
280,268,95392,1,8,0:1:0:0:
420,176,95537,1,0,0:0:0:0:
288,80,95682,1,2,0:0:0:0:
240,77,95755,1,0,0:0:0:0:
192,74,95827,1,0,0:0:0:0:
308,158,95972,1,8,0:1:0:0:
76,242,96117,1,0,0:0:0:0:
316,166,96262,6,0,L|401:178,1,86.5,2|0,0:0|0:0,0:0:0:0:
244,264,96552,2,0,L|159:276,2,86.5,8|0|2,0:1|0:0|0:0,0:0:0:0:
476,348,96987,1,2,0:0:0:0:
236,256,97132,2,0,L|233:170,1,86.5,8|0,0:1|0:0,0:0:0:0:
464,84,97421,5,2,0:0:0:0:
368,72,97566,1,0,0:0:0:0:
272,60,97711,1,8,0:1:0:0:
176,48,97856,1,0,0:0:0:0:
416,236,98001,2,0,L|432:196,2,43.25,2|0|0,0:0|0:0|0:0,0:0:0:0:
176,320,98291,2,0,L|160:280,2,43.25,8|0|0,0:1|0:0|0:0,0:0:0:0:
404,224,98581,5,2,0:3:0:0:
168,140,98726,1,0,0:0:0:0:
284,56,98871,2,0,L|300:16,2,43.25,8|0|0,0:1|0:0|0:0,0:0:0:0:
116,56,99161,1,2,0:3:0:0:
100,112,99232,1,0,0:0:0:0:
120,172,99305,1,0,0:0:0:0:
164,212,99377,1,0,0:0:0:0:
120,252,99450,2,0,L|35:264,1,86.5,8|0,0:1|0:0,0:0:0:0:
312,348,99740,6,0,L|397:336,1,86.5,4|0,0:0|0:0,0:0:0:0:
504,244,100030,2,0,L|511:157,1,86.5,8|0,0:1|0:0,0:0:0:0:
308,240,100320,2,0,L|223:228,1,86.5,2|0,0:0|0:0,0:0:0:0:
16,252,100610,1,8,0:1:0:0:
116,160,100755,1,0,0:0:0:0:
4,68,100900,6,0,L|0:154,1,86.5,2|0,0:0|0:0,0:0:0:0:
204,252,101189,1,8,0:1:0:0:
312,160,101334,1,0,0:0:0:0:
420,68,101479,1,2,0:0:0:0:
196,216,101624,1,2,0:0:0:0:
428,364,101769,1,8,0:1:0:0:
452,320,101842,1,0,0:0:0:0:
448,268,101914,1,0,0:0:0:0:
420,224,101987,1,0,0:0:0:0:
344,200,102059,6,0,L|341:157,1,43.25,2|0,0:0|0:0,0:0:0:0:
416,108,102204,2,0,L|321:94,1,95.1500029037476,0|8,0:0|0:1,0:0:0:0:
100,340,102494,2,0,L|107:253,1,86.5,0|2,0:0|0:0,0:0:0:0:
236,160,102784,1,0,0:0:0:0:
96,68,102929,2,0,L|11:56,1,86.5,8|0,0:1|0:0,0:0:0:0:
240,316,103218,5,2,0:0:0:0:
348,224,103363,1,2,0:0:0:0:
352,180,103436,1,0,0:0:0:0:
356,136,103509,1,8,0:1:0:0:
140,224,103653,1,2,0:0:0:0:
136,180,103726,1,0,0:0:0:0:
132,136,103799,1,2,0:0:0:0:
240,44,103943,1,2,0:0:0:0:
16,192,104088,1,8,0:1:0:0:
248,340,104233,1,0,0:0:0:0:
296,337,104305,1,0,0:0:0:0:
344,334,104378,6,0,P|348:291|338:249,1,86.5,2|0,0:0|0:0,0:0:0:0:
208,156,104668,1,8,0:1:0:0:
432,64,104813,1,0,0:0:0:0:
200,148,104958,2,0,L|115:136,1,86.5,2|0,0:0|0:0,0:0:0:0:
356,84,105247,2,0,L|441:72,1,86.5,8|0,0:1|0:0,0:0:0:0:
340,164,105537,5,2,0:0:0:0:
452,256,105682,1,0,0:0:0:0:
248,252,105827,1,8,0:1:0:0:
140,160,105972,1,0,0:0:0:0:
32,68,106117,1,2,0:0:0:0:
272,216,106262,1,2,0:0:0:0:
68,364,106407,1,8,0:1:0:0:
24,332,106480,1,0,0:0:0:0:
8,280,106552,1,0,0:0:0:0:
24,228,106625,1,0,0:0:0:0:
72,196,106697,6,0,L|120:189,3,47.5750014518738,2|0|0|0,0:0|0:0|0:0|0:0,0:0:0:0:
352,332,106987,1,8,0:1:0:0:
256,240,107132,2,0,L|253:197,1,43.25
328,148,107276,2,0,L|335:61,1,86.5,2|0,0:0|0:0,0:0:0:0:
128,112,107566,2,0,L|85:105,2,43.25,8|0|0,0:1|0:0|0:0,0:0:0:0:
472,332,107856,6,0,P|476:289|466:247,1,86.5,2|0,0:3|0:0,0:0:0:0:
420,243,108074,1,0,0:0:0:0:
372,240,108146,1,8,0:1:0:0:
140,156,108291,1,0,0:0:0:0:
384,64,108436,1,2,0:3:0:0:
424,104,108508,1,0,0:0:0:0:
440,160,108581,1,0,0:0:0:0:
424,212,108653,1,0,0:0:0:0:
380,248,108726,2,0,L|295:260,1,86.5,8|0,0:1|0:0,0:0:0:0:
16,344,109016,6,0,L|23:257,1,86.5,4|0,0:0|0:0,0:0:0:0:
128,164,109305,2,0,L|171:157,2,43.25,8|0|0,0:1|0:0|0:0,0:0:0:0:
332,80,109595,2,0,L|417:68,1,86.5,2|0,0:0|0:0,0:0:0:0:
180,216,109885,2,0,L|95:204,1,86.5,8|0,0:1|0:0,0:0:0:0:
380,352,110175,5,2,0:0:0:0:
488,260,110320,1,0,0:0:0:0:
372,168,110465,1,8,0:1:0:0:
140,20,110610,1,0,0:0:0:0:
384,160,110755,2,0,L|377:73,1,86.5,2|0,0:0|0:0,0:0:0:0:
260,156,111045,1,8,0:1:0:0:
492,240,111190,1,0,0:0:0:0:
256,324,111334,6,0,L|171:312,1,86.5,2|0,0:0|0:0,0:0:0:0:
64,220,111624,1,8,0:1:0:0:
112,216,111697,1,0,0:0:0:0:
160,212,111770,1,0,0:0:0:0:
320,164,111914,2,0,L|327:77,1,86.5,2|0,0:0|0:0,0:0:0:0:
96,336,112204,2,0,L|89:249,1,86.5,8|0,0:1|0:0,0:0:0:0:
416,268,112494,5,2,0:0:0:0:
308,176,112639,1,2,0:0:0:0:
424,84,112784,1,8,0:1:0:0:
96,268,112929,1,0,0:0:0:0:
204,176,113074,1,2,0:0:0:0:
88,84,113218,2,0,L|131:77,1,43.25,2|0,0:0|0:0,0:0:0:0:
304,340,113363,2,0,P|308:297|298:255,1,86.5,8|0,0:1|0:0,0:0:0:0:
180,172,113653,5,2,0:0:0:0:
412,88,113798,1,2,0:0:0:0:
176,4,113943,1,8,0:1:0:0:
420,96,114088,2,0,P|429:137|425:180,1,86.5,0|2,0:0|0:0,0:0:0:0:
376,184,114305,1,0,0:0:0:0:
328,188,114377,1,0,0:0:0:0:
208,272,114523,1,8,0:1:0:0:
440,356,114668,1,0,0:0:0:0:
200,280,114813,6,0,L|115:268,1,86.5,2|0,0:0|0:0,0:0:0:0:
244,176,115103,2,0,L|159:164,1,86.5,8|0,0:1|0:0,0:0:0:0:
52,72,115392,1,2,0:0:0:0:
100,69,115465,1,0,0:0:0:0:
148,66,115537,1,0,0:0:0:0:
268,150,115682,1,8,0:1:0:0:
36,234,115827,1,0,0:0:0:0:
276,316,115972,6,0,L|361:304,1,86.5,2|0,0:0|0:0,0:0:0:0:
468,224,116262,2,0,L|383:212,1,86.5,8|0,0:1|0:0,0:0:0:0:
224,152,116552,1,2,0:0:0:0:
220,108,116624,1,0,0:0:0:0:
216,64,116697,1,0,0:0:0:0:
448,128,116842,1,8,0:1:0:0:
452,84,116914,1,0,0:0:0:0:
456,40,116987,1,0,0:0:0:0:
212,20,117132,5,2,0:3:0:0:
104,112,117276,1,0,0:0:0:0:
220,204,117421,2,0,L|263:211,2,43.25,8|0|0,0:1|0:0|0:0,0:0:0:0:
16,296,117711,1,2,0:3:0:0:
20,252,117783,1,0,0:0:0:0:
24,208,117856,1,0,0:0:0:0:
256,16,118001,1,4,0:0:0:0:
408,112,118291,5,4,0:0:0:0:
308,204,118436,2,0,L|305:247,1,43.25,0|4,0:0|0:0,0:0:0:0:
464,204,118653,2,0,L|461:247,1,43.25,0|4,0:0|0:0,0:0:0:0:
352,340,118870,1,0,0:0:0:0:
284,344,118943,2,0,L|277:257,1,86.5,4|0,0:0|0:0,0:0:0:0:
436,256,119161,1,8,0:1:0:0:
312,344,119450,5,4,0:0:0:0:
412,252,119595,2,0,L|392:213,1,43.25,0|4,0:0|0:0,0:0:0:0:
232,256,119813,2,0,L|212:217,1,43.25,0|4,0:0|0:0,0:0:0:0:
320,124,120030,1,0,0:0:0:0:
388,120,120103,2,0,L|395:33,1,86.5,4|0,0:0|0:0,0:0:0:0:
236,32,120321,1,8,0:1:0:0:
104,272,120610,5,4,0:0:0:0:
204,180,120755,2,0,L|207:137,1,43.25,0|4,0:0|0:0,0:0:0:0:
48,180,120972,2,0,L|51:137,1,43.25,0|4,0:0|0:0,0:0:0:0:
160,44,121189,1,0,0:0:0:0:
228,40,121262,2,0,L|235:127,1,86.5,4|0,0:0|0:0,0:0:0:0:
76,128,121480,1,8,0:1:0:0:
200,344,121769,5,4,0:0:0:0:
100,252,121914,2,0,L|120:213,1,43.25,0|4,0:0|0:0,0:0:0:0:
280,256,122132,2,0,L|300:217,1,43.25,0|4,0:0|0:0,0:0:0:0:
192,124,122349,1,2,0:0:0:0:
124,120,122422,2,0,L|117:33,1,86.5,4|2,0:0|0:0,0:0:0:0:
276,32,122640,1,12,1:3:0:0:
376,304,122929,5,4,0:0:0:0:
256,236,123074,2,0,L|253:193,1,43.25,0|4,0:0|0:0,0:0:0:0:
132,124,123292,2,0,L|129:81,1,43.25,0|4,0:0|0:0,0:0:0:0:
236,176,123508,1,0,0:0:0:0:
304,172,123581,2,0,L|200:168,1,103.799996832275,4|0,0:0|0:0,0:0:0:0:
16,168,123798,1,8,0:1:0:0:
136,304,124088,5,4,0:0:0:0:
256,236,124233,2,0,L|259:193,1,43.25,0|4,0:0|0:0,0:0:0:0:
380,124,124451,2,0,L|383:81,1,43.25,0|4,0:0|0:0,0:0:0:0:
276,176,124667,1,0,0:0:0:0:
208,172,124740,2,0,L|312:168,1,103.799996832275,4|0,0:0|0:0,0:0:0:0:
496,168,124957,1,8,0:1:0:0:
256,336,125247,5,4,0:0:0:0:
156,244,125392,2,0,L|151:192,1,51.8999984161377,0|4,0:0|0:0,0:0:0:0:
356,244,125609,2,0,L|361:192,1,51.8999984161377,0|4,0:0|0:0,0:0:0:0:
112,100,125827,2,0,L|107:48,1,51.8999984161377,0|4,0:0|0:0,0:0:0:0:
212,44,126044,1,0,0:0:0:0:
400,99,126117,2,0,P|413:149|400:199,1,103.799996832275,4|0,0:1|0:0,0:0:0:0:
68,268,126407,1,4,0:1:0:0:
280,340,126987,5,8,0:3:0:0:
316,304,127059,1,8,0:3:0:0:
328,252,127132,1,4,0:3:0:0:
316,200,127204,1,4,0:3:0:0:
280,164,127276,1,8,0:3:0:0:
228,152,127349,2,0,L|184:148,2,43.25,8|4|4,0:3|0:3|0:3,0:3:0:0:
440,80,127566,1,4,0:0:0:0:
