osu file format v14

[General]
AudioFilename: audioshot.mp3
AudioLeadIn: 0
PreviewTime: 89233
Countdown: 0
SampleSet: Soft
StackLeniency: 0.7
Mode: 0
LetterboxInBreaks: 0
WidescreenStoryboard: 0

[Editor]
DistanceSpacing: 1
BeatDivisor: 4
GridSize: 4
TimelineZoom: 1.8

[Metadata]
Title:BroGamer
TitleUnicode:BroGamer
Artist:USAO
ArtistUnicode:USAO
Creator:Arrival
Version:Wormi's Hyper
Source:beatmania IIDX 24 SINOBUZ
Tags:headshot gg noob dubstep camping fire in the hole hardstyle bemani konami super ultimate hyper core trap realazy linada alheak worminators avena priti kyuukai unmei muma gezo
BeatmapID:1364228
BeatmapSetID:635636

[Difficulty]
HPDrainRate:4
CircleSize:3.5
OverallDifficulty:6
ApproachRate:7.5
SliderMultiplier:1.1
SliderTickRate:1

[Events]
//Background and Video events
0,0,"bruh-1-iloveimg-resized.jpg",0,0
//Break Periods
2,62838,65292
2,67476,69930
//Storyboard Layer 0 (Background)
//Storyboard Layer 1 (Fail)
//Storyboard Layer 2 (Pass)
//Storyboard Layer 3 (Foreground)
//Storyboard Sound Samples

[TimingPoints]
1190,289.855072463768,4,2,42,60,1,0
1190,-117.647058823529,4,2,42,60,0,0
6987,-100,4,2,42,60,0,0
9885,-100,4,1,42,40,0,0
10465,-100,4,2,42,60,0,0
16262,-100,4,3,42,70,0,0
20900,-100,4,3,42,80,0,0
27856,-100,4,1,42,60,0,0
28146,-100,4,1,42,80,0,0
28218,-100,4,1,42,60,0,0
28726,-100,4,1,42,80,0,0
28798,-100,4,1,42,60,0,0
29016,-100,4,1,42,80,0,0
29595,-100,4,3,42,80,0,0
34813,-100,4,3,42,80,0,0
35103,-100,4,3,42,80,0,0
53363,-83.3333333333333,4,2,42,90,0,1
58001,-83.3333333333333,4,3,42,90,0,1
62349,-100,4,3,42,90,0,1
62639,-100,4,3,42,90,0,0
67276,-100,4,2,42,60,0,0
70755,-100,4,2,42,90,0,0
71914,-100,4,2,42,60,0,0
80030,-100,4,2,42,60,0,0
80900,-100,4,2,42,60,0,0
81189,-100,4,2,42,70,0,0
90465,-100,4,2,42,80,0,1
98581,-100,4,2,42,80,0,0
99740,-100,4,2,42,80,0,1
107856,-100,4,2,42,80,0,0
109016,-100,4,2,42,80,0,1
117132,-100,4,2,42,80,0,0
118291,-83.3333333333333,4,2,42,90,0,1
125247,-83.3333333333333,4,3,42,90,0,1
126407,-100,4,3,42,90,0,0
126987,-100,4,2,42,80,0,0
127059,-100,4,2,42,45,0,0
127276,-100,4,2,42,80,0,0
127349,-100,4,2,42,45,0,0
127566,-100,4,2,42,60,0,0

[Colours]
Combo1 : 204,138,225
Combo2 : 241,88,80
Combo3 : 118,243,137
Combo4 : 121,155,236

[HitObjects]
253,196,1190,6,2,P|346:129|338:245,1,280.500005350113,0|0,0:0|0:0,0:0:0:0:
264,305,2349,1,0,0:0:0:0:
264,305,2639,1,0,0:0:0:0:
168,249,2929,6,0,L|160:129,5,93.500001783371,0|0|0|0|0|0,0:0|0:0|0:0|0:0|0:0|0:0,0:0:0:0:
293,159,4668,6,0,L|301:39,7,93.500001783371,0|0|0|0|0|0|0|0,0:0|0:0|0:0|0:0|0:0|0:0|0:0|0:0,0:0:0:0:
212,193,6987,6,0,P|247:235|300:247,1,110,4|8,1:0|0:0,0:0:0:0:
336,221,7421,1,0,0:0:0:0:
386,354,7711,1,0,0:0:0:0:
386,354,7856,2,0,L|313:359,1,55,8|0,0:0|0:0,0:0:0:0:
288,348,8146,6,0,P|276:295|300:246,1,110,0|8,1:0|0:0,0:0:0:0:
336,221,8581,1,0,0:0:0:0:
232,122,8871,1,0,0:0:0:0:
232,122,9016,2,0,L|171:129,1,55,8|0,0:0|0:0,0:0:0:0:
136,109,9305,6,0,P|140:80|136:54,7,55,0|0|8|0|0|0|0|0,1:0|0:0|0:0|1:0|0:0|0:0|0:0|0:0,0:0:0:0:
58,83,10465,5,10,1:3:0:0:
314,290,11624,6,0,L|308:227,1,55,4|0,1:0|0:0,0:0:0:0:
299,152,11914,1,8,1:0:0:0:
173,104,12204,2,0,L|167:167,1,55,0|0,1:0|0:0,0:0:0:0:
160,241,12494,1,8,1:0:0:0:
262,324,12784,6,0,P|290:308|310:287,1,55,0|0,1:0|0:0,0:0:0:0:
338,217,13074,1,8,1:0:0:0:
415,114,13363,2,0,P|387:97|359:90,1,55,0|0,1:0|0:0,0:0:0:0:
285,101,13653,1,8,1:0:0:0:
154,89,13943,6,0,P|153:121|161:149,1,55,0|0,1:0|0:0,0:0:0:0:
207,208,14233,1,8,1:0:0:0:
339,196,14523,2,0,P|339:228|331:256,1,55,0|0,1:0|0:0,0:0:0:0:
286,315,14813,1,8,1:0:0:0:
150,281,15103,6,0,L|154:208,1,55,0|0,1:0|0:0,0:0:0:0:
158,143,15392,1,8,1:0:0:0:
289,131,15682,1,0,1:0:0:0:
289,131,15972,1,8,1:0:0:0:
203,30,16262,6,0,P|178:26|149:31,2,55,6|0|8,1:3|0:0|1:0,0:0:0:0:
332,56,16842,2,0,P|359:59|386:54,1,55,0|0,0:0|0:0,0:0:0:0:
462,21,17132,1,8,1:0:0:0:
468,152,17421,6,0,L|461:219,2,55,0|2|8,0:0|0:2|1:0,0:0:0:0:
339,185,18001,2,0,L|332:252,1,55,0|0,1:0|1:0,0:0:0:0:
306,318,18291,6,0,P|323:321|341:322,3,36.6666666666667,8|2|2|4,1:0|1:3|1:3|1:3,0:0:0:0:
469,289,18871,1,8,1:0:0:0:
393,179,19161,2,0,P|357:179|329:188,1,55,0|2,0:0|0:2,0:0:0:0:
269,229,19450,1,8,1:0:0:0:
253,98,19740,6,0,L|247:24,2,55,0|2|8,1:0|0:2|1:0,0:0:0:0:
193,155,20175,1,0,0:0:0:0:
193,155,20320,2,0,P|185:189|188:213,1,55,4|4,1:3|1:3,0:0:0:0:
269,229,20610,2,0,P|276:263|274:287,1,55,4|0,1:3|1:0,0:0:0:0:
217,343,20900,5,4,1:0:0:0:
113,261,21189,1,10,1:0:0:0:
193,155,21479,2,0,P|240:127|313:132,1,110,0|8,1:0|1:0,0:0:0:0:
412,184,22059,6,0,P|365:212|292:207,1,110,0|10,1:0|1:0,0:0:0:0:
193,155,22639,2,0,L|198:88,2,55,2|2|8,0:2|0:2|1:0,0:0:0:0:
133,214,23074,1,2,0:2:0:0:
133,213,23218,6,0,P|181:238|234:228,1,110,6|8,1:3|1:0,0:0:0:0:
346,157,23798,2,0,P|362:214|354:288,1,110,0|10,1:0|1:0,0:0:0:0:
254,343,24378,6,0,L|185:354,2,55,0|2|8,1:0|0:2|1:0,0:0:0:0:
278,263,24813,1,2,0:0:0:0:
278,263,24958,2,0,P|282:235|277:208,1,55,0|2,1:0|1:3,0:0:0:0:
210,160,25247,2,0,P|206:132|211:105,1,55,8|2,1:0|3:2,0:0:0:0:
250,32,25537,6,0,P|285:69|283:143,1,110,0|8,1:0|1:0,0:0:0:0:
422,126,26117,2,0,P|425:72|461:32,2,110,0|8|0,1:0|1:0|1:0,0:0:0:0:
480,244,26987,5,10,1:0:0:0:
349,260,27276,2,0,L|294:253,2,55,2|2|8,0:2|0:2|1:0,0:0:0:0:
408,325,27711,1,2,0:0:0:0:
408,325,27856,6,0,P|433:273|419:209,1,110,0|8,0:0|0:0,0:0:0:0:
319,143,28436,2,0,P|266:155|212:143,1,110,0|8,0:0|0:0,0:0:0:0:
267,22,29016,5,14,0:3:0:0:
388,71,29305,1,8,0:0:0:0:
285,154,29595,2,0,L|298:216,1,55,0|2,1:0|0:0,0:0:0:0:
377,229,29885,2,0,L|364:291,1,55,4|10,0:0|0:0,0:0:0:0:
292,324,30175,6,0,P|310:345|353:364,2,55,4|0|8,1:0|0:0|1:0,0:0:0:0:
235,262,30610,1,0,0:0:0:0:
235,262,30755,2,0,P|207:257|162:270,1,55,0|0,1:0|0:0,0:0:0:0:
108,302,31045,1,8,1:0:0:0:
60,179,31334,5,0,1:0:0:0:
161,94,31624,1,8,1:0:0:0:
268,170,31914,2,0,P|270:196|266:226,2,55,0|0|8,1:0|0:0|1:0,0:0:0:0:
399,150,32494,6,0,P|397:124|401:94,2,55,0|0|8,1:0|0:0|1:0,0:0:0:0:
440,223,32929,1,0,0:0:0:0:
440,223,33074,2,0,P|442:249|438:279,1,55,0|0,1:0|1:0,0:0:0:0:
392,345,33363,1,8,1:0:0:0:
309,242,33653,5,0,1:0:0:0:
384,133,33943,2,0,L|325:129,1,55,8|2,1:0|0:0,0:0:0:0:
341,46,34233,2,0,L|282:42,1,55,2|2,1:3|0:2,0:0:0:0:
211,79,34523,2,0,P|198:117|215:163,1,82.5,8|0,1:0|0:0,0:0:0:0:
228,177,34813,6,0,P|247:229|224:288,1,110,0|8,1:0|1:0,0:0:0:0:
102,307,35392,2,0,P|97:334|103:368,2,55,0|0|8,1:0|0:0|1:0,0:0:0:0:
141,235,35827,1,2,0:2:0:0:
141,235,35972,6,0,P|146:208|140:174,1,55,0|2,1:0|0:2,0:0:0:0:
207,127,36262,2,0,P|186:109|153:97,1,55,8|2,1:0|0:0,0:0:0:0:
83,123,36552,1,0,1:0:0:0:
83,123,36697,1,2,0:0:0:0:
40,194,36842,6,0,L|35:246,3,36.6666666666667,8|4|0|0,1:0|0:0|1:0|1:0,0:0:0:0:
100,346,37421,1,0,1:0:0:0:
191,251,37711,2,0,L|197:178,1,55,0|2,1:0|0:0,0:0:0:0:
202,113,38001,1,0,1:0:0:0:
323,165,38291,5,0,0:0:0:0:
353,344,39450,6,0,P|326:348|298:346,1,55,4|0,1:0|0:0,0:0:0:0:
235,292,39740,2,0,P|207:289|180:294,1,55,8|0,1:0|0:0,0:0:0:0:
115,346,40030,1,0,1:0:0:0:
115,346,40320,1,8,1:0:0:0:
56,227,40610,6,0,L|67:110,1,110,0|8,1:0|1:0,0:0:0:0:
172,40,41189,2,0,P|200:35|227:39,2,55,0|0|8,1:0|0:0|1:0,0:0:0:0:
201,169,41769,5,0,1:0:0:0:
306,89,42059,1,8,1:0:0:0:
387,192,42349,1,0,1:0:0:0:
480,99,42639,2,0,P|484:75|475:34,2,55,8|0|0,1:0|0:0|1:0,0:0:0:0:
358,74,43218,6,0,P|330:76|305:88,1,55,8|0,1:0|0:0,0:0:0:0:
256,155,43508,2,0,P|231:166|203:169,1,55,0|0,1:0|0:0,0:0:0:0:
129,131,43798,1,8,1:0:0:0:
121,262,44088,6,0,P|177:248|226:271,1,110,0|8,1:0|1:0,0:0:0:0:
278,336,44523,1,2,0:2:0:0:
278,336,44668,2,0,P|296:314|304:273,2,55,0|0|8,1:0|1:0|1:0,0:0:0:0:
197,348,45103,1,2,0:2:0:0:
197,348,45247,6,0,L|137:343,1,55,0|0,1:0|0:0,0:0:0:0:
121,262,45537,2,0,L|61:257,1,55,8|0,1:0|0:0,0:0:0:0:
44,177,45827,1,2,1:3:0:0:
44,177,45972,1,2,0:2:0:0:
64,96,46117,6,0,L|78:37,3,36.6666666666667,8|0|0|8,1:0|1:0|1:0|1:0,0:0:0:0:
164,32,46600,1,2,1:3:0:0:
190,123,46793,2,0,L|204:182,2,36.6666666666667,4|8|8,1:3|1:3|1:0,0:0:0:0:
261,59,47180,2,0,B|297:47|297:47|359:66,1,73.3333333333333,4|4,1:3|0:3,0:0:0:0:
414,102,47566,5,12,1:3:0:0:
256,192,48726,12,8,52204,1:0:0:0:
183,252,53363,6,4,P|133:262|65:240,2,98.9999969787599,0|0|0,1:0|1:0|1:0,0:0:0:0:
259,188,54016,1,0,1:0:0:0:
244,337,54233,1,8,1:0:0:0:
352,221,54523,6,4,P|388:260|397:329,2,98.9999969787599,0|0|0,1:0|1:0|1:0,0:0:0:0:
258,187,55176,1,0,1:0:0:0:
394,123,55393,1,8,1:0:0:0:
242,104,55682,5,0,1:0:0:0:
175,178,55900,1,0,1:0:0:0:
224,264,56117,1,0,1:0:0:0:
320,242,56334,1,0,1:0:0:0:
242,104,56552,1,8,1:0:0:0:
85,138,56842,5,0,1:0:0:0:
67,235,57059,1,0,1:0:0:0:
160,202,57276,2,0,B|193:200|193:200|230:214,2,65.9999979858399,0|0|0,1:0|1:0|0:0,0:0:0:0:
179,290,57711,1,8,1:0:0:0:
313,347,58001,5,2,1:3:0:0:
373,266,58218,1,0,1:0:0:0:
318,183,58436,1,0,1:0:0:0:
223,211,58653,1,0,1:0:0:0:
313,347,58871,1,8,1:0:0:0:
457,296,59161,6,4,P|465:249|437:196,2,98.9999969787599,2|0|0,1:3|1:0|1:0,0:0:0:0:
394,373,59813,1,0,1:0:0:0:
318,245,60030,1,8,1:0:0:0:
165,249,60320,5,2,1:3:0:0:
289,157,60537,1,0,1:0:0:0:
241,303,60755,1,0,1:0:0:0:
194,158,60972,1,2,1:3:0:0:
318,245,61189,1,8,1:0:0:0:
372,115,61479,6,0,L|367:54,8,32.99999899292,0|4|4|0|4|4|0|4|0,1:0|0:0|0:0|1:0|0:0|0:0|1:0|0:0|1:3,0:0:0:0:
256,54,62349,2,0,L|265:171,1,110,2|2,1:3|0:0,0:0:0:0:
315,152,66117,6,0,P|272:139|221:161,1,82.5,0|0,0:0|0:0,0:0:0:0:
217,169,66407,2,0,P|215:202|222:237,1,55,0|0,0:0|0:0,0:0:0:0:
298,248,66697,2,0,P|300:283|293:316,1,55,0|0,0:0|0:0,0:0:0:0:
237,361,66987,1,0,0:0:0:0:
372,338,67276,5,4,1:0:0:0:
256,192,70755,5,10,1:3:0:0:
256,192,71914,6,0,P|316:172|372:200,1,110,0|8,1:0|1:2,0:0:0:0:
415,255,72349,1,0,0:0:0:0:
415,255,72494,2,0,L|406:329,1,55,0|0,0:0|0:0,0:0:0:0:
343,359,72784,1,8,1:2:0:0:
343,359,72929,1,0,0:0:0:0:
270,315,73074,6,0,P|242:310|215:314,1,55,0|0,0:0|0:0,0:0:0:0:
92,363,73508,1,0,0:0:0:0:
92,363,73798,1,0,0:0:0:0:
114,232,74088,1,0,0:0:0:0:
114,232,74233,6,0,L|124:162,2,55,0|0|8,1:0|0:0|1:2,0:0:0:0:
190,277,74668,1,0,0:0:0:0:
190,277,74813,2,0,L|197:222,1,55,2|0,0:0|0:0,0:0:0:0:
198,136,75103,2,0,P|208:111|229:77,1,55
305,68,75392,6,0,P|338:62|372:69,2,55,0|2|8,1:0|0:0|1:2,0:0:0:0:
341,148,75827,1,0,0:0:0:0:
341,148,75972,2,0,P|406:138|443:86,1,110,2|8,0:0|1:2,0:0:0:0:
498,223,76552,6,0,L|486:345,1,110,0|8,1:0|1:2,0:0:0:0:
413,364,76987,1,0,0:0:0:0:
413,364,77132,2,0,P|379:361|347:345,1,55,0|0,0:0|0:0,0:0:0:0:
296,308,77421,1,8,1:2:0:0:
296,308,77566,1,0,0:0:0:0:
282,226,77711,6,0,P|286:199|299:174,1,55,0|0,0:0|0:0,0:0:0:0:
409,100,78146,1,0,0:0:0:0:
409,100,78436,1,0,0:0:0:0:
285,64,78726,1,0,0:0:0:0:
285,64,78871,6,0,P|230:58|182:81,1,110,4|8,1:3|1:2,0:0:0:0:
135,149,79305,2,0,L|142:225,1,55,0|0,0:0|1:0,0:0:0:0:
151,286,79595,1,0,0:0:0:0:
302,157,80030,6,2,B|323:124|365:121|386:139|401:162|406:185|398:213|386:239|357:261|316:266|286:265|252:255|225:220,1,330,0|0,1:0|0:0,0:0:0:0:
143,129,81189,6,0,P|109:171|98:228,1,110,4|8,1:0|1:2,0:0:0:0:
120,309,81624,1,0,0:0:0:0:
120,309,81769,2,0,P|152:301|194:313,1,55,0|0,1:0|0:0,0:0:0:0:
251,346,82059,1,8,1:2:0:0:
251,346,82204,1,0,0:0:0:0:
329,321,82349,6,0,P|353:309|372:289,1,55,0|0,1:0|0:2,0:0:0:0:
408,162,82784,1,0,0:0:0:0:
408,162,83074,1,0,0:0:0:0:
289,118,83363,1,0,0:0:0:0:
289,118,83508,6,0,P|279:165|307:239,1,110,4|8,1:3|0:0,0:0:0:0:
428,214,84088,2,0,P|437:166|410:93,1,110,0|8,0:0|0:0,0:0:0:0:
317,25,84668,5,0,0:0:0:0:
187,53,84958,1,8,0:0:0:0:
179,184,85247,1,0,1:0:0:0:
303,228,85537,1,8,1:2:0:0:
392,130,85827,6,0,P|395:69|368:24,2,110,4|8|0,1:0|1:2|1:0,0:0:0:0:
303,228,86697,1,8,1:2:0:0:
303,228,86842,1,0,1:0:0:0:
248,289,86987,6,0,P|219:239|236:171,2,110,0|8|0,1:0|1:2|1:0,0:0:0:0:
374,327,87856,1,8,1:2:0:0:
374,327,88001,1,0,1:0:0:0:
412,253,88146,6,0,P|417:225|407:186,1,55,0|0,1:0|1:0,0:0:0:0:
477,146,88436,2,0,P|455:127|416:116,1,55,12|0,1:2|1:0,0:0:0:0:
415,35,88726,2,0,P|388:44|359:72,1,55,0|0,1:0|1:0,0:0:0:0:
288,34,89016,2,0,P|283:61|293:100,1,55,12|0,1:2|1:0,0:0:0:0:
226,143,89305,5,4,1:0:0:0:
312,339,90465,6,0,P|328:284|300:225,1,110,4|8,1:1|1:1,0:0:0:0:
250,178,90900,1,2,0:0:0:0:
250,178,91045,2,0,P|244:151|250:116,1,55,2|2,1:2|0:0,0:0:0:0:
294,56,91334,1,8,1:1:0:0:
294,56,91479,1,2,0:0:0:0:
375,43,91624,6,0,P|405:48|437:71,2,55,0|2|8,1:1|0:0|1:1,0:0:0:0:
376,126,92059,2,0,L|362:204,1,55,2|0,0:0|1:1,0:0:0:0:
350,261,92349,2,0,L|336:339,1,55,2|8,0:0|1:1,0:0:0:0:
266,352,92639,1,2,0:0:0:0:
266,352,92784,6,0,P|215:320|155:338,1,110,2|8,1:2|1:1,0:0:0:0:
95,366,93218,1,0,0:1:0:0:
95,366,93363,2,0,P|87:331|94:295,1,55,0|2,1:1|0:0,0:0:0:0:
113,232,93653,1,8,1:1:0:0:
168,112,93943,6,0,P|146:104|111:102,2,55,0|2|8,1:0|3:2|1:0,0:0:0:0:
229,168,94378,1,2,3:0:0:0:
229,168,94523,2,0,P|226:205|217:234,1,55,0|2,1:0|3:2,0:0:0:0:
156,274,94813,2,0,P|159:311|168:340,1,55,8|2,1:0|3:2,0:0:0:0:
241,358,95103,6,0,P|287:328|354:348,1,110,4|8,1:0|1:1,0:0:0:0:
411,375,95537,1,2,0:0:0:0:
411,375,95682,2,0,L|421:301,1,55,0|2,1:1|0:0,0:0:0:0:
402,241,95972,1,8,1:1:0:0:
402,241,96117,1,2,0:0:0:0:
329,200,96262,6,0,P|296:200|261:216,2,55,0|2|8,1:1|0:0|1:1,0:0:0:0:
400,157,96697,2,0,P|406:127|399:94,1,55,2|0,0:0|1:1,0:0:0:0:
346,42,96987,1,0,1:0:0:0:
346,42,97132,2,0,P|318:28|284:26,1,55,8|2,1:1|0:0,0:0:0:0:
217,56,97421,6,0,P|226:120|185:166,1,110,2|8,1:2|1:1,0:0:0:0:
125,187,97856,1,0,0:1:0:0:
125,187,98001,2,0,L|50:180,1,55,2|2,1:1|3:2,0:0:0:0:
11,122,98291,1,8,1:1:0:0:
26,252,98581,6,0,L|32:316,2,55,14|4|0,1:3|0:3|1:0,0:0:0:0:
70,181,99016,1,4,1:3:0:0:
70,181,99161,2,0,P|99:170|132:172,1,55,0|8,1:0|1:3,0:0:0:0:
199,199,99450,2,0,P|226:198|251:187,1,55,8|4,1:0|0:0,0:0:0:0:
307,126,99740,6,0,P|335:174|314:243,1,110,4|8,1:0|1:1,0:0:0:0:
260,276,100175,1,2,0:0:0:0:
260,276,100320,2,0,L|148:285,1,110,0|8,1:1|1:1,0:0:0:0:
102,221,100755,1,2,0:0:0:0:
102,221,100900,6,0,P|100:185|109:149,1,55,2|2,1:2|0:0,0:0:0:0:
142,93,101189,1,8,1:0:0:0:
272,74,101479,1,2,1:3:0:0:
272,74,101624,2,0,L|332:85,1,55,2|8,1:3|1:0,0:0:0:0:
340,170,101914,1,2,0:0:0:0:
340,170,102059,6,0,L|220:148,1,110,2|8,1:2|1:1,0:0:0:0:
165,99,102494,2,0,P|148:144|170:207,1,110,2|2,0:0|0:0,0:0:0:0:
228,255,102929,1,8,1:1:0:0:
111,316,103218,6,0,P|83:320|53:315,2,55,0|2|8,1:0|3:2|1:0,0:0:0:0:
168,256,103653,1,2,3:2:0:0:
168,256,103798,2,0,P|168:228|159:184,1,55,0|2,1:0|1:3,0:0:0:0:
102,145,104088,2,0,P|101:117|110:73,1,55,8|2,1:0|3:2,0:0:0:0:
167,34,104378,5,0,1:0:0:0:
167,34,104523,1,0,1:1:0:0:
247,50,104668,2,0,L|308:61,1,55,8|2,1:1|0:0,0:0:0:0:
356,122,104958,2,0,P|348:173|392:229,1,110,0|8,1:1|1:1,0:0:0:0:
455,264,105392,1,2,0:0:0:0:
455,264,105537,6,0,L|446:338,1,55,2|2,1:2|0:0,0:0:0:0:
374,356,105827,1,8,1:1:0:0:
263,284,106117,1,2,1:2:0:0:
263,284,106262,2,0,L|272:210,1,55,2|8,1:1|1:1,0:0:0:0:
333,176,106552,1,2,0:0:0:0:
333,176,106697,6,0,P|280:148|214:169,1,110,0|8,1:0|1:0,0:0:0:0:
155,186,107132,2,0,P|141:130|158:79,1,110,2|2,3:0|3:0,0:0:0:0:
221,31,107566,1,8,1:0:0:0:
88,25,107856,6,0,P|56:23|18:38,2,55,0|0|8,1:0|1:0|1:0,0:0:0:0:
156,81,108291,1,0,0:0:0:0:
156,81,108436,2,0,P|170:137|153:188,1,110,0|2,1:0|1:3,0:0:0:0:
70,287,109016,6,0,P|127:280|178:322,1,110,4|8,1:1|1:1,0:0:0:0:
224,368,109450,1,2,0:0:0:0:
224,368,109595,2,0,P|277:369|320:336,1,110,0|8,1:1|1:1,0:0:0:0:
352,262,110030,1,2,0:0:0:0:
352,262,110175,6,0,L|342:192,2,55,4|2|8,1:1|0:0|1:1,0:0:0:0:
435,265,110610,2,0,L|425:195,1,55,2|0,0:0|1:1,0:0:0:0:
412,128,110900,2,0,L|402:58,1,55,2|8,0:0|1:1,0:0:0:0:
325,49,111189,1,2,0:0:0:0:
325,49,111334,6,0,P|271:70|208:49,1,110,2|8,1:2|1:0,0:0:0:0:
145,25,111769,1,0,0:0:0:0:
145,25,111914,2,0,L|137:98,1,55,2|2,1:2|0:0,0:0:0:0:
130,162,112204,1,8,1:0:0:0:
261,149,112494,6,0,P|288:149|313:160,2,55,0|2|8,1:0|3:0|1:0,0:0:0:0:
203,209,112929,1,2,3:2:0:0:
203,209,113074,2,0,L|211:281,1,55,2|0,1:3|1:0,0:0:0:0:
289,283,113363,2,0,L|281:355,1,55,8|2,1:0|0:1,0:0:0:0:
213,376,113653,5,0,1:0:0:0:
213,376,113798,1,0,1:3:0:0:
139,338,113943,2,0,P|131:308|135:278,1,55,8|2,1:0|0:0,0:0:0:0:
158,205,114233,1,0,1:0:0:0:
286,174,114523,2,0,P|294:204|290:234,1,55,8|2,1:0|0:0,0:0:0:0:
264,305,114813,6,0,P|237:289|218:263,2,55,2|2|8,1:2|0:0|1:0,0:0:0:0:
344,288,115247,2,0,L|404:279,1,55,2|0,0:0|1:0,0:0:0:0:
424,200,115537,2,0,L|484:191,1,55,2|8,0:2|1:0,0:0:0:0:
496,110,115827,1,2,0:2:0:0:
496,110,115972,6,0,P|491:81|480:58,1,55,2|0,1:2|0:1,0:0:0:0:
400,35,116262,2,0,L|340:44,1,55,8|2,1:0|0:0,0:0:0:0:
276,89,116552,1,0,1:0:0:0:
276,89,116697,2,0,P|291:147|262:198,1,110,2|2,0:0|3:2,0:0:0:0:
199,233,117132,6,0,L|124:223,2,55,0|0|0,1:0|0:0|1:0,0:0:0:0:
275,273,117566,1,0,0:0:0:0:
275,273,117711,1,0,1:0:0:0:
356,114,118291,6,4,P|407:105|464:137,2,98.9999969787599,4|0|0,1:0|1:0|1:0,0:0:0:0:
276,173,118943,1,0,1:0:0:0:
286,24,119161,1,8,1:0:0:0:
185,134,119450,6,4,P|151:94|150:28,2,98.9999969787599,0|0|0,1:0|1:0|1:0,0:0:0:0:
276,173,120102,1,0,1:0:0:0:
142,239,120320,1,8,1:0:0:0:
293,256,120610,5,0,1:0:0:0:
360,182,120828,1,0,1:0:0:0:
311,96,121045,1,0,1:0:0:0:
215,118,121262,1,0,1:0:0:0:
293,256,121480,1,8,1:0:0:0:
142,239,121769,5,0,1:0:0:0:
106,331,121987,1,0,1:0:0:0:
48,250,122204,2,0,B|49:216|49:216|72:168,2,65.9999979858399,0|0|0,1:0|1:0|0:0,0:0:0:0:
142,239,122639,1,8,1:0:0:0:
256,192,122929,12,6,126407,1:3:0:0:
256,192,127566,5,10,1:3:0:0:
