osu file format v14

[General]
AudioFilename: audioshot.mp3
AudioLeadIn: 0
PreviewTime: 89233
Countdown: 0
SampleSet: Normal
StackLeniency: 0.7
Mode: 1
LetterboxInBreaks: 0
WidescreenStoryboard: 1

[Editor]
Bookmarks: 11754,48856
DistanceSpacing: 0.6
BeatDivisor: 2
GridSize: 32
TimelineZoom: 2.3

[Metadata]
Title:BroGamer
TitleUnicode:BroGamer
Artist:USAO
ArtistUnicode:USAO
Creator:Arrival
Version:Unmei's Futsuu
Source:beatmania IIDX 24 SINOBUZ
Tags:headshot gg noob dubstep camping fire in the hole hardstyle bemani konami super ultimate hyper core trap realazy linada alheak worminators avena priti kyuukai unmei muma gezo
BeatmapID:1377773
BeatmapSetID:635636

[Difficulty]
HPDrainRate:6
CircleSize:2
OverallDifficulty:4
ApproachRate:10
SliderMultiplier:1.4
SliderTickRate:1

[Events]
//Background and Video events
0,0,"bruh-1-iloveimg-resized.jpg",0,100
//Break Periods
//Storyboard Layer 0 (Background)
//Storyboard Layer 1 (Fail)
//Storyboard Layer 2 (Pass)
//Storyboard Layer 3 (Foreground)
//Storyboard Sound Samples

[TimingPoints]
1190,289.855072463768,4,1,0,85,1,0
53363,-100,4,1,0,100,0,1
62639,-100,4,1,0,85,0,0
90465,-100,4,1,0,100,0,1
108798,-100,4,1,0,100,0,0
109016,-100,4,1,0,100,0,1
127566,-100,4,1,0,85,0,0

[HitObjects]
256,192,1190,5,0,0:0:0:0:
256,192,2349,1,0,0:0:0:0:
256,192,2929,1,0,0:0:0:0:
256,192,6987,1,0,0:0:0:0:
256,192,7276,1,8,0:0:0:0:
256,192,7421,1,0,0:0:0:0:
256,192,7856,1,8,0:0:0:0:
256,192,8146,1,0,0:0:0:0:
256,192,8436,1,8,0:0:0:0:
256,192,8581,1,0,0:0:0:0:
256,192,9016,1,8,0:0:0:0:
256,192,9305,1,0,0:0:0:0:
256,192,9450,1,0,0:0:0:0:
256,192,9595,1,0,0:0:0:0:
256,192,9885,1,8,0:0:0:0:
256,192,10030,1,8,0:0:0:0:
256,192,10175,1,8,0:0:0:0:
256,192,10465,1,0,0:0:0:0:
256,192,11624,1,4,0:0:0:0:
256,192,11914,1,8,0:0:0:0:
256,192,12204,1,0,0:0:0:0:
256,192,12349,1,0,0:0:0:0:
256,192,12494,1,0,0:0:0:0:
256,192,12784,1,0,0:0:0:0:
256,192,13074,1,8,0:0:0:0:
256,192,13363,1,0,0:0:0:0:
256,192,13943,1,0,0:0:0:0:
256,192,14233,1,8,0:0:0:0:
256,192,14523,1,8,0:0:0:0:
256,192,14668,1,8,0:0:0:0:
256,192,14813,1,8,0:0:0:0:
256,192,15103,1,0,0:0:0:0:
256,192,15682,1,8,0:0:0:0:
256,192,15972,1,8,0:0:0:0:
256,192,16262,1,0,0:0:0:0:
256,192,16552,1,8,0:0:0:0:
256,192,16842,1,0,0:0:0:0:
256,192,16987,1,0,0:0:0:0:
256,192,17132,1,0,0:0:0:0:
256,192,17421,1,0,0:0:0:0:
256,192,17711,1,8,0:0:0:0:
256,192,17856,1,8,0:0:0:0:
256,192,18001,1,8,0:0:0:0:
256,192,18581,1,0,0:0:0:0:
256,192,18871,1,8,0:0:0:0:
256,192,19161,1,0,0:0:0:0:
256,192,19305,1,0,0:0:0:0:
256,192,19450,1,0,0:0:0:0:
256,192,19740,1,8,0:0:0:0:
256,192,19885,1,8,0:0:0:0:
256,192,20030,1,8,0:0:0:0:
256,192,20320,1,0,0:0:0:0:
256,192,20900,1,4,0:0:0:0:
256,192,21189,1,8,0:0:0:0:
256,192,21334,1,8,0:0:0:0:
256,192,21479,1,8,0:0:0:0:
256,192,21769,1,8,0:0:0:0:
256,192,22059,1,0,0:0:0:0:
256,192,22349,1,8,0:0:0:0:
256,192,22639,1,0,0:0:0:0:
256,192,23218,1,0,0:0:0:0:
256,192,23508,1,8,0:0:0:0:
256,192,23653,1,8,0:0:0:0:
256,192,23798,1,8,0:0:0:0:
256,192,24088,1,8,0:0:0:0:
256,192,24378,1,0,0:0:0:0:
256,192,24668,1,8,0:0:0:0:
256,192,24813,1,8,0:0:0:0:
256,192,24958,1,8,0:0:0:0:
256,192,25537,1,0,0:0:0:0:
256,192,25827,1,8,0:0:0:0:
256,192,25972,1,8,0:0:0:0:
256,192,26117,1,8,0:0:0:0:
256,192,26407,1,8,0:0:0:0:
256,192,26697,1,0,0:0:0:0:
256,192,26987,1,8,0:0:0:0:
256,192,27276,1,0,0:0:0:0:
256,192,27856,1,0,0:0:0:0:
256,192,28146,1,8,0:0:0:0:
256,192,28291,1,8,0:0:0:0:
256,192,28436,1,8,0:0:0:0:
256,192,28726,1,8,0:0:0:0:
256,192,29016,1,0,0:0:0:0:
256,192,29161,1,0,0:0:0:0:
256,192,29305,1,0,0:0:0:0:
256,192,29595,1,8,0:0:0:0:
256,192,30175,1,4,0:0:0:0:
256,192,30465,1,0,0:0:0:0:
256,192,30610,1,0,0:0:0:0:
256,192,30755,1,0,0:0:0:0:
256,192,31045,1,8,0:0:0:0:
256,192,31334,1,0,0:0:0:0:
256,192,31624,1,8,0:0:0:0:
256,192,31914,1,0,0:0:0:0:
256,192,32059,1,0,0:0:0:0:
256,192,32204,1,0,0:0:0:0:
256,192,32494,1,0,0:0:0:0:
256,192,32784,1,8,0:0:0:0:
256,192,32929,1,8,0:0:0:0:
256,192,33074,1,8,0:0:0:0:
256,192,33363,1,8,0:0:0:0:
256,192,33653,1,0,0:0:0:0:
256,192,33943,1,8,0:0:0:0:
256,192,34233,1,8,0:0:0:0:
256,192,34813,1,0,0:0:0:0:
256,192,35103,1,8,0:0:0:0:
256,192,35392,1,0,0:0:0:0:
256,192,35537,1,0,0:0:0:0:
256,192,35682,1,0,0:0:0:0:
256,192,35972,1,0,0:0:0:0:
256,192,36262,1,8,0:0:0:0:
256,192,36552,1,0,0:0:0:0:
256,192,36697,1,0,0:0:0:0:
256,192,36842,1,0,0:0:0:0:
256,192,37132,1,0,0:0:0:0:
256,192,37421,1,8,0:0:0:0:
256,192,37566,1,8,0:0:0:0:
256,192,37711,1,8,0:0:0:0:
256,192,38001,1,8,0:0:0:0:
256,192,38291,1,0,0:0:0:0:
256,192,39450,1,4,0:0:0:0:
256,192,39740,1,0,0:0:0:0:
256,192,39885,1,0,0:0:0:0:
256,192,40030,1,0,0:0:0:0:
256,192,40320,1,8,0:0:0:0:
256,192,40610,1,0,0:0:0:0:
256,192,40900,1,8,0:0:0:0:
256,192,41189,1,8,0:0:0:0:
256,192,41334,1,8,0:0:0:0:
256,192,41479,1,8,0:0:0:0:
256,192,41769,1,0,0:0:0:0:
256,192,42059,1,8,0:0:0:0:
256,192,42349,1,0,0:0:0:0:
256,192,42639,1,0,0:0:0:0:
256,192,42784,1,0,0:0:0:0:
256,192,42929,1,0,0:0:0:0:
256,192,43218,1,8,0:0:0:0:
256,192,43363,1,8,0:0:0:0:
256,192,43508,1,8,0:0:0:0:
256,192,44088,1,0,0:0:0:0:
256,192,44378,1,8,0:0:0:0:
256,192,44668,1,0,0:0:0:0:
256,192,44813,1,0,0:0:0:0:
256,192,44958,1,0,0:0:0:0:
256,192,45247,1,8,0:0:0:0:
256,192,45392,1,8,0:0:0:0:
256,192,45537,1,8,0:0:0:0:
256,192,45827,1,8,0:0:0:0:
256,192,46117,1,0,0:0:0:0:
256,192,46407,1,0,0:0:0:0:
256,192,46600,1,0,0:0:0:0:
256,192,46793,1,0,0:0:0:0:
256,192,46987,1,0,0:0:0:0:
256,192,47180,1,0,0:0:0:0:
256,192,47373,1,0,0:0:0:0:
256,192,47566,1,0,0:0:0:0:
256,192,48726,1,4,0:0:0:0:
256,192,49161,1,8,0:0:0:0:
256,192,49305,1,0,0:0:0:0:
256,192,49595,1,8,0:0:0:0:
256,192,49885,1,0,0:0:0:0:
256,192,50030,1,0,0:0:0:0:
256,192,50320,1,0,0:0:0:0:
256,192,50755,1,8,0:0:0:0:
32,192,51045,2,0,L|480:192,1,420
256,192,52204,1,0,0:0:0:0:
256,192,53363,1,0,0:0:0:0:
256,192,53581,1,0,0:0:0:0:
256,192,53798,1,0,0:0:0:0:
256,192,54233,1,8,0:0:0:0:
256,192,54523,1,0,0:0:0:0:
256,192,54740,1,0,0:0:0:0:
256,192,54958,1,0,0:0:0:0:
256,192,55392,1,8,0:0:0:0:
256,192,55682,1,0,0:0:0:0:
256,192,55899,1,0,0:0:0:0:
256,192,56117,1,0,0:0:0:0:
256,192,56551,1,8,0:0:0:0:
256,192,56842,1,0,0:0:0:0:
256,192,57059,1,0,0:0:0:0:
256,192,57276,1,0,0:0:0:0:
256,192,57566,1,8,0:0:0:0:
256,192,57711,1,8,0:0:0:0:
256,192,58001,1,0,0:0:0:0:
256,192,58218,1,0,0:0:0:0:
256,192,58436,1,0,0:0:0:0:
256,192,58653,1,0,0:0:0:0:
256,192,58871,1,8,0:0:0:0:
256,192,59161,1,0,0:0:0:0:
256,192,59378,1,0,0:0:0:0:
256,192,59596,1,0,0:0:0:0:
256,192,59813,1,0,0:0:0:0:
256,192,60030,1,8,0:0:0:0:
256,192,60320,1,0,0:0:0:0:
256,192,60537,1,0,0:0:0:0:
256,192,60755,1,0,0:0:0:0:
256,192,60972,1,0,0:0:0:0:
256,192,61189,1,8,0:0:0:0:
256,192,61479,1,0,0:0:0:0:
256,192,61697,1,0,0:0:0:0:
256,192,61914,1,0,0:0:0:0:
256,192,62639,1,4,0:0:0:0:
256,192,64958,1,0,0:0:0:0:
256,192,67276,1,4,0:0:0:0:
256,192,68436,1,0,0:0:0:0:
256,192,69450,1,8,0:0:0:0:
256,192,69595,1,8,0:0:0:0:
256,192,70030,1,0,0:0:0:0:
256,192,70175,1,0,0:0:0:0:
256,192,70755,1,0,0:0:0:0:
256,192,71914,1,4,0:0:0:0:
256,192,72204,1,8,0:0:0:0:
256,192,72784,1,8,0:0:0:0:
256,192,73363,1,8,0:0:0:0:
256,192,73943,1,0,0:0:0:0:
256,192,74088,1,0,0:0:0:0:
256,192,74233,1,0,0:0:0:0:
256,192,74523,1,8,0:0:0:0:
256,192,75103,1,8,0:0:0:0:
256,192,75682,1,8,0:0:0:0:
256,192,76262,1,0,0:0:0:0:
256,192,76407,1,0,0:0:0:0:
256,192,76552,1,0,0:0:0:0:
256,192,76842,1,8,0:0:0:0:
256,192,77421,1,8,0:0:0:0:
256,192,77711,1,0,0:0:0:0:
256,192,78001,1,8,0:0:0:0:
256,192,78581,1,0,0:0:0:0:
256,192,78726,1,0,0:0:0:0:
256,192,78871,1,0,0:0:0:0:
256,192,79161,1,8,0:0:0:0:
256,192,79740,1,8,0:0:0:0:
256,192,80030,1,0,0:0:0:0:
256,192,81189,1,4,0:0:0:0:
256,192,81479,1,8,0:0:0:0:
256,192,81769,1,0,0:0:0:0:
256,192,82059,1,8,0:0:0:0:
256,192,82349,1,0,0:0:0:0:
256,192,82494,1,0,0:0:0:0:
256,192,82639,1,0,0:0:0:0:
256,192,82929,1,8,0:0:0:0:
256,192,83508,1,4,0:0:0:0:
256,192,83798,1,8,0:0:0:0:
256,192,84088,1,0,0:0:0:0:
256,192,84378,1,8,0:0:0:0:
256,192,84668,1,0,0:0:0:0:
256,192,84813,1,0,0:0:0:0:
256,192,84958,1,0,0:0:0:0:
256,192,85247,1,8,0:0:0:0:
256,192,85827,1,4,0:0:0:0:
256,192,86407,1,4,0:0:0:0:
256,192,86987,1,4,0:0:0:0:
256,192,87566,1,4,0:0:0:0:
256,192,88146,1,8,0:0:0:0:
256,192,88436,1,8,0:0:0:0:
256,192,88581,1,8,0:0:0:0:
256,192,88726,1,8,0:0:0:0:
256,192,89016,1,8,0:0:0:0:
256,192,89305,1,0,0:0:0:0:
256,192,90465,1,4,0:0:0:0:
256,192,90755,1,8,0:0:0:0:
256,192,91045,1,0,0:0:0:0:
256,192,91189,1,0,0:0:0:0:
256,192,91334,1,0,0:0:0:0:
256,192,91624,1,8,0:0:0:0:
256,192,91769,1,8,0:0:0:0:
256,192,92059,1,0,0:0:0:0:
256,192,92494,1,8,0:0:0:0:
256,192,92639,1,8,0:0:0:0:
256,192,92784,1,8,0:0:0:0:
256,192,93074,1,0,0:0:0:0:
256,192,93218,1,0,0:0:0:0:
256,192,93363,1,0,0:0:0:0:
256,192,93653,1,8,0:0:0:0:
256,192,93943,1,0,0:0:0:0:
256,192,94088,1,0,0:0:0:0:
256,192,94233,1,0,0:0:0:0:
256,192,94523,1,0,0:0:0:0:
256,192,95103,1,0,0:0:0:0:
256,192,95392,1,8,0:0:0:0:
256,192,95682,1,0,0:0:0:0:
256,192,95827,1,0,0:0:0:0:
256,192,95972,1,0,0:0:0:0:
256,192,96262,1,8,0:0:0:0:
256,192,96407,1,8,0:0:0:0:
256,192,96697,1,0,0:0:0:0:
256,192,96842,1,0,0:0:0:0:
256,192,96987,1,0,0:0:0:0:
256,192,97132,1,0,0:0:0:0:
256,192,97421,1,0,0:0:0:0:
256,192,97711,1,8,0:0:0:0:
256,192,97856,1,8,0:0:0:0:
256,192,98001,1,8,0:0:0:0:
256,192,98291,1,8,0:0:0:0:
256,192,98581,1,0,0:0:0:0:
256,192,99161,1,8,0:0:0:0:
256,192,99450,1,8,0:0:0:0:
256,192,99740,1,4,0:0:0:0:
256,192,100030,1,0,0:0:0:0:
256,192,100175,1,0,0:0:0:0:
256,192,100320,1,0,0:0:0:0:
256,192,100610,1,8,0:0:0:0:
256,192,100900,1,0,0:0:0:0:
256,192,101045,1,0,0:0:0:0:
256,192,101189,1,0,0:0:0:0:
256,192,101479,1,8,0:0:0:0:
256,192,101769,1,8,0:0:0:0:
256,192,102059,1,0,0:0:0:0:
256,192,102349,1,0,0:0:0:0:
256,192,102494,1,0,0:0:0:0:
256,192,102639,1,0,0:0:0:0:
256,192,102929,1,8,0:0:0:0:
256,192,103218,1,0,0:0:0:0:
256,192,103508,1,0,0:0:0:0:
256,192,103798,1,8,0:0:0:0:
256,192,104378,1,0,0:0:0:0:
256,192,104523,1,0,0:0:0:0:
256,192,104668,1,0,0:0:0:0:
256,192,104958,1,0,0:0:0:0:
256,192,105247,1,8,0:0:0:0:
256,192,105537,1,0,0:0:0:0:
256,192,105682,1,0,0:0:0:0:
256,192,105827,1,0,0:0:0:0:
256,192,106117,1,8,0:0:0:0:
256,192,106262,1,8,0:0:0:0:
256,192,106407,1,8,0:0:0:0:
256,192,106697,1,0,0:0:0:0:
256,192,106914,1,0,0:0:0:0:
256,192,107132,1,0,0:0:0:0:
256,192,107276,1,0,0:0:0:0:
256,192,107566,1,8,0:0:0:0:
256,192,107856,1,4,0:0:0:0:
256,192,108436,1,0,0:0:0:0:
256,192,109016,1,4,0:0:0:0:
256,192,109305,1,8,0:0:0:0:
256,192,109595,1,0,0:0:0:0:
256,192,109740,1,0,0:0:0:0:
256,192,109885,1,0,0:0:0:0:
256,192,110175,1,8,0:0:0:0:
256,192,110320,1,8,0:0:0:0:
256,192,110465,1,8,0:0:0:0:
256,192,110610,1,8,0:0:0:0:
256,192,111045,1,8,0:0:0:0:
256,192,111334,1,0,0:0:0:0:
256,192,111624,1,0,0:0:0:0:
256,192,111769,1,0,0:0:0:0:
256,192,111914,1,0,0:0:0:0:
256,192,112204,1,8,0:0:0:0:
256,192,112349,1,8,0:0:0:0:
256,192,112494,1,8,0:0:0:0:
256,192,112784,1,0,0:0:0:0:
256,192,113074,1,0,0:0:0:0:
256,192,113653,1,0,0:0:0:0:
256,192,113798,1,0,0:0:0:0:
256,192,113943,1,0,0:0:0:0:
256,192,114233,1,0,0:0:0:0:
256,192,114523,1,8,0:0:0:0:
256,192,114813,1,0,0:0:0:0:
256,192,114958,1,0,0:0:0:0:
256,192,115103,1,0,0:0:0:0:
256,192,115247,1,0,0:0:0:0:
256,192,115682,1,8,0:0:0:0:
256,192,115972,1,0,0:0:0:0:
256,192,116262,1,8,0:0:0:0:
256,192,116407,1,8,0:0:0:0:
256,192,116552,1,8,0:0:0:0:
256,192,116842,1,0,0:0:0:0:
256,192,116987,1,0,0:0:0:0:
256,192,117132,1,0,0:0:0:0:
256,192,117421,1,0,0:0:0:0:
256,192,117711,1,0,0:0:0:0:
256,192,118291,1,0,0:0:0:0:
256,192,118509,1,0,0:0:0:0:
256,192,118726,1,0,0:0:0:0:
256,192,118943,1,0,0:0:0:0:
256,192,119161,1,8,0:0:0:0:
256,192,119451,1,0,0:0:0:0:
256,192,119668,1,0,0:0:0:0:
256,192,119886,1,0,0:0:0:0:
256,192,120103,1,0,0:0:0:0:
256,192,120320,1,8,0:0:0:0:
256,192,120610,1,0,0:0:0:0:
256,192,120827,1,0,0:0:0:0:
256,192,121045,1,0,0:0:0:0:
256,192,121262,1,0,0:0:0:0:
256,192,121479,1,8,0:0:0:0:
256,192,121770,1,0,0:0:0:0:
256,192,121987,1,0,0:0:0:0:
256,192,122204,1,0,0:0:0:0:
256,192,122421,1,0,0:0:0:0:
256,192,122639,1,8,0:0:0:0:
256,192,122929,1,0,0:0:0:0:
256,192,123146,1,0,0:0:0:0:
256,192,123364,1,0,0:0:0:0:
256,192,123581,1,0,0:0:0:0:
256,192,123799,1,8,0:0:0:0:
256,192,124089,1,0,0:0:0:0:
256,192,124306,1,0,0:0:0:0:
256,192,124524,1,0,0:0:0:0:
256,192,124740,1,0,0:0:0:0:
256,192,124958,1,8,0:0:0:0:
256,192,125248,1,0,0:0:0:0:
256,192,125465,1,0,0:0:0:0:
256,192,125683,1,0,0:0:0:0:
256,192,125900,1,0,0:0:0:0:
256,192,126117,1,8,0:0:0:0:
256,192,126407,1,0,0:0:0:0:
256,192,126987,2,0,L|96:192,1,140
256,192,127566,1,4,0:0:0:0:
