osu file format v14

[General]
AudioFilename: audioshot.mp3
AudioLeadIn: 0
PreviewTime: 89233
Countdown: 0
SampleSet: None
StackLeniency: 0.7
Mode: 0
LetterboxInBreaks: 0
WidescreenStoryboard: 1

[Editor]
Bookmarks: 11624,20900,30175,39450,48726,62639,71914,81189,90465,99740,109016,118291
DistanceSpacing: 0.9
BeatDivisor: 4
GridSize: 32
TimelineZoom: 2.3

[Metadata]
Title:BroGamer
TitleUnicode:BroGamer
Artist:USAO
ArtistUnicode:USAO
Creator:Arrival
Version:Realinada's Black Another
Source:beatmania IIDX 24 SINOBUZ
Tags:headshot gg noob dubstep camping fire in the hole hardstyle bemani konami super ultimate hyper core trap realazy linada alheak worminators avena priti kyuukai unmei muma gezo
BeatmapID:1378253
BeatmapSetID:635636

[Difficulty]
HPDrainRate:6
CircleSize:3.8
OverallDifficulty:8.5
ApproachRate:9.3
SliderMultiplier:1.78
SliderTickRate:1

[Events]
//Background and Video events
0,0,"bruh-1-iloveimg-resized.jpg",0,0
//Break Periods
2,62839,64958
//Storyboard Layer 0 (Background)
//Storyboard Layer 1 (Fail)
//Storyboard Layer 2 (Pass)
//Storyboard Layer 3 (Foreground)
//Storyboard Sound Samples

[TimingPoints]
1190,289.855072463768,4,2,42,60,1,0
1190,-181.818181818181,4,2,42,60,0,0
6987,-117.647058823529,4,2,42,60,0,0
9885,-117.647058823529,4,1,42,40,0,0
10465,-117.647058823529,4,2,42,60,0,0
11624,-100,4,2,42,60,0,0
15682,-66.6666666666667,4,2,42,60,0,0
16262,-66.6666666666667,4,3,42,70,0,0
17421,-100,4,3,42,70,0,0
19161,-83.3333333333333,4,3,42,70,0,0
19740,-66.6666666666667,4,3,42,70,0,0
20320,-100,4,3,42,70,0,0
20900,-100,4,3,42,80,0,0
22349,-83.3333333333333,4,3,42,80,0,0
23218,-100,4,3,42,80,0,0
23508,-83.3333333333333,4,3,42,80,0,0
23653,-100,4,3,42,80,0,0
24958,-76.9230769230769,4,3,42,80,0,0
25537,-100,4,3,42,80,0,0
26987,-83.3333333333333,4,3,42,80,0,0
27856,-83.3333333333333,4,1,42,60,0,0
28146,-83.3333333333333,4,1,42,80,0,0
28218,-83.3333333333333,4,1,42,60,0,0
28436,-100,4,1,42,60,0,0
28726,-100,4,1,42,80,0,0
28798,-100,4,1,42,60,0,0
29016,-100,4,1,42,80,0,0
29595,-100,4,3,42,80,0,0
33653,-83.3333333333333,4,3,42,80,0,0
34233,-62.5,4,3,42,80,0,0
34523,-100,4,3,42,80,0,0
35392,-100,4,3,42,80,0,0
35465,-100,4,3,42,80,0,0
35537,-100,4,3,42,80,0,0
35610,-100,4,3,42,80,0,0
35682,-100,4,3,42,80,0,0
35972,-81.3008130081301,4,3,42,80,0,0
37421,-133.333333333333,4,3,42,80,0,0
37711,-81.3008130081301,4,3,42,80,0,0
38871,-100,4,3,42,80,0,0
44088,-83.3333333333333,4,3,42,80,0,0
44450,-83.3333333333333,4,3,42,80,0,0
44523,-83.3333333333333,4,3,42,80,0,0
44595,-83.3333333333333,4,3,42,80,0,0
44668,-71.4285714285714,4,3,42,80,0,0
45247,-83.3333333333333,4,3,42,80,0,0
47566,-133.333333333333,4,3,42,80,0,0
48726,-100,4,3,42,80,0,0
50755,-76.9230769230769,4,3,42,80,0,0
51624,-58.8235294117647,4,3,42,80,0,0
53363,-100,4,2,42,90,0,1
56842,-83.3333333333333,4,2,42,90,0,1
58001,-83.3333333333333,4,3,42,90,0,1
62349,-133.333333333333,4,3,42,90,0,1
62639,-133.333333333333,4,3,42,90,0,0
66407,-86.9565217391304,4,3,42,90,0,0
66552,-76.9230769230769,4,3,42,90,0,0
66697,-66.6666666666667,4,3,42,90,0,0
66842,-76.9230769230769,4,3,42,90,0,0
66987,-86.9565217391304,4,3,42,90,0,0
67276,-100,4,2,42,60,0,0
70320,-133.333333333333,4,2,42,60,0,0
70755,-153.846153846153,4,2,42,90,0,0
71045,-86.9565217391304,4,2,42,90,0,0
71334,-100,4,2,42,90,0,0
71624,-133.333333333333,4,2,42,90,0,0
71914,-133.333333333333,4,2,42,60,0,0
76298,-133.333333333333,4,2,42,60,0,0
76552,-133.333333333333,4,2,42,60,0,0
80030,-66.6666666666667,4,2,42,60,0,0
81189,-117.647058823529,4,2,42,70,0,0
83508,-66.6666666666667,4,2,42,70,0,0
83798,-100,4,2,42,70,0,0
90465,-100,4,2,42,80,0,1
99450,-133.333333333333,4,2,42,80,0,1
99668,-133.333333333333,4,2,42,80,0,1
99740,-100,4,2,42,80,0,1
101189,-83.3333333333333,4,2,42,80,0,1
102059,-100,4,2,42,80,0,1
105827,-83.3333333333333,4,2,42,80,0,1
106697,-100,4,2,42,80,0,1
117711,-76.9230769230769,4,2,42,80,0,1
118291,-76.9230769230769,4,2,42,90,0,1
125247,-76.9230769230769,4,3,42,90,0,1
126987,-76.9230769230769,4,2,42,80,0,1
127059,-76.9230769230769,4,2,42,45,0,1
127276,-76.9230769230769,4,2,42,80,0,1
127349,-76.9230769230769,4,2,42,45,0,1
127566,-100,4,2,42,60,0,0

[Colours]
Combo1 : 204,138,225
Combo2 : 241,88,80
Combo3 : 118,243,137
Combo4 : 121,155,236

[HitObjects]
127,116,1190,5,0,0:0:0:0:
126,115,2349,6,0,P|111:160|122:207,2,97.900002987671,0|0|0,0:0|0:0|0:0,0:0:0:0:
188,67,3218,1,0,0:0:0:0:
240,124,3508,1,0,0:0:0:0:
302,76,3798,1,0,0:0:0:0:
354,133,4088,1,0,0:0:0:0:
416,85,4378,1,0,0:0:0:0:
468,142,4668,5,0,0:0:0:0:
472,146,4813,2,0,L|469:243,1,97.900002987671,0|0,0:0|0:0,0:0:0:0:
399,313,5247,2,0,P|374:310|350:312,1,48.9500014938355,0|0,0:0|0:0,0:0:0:0:
258,347,5537,2,0,P|221:347|187:333,1,73.4250022407532,0|0,0:0|0:0,0:0:0:0:
173,319,5827,5,0,0:0:0:0:
205,226,5972,1,0,0:0:0:0:
164,137,6117,2,0,P|158:113|161:89,1,48.9500014938355,0|0,0:0|0:0,0:0:0:0:
233,22,6407,2,0,L|281:24,1,48.9500014938355,0|0,0:0|0:0,0:0:0:0:
299,33,6624,1,0,0:0:0:0:
316,41,6697,2,0,L|364:43,1,48.9500014938355,0|0,0:0|0:0,0:0:0:0:
464,82,6987,6,0,P|474:118|469:155,1,75.6500014429093,4|0,1:0|0:0,0:0:0:0:
293,128,7276,1,8,0:0:0:0:
293,128,7421,2,0,L|368:127,1,75.6500014429093,0|0,0:0|1:0,0:0:0:0:
212,44,7711,1,0,0:0:0:0:
235,194,7856,1,8,0:0:0:0:
212,44,8001,1,0,0:0:0:0:
113,161,8146,5,0,1:0:0:0:
113,161,8291,2,0,L|118:249,1,75.6500014429093,0|8,0:0|0:0,0:0:0:0:
125,359,8581,1,0,0:0:0:0:
260,296,8726,2,0,P|224:285|186:288,1,75.6500014429093,0|0,1:0|0:0,0:0:0:0:
321,363,9016,1,8,0:0:0:0:
443,303,9161,1,0,0:0:0:0:
443,303,9233,1,0,0:0:0:0:
443,303,9305,5,0,1:0:0:0:
444,280,9377,1,0,0:0:0:0:
446,257,9449,1,0,0:0:0:0:
447,235,9522,1,0,1:0:0:0:
424,204,9595,1,8,0:0:0:0:
423,181,9667,1,0,1:0:0:0:
421,158,9739,1,0,1:0:0:0:
420,136,9812,1,0,1:0:0:0:
453,99,9885,6,0,L|462:62,3,37.8250007214546,0|0|0|0,0:0|0:0|0:0|0:0,0:0:0:0:
345,35,10175,2,0,L|354:72,3,37.8250007214546,0|0|0|0,0:0|0:0|0:0|0:0,0:0:0:0:
306,170,10465,5,10,1:3:0:0:
323,140,11624,5,4,1:0:0:0:
445,247,11769,1,0,0:0:0:0:
317,134,11914,2,0,L|228:138,1,89,8|0,1:0|0:0,0:0:0:0:
101,270,12204,1,0,1:0:0:0:
117,116,12349,1,0,0:0:0:0:
100,281,12494,2,0,L|91:369,1,89,8|0,1:0|0:0,0:0:0:0:
321,216,12784,6,0,B|325:171|325:171|311:129,1,89,0|0,1:0|0:0,0:0:0:0:
268,278,13074,2,0,P|307:296|351:292,1,89,8|0,1:0|0:0,0:0:0:0:
512,150,13363,2,0,L|423:162,1,89,0|0,1:0|0:0,0:0:0:0:
361,378,13653,2,0,B|347:335|347:335|351:291,1,89,8|0,1:0|0:0,0:0:0:0:
423,162,13943,5,0,1:0:0:0:
350,291,14088,1,0,0:0:0:0:
311,129,14233,1,8,1:0:0:0:
453,265,14378,1,0,0:0:0:0:
305,123,14523,2,0,L|216:130,1,89,0|0,1:0|0:0,0:0:0:0:
379,41,14813,2,0,L|467:48,1,89,8|0,1:0|0:0,0:0:0:0:
264,285,15103,5,0,1:0:0:0:
210,137,15247,1,0,0:0:0:0:
269,296,15392,2,0,L|260:384,1,89,8|0,1:0|0:0,0:0:0:0:
108,268,15682,6,0,P|178:248|126:299,1,200.250007638932,0|0,1:0|0:0,0:0:0:0:
30,293,15972,6,0,B|19:252|39:212|39:212|22:178|22:178|33:150|25:100,1,200.250007638932,8|0,1:0|0:0,0:0:0:0:
81,33,16262,6,0,L|147:28,1,66.7500025463105,6|0,1:3|0:0,0:0:0:0:
248,160,16407,2,0,L|181:155,1,66.7500025463105,0|0,0:0|0:0,0:0:0:0:
305,43,16552,2,0,B|356:42|356:42|381:57|381:57|434:57,1,133.500005092621,8|6,1:0|1:3,0:0:0:0:
444,62,16769,1,0,0:0:0:0:
453,67,16842,6,0,P|448:99|453:132,1,66.7500025463105,0|0,0:0|0:0,0:0:0:0:
349,258,16987,2,0,P|354:225|348:192,1,66.7500025463105,0|0,0:0|0:0,0:0:0:0:
295,37,17132,1,8,1:0:0:0:
436,246,17276,1,0,0:0:0:0:
442,254,17349,1,0,0:0:0:0:
448,262,17421,6,0,L|359:265,1,89,0|2,0:0|0:2,0:0:0:0:
113,315,17711,5,8,1:0:0:0:
168,193,17856,1,0,0:0:0:0:
37,251,18001,5,0,1:0:0:0:
213,319,18146,1,0,1:0:0:0:
303,196,18291,5,8,1:0:0:0:
237,158,18387,5,2,1:3:0:0:
168,193,18484,5,2,1:3:0:0:
111,132,18581,6,0,L|114:87,2,44.5,4|0|0,1:3|0:0|0:0,0:0:0:0:
71,264,18871,1,8,1:0:0:0:
25,82,19016,1,0,0:0:0:0:
174,203,19161,6,0,B|203:207|203:207|226:201,1,53.3999983703614,0|0,0:0|0:0,0:0:0:0:
376,122,19305,2,0,B|347:126|347:126|323:120,1,53.3999983703614,2|2,0:2|0:2,0:0:0:0:
200,63,19450,1,8,1:0:0:0:
338,222,19595,1,2,0:0:0:0:
198,294,19740,6,0,L|185:360,1,66.7500025463105,0|0,1:0|0:0,0:0:0:0:
323,360,19885,2,0,L|309:294,1,66.7500025463105,2|0,0:2|0:0,0:0:0:0:
355,144,20030,6,0,B|315:147|284:135|284:135|259:149|259:149|231:132|231:132|197:147|165:143,1,200.250007638932,8|0,1:0|0:0,0:0:0:0:
219,173,20320,6,0,P|261:186|303:173,1,89,4|4,1:3|1:3,0:0:0:0:
306,170,20537,1,0,0:0:0:0:
309,166,20610,1,4,1:3:0:0:
312,163,20682,1,4,1:3:0:0:
315,159,20755,2,0,L|311:114,1,44.5,0|4,1:0|1:3,0:0:0:0:
473,32,20900,5,4,1:0:0:0:
322,39,21045,1,0,0:0:0:0:
486,27,21189,5,10,1:0:0:0:
415,175,21334,1,0,0:0:0:0:
309,44,21479,6,0,L|398:51,1,89,0|0,1:0|0:0,0:0:0:0:
221,179,21769,2,0,L|310:172,1,89,8|0,1:0|0:0,0:0:0:0:
117,76,22059,2,0,L|206:83,1,89,0|0,1:0|0:0,0:0:0:0:
415,121,22349,6,0,B|415:179|415:179|431:217|431:217|431:278,1,160.199995111084,10|0,1:0|0:0,0:0:0:0:
335,309,22639,2,0,L|335:255,1,53.3999983703614,2|0,0:2|0:0,0:0:0:0:
380,143,22784,2,0,L|380:89,1,53.3999983703614,2|0,0:2|0:0,0:0:0:0:
262,189,22929,5,8,1:0:0:0:
246,187,23001,1,0,0:0:0:0:
230,186,23073,1,2,0:2:0:0:
214,185,23146,1,0,0:0:0:0:
200,184,23218,6,0,L|185:226,2,44.5,6|0|0,1:3|0:0|0:0,0:0:0:0:
83,13,23508,2,0,P|109:18|136:13,1,53.3999983703614,8|0,1:0|0:0,0:0:0:0:
196,61,23653,6,0,P|239:55|283:61,1,89,0|0,0:0|1:0,0:0:0:0:
417,179,23943,1,2,0:0:0:0:
422,172,24016,1,0,0:0:0:0:
427,165,24088,2,0,L|427:76,1,89,10|0,1:0|0:0,0:0:0:0:
263,28,24378,5,0,1:0:0:0:
220,209,24523,2,0,L|212:165,1,44.5,2|0,0:2|0:0,0:0:0:0:
295,279,24668,1,8,1:0:0:0:
296,270,24740,1,2,0:0:0:0:
298,261,24812,1,2,0:0:0:0:
299,252,24885,1,2,0:0:0:0:
301,243,24958,6,0,B|306:212|306:212|321:190,1,57.8499973518373,0|0,1:0|0:0,0:0:0:0:
300,33,25103,2,0,B|305:63|305:63|320:85,1,57.8499973518373,2|0,1:3|0:0,0:0:0:0:
206,246,25247,2,0,B|206:215|206:215|216:190,1,57.8499973518373,8|0,1:0|0:0,0:0:0:0:
205,30,25392,2,0,B|205:61|205:61|215:86,1,57.8499973518373,2|0,3:2|0:1,0:0:0:0:
105,279,25537,5,0,1:0:0:0:
70,103,25682,1,0,1:0:0:0:
100,294,25827,5,8,1:0:0:0:
141,131,25972,1,2,0:0:0:0:
95,308,26117,6,0,P|137:298|181:305,1,89,0|0,1:0|0:0,0:0:0:0:
381,210,26407,2,0,P|338:199|294:206,1,89,8|0,1:0|0:0,0:0:0:0:
97,113,26697,2,0,P|139:102|183:109,1,89,0|0,1:0|0:0,0:0:0:0:
284,217,26987,6,0,P|320:148|290:76,1,160.199995111084,10|0,1:0|0:0,0:0:0:0:
221,2,27276,2,0,P|194:4|168:-1,1,53.3999983703614,2|0,0:2|0:0,0:0:0:0:
63,41,27421,2,0,P|36:38|10:43,1,53.3999983703614,2|0,0:2|0:0,0:0:0:0:
94,137,27566,5,8,1:0:0:0:
94,147,27638,1,0,0:0:0:0:
95,158,27710,1,2,0:0:0:0:
96,168,27783,1,0,0:0:0:0:
97,179,27856,5,0,0:0:0:0:
134,159,27928,1,0,0:0:0:0:
176,151,28000,1,0,0:0:0:0:
219,157,28073,1,0,0:0:0:0:
257,175,28146,1,8,0:0:0:0:
294,197,28218,1,0,0:0:0:0:
335,206,28290,1,0,0:0:0:0:
378,203,28363,1,0,0:0:0:0:
417,186,28436,6,0,L|455:163,3,44.5,0|0|0|2,0:0|0:0|0:0|3:2,0:0:0:0:
432,81,28726,2,0,L|393:58,3,44.5,8|0|0|0,0:0|0:0|0:0|0:0,0:0:0:0:
320,17,29016,5,14,0:3:0:0:
279,1,29088,1,0,0:0:0:0:
242,23,29160,1,0,0:0:0:0:
235,65,29233,1,0,0:0:0:0:
263,98,29305,5,8,0:0:0:0:
245,58,29377,1,0,0:0:0:0:
203,47,29449,1,0,0:0:0:0:
168,72,29522,1,0,0:0:0:0:
165,115,29595,6,0,L|165:159,1,44.5,0|0,1:0|0:0,0:0:0:0:
93,266,29740,2,0,L|92:221,1,44.5,2|0,0:0|0:0,0:0:0:0:
38,101,29885,2,0,P|60:102|80:109,1,44.5,4|0,0:0|0:0,0:0:0:0:
246,39,30030,2,0,P|223:40|203:47,1,44.5,2|0,0:0|0:0,0:0:0:0:
165,159,30175,6,0,L|168:247,1,89,4|0,1:0|0:0,0:0:0:0:
226,367,30465,1,8,1:0:0:0:
93,266,30610,1,0,0:0:0:0:
244,128,30755,2,0,L|249:261,1,133.5,0|0,1:0|0:0,0:0:0:0:
251,272,31045,1,8,1:0:0:0:
377,206,31189,2,0,L|288:194,1,89,0|0,0:0|1:0,0:0:0:0:
464,147,31479,5,0,0:0:0:0:
396,326,31624,1,8,1:0:0:0:
377,206,31769,1,0,0:0:0:0:
484,315,31914,2,0,L|395:326,1,89,0|0,1:0|0:0,0:0:0:0:
288,194,32204,1,8,1:0:0:0:
463,232,32349,1,0,0:0:0:0:
278,283,32494,5,0,1:0:0:0:
283,238,32566,1,0,0:0:0:0:
288,194,32639,1,0,0:0:0:0:
301,356,32784,1,8,1:0:0:0:
273,165,32929,1,0,0:0:0:0:
190,316,33074,5,0,1:0:0:0:
377,206,33218,1,0,1:0:0:0:
180,320,33363,2,0,B|138:328|138:328|94:311,1,89,8|0,1:0|0:0,0:0:0:0:
26,186,33653,6,0,B|46:80|46:80|67:127,1,160.199995111084,0|0,1:0|0:0,0:0:0:0:
112,228,33943,2,0,L|103:280,1,53.3999983703614,8|0,1:0|0:0,0:0:0:0:
160,99,34088,2,0,L|168:151,1,53.3999983703614,2|0,0:0|0:0,0:0:0:0:
208,310,34233,6,0,B|245:305|245:305|277:314,1,71.2,2|2,1:3|0:0,0:0:0:0:
366,353,34378,1,2,0:2:0:0:
444,144,34523,6,0,P|426:98|423:147,1,133.5,8|0,1:0|0:0,0:0:0:0:
430,123,34813,6,0,P|434:79|420:37,1,89,0|0,1:0|0:0,0:0:0:0:
259,178,35103,1,8,1:0:0:0:
227,36,35247,1,0,0:0:0:0:
128,269,35392,6,0,L|131:224,1,44.5,0|0,1:0|2:0,0:0:0:0:
165,107,35537,2,0,L|168:151,1,44.5,0|0,0:0|2:0,0:0:0:0:
192,320,35682,1,8,1:0:0:0:
65,182,35827,1,2,0:2:0:0:
268,170,35972,6,0,B|339:163|339:163|310:187,1,109.47000167038,0|2,1:0|0:2,0:0:0:0:
293,265,36189,1,0,0:0:0:0:
302,278,36262,2,0,L|364:270,1,54.7350008351898,8|0,1:0|0:0,0:0:0:0:
213,320,36407,1,2,0:0:0:0:
310,187,36552,2,0,B|367:179|367:179|416:195,1,109.47000167038,0|2,1:0|0:0,0:0:0:0:
272,102,36842,5,8,1:0:0:0:
194,83,36938,5,4,0:0:0:0:
212,161,37035,5,0,1:0:0:0:
278,97,37132,6,0,L|271:42,2,54.7350008351898,0|0|2,1:0|0:0|0:2,0:0:0:0:
207,169,37421,6,0,B|212:198|209:213|209:213|221:231|221:231|217:244|219:265,1,100.125003819466,0|0,1:0|2:0,0:0:0:0:
204,296,37711,6,0,L|210:350,2,54.7350008351898,0|0|2,1:0|0:0|0:0,0:0:0:0:
347,261,38001,5,0,1:0:0:0:
320,257,38073,1,0,0:0:0:0:
293,253,38145,1,2,0:2:0:0:
443,362,38291,6,0,B|430:309|430:309|442:254,1,109.47000167038,0|0,1:0|0:0,0:0:0:0:
334,131,38581,5,0,0:0:0:0:
264,167,38653,1,0,0:0:0:0:
216,162,38726,1,0,0:0:0:0:
182,130,38798,1,0,0:0:0:0:
136,62,38871,6,0,L|39:56,1,89,4|8,1:3|0:0,0:0:0:0:
219,303,39161,2,0,L|209:259,1,44.5,0|0,1:0|0:0,0:0:0:0:
182,130,39305,1,2,0:0:0:0:
380,268,39450,6,0,L|292:252,1,89,4|0,1:0|0:0,0:0:0:0:
463,193,39740,1,8,1:0:0:0:
396,349,39885,1,0,0:0:0:0:
364,187,40030,2,0,P|367:121|404:66,1,133.5,0|0,1:0|0:0,0:0:0:0:
411,60,40320,2,0,P|352:89|286:85,1,133.5,8|0,1:0|0:0,0:0:0:0:
278,81,40610,5,0,1:0:0:0:
292,252,40755,1,0,0:0:0:0:
123,179,40900,2,0,L|133:267,1,89,8|0,1:0|0:0,0:0:0:0:
191,124,41189,2,0,L|201:35,1,89,0|0,1:0|0:0,0:0:0:0:
42,191,41479,2,0,L|57:323,1,133.5,8|0,1:0|0:0,0:0:0:0:
50,350,41769,6,0,P|93:336|136:343,1,89,0|0,1:0|0:0,0:0:0:0:
292,252,42059,2,0,P|249:238|206:245,1,89,8|0,1:0|0:0,0:0:0:0:
378,347,42349,2,0,L|370:258,1,89,0|0,1:0|0:0,0:0:0:0:
476,113,42639,2,0,L|468:201,1,89,8|0,1:0|0:0,0:0:0:0:
303,384,42929,2,0,L|291:250,1,133.5,0|0,1:0|0:0,0:0:0:0:
289,227,43218,6,0,P|251:247|207:245,1,89,8|0,1:0|0:0,0:0:0:0:
88,184,43508,1,0,1:0:0:0:
158,328,43653,1,0,0:0:0:0:
230,172,43798,2,0,P|241:106|227:41,1,133.5,8|0,1:0|0:0,0:0:0:0:
214,18,44088,6,0,L|320:18,1,106.799996740723,0|0,1:0|0:0,0:0:0:0:
466,94,44378,2,0,L|467:40,1,53.3999983703614,8|0,1:0|0:0,0:0:0:0:
397,154,44523,2,0,L|398:207,1,53.3999983703614,2|0,0:2|0:0,0:0:0:0:
282,304,44668,6,0,P|286:271|284:239,1,62.2999980987549,0|0,1:0|0:0,0:0:0:0:
398,207,44813,2,0,P|423:227|452:241,1,62.2999980987549,0|0,1:0|0:0,0:0:0:0:
423,355,44958,2,0,P|392:366|366:385,1,62.2999980987549,8|0,1:0|0:0,0:0:0:0:
238,384,45103,2,0,P|212:366|183:355,1,62.2999980987549,2|0,0:2|0:0,0:0:0:0:
93,247,45247,6,0,B|93:318|93:318|105:302|117:292,1,106.799996740723,0|0,1:0|0:0,0:0:0:0:
164,207,45465,1,2,0:2:0:0:
172,190,45537,2,0,L|172:136,1,53.3999983703614,8|0,1:0|0:0,0:0:0:0:
222,272,45682,1,0,0:0:0:0:
78,161,45827,2,0,L|80:50,1,106.799996740723,2|2,1:3|0:2,0:0:0:0:
248,86,46117,5,8,1:0:0:0:
315,44,46214,5,0,1:0:0:0:
373,97,46310,5,0,1:0:0:0:
434,36,46407,6,0,L|509:37,1,71.1999978271485,8|0,1:0|0:0,0:0:0:0:
432,174,46600,6,0,L|357:175,1,71.1999978271485,2|0,1:3|0:0,0:0:0:0:
259,124,46793,5,4,1:3:0:0:
266,209,46889,5,8,1:3:0:0:
274,294,46987,6,0,L|357:297,1,71.1999978271485,8|0,1:0|0:0,0:0:0:0:
197,259,47180,6,0,L|159:319,1,71.1999978271485,4|0,1:3|0:0,0:0:0:0:
266,209,47373,6,0,L|232:146,1,71.1999978271485,4|0,0:3|2:0,0:0:0:0:
121,47,47566,6,0,L|116:147,1,100.125003819466,12|0,1:3|0:0,0:0:0:0:
60,236,47856,2,0,L|26:234,1,33.3750012731553,0|0,0:0|0:0,0:0:0:0:
125,320,48001,2,0,L|158:318,1,33.3750012731553,0|0,0:0|0:0,0:0:0:0:
274,294,48146,6,0,L|270:328,1,33.3750012731553,0|0,0:0|0:0,0:0:0:0:
359,247,48291,2,0,L|363:281,1,33.3750012731553,0|0,0:0|0:0,0:0:0:0:
284,187,48436,6,0,L|250:187,1,33.3750012731553,0|0,0:0|0:0,0:0:0:0:
339,110,48581,2,0,L|305:110,1,33.3750012731553,0|0,2:0|0:0,0:0:0:0:
207,48,48726,6,0,P|163:56|120:46,1,89,0|0,1:0|0:0,0:0:0:0:
96,36,48943,1,0,0:0:0:0:
96,36,49016,1,0,0:0:0:0:
32,145,49161,1,0,0:0:0:0:
131,224,49305,6,0,L|174:232,3,44.5,0|0|0|0,0:0|0:0|0:0|0:0,0:0:0:0:
250,187,49595,2,0,L|293:178,3,44.5,0|0|0|0,0:0|0:0|0:0|0:0,0:0:0:0:
359,116,49885,5,0,0:0:0:0:
380,119,49957,1,0,0:0:0:0:
402,123,50029,1,0,0:0:0:0:
424,126,50102,1,0,0:0:0:0:
446,130,50175,2,0,L|441:85,3,44.5,0|0|0|0,0:0|0:0|0:0|0:0,0:0:0:0:
366,194,50465,6,0,L|369:238,1,44.5,0|0,0:0|0:0,0:0:0:0:
455,344,50610,2,0,L|451:299,1,44.5,0|0,0:0|0:0,0:0:0:0:
360,186,50755,2,0,B|238:176|238:176|262:187|278:207,1,173.549992055512,0|0,0:0|0:0,0:0:0:0:
211,256,51045,5,0,0:0:0:0:
197,296,51117,1,0,0:0:0:0:
163,321,51189,1,0,0:0:0:0:
120,322,51262,1,0,0:0:0:0:
85,298,51334,1,0,0:0:0:0:
70,258,51407,1,0,0:0:0:0:
81,217,51479,1,0,0:0:0:0:
114,190,51552,1,0,0:0:0:0:
156,187,51624,6,0,L|214:195,7,37.8250007214546,0|0|0|0|0|0|0|0,3:3|3:3|3:3|3:3|0:3|0:3|0:3|0:3,0:0:0:0:
199,116,51914,6,0,L|256:108,7,37.8250007214546,0|0|0|0|0|0|0|0,3:0|3:0|3:0|3:0|0:0|0:0|0:0|0:0,0:0:0:0:
205,36,52204,5,8,1:0:0:0:
205,36,53363,6,0,L|293:29,1,89,0|0,1:0|0:0,0:0:0:0:
382,23,53581,2,0,L|293:29,1,89,0|0,1:0|0:0,0:0:0:0:
205,36,53798,2,0,L|116:42,1,89,0|0,1:0|0:0,0:0:0:0:
27,48,54016,2,0,L|115:41,1,89,0|0,1:0|0:0,0:0:0:0:
293,29,54233,1,8,1:0:0:0:
205,208,54523,6,0,P|217:250|211:293,1,89,0|0,1:0|0:0,0:0:0:0:
205,379,54740,2,0,P|198:335|211:293,1,89,0|0,1:0|0:0,0:0:0:0:
205,208,54958,2,0,P|211:164|198:122,1,89,0|0,1:0|0:0,0:0:0:0:
205,36,55175,2,0,P|192:78|198:121,1,89,0|0,1:0|0:0,0:0:0:0:
211,293,55392,1,8,1:0:0:0:
363,97,55682,6,0,L|275:88,1,89,0|0,1:0|0:0,0:0:0:0:
198,122,55900,2,0,L|109:131,1,89,0|0,1:0|0:0,0:0:0:0:
130,258,56117,2,0,P|123:301|136:343,1,89,0|0,1:0|0:0,0:0:0:0:
205,208,56334,2,0,P|211:164|198:122,1,89,0|0,1:0|0:0,0:0:0:0:
115,41,56552,1,8,1:0:0:0:
211,293,56842,6,0,B|263:307|263:307|313:291,1,106.799996740723,0|0,1:0|0:0,0:0:0:0:
479,227,57059,2,0,B|427:241|427:241|376:225,1,106.799996740723,0|0,1:0|0:0,0:0:0:0:
236,139,57276,1,0,1:0:0:0:
321,306,57421,5,0,1:0:0:0:
329,322,57494,1,0,1:0:0:0:
427,157,57639,5,0,1:0:0:0:
435,141,57711,2,0,P|435:114|430:88,1,53.3999983703614,8|0,1:0|0:0,0:0:0:0:
241,87,57856,2,0,P|235:113|236:139,1,53.3999983703614,0|0,0:0|0:1,0:0:0:0:
337,215,58001,6,0,L|336:108,1,106.799996740723,2|0,1:3|0:0,0:0:0:0:
293,28,58218,2,0,P|243:9|193:23,1,106.799996740723,0|0,1:0|0:0,0:0:0:0:
146,103,58436,2,0,P|96:121|46:107,1,106.799996740723,0|0,1:0|0:0,0:0:0:0:
68,212,58653,2,0,L|46:107,1,106.799996740723,0|0,1:0|0:0,0:0:0:0:
92,40,58871,5,8,1:0:0:0:
92,40,59016,1,2,0:0:0:0:
167,216,59161,6,0,P|117:197|67:211,1,106.799996740723,2|0,1:3|0:0,0:0:0:0:
226,277,59378,2,0,P|276:290|325:272,1,106.799996740723,0|0,1:0|0:0,0:0:0:0:
277,101,59595,2,0,L|272:208,1,106.799996740723,0|0,1:0|0:0,0:0:0:0:
231,383,59813,2,0,L|225:276,1,106.799996740723,0|0,1:0|0:0,0:0:0:0:
167,216,60030,5,8,1:0:0:0:
167,216,60175,1,2,0:0:0:0:
325,272,60320,6,0,B|379:284|379:284|429:268,1,106.799996740723,2|0,1:3|0:0,0:0:0:0:
428,178,60537,2,0,B|378:193|378:193|325:182,1,106.799996740723,0|0,1:0|0:0,0:0:0:0:
320,76,60755,2,0,L|325:182,1,106.799996740723,0|0,1:0|0:0,0:0:0:0:
429,269,60972,2,0,L|423:375,1,106.799996740723,2|0,1:3|0:0,0:0:0:0:
325,272,61189,5,8,1:0:0:0:
325,272,61334,1,0,0:0:0:0:
166,215,61479,6,0,P|140:216|114:221,2,53.3999983703614,0|4|4,1:0|0:0|0:0,0:0:0:0:
241,148,61697,2,0,P|267:153|293:153,2,53.3999983703614,0|4|4,1:0|0:0|0:0,0:0:0:0:
360,100,61914,5,0,1:0:0:0:
378,87,61987,1,4,0:0:0:0:
387,74,62059,1,0,1:3:0:0:
391,66,62132,1,0,1:3:0:0:
392,58,62204,1,0,1:3:0:0:
293,152,62349,6,0,L|307:252,1,100.125003819466,2|0,1:3|0:0,0:0:0:0:
279,69,62639,5,2,0:0:0:0:
221,57,66117,6,0,L|217:157,1,100.125003819466,0|0,0:0|0:0,0:0:0:0:
305,91,66407,6,0,L|309:39,1,51.1750009760857,0|0,0:0|0:0,0:0:0:0:
133,123,66552,2,0,L|129:180,1,57.8499973518373,0|0,0:0|0:0,0:0:0:0:
203,302,66697,6,0,P|170:308|139:298,1,66.7500025463105
15,241,66842,2,0,P|43:248|71:241,1,57.8499973518373
251,228,66987,6,0,L|302:228,1,51.1750009760857,0|0,0:0|0:0,0:0:0:0:
373,296,67132,2,0,L|424:296,1,51.1750009760857,0|0,0:0|0:0,0:0:0:0:
505,212,67276,5,4,1:0:0:0:
256,192,67421,12,2,69450,0:0:0:0:
115,272,69595,6,0,B|115:200|115:200|135:164|135:164|135:100,1,178,2|0,0:0|0:0,0:0:0:0:
203,232,70030,1,0,0:0:0:0:
203,232,70175,1,2,0:0:0:0:
203,232,70320,2,0,P|274:258|301:188,1,166.875006365776,2|0,0:0|0:0,0:0:0:0:
257,121,70755,6,0,P|299:133|342:127,1,86.7749960277559,10|0,1:3|0:0,0:0:0:0:
417,86,71045,6,0,P|421:61|417:36,1,51.1750009760857,0|0,1:0|0:0,0:0:0:0:
475,184,71189,2,0,P|471:209|474:234,1,51.1750009760857,2|0,0:1|0:0,0:0:0:0:
399,307,71334,6,0,L|354:307,1,44.5,0|0,0:0|0:0,0:0:0:0:
268,261,71479,2,0,L|223:261,1,44.5,0|0,0:0|0:0,0:0:0:0:
122,328,71624,6,0,B|128:308|122:288|122:288|130:276|130:276|127:253|133:231,1,100.125003819466,2|0,3:0|2:0,0:0:0:0:
156,213,71914,6,0,L|151:146,1,66.7500025463105,0|0,1:0|0:0,0:0:0:0:
146,60,72204,1,8,1:2:0:0:
227,81,72349,1,0,0:0:0:0:
308,101,72494,1,0,0:0:0:0:
322,95,72784,5,8,1:2:0:0:
232,67,72929,1,0,0:0:0:0:
141,45,73074,2,0,L|74:50,1,66.7500025463105,0|0,0:0|0:0,0:0:0:0:
337,88,73508,5,0,0:0:0:0:
352,81,73798,5,0,0:0:0:0:
333,198,73943,1,8,1:2:0:0:
232,67,74088,1,0,0:0:0:0:
348,205,74233,6,0,B|380:205|400:195|400:195|433:205|433:205|451:198|478:196,1,133.500005092621,0|8,1:0|1:2,0:0:0:0:
296,264,74668,2,0,P|268:205|293:145,1,133.500005092621,0|0,0:0|0:0,0:0:0:0:
292,289,75103,5,8,1:2:0:0:
193,230,75247,1,0,0:0:0:0:
121,303,75392,5,0,1:0:0:0:
11,329,75537,1,2,0:0:0:0:
31,212,75682,1,8,1:2:0:0:
11,329,75827,1,0,0:0:0:0:
103,149,75972,6,0,P|151:161|198:145,1,100.125003819466,2|0,0:0|0:0,0:0:0:0:
149,75,76262,6,0,L|150:58,6,16.6875006365776,8|0|0|0|0|0|2,1:2|0:0|0:0|0:0|0:0|0:0|3:0,0:0:0:0:
198,146,76552,6,0,L|192:213,1,66.7500025463105,0|0,1:0|0:0,0:0:0:0:
235,301,76842,1,8,1:2:0:0:
316,270,76987,1,0,0:0:0:0:
395,236,77132,1,0,0:0:0:0:
414,240,77421,5,8,1:2:0:0:
310,252,77566,1,0,0:0:0:0:
231,320,77711,2,0,P|198:325|165:321,1,66.7500025463105,0|0,0:0|0:0,0:0:0:0:
433,244,78146,5,2,0:0:0:0:
452,248,78436,5,2,0:0:0:0:
354,182,78581,1,8,1:2:0:0:
367,326,78726,1,0,0:0:0:0:
451,130,78871,5,4,1:3:0:0:
456,124,79161,2,0,L|449:57,1,66.7500025463105,8|0,1:2|0:0,0:0:0:0:
322,103,79450,6,0,L|289:97,3,33.3750012731553,0|0|0|0,1:0|0:0|0:0|0:0,0:0:0:0:
223,157,79740,2,0,L|190:162,3,33.3750012731553,8|0|0|0,1:2|0:0|0:0|0:0,0:0:0:0:
146,82,80030,6,0,B|104:37|104:37|102:81|125:118|125:118|111:138|114:175,1,200.250007638932,0|0,1:0|0:0,0:0:0:0:
96,255,80320,2,0,P|20:283|39:203,1,200.250007638932,6|0,3:0|0:0,0:0:0:0:
190,162,80610,6,0,L|256:173,1,66.7500025463105,2|0,3:0|0:0,0:0:0:0:
345,271,80755,1,0,1:0:0:0:
431,178,80900,6,0,P|434:144|427:112,1,66.7500025463105,4|0,3:0|0:0,0:0:0:0:
260,108,81045,2,0,P|251:140|256:173,1,66.7500025463105,6|0,0:3|0:0,0:0:0:0:
346,295,81189,6,0,L|274:320,1,75.6500014429093,4|0,1:0|0:0,0:0:0:0:
179,273,81479,1,8,1:2:0:0:
205,170,81624,1,0,0:0:0:0:
231,67,81769,1,0,1:0:0:0:
215,40,82059,5,8,1:2:0:0:
184,164,82204,1,0,0:0:0:0:
153,288,82349,2,0,L|137:361,1,75.6500014429093,0|0,1:0|0:2,0:0:0:0:
247,94,82784,5,2,0:0:0:0:
263,121,83074,1,2,0:0:0:0:
279,148,83363,1,2,0:0:0:0:
400,223,83508,6,0,P|405:152|425:220,1,200.250007638932,4|0,1:3|0:0,0:0:0:0:
377,300,83798,2,0,L|288:293,1,89,8|0,0:0|0:0,0:0:0:0:
171,192,84088,2,0,L|259:185,1,89,0|0,0:0|0:0,0:0:0:0:
141,293,84378,2,0,L|52:286,1,89,8|0,0:0|0:0,0:0:0:0:
85,109,84668,6,0,P|95:151|85:194,1,89,0|0,0:0|0:0,0:0:0:0:
200,10,84958,2,0,P|190:53|201:96,1,89,8|0,0:0|0:0,0:0:0:0:
330,233,85247,2,0,P|340:190|330:147,1,89,0|0,1:0|3:0,0:0:0:0:
445,48,85537,2,0,P|435:91|445:133,1,89,8|0,1:2|1:0,0:0:0:0:
372,294,85827,6,0,L|283:288,1,89,4|0,1:0|0:0,0:0:0:0:
290,67,86117,2,0,L|329:146,1,89,8|0,1:2|0:0,0:0:0:0:
135,252,86407,2,0,L|183:177,1,89,0|0,1:0|0:0,0:0:0:0:
290,67,86697,5,8,1:2:0:0:
283,288,86842,1,0,1:0:0:0:
94,171,86987,6,0,P|62:200|46:241,1,89,0|0,1:0|0:0,0:0:0:0:
235,359,87276,2,0,P|267:329|283:288,1,89,8|0,1:2|0:0,0:0:0:0:
178,93,87566,5,0,1:0:0:0:
130,255,87711,1,0,0:0:0:0:
154,12,87856,5,8,1:2:0:0:
214,214,88001,1,0,1:0:0:0:
359,62,88146,6,0,P|401:72|445:64,1,89,0|0,1:0|1:0,0:0:0:0:
386,219,88436,1,12,1:2:0:0:
344,203,88508,1,0,1:0:0:0:
300,197,88580,1,0,1:0:0:0:
256,200,88653,1,0,1:0:0:0:
214,214,88726,6,0,L|125:204,1,89,0|0,1:0|1:0,0:0:0:0:
235,327,89016,1,12,1:2:0:0:
279,322,89088,1,0,1:0:0:0:
323,317,89160,1,0,1:0:0:0:
367,312,89233,1,0,1:0:0:0:
411,307,89305,5,4,1:0:0:0:
411,307,90465,5,4,1:1:0:0:
235,327,90610,1,0,0:1:0:0:
363,232,90755,2,0,P|405:220|449:227,1,89,8|2,1:1|0:0,0:0:0:0:
245,321,91045,1,2,1:2:0:0:
235,327,91334,1,8,1:1:0:0:
411,307,91479,1,2,0:0:0:0:
210,146,91624,5,0,1:1:0:0:
224,336,91769,1,2,0:0:0:0:
363,232,91914,1,8,1:1:0:0:
213,345,92059,2,0,P|169:352|126:340,1,89,2|0,0:0|1:1,0:0:0:0:
16,242,92349,1,2,0:0:0:0:
182,255,92494,5,8,1:1:0:0:
0,338,92639,1,2,0:0:0:0:
99,167,92784,6,0,B|96:137|100:117|100:117|89:93|89:93|102:70|100:37,1,133.5,2|0,1:2|0:0,0:0:0:0:
103,34,93074,2,0,P|146:41|190:34,1,89,8|0,1:1|0:1,0:0:0:0:
272,219,93363,5,0,1:1:0:0:
99,167,93508,1,2,0:0:0:0:
298,104,93653,5,8,1:1:0:0:
116,163,93798,1,2,0:0:0:0:
282,221,93943,6,0,L|407:203,1,89,0|2,1:0|3:2,0:0:0:0:
455,316,94233,5,8,1:0:0:0:
455,316,94330,2,0,P|428:306|398:303,1,59.3333333333333,0|0,0:0|0:0,0:0:0:0:
290,321,94523,6,0,P|262:331|232:334,1,59.3333333333333,0|0,1:0|0:0,0:0:0:0:
142,293,94716,5,0,0:0:0:0:
142,293,94813,2,0,L|137:204,1,89,8|2,1:0|3:2,0:0:0:0:
241,17,95103,6,0,B|227:65|227:65|237:98|237:98|229:146,1,133.5,4|0,1:0|0:0,0:0:0:0:
231,154,95392,2,0,L|318:139,1,89,8|2,1:1|0:0,0:0:0:0:
124,106,95682,5,0,1:1:0:0:
142,293,95827,1,2,0:0:0:0:
323,135,95972,5,8,1:1:0:0:
290,321,96117,1,2,0:0:0:0:
237,99,96262,5,0,1:1:0:0:
383,230,96407,2,0,L|471:221,1,89,2|8,0:0|1:1,0:0:0:0:
419,141,96697,1,2,0:0:0:0:
290,321,96842,5,0,1:1:0:0:
237,99,96987,1,0,1:0:0:0:
88,206,97132,2,0,L|176:214,1,89,8|2,1:1|0:0,0:0:0:0:
331,124,97421,5,2,1:2:0:0:
337,117,97711,2,0,P|340:73|328:29,1,89,8|0,1:1|0:1,0:0:0:0:
176,214,98001,1,2,1:1:0:0:
178,203,98073,1,2,3:2:0:0:
180,192,98145,1,2,3:2:0:0:
181,181,98218,1,2,3:2:0:0:
183,170,98290,1,8,1:1:0:0:
250,326,98436,1,2,0:1:0:0:
337,117,98581,5,14,1:3:0:0:
255,308,98726,1,4,0:3:0:0:
183,170,98871,2,0,L|139:162,3,44.5,0|0|4|0,1:0|3:0|1:3|0:0,0:0:0:0:
130,83,99161,6,0,L|173:90,1,44.5,0|0,1:0|3:0,0:0:0:0:
194,250,99305,2,0,L|150:242,1,44.5,8|0,1:3|0:0,0:0:0:0:
253,109,99450,6,0,L|276:206,1,100.125003819466,8|0,1:0|0:0,0:0:0:0:
311,323,99740,5,4,1:0:0:0:
367,153,99885,1,0,0:0:0:0:
392,349,100030,5,8,1:1:0:0:
370,171,100175,1,2,0:0:0:0:
476,338,100320,6,0,L|476:249,1,89,0|0,1:1|0:1,0:0:0:0:
364,135,100610,2,0,L|364:224,1,89,8|2,1:1|0:0,0:0:0:0:
492,76,100900,5,2,1:2:0:0:
476,249,101045,1,2,0:0:0:0:
474,50,101189,6,0,L|314:38,1,160.199995111084,8|0,1:0|0:0,0:0:0:0:
187,99,101479,2,0,L|240:95,1,53.3999983703614,2|0,1:3|0:0,0:0:0:0:
310,138,101624,2,0,L|363:134,1,53.3999983703614,2|0,1:3|0:0,0:0:0:0:
444,230,101769,5,8,1:0:0:0:
417,228,101841,1,0,0:0:0:0:
390,226,101913,1,2,0:0:0:0:
364,224,101986,1,0,0:0:0:0:
336,221,102059,6,0,L|346:264,2,44.5,2|0|0,1:2|0:0|0:1,0:0:0:0:
187,99,102349,2,0,L|189:143,1,44.5,8|0,1:1|0:0,0:0:0:0:
141,227,102494,2,0,L|148:315,1,89,2|0,0:0|1:1,0:0:0:0:
53,110,102784,2,0,L|45:198,1,89,2|8,0:0|1:1,0:0:0:0:
13,378,103074,1,2,0:0:0:0:
141,227,103218,5,0,1:0:0:0:
267,353,103363,2,0,L|311:357,1,44.5,2|0,3:2|0:0,0:0:0:0:
384,311,103508,1,8,1:0:0:0:
406,308,103580,1,2,3:2:0:0:
428,306,103652,1,2,3:2:0:0:
450,304,103725,1,2,3:2:0:0:
472,302,103798,6,0,L|472:346,1,44.5,0|0,1:0|0:0,0:0:0:0:
349,239,103943,2,0,L|348:283,1,44.5,2|0,1:3|0:0,0:0:0:0:
451,144,104088,2,0,L|451:188,1,44.5,8|0,1:0|0:0,0:0:0:0:
328,81,104233,2,0,L|283:80,1,44.5,2|0,3:2|0:1,0:0:0:0:
368,214,104378,5,0,1:0:0:0:
167,183,104522,1,0,1:1:0:0:
268,384,104668,2,0,P|279:341|268:298,1,89,8|2,1:1|0:0,0:0:0:0:
89,140,104958,2,0,P|77:182|88:225,1,89,0|2,1:1|0:0,0:0:0:0:
219,3,105247,5,8,1:1:0:0:
167,183,105392,1,2,0:0:0:0:
223,19,105537,5,2,1:2:0:0:
275,199,105682,1,2,0:0:0:0:
72,95,105827,6,0,L|77:255,1,160.199995111084,8|0,1:1|0:0,0:0:0:0:
152,358,106117,2,0,L|153:304,1,53.3999983703614,2|0,1:2|0:1,0:0:0:0:
236,335,106262,2,0,L|237:281,1,53.3999983703614,2|0,1:1|0:1,0:0:0:0:
319,312,106407,5,8,1:1:0:0:
346,306,106479,1,0,0:0:0:0:
372,305,106551,1,2,0:0:0:0:
399,310,106624,1,0,0:0:0:0:
423,317,106697,6,0,L|418:229,1,89,0|2,1:0|3:0,0:0:0:0:
328,93,106914,1,0,1:0:0:0:
328,93,106987,2,0,L|325:137,1,44.5,8|0,1:0|0:0,0:0:0:0:
223,247,107132,1,2,3:0:0:0:
170,239,107204,1,0,1:0:0:0:
117,230,107276,6,0,P|132:189|128:145,1,89,0|2,1:0|3:0,0:0:0:0:
60,93,107494,2,0,P|87:127|127:145,1,89,0|0,1:0|1:0,0:0:0:0:
208,112,107711,2,0,P|185:113|164:120,1,44.5,0|0,1:0|0:0,0:0:0:0:
266,173,107856,6,0,P|289:172|310:165,1,44.5,0|0,1:0|3:0,0:0:0:0:
410,103,108001,1,0,1:0:0:0:
410,103,108074,1,0,0:0:0:0:
410,103,108146,1,8,1:0:0:0:
342,251,108291,2,0,L|347:339,1,89,0|0,0:0|1:0,0:0:0:0:
439,180,108581,1,0,0:0:0:0:
223,247,108726,1,2,1:3:0:0:
212,255,109016,6,0,P|168:258|126:245,1,89,4|0,1:1|0:1,0:0:0:0:
0,152,109305,2,0,P|44:155|86:142,1,89,8|2,1:1|0:0,0:0:0:0:
210,17,109595,1,0,1:1:0:0:
182,177,109740,1,2,0:0:0:0:
346,126,109885,1,8,1:1:0:0:
151,86,110030,1,2,0:0:0:0:
363,34,110175,5,4,1:1:0:0:
328,220,110320,2,0,L|312:307,1,89,2|8,0:0|1:1,0:0:0:0:
504,194,110610,2,0,P|461:183|417:191,1,89,2|0,0:0|1:1,0:0:0:0:
304,316,110900,2,0,P|261:326|217:318,1,89,2|8,0:0|1:1,0:0:0:0:
76,249,111189,1,2,0:0:0:0:
282,164,111334,6,0,B|251:140|251:140|259:233,1,133.5,2|0,1:2|0:0,0:0:0:0:
254,240,111624,2,0,B|211:233|211:233|167:245,1,89,8|0,1:0|0:0,0:0:0:0:
365,131,111914,5,2,1:2:0:0:
308,333,112059,1,2,0:0:0:0:
245,134,112204,5,8,1:0:0:0:
304,316,112349,1,2,0:0:0:0:
382,210,112494,6,0,L|372:121,1,89,0|2,1:0|3:0,0:0:0:0:
246,41,112784,5,8,1:0:0:0:
246,41,112880,2,0,L|187:48,1,59.3333333333333,0|0,0:0|0:0,0:0:0:0:
81,119,113074,6,0,L|139:126,1,59.3333333333333,2|0,1:3|0:0,0:0:0:0:
243,211,113267,5,0,0:0:0:0:
243,211,113363,2,0,L|155:225,1,89,8|2,1:0|0:1,0:0:0:0:
52,329,113653,5,0,1:0:0:0:
139,126,113798,1,0,1:3:0:0:
195,345,113943,2,0,B|154:345|124:329|124:329|96:322|65:334,1,133.5,8|0,1:0|0:0,0:0:0:0:
52,328,114233,2,0,P|54:284|41:242,1,89,0|2,1:0|0:0,0:0:0:0:
187,48,114523,1,8,1:0:0:0:
155,225,114668,1,2,0:0:0:0:
90,47,114813,5,2,1:2:0:0:
243,211,114958,2,0,L|331:220,1,89,2|8,0:0|1:0,0:0:0:0:
187,48,115247,2,0,L|98:57,1,89,2|0,0:0|1:0,0:0:0:0:
41,242,115537,1,2,0:2:0:0:
250,302,115682,1,8,1:0:0:0:
157,148,115827,1,2,0:2:0:0:
217,356,115972,6,0,B|210:313|228:266|228:266|237:289|249:301,1,133.5,2|0,1:2|0:0,0:0:0:0:
304,244,116262,2,0,P|347:252|391:245,1,89,8|2,1:0|0:0,0:0:0:0:
194,103,116552,5,0,1:0:0:0:
249,300,116697,1,2,0:0:0:0:
347,162,116842,5,8,1:0:0:0:
297,368,116987,1,2,3:2:0:0:
217,195,117132,6,0,L|85:174,1,133.5,0|0,1:0|0:0,0:0:0:0:
67,186,117421,6,0,L|64:130,1,44.5,0|0,1:0|3:0,0:0:0:0:
61,60,117566,1,0,0:0:0:0:
160,279,117711,6,0,L|170:222,1,57.8499973518373,0|0,1:0|3:0,0:0:0:0:
194,103,117856,1,0,0:0:0:0:
297,368,118001,5,4,1:2:0:0:
311,143,118291,6,0,P|295:198|303:255,1,115.699994703675,4|0,1:0|0:0,0:0:0:0:
297,367,118508,2,0,P|312:312|304:255,1,115.699994703675,0|0,1:0|0:0,0:0:0:0:
194,103,118726,2,0,P|178:158|186:215,1,115.699994703675,0|0,1:0|0:0,0:0:0:0:
180,327,118943,2,0,P|195:271|187:214,1,115.699994703675,0|0,1:0|0:0,0:0:0:0:
91,70,119161,5,8,1:0:0:0:
91,70,119450,6,0,L|206:63,1,115.699994703675,0|0,1:0|0:0,0:0:0:0:
47,148,119668,2,0,L|162:141,1,115.699994703675,0|0,1:0|0:0,0:0:0:0:
278,148,119885,2,0,L|162:141,1,115.699994703675,0|0,1:0|0:0,0:0:0:0:
315,225,120103,2,0,L|199:218,1,115.699994703675,0|0,1:0|0:0,0:0:0:0:
90,222,120320,1,8,1:0:0:0:
90,222,120610,6,0,P|145:236|199:218,1,115.699994703675,0|0,1:0|0:0,0:0:0:0:
300,131,120827,2,0,P|355:116|409:134,1,115.699994703675,0|0,1:0|0:0,0:0:0:0:
413,285,121045,2,0,P|361:307|305:297,1,115.699994703675,0|0,1:0|0:0,0:0:0:0:
199,218,121262,2,0,P|144:203|90:222,1,115.699994703675,0|0,1:0|0:0,0:0:0:0:
86,373,121479,5,8,1:0:0:0:
85,372,121769,6,0,L|209:366,1,115.699994703675,0|0,1:0|0:0,0:0:0:0:
304,297,121987,2,0,L|180:290,1,115.699994703675,0|0,1:0|0:0,0:0:0:0:
90,222,122204,2,0,L|147:218,1,57.8499973518373,0|0,1:0|0:0,0:0:0:0:
296,206,122349,5,0,1:0:0:0:
307,161,122421,1,0,1:0:0:0:
318,115,122494,2,0,L|307:58,1,57.8499973518373,0|0,0:0|0:0,0:0:0:0:
201,10,122639,5,8,1:0:0:0:
371,12,122784,1,0,0:0:0:0:
161,115,122929,6,0,P|105:131|49:123,1,115.699994703675,0|0,1:0|0:0,0:0:0:0:
152,230,123146,2,0,L|161:114,1,115.699994703675,0|0,1:0|0:0,0:0:0:0:
295,205,123363,2,0,P|350:220|406:212,1,115.699994703675,0|0,1:0|1:0,0:0:0:0:
304,320,123581,2,0,L|294:204,1,115.699994703675,0|0,1:0|0:0,0:0:0:0:
256,56,123798,5,8,1:0:0:0:
142,151,123943,1,2,3:0:0:0:
359,116,124088,6,0,B|365:172|365:172|407:212,1,115.699994703675,0|0,1:0|0:0,0:0:0:0:
395,356,124305,2,0,B|389:300|389:300|346:259,1,115.699994703675,0|0,1:0|0:0,0:0:0:0:
209,284,124523,2,0,B|166:324|166:324|160:380,1,115.699994703675,0|0,1:0|1:0,0:0:0:0:
147,236,124740,2,0,B|189:195|189:195|195:139,1,115.699994703675,0|0,1:0|0:0,0:0:0:0:
255,7,124958,5,8,1:0:0:0:
359,116,125103,1,2,3:0:0:0:
195,138,125247,6,0,P|138:129|96:90,1,115.699994703675,0|0,1:0|0:0,0:0:0:0:
230,213,125465,2,0,P|184:247|127:248,1,115.699994703675,2|0,1:3|0:0,0:0:0:0:
308,241,125682,2,0,P|299:297|260:339,1,115.699994703675,2|0,1:3|0:0,0:0:0:0:
383,204,125900,2,0,P|417:249|418:306,1,115.699994703675,0|0,1:0|0:0,0:0:0:0:
409,124,126117,2,0,L|407:66,3,57.8499973518373,8|0|2|0,1:0|0:0|0:0|0:0,0:0:0:0:
325,15,126407,5,6,1:3:0:0:
325,15,126987,5,0,1:3:0:0:
326,49,127059,1,4,1:3:0:0:
327,84,127131,1,4,1:3:0:0:
328,119,127204,1,4,1:3:0:0:
357,155,127276,5,0,1:3:0:0:
355,190,127348,1,4,1:3:0:0:
354,225,127420,1,4,1:3:0:0:
353,260,127493,1,4,1:3:0:0:
333,305,127566,5,10,1:3:0:0:
