osu file format v14

[General]
AudioFilename: audioshot.mp3
AudioLeadIn: 0
PreviewTime: 89233
Countdown: 0
SampleSet: Soft
StackLeniency: 0.7
Mode: 0
LetterboxInBreaks: 0
WidescreenStoryboard: 1

[Editor]
Bookmarks: 1320,11754,30305,48856,53493,62769,72044,90595,94523,109146,118421,127696
DistanceSpacing: 1
BeatDivisor: 2
GridSize: 4
TimelineZoom: 1.2

[Metadata]
Title:BroGamer
TitleUnicode:BroGamer
Artist:USAO
ArtistUnicode:USAO
Creator:Arrival
Version:Kyuukai's Normal
Source:beatmania IIDX 24 SINOBUZ
Tags:headshot gg noob dubstep camping fire in the hole hardstyle bemani konami super ultimate hyper core trap realazy linada alheak worminators avena priti kyuukai unmei muma gezo
BeatmapID:1378367
BeatmapSetID:635636

[Difficulty]
HPDrainRate:3
CircleSize:3
OverallDifficulty:4
ApproachRate:5
SliderMultiplier:0.8
SliderTickRate:1

[Events]
//Background and Video events
0,0,"bruh-1-iloveimg-resized.jpg",0,0
//Break Periods
2,2549,3468
2,48926,49845
2,62839,66076
//Storyboard Layer 0 (Background)
//Storyboard Layer 1 (Fail)
//Storyboard Layer 2 (Pass)
//Storyboard Layer 3 (Foreground)
//Storyboard Sound Samples

[TimingPoints]
1190,289.855072463768,4,2,42,60,1,0
1190,-100,4,2,42,60,0,0
6987,-100,4,2,42,60,0,0
9885,-100,4,1,42,40,0,0
10465,-100,4,2,42,60,0,0
16262,-100,4,3,42,70,0,0
18291,-100,4,3,42,70,0,0
18871,-100,4,3,42,70,0,0
20755,-100,4,3,42,70,0,0
20900,-100,4,3,42,80,0,0
27856,-100,4,1,42,60,0,0
28146,-100,4,1,42,80,0,0
28218,-100,4,1,42,60,0,0
28726,-100,4,1,42,80,0,0
28798,-100,4,1,42,60,0,0
29016,-100,4,1,42,80,0,0
29595,-100,4,3,42,80,0,0
36842,-100,4,3,42,80,0,0
37421,-100,4,3,42,80,0,0
46117,-100,4,3,42,80,0,0
47566,-100,4,3,42,80,0,0
48146,-100,4,3,42,80,0,0
48291,-100,4,3,42,80,0,0
53363,-100,4,2,42,90,0,1
58001,-100,4,3,42,90,0,1
61624,-100,4,3,42,90,0,1
62349,-100,4,3,42,90,0,1
62639,-100,4,3,42,90,0,0
67276,-100,4,2,42,60,0,0
70755,-100,4,2,42,90,0,0
71914,-100,4,2,42,60,0,0
80610,-100,4,2,42,60,0,0
80755,-100,4,2,42,60,0,0
81189,-100,4,2,42,70,0,0
86987,-100,4,2,42,70,0,0
89305,-100,4,2,42,70,0,0
90465,-100,4,2,42,80,0,1
94233,-100,4,2,42,80,0,1
98871,-100,4,2,42,80,0,1
99740,-100,4,2,42,80,0,1
108726,-100,4,2,42,80,0,1
109016,-100,4,2,42,80,0,1
117711,-100,4,2,42,80,0,1
118291,-100,4,2,42,90,0,1
125247,-100,4,3,42,90,0,1
126987,-100,4,2,42,80,0,1
127059,-100,4,2,42,45,0,1
127276,-100,4,2,42,80,0,1
127349,-100,4,2,42,45,0,1
127566,-100,4,2,42,60,0,0

[Colours]
Combo1 : 204,138,225
Combo2 : 241,88,80
Combo3 : 118,243,137
Combo4 : 121,155,236

[HitObjects]
256,192,1190,12,0,2349,0:0:0:0:
256,192,4668,12,0,6117,0:0:0:0:
168,125,6987,6,0,L|264:117,1,80,4|8,1:0|0:0,0:0:0:0:
312,69,7566,2,0,L|391:75,1,80,0|8,1:0|0:0,0:0:0:0:
464,41,8146,2,0,P|468:101|452:129,1,80,0|8,1:0|0:0,0:0:0:0:
388,157,8726,2,0,P|384:217|400:245,1,80,0|8,1:0|0:0,0:0:0:0:
445,292,9305,1,0,1:0:0:0:
256,192,9450,12,10,10465,1:3:0:0:
445,292,11624,6,0,P|398:287|336:298,1,80,4|8,1:0|1:0,0:0:0:0:
303,340,12204,2,0,P|263:344|223:341,1,80,0|8,1:0|1:0,0:0:0:0:
152,305,12784,2,0,L|142:202,1,80,0|8,1:0|1:0,0:0:0:0:
66,207,13363,2,0,L|73:127,1,80,0|8,1:0|1:0,0:0:0:0:
134,74,13943,6,0,P|181:79|242:61,1,80,0|8,1:0|1:0,0:0:0:0:
280,30,14523,2,0,P|319:24|358:29,1,80,0|8,1:0|1:0,0:0:0:0:
423,77,15103,2,0,L|422:159,1,80,0|8,1:0|1:0,0:0:0:0:
420,237,15682,1,0,1:0:0:0:
418,317,15972,1,8,1:0:0:0:
349,275,16262,6,0,L|289:270,1,40,6|0,1:3|0:0,0:0:0:0:
278,245,16552,2,0,L|198:251,1,80,8|0,1:0|0:0,0:0:0:0:
118,261,17132,1,8,1:0:0:0:
58,313,17421,2,0,P|41:279|45:231,1,80,0|8,0:0|1:0,0:0:0:0:
99,182,18001,2,0,L|91:112,1,40,0|0,1:0|1:0,0:0:0:0:
122,113,18291,2,0,L|114:43,1,40,8|0,1:0|0:0,0:0:0:0:
138,39,18581,6,0,P|181:32|231:42,1,80,4|8,1:3|1:0,0:0:0:0:
286,77,19161,2,0,L|360:63,2,40,0|2|8,0:0|0:2|1:0,0:0:0:0:
229,133,19740,2,0,L|239:244,1,80,0|8,1:0|1:0,0:0:0:0:
192,279,20320,2,0,L|118:265,2,40,4|4|4,1:3|1:3|1:3,0:0:0:0:
248,335,20900,6,0,P|296:330|357:345,1,80,4|10,1:0|1:0,0:0:0:0:
397,372,21479,2,0,P|406:329|386:277,1,80,0|8,1:0|1:0,0:0:0:0:
328,252,22059,2,0,P|319:209|339:157,1,80,0|10,1:0|1:0,0:0:0:0:
391,126,22639,2,0,L|385:58,1,40,2|2,0:2|0:2,0:0:0:0:
382,46,22929,1,8,1:0:0:0:
306,71,23218,6,0,P|256:75|193:62,1,80,6|8,1:3|1:0,0:0:0:0:
155,34,23798,2,0,P|105:30|42:43,1,80,0|10,1:0|1:0,0:0:0:0:
21,93,24378,2,0,L|28:192,1,80,0|8,1:0|1:0,0:0:0:0:
86,226,24958,2,0,L|80:293,1,40,0|2,1:0|1:3,0:0:0:0:
79,305,25247,1,8,1:0:0:0:
144,350,25537,6,0,L|205:342,1,40,0|0,1:0|1:0,0:0:0:0:
214,318,25827,2,0,L|304:323,1,80,8|0,1:0|1:0,0:0:0:0:
374,327,26407,1,8,1:0:0:0:
438,279,26697,2,0,P|431:236|437:184,1,80,0|10,1:0|1:0,0:0:0:0:
496,151,27276,2,0,P|496:117|492:91,1,40,2|2,0:2|0:2,0:0:0:0:
488,71,27566,1,8,1:0:0:0:
412,43,27856,6,0,L|421:-5,2,40,0|0|8,0:0|0:0|0:0,0:0:0:0:
360,104,28436,2,0,P|314:101|270:107,1,80,0|8,0:0|0:0,0:0:0:0:
229,167,29016,2,0,P|189:170|149:167,1,80,14|8,0:3|0:0,0:0:0:0:
71,150,29595,2,0,L|65:199,1,40,0|2,1:0|0:0,0:0:0:0:
34,215,29885,2,0,L|28:264,1,40,4|10,0:0|0:0,0:0:0:0:
25,294,30175,6,0,P|66:292|120:308,1,80,4|8,1:0|1:0,0:0:0:0:
167,350,30755,1,0,1:0:0:0:
238,314,31045,1,8,1:0:0:0:
306,273,31334,2,0,L|414:281,1,80,0|8,1:0|1:0,0:0:0:0:
447,329,31914,2,0,P|465:282|458:247,1,80,0|8,1:0|1:0,0:0:0:0:
400,200,32494,6,0,L|408:92,1,80,0|8,1:0|1:0,0:0:0:0:
369,48,33074,2,0,L|296:41,1,40,0|0,1:0|1:0,0:0:0:0:
289,39,33363,1,8,1:0:0:0:
211,18,33653,2,0,L|131:27,1,80,0|8,1:0|1:0,0:0:0:0:
74,84,34233,2,0,L|68:163,1,80,2|8,1:3|1:0,0:0:0:0:
26,232,34813,6,0,P|57:243|116:228,1,80,0|8,1:0|1:0,0:0:0:0:
171,194,35392,2,0,P|191:172|201:151,1,40,0|0,1:0|0:0,0:0:0:0:
212,126,35682,1,8,1:0:0:0:
271,72,35972,2,0,P|301:61|360:76,1,80,0|8,1:0|1:0,0:0:0:0:
414,113,36552,2,0,P|421:142|419:169,1,40,0|2,1:0|0:0,0:0:0:0:
405,189,36842,2,0,P|398:218|400:245,1,40,8|0,1:0|0:0,0:0:0:0:
419,262,37132,6,0,P|426:301|419:351,1,80,0|0,1:0|1:0,0:0:0:0:
346,369,37711,2,0,L|256:362,1,80,0|0,1:0|1:0,0:0:0:0:
186,356,38291,1,0,0:0:0:0:
128,300,38581,2,0,L|48:306,2,80,0|4|0,0:0|1:3|1:0,0:0:0:0:
177,236,39450,6,0,L|172:132,1,80,4|8,1:0|1:0,0:0:0:0:
213,86,40030,2,0,P|254:79|304:87,1,80,0|8,1:0|1:0,0:0:0:0:
347,140,40610,2,0,P|388:147|438:139,1,80,0|8,1:0|1:0,0:0:0:0:
490,96,41189,2,0,P|504:133|488:193,1,80,0|8,1:0|1:0,0:0:0:0:
435,221,41769,2,0,L|446:333,2,80,0|8|0,1:0|1:0|1:0,0:0:0:0:
425,142,42639,1,8,1:0:0:0:
413,62,42929,5,0,1:0:0:0:
350,111,43218,2,0,P|302:106|253:116,1,80,8|0,1:0|1:0,0:0:0:0:
201,150,43798,1,8,1:0:0:0:
126,119,44088,2,0,L|107:22,1,80,0|8,1:0|1:0,0:0:0:0:
30,41,44668,2,0,L|22:80,1,40,0|0,1:0|1:0,0:0:0:0:
16,120,44958,1,8,1:0:0:0:
69,178,45247,6,0,L|70:286,1,80,0|8,1:0|1:0,0:0:0:0:
132,308,45827,2,0,L|133:379,2,40,2|2|8,1:3|0:2|1:0,0:0:0:0:
192,255,46407,1,8,1:0:0:0:
256,192,46552,12,12,47566,1:3:0:0:
256,192,48726,5,0,0:0:0:0:
256,192,51045,12,8,52204,1:0:0:0:
472,355,53363,6,0,P|459:292|469:223,1,120,0|0,1:0|1:0,0:0:0:0:
484,201,53943,2,0,L|479:94,1,80,0|8,0:0|1:0,0:0:0:0:
426,61,54523,2,0,P|363:74|294:64,1,120,0|0,1:0|1:0,0:0:0:0:
272,49,55103,2,0,L|165:54,1,80,0|8,0:0|1:0,0:0:0:0:
117,81,55682,6,0,P|130:144|120:213,1,120,0|0,1:0|1:0,0:0:0:0:
105,235,56262,2,0,L|110:342,1,80,0|8,0:0|1:0,0:0:0:0:
178,355,56842,2,0,P|241:342|310:352,1,120,0|0,1:0|1:0,0:0:0:0:
331,366,57421,2,0,L|383:362,1,40,0|0,1:0|0:0,0:0:0:0:
411,360,57711,1,8,1:0:0:0:
449,289,58001,6,0,L|437:147,1,120,2|0,1:3|1:0,0:0:0:0:
434,129,58581,1,0,0:0:0:0:
426,49,58871,1,8,1:0:0:0:
345,49,59161,2,0,L|333:191,1,120,2|0,1:3|1:0,0:0:0:0:
330,209,59741,1,0,0:0:0:0:
322,289,60031,1,8,1:0:0:0:
254,247,60320,2,0,P|185:239|106:258,1,120,2|0,1:3|1:0,0:0:0:0:
104,273,60900,2,0,L|32:269,1,40,0|0,0:0|0:0,0:0:0:0:
24,269,61189,1,8,1:0:0:0:
256,192,61479,12,2,62639,0:0:0:0:
256,192,67276,5,4,1:0:0:0:
256,192,68436,12,10,70755,1:3:0:0:
32,352,71914,6,0,L|129:343,1,80,0|8,1:0|1:2,0:0:0:0:
178,300,72494,2,0,L|257:307,1,80,0|8,0:0|1:2,0:0:0:0:
318,360,73074,2,0,P|337:313|331:272,1,80,0|8,0:0|1:2,0:0:0:0:
277,228,73653,1,0,0:0:0:0:
297,150,73943,1,8,1:2:0:0:
315,72,74233,6,0,L|414:66,2,80,0|8|2,1:0|1:2|0:0,0:0:0:0:
235,79,75103,1,8,1:2:0:0:
217,156,75392,2,0,L|137:160,2,80,0|8|2,1:0|1:2|0:0,0:0:0:0:
297,150,76262,1,8,1:2:0:0:
356,203,76552,6,0,L|361:282,1,80,0|8,1:0|1:2,0:0:0:0:
441,283,77132,2,0,L|446:203,1,80,0|8,0:0|1:2,0:0:0:0:
403,135,77711,1,0,0:0:0:0:
407,55,78001,1,8,1:2:0:0:
335,90,78291,2,0,L|234:89,1,80,0|8,0:0|1:2,0:0:0:0:
207,24,78871,6,0,L|127:24,1,80,4|8,1:3|1:2,0:0:0:0:
57,64,79450,2,0,P|63:129|53:167,1,80,0|8,1:0|1:2,0:0:0:0:
90,217,80030,6,0,L|169:217,1,80,0|0,1:0|0:0,0:0:0:0:
247,198,80610,2,0,L|248:248,1,40,0|0,0:0|0:0,0:0:0:0:
278,264,80900,2,0,L|279:314,1,40,0|6,0:0|0:3,0:0:0:0:
280,343,81189,6,0,L|359:342,1,80,4|8,1:0|1:2,0:0:0:0:
421,290,81769,2,0,L|420:210,1,80,0|8,1:0|1:2,0:0:0:0:
353,165,82349,2,0,L|353:85,1,80,0|8,1:0|1:2,0:0:0:0:
209,14,83218,1,8,1:2:0:0:
146,64,83508,6,0,L|145:143,1,80,4|8,1:3|0:0,0:0:0:0:
144,304,84378,1,8,0:0:0:0:
256,188,84958,1,8,0:0:0:0:
368,304,85537,1,8,1:2:0:0:
428,251,85827,6,0,P|424:209|430:164,1,80,4|8,1:0|1:2,0:0:0:0:
467,101,86407,1,0,1:0:0:0:
414,40,86697,2,0,L|355:37,1,40,8|0,1:2|1:0,0:0:0:0:
337,21,86987,2,0,L|257:23,1,80,0|8,1:0|1:2,0:0:0:0:
194,72,87566,2,0,L|154:70,1,40,0|0,1:0|0:0,0:0:0:0:
121,46,87856,2,0,L|81:47,1,40,8|0,1:2|1:0,0:0:0:0:
40,49,88146,1,0,1:0:0:0:
256,192,88291,12,4,89305,1:0:0:0:
23,40,90465,6,0,L|17:155,1,80,4|8,1:1|1:1,0:0:0:0:
89,157,91045,2,0,L|93:236,1,80,2|8,1:2|1:1,0:0:0:0:
143,299,91624,2,0,P|99:316|46:301,2,80,0|8|0,1:1|1:1|1:1,0:0:0:0:
205,248,92494,1,8,1:1:0:0:
268,198,92784,6,0,L|376:200,1,80,2|8,1:2|1:1,0:0:0:0:
389,267,93363,2,0,L|468:265,1,80,0|8,1:1|1:1,0:0:0:0:
511,197,93943,2,0,L|503:95,1,80,0|8,1:0|1:0,0:0:0:0:
459,51,94523,2,0,L|379:52,1,80,0|8,1:0|1:0,0:0:0:0:
309,91,95103,6,0,P|266:77|196:87,1,80,4|8,1:0|1:1,0:0:0:0:
172,131,95682,2,0,L|92:129,1,80,0|8,1:1|1:1,0:0:0:0:
26,82,96262,2,0,P|12:129|20:164,1,80,0|8,1:1|1:1,0:0:0:0:
79,209,96842,2,0,L|80:276,1,40,0|0,1:1|1:0,0:0:0:0:
80,289,97132,1,8,1:1:0:0:
157,268,97421,6,0,P|195:259|262:281,1,80,2|8,1:2|1:1,0:0:0:0:
301,310,98001,1,2,1:1:0:0:
365,357,98291,1,8,1:1:0:0:
425,304,98581,2,0,B|409:214|409:214|432:129,1,160,14|0,1:3|1:0,0:0:0:0:
453,72,99450,1,8,1:0:0:0:
383,31,99740,6,0,L|275:30,1,80,4|8,1:0|1:1,0:0:0:0:
228,61,100320,2,0,P|231:108|227:169,1,80,0|8,1:1|1:1,0:0:0:0:
182,205,100900,2,0,L|90:196,2,80,2|8|2,1:2|1:0|1:3,0:0:0:0:
261,214,101769,1,8,1:0:0:0:
330,254,102059,6,0,P|333:301|329:362,1,80,2|8,1:2|1:1,0:0:0:0:
397,379,102639,2,0,L|502:371,1,80,0|8,1:1|1:1,0:0:0:0:
478,292,103218,2,0,P|477:252|479:212,1,80,0|8,1:0|1:0,0:0:0:0:
497,133,103798,2,0,L|495:69,1,40,0|2,1:0|1:3,0:0:0:0:
495,52,104088,1,8,1:0:0:0:
416,38,104378,6,0,L|385:-8,2,40,0|0|8,1:0|1:1|1:1,0:0:0:0:
367,102,104958,2,0,L|363:199,1,80,0|8,1:1|1:1,0:0:0:0:
397,254,105537,2,0,P|344:260|299:228,1,80,2|8,1:2|1:1,0:0:0:0:
254,204,106117,1,2,1:2:0:0:
205,140,106407,1,8,1:1:0:0:
256,192,106697,12,0,107856,1:0:0:0:
256,36,108726,5,2,1:3:0:0:
196,88,109016,6,0,L|196:196,1,80,4|8,1:1|1:1,0:0:0:0:
238,235,109595,2,0,P|283:231|344:243,1,80,0|8,1:1|1:1,0:0:0:0:
368,297,110175,2,0,P|413:301|474:289,1,80,4|8,1:1|1:1,0:0:0:0:
501,237,110755,2,0,L|501:157,1,80,0|8,1:1|1:1,0:0:0:0:
440,104,111334,6,0,P|459:59|456:17,2,80,2|8|2,1:2|1:0|1:2,0:0:0:0:
386,164,112204,1,8,1:0:0:0:
320,117,112494,2,0,P|275:98|233:101,1,80,0|8,1:0|1:0,0:0:0:0:
177,142,113074,2,0,L|109:135,1,40,2|0,1:3|1:0,0:0:0:0:
97,132,113363,1,8,1:0:0:0:
40,188,113653,6,0,L|48:254,1,40,0|0,1:0|1:3,0:0:0:0:
51,267,113943,1,8,1:0:0:0:
111,319,114233,2,0,P|157:311|216:328,1,80,0|8,1:0|1:0,0:0:0:0:
262,281,114813,2,0,L|255:195,2,80,2|8|0,1:2|1:0|1:0,0:0:0:0:
306,347,115682,1,8,1:0:0:0:
372,303,115972,6,0,L|473:306,1,80,2|8,1:2|1:0,0:0:0:0:
498,240,116552,2,0,P|503:200|498:159,1,80,0|8,1:0|1:0,0:0:0:0:
472,84,117132,2,0,B|395:62|395:62|329:112|217:77,1,240,0|4,1:0|1:2,0:0:0:0:
163,68,118291,6,0,P|163:138|158:194,1,120,4|0,1:0|1:0,0:0:0:0:
135,220,118871,2,0,L|142:318,1,80,0|8,0:0|1:0,0:0:0:0:
206,345,119450,2,0,P|276:345|332:340,1,120,0|0,1:0|1:0,0:0:0:0:
356,314,120030,2,0,L|454:307,1,80,0|8,0:0|1:0,0:0:0:0:
473,237,120610,6,0,P|472:166|477:110,1,120,0|0,1:0|1:0,0:0:0:0:
439,102,121189,2,0,L|432:4,1,80,0|8,0:0|1:0,0:0:0:0:
354,36,121769,6,0,P|283:36|227:31,1,120,0|0,1:0|1:0,0:0:0:0:
219,70,122349,2,0,L|136:76,1,80,0|8,1:0|1:0,0:0:0:0:
62,50,122929,6,0,P|60:87|81:132,1,80,0|0,1:0|0:0,0:0:0:0:
149,157,123508,2,0,L|147:215,1,40,0|0,1:0|0:0,0:0:0:0:
147,237,123798,1,8,1:0:0:0:
82,284,124088,6,0,P|157:314|208:286,1,120,0|0,1:0|1:0,0:0:0:0:
224,281,124668,1,0,1:0:0:0:
279,223,124958,1,8,1:0:0:0:
327,286,125247,6,0,P|357:210|328:160,1,120,0|2,1:0|1:3,0:0:0:0:
323,145,125827,1,0,0:0:0:0:
265,90,126117,1,8,1:0:0:0:
207,145,126407,1,6,1:3:0:0:
256,192,126552,12,10,127566,1:3:0:0:
