osu file format v14

[General]
AudioFilename: audioshot.mp3
AudioLeadIn: 0
PreviewTime: 89233
Countdown: 0
SampleSet: None
StackLeniency: 0.3
Mode: 0
LetterboxInBreaks: 0
WidescreenStoryboard: 0

[Editor]
Bookmarks: 11624,20900,30175,39450,48726,53363,62639,71914,81189,90465,111624,118291,127566
DistanceSpacing: 1
BeatDivisor: 4
GridSize: 4
TimelineZoom: 2.2

[Metadata]
Title:BroGamer
TitleUnicode:BroGamer
Artist:USAO
ArtistUnicode:USAO
Creator:Arrival
Version:Avena's Ultra
Source:beatmania IIDX 24 SINOBUZ
Tags:headshot gg noob dubstep camping fire in the hole hardstyle bemani konami super ultimate hyper core trap realazy linada alheak worminators avena priti kyuukai unmei muma gezo
BeatmapID:1395749
BeatmapSetID:635636

[Difficulty]
HPDrainRate:7.7
CircleSize:4.2
OverallDifficulty:9
ApproachRate:9.4
SliderMultiplier:2
SliderTickRate:1

[Events]
//Background and Video events
0,0,"bruh-1-iloveimg-resized.jpg",0,0
//Break Periods
2,62839,65577
//Storyboard Layer 0 (Background)
//Storyboard Layer 1 (Fail)
//Storyboard Layer 2 (Pass)
//Storyboard Layer 3 (Foreground)
//Storyboard Sound Samples

[TimingPoints]
1190,289.855072463768,4,2,42,60,1,0
9885,-100,4,1,42,40,0,0
10465,-100,4,2,42,60,0,0
16262,-100,4,3,42,70,0,0
20900,-71.4285714285714,4,3,42,80,0,0
26407,-89.2857142857143,4,3,42,80,0,0
26697,-119.047619047619,4,3,42,80,0,0
26987,-178.571428571429,4,3,42,80,0,0
27276,-71.4285714285714,4,3,42,80,0,0
27856,-71.4285714285714,4,1,42,60,0,0
28146,-71.4285714285714,4,1,42,80,0,0
28218,-71.4285714285714,4,1,42,60,0,0
28726,-71.4285714285714,4,1,42,80,0,0
28798,-71.4285714285714,4,1,42,60,0,0
29016,-71.4285714285714,4,1,42,80,0,0
29595,-71.4285714285714,4,3,42,80,0,0
33653,-200,4,3,42,80,0,0
33943,-71.4285714285714,4,3,42,80,0,0
53363,-200,4,2,42,90,0,0
58001,-71.4285714285714,4,3,42,90,0,0
67276,-100,4,2,42,60,0,0
70755,-71.4285714285714,4,2,42,90,0,0
71914,-100,4,2,42,60,0,0
81189,-83.3333333333333,4,2,42,70,0,0
85827,-71.4285714285714,4,2,42,70,0,0
90465,-57.1428571428571,4,2,42,80,0,1
108726,-200,4,2,42,80,0,0
109016,-57.1428571428571,4,2,42,80,0,1
118291,-200,4,2,42,90,0,0
122929,-62.5,4,2,42,90,0,0
125247,-62.5,4,3,42,90,0,0
126987,-57.1428571428571,4,2,42,80,0,0
127059,-57.1428571428571,4,2,42,45,0,0
127276,-57.1428571428571,4,2,42,80,0,0
127349,-57.1428571428571,4,2,42,45,0,0
127566,-100,4,2,42,60,0,0

[Colours]
Combo1 : 204,138,225
Combo2 : 241,88,80
Combo3 : 118,243,137
Combo4 : 121,155,236

[HitObjects]
256,192,1190,12,0,6842,0:0:0:0:
402,98,6987,6,0,P|345:122|171:102,1,200,4|8,1:0|0:0,0:0:0:0:
121,70,7421,1,0,0:0:0:0:
21,191,7566,2,0,L|28:310,1,100,0|0,1:0|0:0,0:0:0:0:
208,341,7856,2,0,L|213:241,1,100,8|0,0:0|0:0,0:0:0:0:
121,70,8146,5,0,1:0:0:0:
220,66,8290,1,0,0:0:0:0:
320,62,8435,1,8,0:0:0:0:
420,59,8580,1,0,0:0:0:0:
232,367,8726,5,0,1:0:0:0:
228,267,8870,1,0,0:0:0:0:
224,167,9015,1,8,0:0:0:0:
220,66,9160,1,0,0:0:0:0:
328,264,9305,6,0,L|208:268,1,100,0|0,1:0|0:0,0:0:0:0:
203,261,9523,1,0,1:0:0:0:
178,255,9595,1,8,0:0:0:0:
136,280,9667,1,0,1:0:0:0:
87,277,9739,1,0,1:0:0:0:
49,245,9812,1,0,1:0:0:0:
37,197,9886,6,0,L|51:176,1,25
60,194,9958,2,0,L|70:171,1,25
83,187,10031,2,0,L|89:162,1,25
104,176,10103,2,0,L|106:151,1,25
123,161,10176,2,0,L|121:136,1,25
139,143,10248,2,0,L|132:118,1,25
151,124,10321,2,0,L|140:101,1,25
161,102,10393,2,0,L|146:81,1,25
79,34,10465,5,10,1:3:0:0:
79,34,11624,6,0,L|196:37,1,100,4|0,1:0|0:0,0:0:0:0:
385,90,11914,2,0,P|369:137|366:187,1,100,8|0,1:0|0:0,0:0:0:0:
259,356,12204,2,0,P|255:306|240:258,1,100,0|0,1:0|0:0,0:0:0:0:
46,111,12494,1,8,1:0:0:0:
89,309,12639,1,0,0:0:0:0:
239,173,12784,6,0,L|366:178,1,100,0|0,1:0|0:0,0:0:0:0:
492,342,13074,2,0,P|432:349|376:371,1,100,8|0,1:0|0:0,0:0:0:0:
433,58,13363,1,0,1:0:0:0:
452,156,13508,1,0,0:0:0:0:
472,254,13653,2,0,L|345:249,1,100,8|0,1:0|0:0,0:0:0:0:
124,98,13943,6,0,P|186:88|237:47,1,100,0|0,1:0|0:0,0:0:0:0:
281,331,14233,2,0,P|237:306|188:301,1,100,8|0,1:0|0:0,0:0:0:0:
17,49,14523,1,0,1:0:0:0:
117,59,14668,1,0,0:0:0:0:
216,68,14813,2,0,L|226:208,1,100,8|0,1:0|0:0,0:0:0:0:
412,266,15103,6,0,L|418:166,1,100,0|0,1:0|0:0,0:0:0:0:
281,331,15392,1,8,1:0:0:0:
504,366,15537,1,0,0:0:0:0:
450,39,15682,1,0,1:0:0:0:
450,39,15827,1,0,0:0:0:0:
367,95,15972,1,8,1:0:0:0:
367,95,16117,1,0,0:0:0:0:
273,59,16262,6,0,P|233:70|216:81,1,50,6|0,1:3|0:0,0:0:0:0:
222,99,16407,1,0,0:0:0:0:
173,266,16552,1,8,1:0:0:0:
46,191,16697,2,0,B|52:323|52:323|125:388,1,200,6|0,1:3|0:0,0:0:0:0:
334,328,17132,2,0,L|339:217,1,100,8|0,1:0|0:0,0:0:0:0:
222,99,17421,5,0,0:0:0:0:
420,257,17566,2,0,L|422:201,1,50,2|0,0:2|0:0,0:0:0:0:
369,60,17711,2,0,P|352:106|351:156,1,100,8|0,1:0|0:0,0:0:0:0:
424,357,18001,2,0,L|419:257,1,100,0|0,1:0|1:0,0:0:0:0:
288,287,18291,6,0,P|284:328|261:362,1,66.6666666666667,8|2,1:0|1:3,0:0:0:0:
106,307,18484,1,2,1:3:0:0:
106,307,18581,6,0,L|205:299,1,100,4|0,1:3|0:0,0:0:0:0:
397,145,18871,2,0,P|307:145|249:88,1,150,8|0,1:0|2:0,0:0:0:0:
144,21,19161,2,0,L|193:16,1,50
403,38,19305,2,0,L|354:34,1,50,2|2,0:2|0:2,0:0:0:0:
265,210,19450,2,0,L|261:86,1,100,8|2,1:0|0:0,0:0:0:0:
503,178,19740,6,0,L|499:277,1,100,0|2,1:0|0:2,0:0:0:0:
291,348,20030,1,8,1:0:0:0:
291,348,20175,1,0,0:0:0:0:
371,28,20320,5,4,1:3:0:0:
387,126,20465,1,4,1:3:0:0:
403,224,20610,1,4,1:3:0:0:
340,219,20682,1,4,1:3:0:0:
278,214,20754,1,0,1:0:0:0:
216,209,20827,1,4,1:3:0:0:
153,204,20900,6,0,B|112:148|112:148|142:73,1,139.999995727539,4|0,1:0|0:0,0:0:0:0:
478,27,21189,2,0,L|484:171,1,139.999995727539,10|0,1:0|0:0,0:0:0:0:
401,357,21479,5,0,1:0:0:0:
397,361,21624,1,0,0:0:0:0:
237,302,21769,5,8,1:0:0:0:
241,298,21914,1,0,0:0:0:0:
372,167,22059,5,0,1:0:0:0:
376,171,22204,1,0,0:0:0:0:
213,109,22349,5,10,1:0:0:0:
209,105,22494,1,2,0:0:0:0:
460,12,22639,6,0,P|446:56|448:86,1,69.9999978637696,2|0,0:2|0:0,0:0:0:0:
425,31,22784,2,0,P|426:77|439:104,1,69.9999978637696,2|0,0:2|0:0,0:0:0:0:
509,217,22929,1,8,1:0:0:0:
467,222,23001,1,0,0:0:0:0:
425,227,23074,1,2,0:2:0:0:
144,259,23218,5,6,1:3:0:0:
181,278,23290,1,0,0:0:0:0:
219,297,23363,1,0,0:0:0:0:
309,46,23508,2,0,L|153:56,1,139.999995727539,8|0,1:0|0:0,0:0:0:0:
53,208,23798,1,0,1:0:0:0:
13,13,23943,1,2,0:0:0:0:
203,166,24088,2,0,P|231:228|218:296,1,139.999995727539,10|0,1:0|0:0,0:0:0:0:
72,372,24378,5,0,1:0:0:0:
315,216,24523,2,0,P|352:229|394:228,1,69.9999978637696,2|0,0:2|0:0,0:0:0:0:
498,158,24668,1,8,1:0:0:0:
500,193,24740,1,2,0:0:0:0:
503,228,24813,1,2,0:0:0:0:
505,263,24885,1,2,0:0:0:0:
508,298,24958,6,0,L|440:322,1,69.9999978637696,0|0,1:0|0:0,0:0:0:0:
338,364,25103,2,0,L|266:357,1,69.9999978637696,2|0,1:3|0:0,0:0:0:0:
156,351,25247,1,8,1:0:0:0:
329,191,25392,2,2,B|348:203|349:218|349:218|334:227|309:214,1,69.9999978637696,2|0,3:2|0:1,0:1:0:0:
217,122,25537,6,0,L|227:268,1,139.999995727539,0|0,1:0|1:0,0:0:0:0:
74,200,25827,1,8,1:0:0:0:
393,94,25972,1,2,0:0:0:0:
161,24,26117,6,0,P|78:52|12:38,1,139.999995727539,0|0,1:0|0:0,0:0:0:0:
133,65,26407,2,0,P|62:63|17:34,1,112.000001367188,8|0,1:0|0:0,0:0:0:0:
96,86,26697,2,0,P|47:66|22:34,1,83.9999974365235,0|0,1:0|0:0,0:0:0:0:
58,89,26987,2,0,P|30:54|25:21,1,56.0000006835938,10|0,1:0|0:0,0:0:0:0:
251,20,27276,6,0,P|237:68|234:106,1,69.9999978637696,2|0,0:2|0:0,0:0:0:0:
360,143,27421,2,0,P|354:108|343:75,1,69.9999978637696,2|0,0:2|0:0,0:0:0:0:
230,220,27566,2,0,L|309:228,1,69.9999978637696,8|0,1:0|0:0,0:0:0:0:
403,237,27711,1,2,0:0:0:0:
300,356,27856,5,0,0:0:0:0:
256,327,27928,1,0,0:0:0:0:
205,314,28000,1,0,0:0:0:0:
153,317,28073,1,0,0:0:0:0:
105,336,28145,1,8,0:0:0:0:
53,337,28218,1,0,0:0:0:0:
10,308,28290,1,0,0:0:0:0:
0,260,28363,1,0,0:0:0:0:
5,210,28436,5,0,0:0:0:0:
54,227,28508,1,0,0:0:0:0:
105,219,28581,2,0,L|141:195,1,34.9999989318848,0|0,0:0|3:0,0:0:0:0:
145,186,28653,2,0,L|165:142,1,34.9999989318848,2|0,3:2|3:0,0:0:0:0:
164,138,28725,1,8,0:0:0:0:
157,86,28798,1,0,0:0:0:0:
125,45,28870,1,0,0:0:0:0:
78,25,28943,1,0,0:0:0:0:
25,32,29015,5,14,0:3:0:0:
55,94,29088,1,0,0:0:0:0:
110,135,29160,1,0,0:0:0:0:
179,144,29233,1,0,0:0:0:0:
244,119,29306,1,8,0:0:0:0:
308,94,29378,1,0,0:0:0:0:
377,103,29450,1,0,0:0:0:0:
432,144,29523,1,0,0:0:0:0:
461,207,29596,6,0,L|456:297,1,69.9999978637696,0|0,1:0|0:0,0:0:0:0:
438,299,29740,2,0,L|442:229,1,69.9999978637696,2|0,0:0|0:0,0:0:0:0:
354,12,29885,2,0,L|359:101,1,69.9999978637696,4|0,0:0|0:0,0:0:0:0:
377,103,30030,2,0,L|372:33,1,69.9999978637696,10|0,0:0|0:0,0:0:0:0:
164,189,30175,6,0,P|241:177|349:243,1,186.666660970052,4|0,1:0|0:0,0:0:0:0:
361,315,30465,2,0,L|211:322,1,139.999995727539,8|0,1:0|0:0,0:0:0:0:
41,241,30755,2,0,L|48:91,1,139.999995727539,0|0,1:0|0:0,0:0:0:0:
335,225,31045,1,8,1:0:0:0:
229,19,31189,1,0,0:0:0:0:
71,369,31334,6,0,P|68:279|21:226,1,139.999995727539,0|0,1:0|0:0,0:0:0:0:
229,19,31624,2,0,P|194:78|198:147,1,139.999995727539,8|0,1:0|0:0,0:0:0:0:
325,317,31914,2,0,L|492:312,1,139.999995727539,0|0,1:0|0:0,0:0:0:0:
510,31,32204,1,8,1:0:0:0:
510,31,32494,5,0,1:0:0:0:
507,65,32566,1,0,0:0:0:0:
504,100,32638,1,0,0:0:0:0:
254,55,32784,2,0,L|421:50,1,139.999995727539,8|0,1:0|0:0,0:0:0:0:
444,258,33074,2,0,P|392:238|359:238,1,69.9999978637696,0|0,1:0|2:0,0:0:0:0:
238,331,33218,2,0,P|272:325|304:310,1,69.9999978637696,0|0,1:0|2:0,0:0:0:0:
261,159,33363,2,0,P|170:153|124:189,1,139.999995727539,8|0,1:0|0:0,0:0:0:0:
38,358,33653,6,0,L|31:300,1,50,0|0,1:0|0:0,0:0:0:0:
142,38,33943,2,0,L|132:178,1,139.999995727539,8|2,1:0|0:0,0:0:0:0:
422,122,34233,1,2,1:3:0:0:
412,70,34305,1,2,0:0:0:0:
402,19,34377,1,2,0:2:0:0:
311,283,34523,1,8,1:0:0:0:
311,283,34813,6,0,L|400:287,1,69.9999978637696,0|0,1:0|0:0,0:0:0:0:
341,367,34958,1,0,0:0:0:0:
282,132,35103,2,0,L|434:121,1,139.999995727539,8|0,1:0|0:0,0:0:0:0:
203,300,35392,2,0,P|195:251|174:224,1,69.9999978637696,0|0,1:0|2:0,0:0:0:0:
21,144,35537,2,0,P|4:174|2:209,1,69.9999978637696,0|0,0:0|2:0,0:0:0:0:
99,341,35682,2,0,L|94:202,1,139.999995727539,8|2,1:0|0:2,0:0:0:0:
320,58,35972,6,0,L|325:197,1,139.999995727539,0|2,1:0|0:2,0:0:0:0:
364,163,36190,1,0,0:0:0:0:
415,153,36262,1,8,1:0:0:0:
464,171,36335,1,2,0:0:0:0:
496,211,36407,1,2,0:0:0:0:
504,263,36480,1,2,0:2:0:0:
484,310,36552,2,0,L|380:306,1,69.9999978637696,0|0,1:0|0:0,0:0:0:0:
248,246,36697,2,0,L|143:250,1,69.9999978637696,2|0,0:0|0:0,0:0:0:0:
26,326,36842,6,0,L|15:218,1,93.3333304850261,8|4,1:0|0:0,0:0:0:0:
48,164,37035,1,0,1:0:0:0:
79,94,37131,6,0,L|229:106,1,139.999995727539,0|2,1:0|0:2,0:0:0:0:
500,64,37421,1,0,1:0:0:0:
472,84,37493,1,0,2:0:0:0:
453,114,37565,1,0,2:0:0:0:
447,148,37638,1,0,2:0:0:0:
454,182,37712,2,0,L|304:194,1,139.999995727539,0|2,1:0|0:0,0:0:0:0:
161,308,38001,2,0,P|205:314|231:333,1,69.9999978637696,0|0,1:0|0:0,0:0:0:0:
84,367,38146,1,2,0:2:0:0:
256,192,38291,12,4,38871,1:3:0:0:
120,144,39016,5,8,0:0:0:0:
319,195,39161,1,0,1:0:0:0:
319,195,39233,1,0,0:0:0:0:
319,195,39305,1,2,0:0:0:0:
214,80,39450,6,0,L|229:287,1,186.666660970052,4|0,1:0|0:0,0:0:0:0:
326,365,39740,2,0,P|384:332|468:344,1,139.999995727539,8|0,1:0|0:0,0:0:0:0:
500,64,40030,2,0,L|352:52,1,139.999995727539,0|0,1:0|0:0,0:0:0:0:
40,192,40320,2,0,L|188:180,1,139.999995727539,8|0,1:0|0:0,0:0:0:0:
96,20,40610,5,0,1:0:0:0:
64,324,40755,1,0,0:0:0:0:
214,80,40900,2,0,P|285:78|358:136,1,139.999995727539,8|0,1:0|0:0,0:0:0:0:
468,289,41189,2,0,P|399:287|341:323,1,139.999995727539,0|0,1:0|0:0,0:0:0:0:
148,373,41479,2,0,L|135:193,1,139.999995727539,8|0,1:0|0:0,0:0:0:0:
412,62,41769,6,0,B|433:152|433:152|395:190,1,139.999995727539,0|0,1:0|0:0,0:0:0:0:
105,2,42060,2,0,B|84:92|84:92|122:130,1,139.999995727539,8|0,1:0|0:0,0:0:0:0:
291,332,42349,2,0,L|266:35,1,279.999991455078,0|8,1:0|1:0,0:0:0:0:
117,125,42784,1,0,0:0:0:0:
399,185,42929,6,0,L|391:339,1,139.999995727539,0|0,1:0|0:0,0:0:0:0:
140,384,43218,2,0,P|142:318|92:194,1,186.666660970052,8|0,1:0|0:0,0:0:0:0:
44,77,43508,2,0,P|116:99|201:94,1,139.999995727539,0|0,1:0|0:0,0:0:0:0:
377,12,43798,1,8,1:0:0:0:
377,12,44088,6,0,L|372:192,1,139.999995727539,0|0,1:0|0:0,0:0:0:0:
174,28,44378,2,0,L|183:134,1,69.9999978637696,8|0,1:0|0:0,0:0:0:0:
254,172,44523,2,0,L|245:278,1,69.9999978637696,2|0,0:2|0:0,0:0:0:0:
192,331,44668,1,0,1:0:0:0:
224,347,44740,1,0,0:0:0:0:
258,356,44812,1,0,1:0:0:0:
292,357,44885,1,0,0:0:0:0:
327,351,44957,1,8,1:0:0:0:
357,334,45031,1,0,0:0:0:0:
391,325,45103,1,2,0:2:0:0:
425,324,45175,1,0,0:0:0:0:
460,330,45248,6,0,P|494:254|478:186,1,139.999995727539,0|0,1:0|0:0,0:0:0:0:
390,60,45465,1,2,0:2:0:0:
390,60,45537,2,0,L|231:68,1,139.999995727539,8|0,1:0|0:0,0:0:0:0:
0,32,45827,2,0,P|29:86|28:120,1,69.9999978637696,2|0,1:3|0:0,0:0:0:0:
104,168,45972,2,0,P|75:222|76:256,1,69.9999978637696,2|0,0:2|0:0,0:0:0:0:
123,322,46117,6,0,L|227:317,1,93.3333304850261,8|0,1:0|1:0,0:0:0:0:
269,264,46310,1,0,1:0:0:0:
322,210,46407,6,0,P|426:236|523:234,1,186.666660970052,8|2,1:0|1:3,0:0:0:0:
387,27,46793,2,0,P|329:40|283:40,1,93.3333304850261,4|8,1:3|1:3,0:0:0:0:
199,101,46987,2,0,L|-8:91,1,186.666660970052,8|4,1:0|1:3,0:0:0:0:
63,309,47373,2,0,L|162:300,1,93.3333304850261,4|0,0:3|2:0,0:0:0:0:
249,289,47566,1,12,1:3:0:0:
256,192,47639,12,0,48581,2:0:0:0:
374,238,48726,5,0,0:0:0:0:
281,132,48871,2,0,L|283:58,2,69.9999978637696
324,361,49161,1,0,0:0:0:0:
185,223,49305,1,0,0:0:0:0:
154,240,49377,1,0,0:0:0:0:
120,247,49449,1,0,0:0:0:0:
85,243,49522,1,0,0:0:0:0:
53,229,49594,1,0,0:0:0:0:
27,206,49667,1,0,0:0:0:0:
9,176,49739,1,0,0:0:0:0:
2,142,49812,1,0,0:0:0:0:
4,107,49884,5,0,0:0:0:0:
52,128,49957,1,0,0:0:0:0:
104,129,50029,1,0,0:0:0:0:
153,110,50102,1,0,0:0:0:0:
190,73,50174,1,0,0:0:0:0:
237,52,50247,1,0,0:0:0:0:
290,51,50319,1,0,0:0:0:0:
338,70,50392,1,0,0:0:0:0:
376,106,50465,6,0,L|371:194,1,69.9999978637696
481,118,50610,2,0,L|486:49,1,69.9999978637696
364,303,50755,2,0,L|358:390,1,69.9999978637696
468,314,50900,2,0,L|473:245,1,69.9999978637696
212,21,51045,5,0,0:0:0:0:
250,56,51117,1,0,0:0:0:0:
270,104,51189,1,0,0:0:0:0:
267,156,51262,1,0,0:0:0:0:
244,202,51334,1,0,0:0:0:0:
203,235,51407,1,0,0:0:0:0:
152,247,51479,1,0,0:0:0:0:
101,236,51552,1,0,0:0:0:0:
59,206,51625,6,0,P|73:215|90:220,1,34.9999989318848,0|0,3:3|3:3,3:3:0:0:
81,188,51697,2,0,P|94:199|109:207,1,34.9999989318848,0|0,3:3|3:3,3:3:0:0:
105,177,51770,2,0,P|115:190|129:201,1,34.9999989318848,0|0,0:3|0:3,0:3:0:0:
132,170,51842,2,0,P|140:185|151:198,1,34.9999989318848,0|0,0:3|0:3,0:3:0:0:
160,166,51915,2,0,P|165:182|174:197,1,34.9999989318848,0|0,3:0|3:0,3:0:0:0:
188,169,51987,2,0,P|190:186|197:202,1,34.9999989318848,0|0,3:0|3:0,3:0:0:0:
215,175,52060,2,0,P|214:192|218:209,1,34.9999989318848
241,187,52132,2,0,P|237:204|238:221,1,34.9999989318848
200,297,52204,5,8,1:0:0:0:
200,297,53363,6,0,L|263:303,1,50,0|0,1:0|0:0,0:0:0:0:
334,105,53581,2,0,L|271:111,1,50,0|0,1:0|0:0,0:0:0:0:
331,260,53798,2,0,L|394:266,1,50,0|0,1:0|0:0,0:0:0:0:
465,68,54016,2,0,L|402:74,1,50,0|0,1:0|0:0,0:0:0:0:
462,223,54233,1,8,1:0:0:0:
462,223,54523,6,0,P|471:259|473:294,1,50,0|0,1:0|0:0,0:0:0:0:
359,132,54740,2,0,P|389:153|413:179,1,50,0|0,1:0|0:0,0:0:0:0:
221,128,54958,2,0,P|258:125|292:129,1,50,0|0,1:0|0:0,0:0:0:0:
113,213,55175,2,0,P|139:187|168:167,1,50,0|0,1:0|0:0,0:0:0:0:
91,298,55392,1,8,1:0:0:0:
91,298,55682,6,0,B|90:323|90:323|106:301,1,50,0|0,1:0|0:0,0:0:0:0:
135,88,55900,2,0,B|122:67|122:67|122:94,1,50,0|0,1:0|0:0,0:0:0:0:
223,283,56117,2,0,B|245:292|245:292|229:270,1,50,0|0,1:0|0:0,0:0:0:0:
36,176,56334,2,0,B|12:181|12:181|38:190,1,50,0|0,1:0|0:0,0:0:0:0:
248,153,56552,1,8,1:0:0:0:
248,153,56842,6,0,P|270:161|309:163,1,50,0|0,1:0|0:0,0:0:0:0:
453,23,57059,2,0,P|428:25|404:33,1,50,0|0,1:0|0:0,0:0:0:0:
396,159,57276,2,0,P|405:143|406:123,1,25,0|0,1:0|0:0,0:0:0:0:
288,23,57421,1,0,1:0:0:0:
288,23,57494,2,0,P|264:31|239:33,1,50,0|0,1:0|1:0,0:0:0:0:
174,226,57711,2,2,P|211:229|246:242,1,75,8|0,1:0|0:1,0:1:0:0:
294,333,58001,6,0,L|132:343,1,139.999995727539,2|0,1:3|0:0,0:0:0:0:
17,260,58218,2,0,B|64:208|64:208|43:125,1,139.999995727539,0|0,1:0|0:0,0:0:0:0:
186,12,58436,2,0,B|139:64|139:64|160:147,1,139.999995727539,0|0,1:0|0:0,0:0:0:0:
296,94,58653,1,0,1:0:0:0:
304,83,58725,2,0,L|235:90,1,69.9999978637696,2|0,1:3|0:0,0:0:0:0:
174,226,58871,2,0,P|242:230|326:247,1,139.999995727539,8|2,1:0|0:0,0:0:0:0:
483,332,59161,6,0,B|515:301|515:301|504:204,1,139.999995727539,2|0,1:3|0:0,0:0:0:0:
402,51,59378,1,0,1:0:0:0:
402,51,59450,2,0,L|391:136,1,69.9999978637696,2|0,0:0|0:0,0:0:0:0:
471,20,59595,2,0,L|327:28,1,139.999995727539,0|0,1:0|0:0,0:0:0:0:
209,144,59813,1,0,1:0:0:0:
209,144,59885,2,0,B|216:178|216:178|237:147,1,69.9999978637696,2|0,0:0|0:0,0:0:0:0:
186,12,60030,2,0,P|112:34|38:28,1,139.999995727539,8|2,1:0|0:0,0:0:0:0:
14,234,60320,6,0,B|80:213|80:213|134:258,1,139.999995727539,2|0,1:3|0:0,0:0:0:0:
272,364,60537,1,0,1:0:0:0:
272,364,60610,2,0,L|264:216,1,139.999995727539,2|0,0:0|1:0,0:0:0:0:
130,81,60900,1,0,0:0:0:0:
130,81,60972,2,0,B|183:126|183:126|250:105,1,139.999995727539,2|0,1:3|0:0,0:0:0:0:
327,33,61189,2,0,L|474:42,1,139.999995727539,8|0,1:0|0:0,0:0:0:0:
506,250,61479,5,0,1:0:0:0:
492,253,61552,1,4,0:0:0:0:
478,256,61624,1,4,0:0:0:0:
438,295,61697,5,0,1:0:0:0:
410,289,61770,1,4,0:0:0:0:
382,283,61842,1,4,0:0:0:0:
342,243,61914,5,0,1:0:0:0:
286,255,61987,1,4,0:0:0:0:
230,267,62059,1,0,1:3:0:0:
201,217,62132,1,0,1:3:0:0:
172,167,62204,5,0,1:3:0:0:
327,33,62349,2,0,L|152:21,1,139.999995727539,2|0,1:3|0:0,0:0:0:0:
404,116,62639,1,2,0:0:0:0:
256,192,66117,12,0,66987,0:0:0:0:
46,163,67276,6,0,B|112:195|201:182|137:151|230:138|302:171|302:171|266:116|281:63|304:23|377:24|406:58|406:58|384:110|320:113,1,600,4|0,1:0|2:0,0:0:0:0:
183,73,68291,1,0,0:0:0:0:
44,15,68436,5,0,0:0:0:0:
46,163,68581,2,0,L|51:270,1,100,2|0,0:0|0:0,0:0:0:0:
219,236,68871,2,0,L|214:343,1,100,2|0,0:0|0:0,0:0:0:0:
339,65,69161,2,0,L|344:172,1,100,2|0,0:0|0:0,0:0:0:0:
507,237,69450,1,2,0:0:0:0:
507,237,69595,6,0,L|511:137,1,100,2|0,0:0|0:0,0:0:0:0:
318,349,69885,1,0,0:0:0:0:
417,336,70030,1,0,0:0:0:0:
238,46,70175,1,2,0:0:0:0:
200,138,70320,2,2,P|124:130|0:126,1,200,2|0,0:0|0:0,1:0:0:0:
28,332,70755,6,0,B|48:362|48:362|80:338,1,69.9999978637696,10|0,1:3|0:0,0:0:0:0:
182,242,70900,2,0,B|154:221|154:221|134:251,1,69.9999978637696,2|0,3:0|0:0,0:0:0:0:
216,351,71045,2,0,L|386:361,1,139.999995727539,0|2,1:0|0:1,0:0:0:0:
487,183,71334,2,0,L|478:113,1,69.9999978637696
488,103,71479,1,0,0:0:0:0:
411,266,71624,2,0,L|386:57,1,209.999993591309,2|0,3:0|2:0,0:0:0:0:
284,18,71914,6,0,P|274:92|241:127,1,100,0|0,1:0|0:0,0:0:0:0:
36,73,72204,1,8,1:2:0:0:
130,41,72349,1,0,0:0:0:0:
45,271,72494,1,0,0:0:0:0:
16,196,72638,1,0,0:0:0:0:
181,214,72784,1,8,1:2:0:0:
178,224,72928,1,0,0:0:0:0:
270,338,73074,5,0,0:0:0:0:
277,344,73218,2,0,P|336:331|395:329,1,100,0|8,0:0|1:2,0:0:0:0:
501,369,73508,2,0,L|509:152,1,200
398,1,73943,2,0,L|407:107,1,100,8|0,1:2|0:0,0:0:0:0:
238,260,74233,6,0,P|230:179|213:153,1,100,0|0,1:0|0:0,0:0:0:0:
84,85,74523,1,8,1:2:0:0:
70,336,74668,1,0,0:0:0:0:
214,40,74813,2,0,L|332:47,1,100,2|0,0:0|0:0,0:0:0:0:
504,178,75103,2,0,L|386:185,1,100,8|0,1:2|0:0,0:0:0:0:
186,324,75392,5,0,1:0:0:0:
285,331,75536,1,2,0:0:0:0:
385,339,75683,2,0,P|429:321|487:319,1,100,8|0,1:2|0:0,0:0:0:0:
413,99,75973,2,0,P|342:116|238:37,1,200,2|8,0:0|1:2,0:0:0:0:
482,11,76407,2,0,L|487:77,1,50,0|2,0:0|3:0,0:0:0:0:
407,215,76552,6,0,L|277:207,1,100,0|0,1:0|0:0,0:0:0:0:
91,298,76842,2,0,P|81:214|61:177,1,100,8|0,1:2|0:0,0:0:0:0:
18,20,77132,1,0,0:0:0:0:
26,24,77276,1,0,0:0:0:0:
214,66,77421,1,8,1:2:0:0:
219,57,77566,1,0,0:0:0:0:
394,12,77711,5,0,0:0:0:0:
400,19,77856,2,0,L|390:141,1,100,0|8,0:0|1:2,0:0:0:0:
457,221,78146,2,0,P|357:220|260:244,1,200
93,321,78581,2,0,P|29:311|-17:270,1,100,8|0,1:2|0:0,0:0:0:0:
208,150,78871,6,0,L|223:349,1,200,4|8,1:3|1:2,0:0:0:0:
223,349,79305,1,0,0:0:0:0:
81,79,79450,2,0,L|72:194,1,100,0|0,1:0|0:0,0:0:0:0:
315,102,79740,2,0,P|314:52|294:7,1,100,8|0,1:2|0:0,0:0:0:0:
170,268,80030,5,0,1:0:0:0:
256,192,80103,12,0,80900,0:0:0:0:
360,181,81045,6,0,P|356:143|345:124,1,50,6|0,0:3|0:0,0:0:0:0:
264,83,81189,2,0,L|261:327,1,239.999992675781,4|8,1:0|1:2,0:0:0:0:
140,254,81624,1,0,0:0:0:0:
360,181,81769,2,0,L|485:191,1,119.999996337891,0|0,1:0|0:0,0:0:0:0:
318,25,82059,2,0,L|193:35,1,119.999996337891,8|0,1:2|0:0,0:0:0:0:
294,342,82349,5,0,1:0:0:0:
475,306,82494,2,0,P|490:237|477:185,1,119.999996337891,0|8,0:2|1:2,0:0:0:0:
244,107,82784,2,0,P|348:133|455:28,1,239.999992675781
200,50,83218,2,0,L|209:175,1,119.999996337891,8|0,1:2|0:0,0:0:0:0:
205,290,83508,5,4,1:3:0:0:
332,228,83653,1,0,0:0:0:0:
336,232,83726,1,0,0:0:0:0:
340,236,83798,1,8,0:0:0:0:
424,91,83943,1,0,0:0:0:0:
426,96,84016,1,0,0:0:0:0:
428,101,84088,1,0,0:0:0:0:
251,35,84233,1,0,0:0:0:0:
256,33,84305,1,0,0:0:0:0:
261,31,84378,1,8,0:0:0:0:
207,148,84523,5,0,0:0:0:0:
201,146,84595,1,0,0:0:0:0:
195,144,84668,1,0,0:0:0:0:
66,33,84813,1,0,0:0:0:0:
67,39,84885,1,0,0:0:0:0:
68,45,84958,1,8,0:0:0:0:
37,213,85102,1,0,0:0:0:0:
41,208,85175,1,0,0:0:0:0:
46,205,85247,5,0,1:0:0:0:
41,234,85319,1,0,3:0:0:0:
47,263,85391,1,0,3:0:0:0:
63,288,85464,1,0,3:0:0:0:
87,306,85536,1,8,1:2:0:0:
116,315,85609,1,0,3:0:0:0:
146,313,85681,1,0,1:0:0:0:
173,300,85754,1,0,3:0:0:0:
194,279,85826,5,4,1:0:0:0:
411,124,85972,1,0,0:0:0:0:
415,144,86045,1,0,0:0:0:0:
419,164,86117,1,8,1:2:0:0:
186,126,86262,1,0,0:0:0:0:
194,107,86334,1,0,0:0:0:0:
203,87,86407,1,0,1:0:0:0:
394,290,86552,1,0,0:0:0:0:
373,295,86624,1,0,0:0:0:0:
352,300,86697,2,0,L|268:293,1,69.9999978637696,8|0,1:2|0:0,0:0:0:0:
137,362,86842,2,0,L|207:368,1,69.9999978637696,0|0,1:0|0:0,0:0:0:0:
62,287,86987,5,0,1:0:0:0:
296,184,87132,1,0,0:0:0:0:
290,149,87204,1,0,0:0:0:0:
284,114,87276,1,8,1:2:0:0:
112,24,87421,1,0,0:0:0:0:
103,58,87494,1,0,0:0:0:0:
94,91,87566,1,0,1:0:0:0:
267,272,87711,1,0,0:0:0:0:
232,280,87784,1,0,0:0:0:0:
198,288,87856,2,0,P|149:278|117:253,1,69.9999978637696,8|0,1:2|0:0,0:0:0:0:
69,183,88001,2,0,P|99:167|134:162,1,69.9999978637696,0|0,1:0|0:0,0:0:0:0:
296,184,88146,5,0,1:0:0:0:
82,44,88291,1,0,1:0:0:0:
78,90,88363,1,0,1:0:0:0:
74,136,88435,1,12,1:2:0:0:
69,183,88508,1,0,1:0:0:0:
65,229,88580,1,0,1:0:0:0:
61,276,88653,1,0,1:0:0:0:
56,322,88725,1,0,1:0:0:0:
435,171,88871,1,0,1:0:0:0:
389,175,88943,1,0,1:0:0:0:
343,179,89015,1,12,1:2:0:0:
296,184,89088,1,0,1:0:0:0:
250,188,89160,1,0,1:0:0:0:
203,192,89233,1,0,1:0:0:0:
157,197,89305,1,4,1:0:0:0:
157,197,90465,6,0,B|98:133|98:133|124:32,1,175.00000166893,4|0,1:1|0:1,0:1:0:0:
382,14,90755,1,8,1:1:0:0:
280,257,90900,1,2,0:0:0:0:
28,28,91045,2,0,L|217:13,1,175.00000166893,2|2,1:2|0:0,0:1:0:0:
454,270,91334,2,0,L|265:255,1,175.00000166893,8|2,1:1|0:0,0:1:0:0:
384,114,91624,5,0,1:1:0:0:
63,310,91769,2,0,P|21:227|29:126,1,175.00000166893,2|8,0:0|1:1,0:1:0:0:
463,180,92059,2,0,P|505:97|497:-4,1,175.00000166893,2|0,0:0|1:1,0:1:0:0:
160,84,92349,1,2,0:0:0:0:
349,276,92494,1,8,1:1:0:0:
216,344,92639,2,0,L|221:256,1,87.500000834465,2|0,0:0|0:1,0:1:0:0:
214,181,92784,6,0,L|202:355,1,175.00000166893,2|0,1:2|0:1,0:1:0:0:
8,32,93074,2,0,L|20:206,1,175.00000166893,8|0,1:1|0:1,0:1:0:0:
259,100,93363,1,0,1:1:0:0:
232,360,93508,1,2,0:0:0:0:
470,253,93654,2,0,P|432:184|434:84,1,175.00000166893,8|2,1:1|0:0,0:1:0:0:
173,0,93943,6,0,P|175:86|135:163,1,175.00000166893,0|2,1:0|3:2,0:0:0:0:
23,298,94233,2,0,L|116:306,1,87.500000834465,8|0,1:0|0:0,0:0:0:0:
232,360,94378,2,0,L|325:352,1,87.500000834465,2|2,3:0|3:2,0:0:0:0:
417,264,94523,1,0,1:0:0:0:
420,220,94595,1,2,3:2:0:0:
424,176,94667,1,2,3:2:0:0:
428,133,94740,1,2,3:2:0:0:
432,89,94812,1,8,1:0:0:0:
199,190,94958,2,2,B|209:215|227:220|227:220|241:203|231:170,1,87.500000834465,2|0,3:2|0:1,0:1:0:0:
301,54,95103,6,0,P|203:60|122:1,1,175.00000166893,4|0,1:0|0:0,0:0:0:0:
37,221,95392,2,0,P|112:180|198:189,1,175.00000166893,8|2,1:1|0:0,0:1:0:0:
137,313,95682,1,0,1:1:0:0:
70,68,95827,1,2,0:0:0:0:
315,132,95972,1,8,1:1:0:0:
37,221,96117,1,2,0:0:0:0:
382,199,96262,6,0,B|416:118|416:118|358:46,1,175.00000166893,0|2,1:1|0:0,0:1:0:0:
37,221,96552,1,8,1:1:0:0:
255,357,96697,1,2,0:0:0:0:
178,111,96842,2,0,P|117:130|75:124,1,87.500000834465,0|0,1:1|0:1,0:1:0:0:
22,98,96987,2,0,P|65:99|105:115,1,87.500000834465,0|0,1:0|0:1,0:1:0:0:
222,213,97132,2,0,L|209:28,1,175.00000166893,8|2,1:1|0:0,0:1:0:0:
484,5,97421,6,0,L|496:179,1,175.00000166893,2|0,1:2|0:1,0:1:0:0:
381,370,97711,2,0,P|292:326|199:346,1,175.00000166893,8|0,1:1|0:1,0:1:0:0:
32,381,98002,1,2,1:1:0:0:
36,315,98074,1,2,3:2:0:0:
41,250,98146,1,2,3:2:0:0:
46,184,98219,1,2,3:2:0:0:
51,119,98291,2,0,B|136:152|136:152|211:97,1,175.00000166893,8|2,1:1|0:1,0:1:0:0:
484,5,98581,6,0,B|500:117|500:117|435:170,1,175.00000166893,14|4,1:3|0:3,0:0:0:0:
265,28,98871,1,0,1:0:0:0:
307,35,98943,1,0,3:0:0:0:
350,43,99016,1,4,1:3:0:0:
495,237,99161,1,0,1:0:0:0:
452,245,99234,1,0,3:0:0:0:
410,252,99306,1,8,1:3:0:0:
229,343,99450,2,0,P|262:362|256:325,1,87.500000834465,8|0,1:0|0:0,0:0:0:0:
126,223,99595,2,0,P|92:242|127:255,1,87.500000834465,4|0,0:0|0:0,0:0:0:0:
281,194,99740,6,0,P|323:123|298:24,1,175.00000166893,4|0,1:0|0:0,0:0:0:0:
18,174,100030,2,0,P|0:257|43:332,1,175.00000166893,8|2,1:1|0:0,0:1:0:0:
182,27,100320,2,0,L|7:18,1,175.00000166893,0|0,1:1|0:1,0:1:0:0:
209,234,100610,2,0,L|384:225,1,175.00000166893,8|2,1:1|0:0,0:1:0:0:
447,60,100900,5,2,1:2:0:0:
182,27,101045,2,0,P|125:84|182:194,1,175.00000166893,2|8,0:0|1:0,0:0:0:0:
316,18,101334,1,2,0:0:0:0:
440,147,101479,2,0,L|447:51,1,87.500000834465,2|0,1:3|0:0,0:0:0:0:
432,233,101625,2,0,L|426:321,1,87.500000834465,2|0,1:3|0:0,0:0:0:0:
511,195,101769,2,0,L|337:183,1,175.00000166893,8|2,1:0|0:0,0:0:0:0:
186,368,102059,6,0,L|360:355,1,175.00000166893,2|0,1:2|0:1,0:1:0:0:
211,141,102349,2,0,P|133:205|54:198,1,175.00000166893,8|2,1:1|0:0,0:1:0:0:
104,85,102639,1,0,1:1:0:0:
213,294,102784,2,0,P|291:358|370:351,1,175.00000166893,2|8,0:0|1:1,0:1:0:0:
320,238,103074,1,2,0:0:0:0:
66,339,103218,6,0,B|31:286|31:286|53:133,1,175.00000166893,0|2,1:0|3:2,0:0:0:0:
158,36,103509,1,8,1:0:0:0:
201,33,103580,1,2,3:2:0:0:
245,30,103652,1,2,3:2:0:0:
289,28,103725,1,2,3:2:0:0:
333,26,103799,2,0,B|366:51|366:51|429:39,1,87.500000834465,0|0,1:0|0:0,0:0:0:0:
486,138,103943,2,0,B|440:129|440:129|407:154,1,87.500000834465,2|0,1:3|0:0,0:0:0:0:
466,227,104088,1,8,1:0:0:0:
194,156,104233,2,2,B|185:181|199:198|199:198|217:193|227:168,1,87.500000834465,2|0,3:2|0:1,0:1:0:0:
245,30,104378,5,0,1:0:0:0:
158,36,104523,1,0,1:1:0:0:
70,41,104668,2,0,B|93:127|93:127|17:206,1,175.00000166893,8|2,1:1|0:0,0:1:0:0:
135,348,104958,2,0,L|354:355,1,175.00000166893,0|2,1:1|0:0,0:1:0:0:
369,151,105247,2,0,L|194:156,1,175.00000166893,8|2,1:1|0:0,0:1:0:0:
412,283,105537,5,2,1:2:0:0:
473,53,105682,2,0,P|404:26|287:24,1,175.00000166893,2|8,0:0|1:1,0:1:0:0:
49,93,105972,1,2,0:0:0:0:
198,242,106117,2,0,L|193:155,1,87.500000834465,2|0,1:2|0:1,0:1:0:0:
43,5,106262,2,0,L|48:92,1,87.500000834465,2|0,1:1|0:1,0:1:0:0:
87,256,106407,2,0,P|197:269|307:307,1,175.00000166893,8|2,1:1|0:0,0:1:0:0:
468,366,106697,5,0,1:0:0:0:
417,139,106842,1,2,3:0:0:0:
408,181,106914,1,0,1:0:0:0:
399,224,106987,1,8,1:0:0:0:
271,38,107132,1,2,3:0:0:0:
280,80,107204,1,0,1:0:0:0:
289,123,107277,1,0,1:0:0:0:
207,318,107421,1,2,3:0:0:0:
250,315,107493,1,0,1:0:0:0:
294,313,107565,1,8,1:0:0:0:
338,311,107638,1,0,1:0:0:0:
381,309,107710,1,0,1:0:0:0:
417,139,107856,5,0,1:0:0:0:
373,133,107929,1,0,3:0:0:0:
329,128,108001,1,0,1:0:0:0:
148,202,108146,2,0,L|139:19,1,175.00000166893,8|0,1:0|0:0,0:0:0:0:
329,128,108436,2,0,L|320:302,1,175.00000166893,0|0,1:0|0:0,0:0:0:0:
76,368,108726,2,2,P|86:345|91:314,1,50,2|2,1:3|0:0,0:0:0:0:
29,167,109016,6,0,P|110:166|217:135,1,175.00000166893,4|0,1:1|0:1,0:1:0:0:
327,21,109305,1,8,1:1:0:0:
304,194,109450,1,2,0:0:0:0:
107,71,109595,2,0,L|89:250,1,175.00000166893,0|2,1:1|0:0,0:1:0:0:
76,368,109885,1,8,1:1:0:0:
304,194,110030,1,2,0:0:0:0:
417,379,110175,6,0,P|466:303|460:204,1,175.00000166893,4|2,1:1|0:0,0:1:0:0:
357,73,110465,1,8,1:1:0:0:
163,255,110610,2,0,L|338:266,1,175.00000166893,2|0,0:0|1:1,0:1:0:0:
208,108,110900,1,2,0:0:0:0:
11,375,111045,2,0,L|0:200,1,175.00000166893,8|2,1:1|0:0,0:1:0:0:
199,42,111334,6,0,P|272:86|357:73,1,175.00000166893,2|0,1:2|0:0,0:0:0:0:
495,235,111624,2,0,P|410:221|337:265,1,175.00000166893,8|0,1:0|0:0,0:0:0:0:
433,342,111914,1,2,1:2:0:0:
483,105,112059,1,2,0:0:0:0:
308,362,112204,2,0,L|296:187,1,175.00000166893,8|2,1:0|0:0,0:0:0:0:
96,45,112494,6,0,B|48:117|48:117|76:206,1,175.00000166893,0|2,1:0|3:0,0:0:0:0:
214,338,112784,1,8,1:0:0:0:
245,308,112856,1,2,3:2:0:0:
286,292,112928,1,2,3:2:0:0:
329,292,113001,1,2,3:2:0:0:
370,307,113074,2,0,B|404:321|433:318|433:318|449:298|459:263,1,87.500000834465,2|0,1:3|3:0,0:0:0:0:
484,203,113218,2,0,B|450:189|421:192|421:192|405:212|395:247,1,87.500000834465,0|2,1:0|3:0,0:0:0:0:
335,380,113364,2,0,L|323:205,1,175.00000166893,8|2,1:0|0:1,0:0:0:0:
204,53,113653,6,0,P|180:78|123:94,1,87.500000834465,0|0,1:0|0:0,0:0:0:0:
206,73,113798,2,0,P|178:93|119:99,1,87.500000834465,0|0,1:3|0:3,0:3:0:0:
3,9,113943,2,0,L|16:203,1,175.00000166893,8|2,1:0|0:0,0:0:0:0:
137,308,114233,1,0,1:0:0:0:
204,53,114378,1,2,0:0:0:0:
307,154,114523,2,0,P|224:180|136:179,1,175.00000166893,8|2,1:0|0:0,0:0:0:0:
95,11,114813,5,2,1:2:0:0:
350,70,114958,2,0,L|333:267,1,175.00000166893,2|8,0:0|1:0,0:0:0:0:
152,354,115247,2,0,L|136:179,1,175.00000166893,2|0,0:0|1:0,0:0:0:0:
246,8,115537,1,2,0:2:0:0:
429,186,115682,2,0,P|425:296|379:364,1,175.00000166893,8|2,1:0|0:2,0:0:0:0:
105,270,115972,6,0,P|58:194|68:106,1,175.00000166893,2|0,1:2|0:1,0:0:0:0:
246,8,116262,1,8,1:0:0:0:
204,323,116407,1,2,0:0:0:0:
351,155,116552,2,0,L|177:168,1,175.00000166893,0|2,1:0|0:0,0:0:0:0:
190,156,116769,1,0,0:0:0:0:
203,144,116842,1,8,1:0:0:0:
434,216,116987,2,0,L|443:129,1,87.500000834465,2|0,3:2|0:0,0:0:0:0:
340,257,117132,1,0,1:0:0:0:
340,257,117421,5,0,1:0:0:0:
345,273,117493,1,0,3:0:0:0:
350,289,117566,1,0,0:0:0:0:
162,289,117711,1,0,1:0:0:0:
167,273,117783,1,0,3:0:0:0:
172,257,117856,1,0,0:0:0:0:
256,360,118001,2,2,B|284:281|274:182|237:258|227:160|256:107,1,262.500002503395,4|0,1:2|0:0,0:0:0:0:
396,162,118291,6,0,L|347:167,1,50,4|0,1:0|0:0,0:0:0:0:
163,99,118508,2,0,L|184:53,1,50,0|0,1:0|0:0,0:0:0:0:
277,221,118726,2,0,L|227:225,1,50,0|0,1:0|0:0,0:0:0:0:
44,157,118943,2,0,L|65:111,1,50,0|0,1:0|0:0,0:0:0:0:
157,279,119161,1,8,1:0:0:0:
157,279,119450,6,0,P|199:288|219:303,1,50,0|0,1:0|0:0,0:0:0:0:
284,63,119668,2,0,P|245:80|220:80,1,50,0|0,1:0|0:0,0:0:0:0:
308,313,119885,2,0,P|329:275|350:261,1,50,0|0,1:0|0:0,0:0:0:0:
142,124,120103,2,0,P|147:167|138:191,1,50,0|0,1:0|0:0,0:0:0:0:
387,179,120320,1,8,1:0:0:0:
387,179,120610,6,0,L|380:116,1,50,0|0,1:0|0:0,0:0:0:0:
199,223,120827,2,0,L|192:160,1,50,0|0,1:0|0:0,0:0:0:0:
293,201,121045,2,0,L|286:138,1,50,0|0,1:0|0:0,0:0:0:0:
105,245,121262,2,0,L|98:182,1,50,0|0,1:0|0:0,0:0:0:0:
84,68,121479,1,8,1:0:0:0:
84,68,121769,6,0,P|128:63|146:52,1,50,0|0,1:0|0:0,0:0:0:0:
238,144,121987,2,0,P|282:149|300:160,1,50,0|0,1:0|0:0,0:0:0:0:
427,108,122204,2,0,P|409:113|385:116,1,25,0|0,1:0|0:0,0:0:0:0:
365,237,122349,1,0,1:0:0:0:
365,237,122421,2,0,P|372:267|371:293,1,50,0|0,1:0|0:0,0:0:0:0:
252,321,122639,2,0,P|253:296|260:273,1,50,8|0,1:0|0:0,0:0:0:0:
366,123,122929,6,0,B|294:159|294:159|236:94,1,160,0|0,1:0|0:0,0:0:0:0:
50,180,123146,2,0,B|122:144|122:144|174:203,1,160,0|0,1:0|0:0,0:0:0:0:
252,321,123363,2,0,L|172:326,1,80,0|0,1:0|0:0,0:0:0:0:
13,256,123508,1,0,1:0:0:0:
13,256,123581,2,0,L|22:77,1,160,0|0,1:0|0:0,0:0:0:0:
140,22,123798,2,0,B|185:51|185:51|308:30,1,160,8|2,1:0|3:0,0:0:0:0:
392,192,124088,6,0,L|216:176,1,160,0|0,1:0|0:0,0:0:0:0:
79,94,124305,2,0,B|119:123|119:123|109:241,1,160,0|0,1:0|0:0,0:0:0:0:
102,330,124523,1,0,1:0:0:0:
315,382,124668,1,0,1:0:0:0:
315,382,124740,2,0,B|369:321|369:321|347:228,1,160,0|0,1:0|0:0,0:0:0:0:
296,157,124958,2,0,B|242:218|242:218|260:294,1,160,8|2,1:0|3:0,0:0:0:0:
480,57,125247,5,0,1:0:0:0:
444,76,125319,1,0,0:0:0:0:
407,88,125391,1,0,0:0:0:0:
367,93,125464,1,2,1:3:0:0:
327,91,125536,1,0,0:0:0:0:
288,81,125609,1,0,0:0:0:0:
252,65,125681,1,2,1:3:0:0:
219,42,125754,1,2,0:0:0:0:
192,13,125826,5,0,0:0:0:0:
133,1,125899,1,0,1:0:0:0:
76,17,125971,1,2,0:0:0:0:
32,57,126044,1,0,0:0:0:0:
10,113,126116,1,8,1:0:0:0:
15,172,126189,1,0,0:0:0:0:
46,223,126261,1,2,0:0:0:0:
96,255,126334,1,0,0:0:0:0:
155,261,126406,5,6,1:3:0:0:
155,261,126987,5,0,1:3:0:0:
225,236,127059,1,4,1:3:0:0:
299,244,127131,5,4,1:3:0:0:
365,280,127204,1,4,1:3:0:0:
410,341,127277,5,0,1:3:0:0:
337,364,127349,1,4,1:3:0:0:
263,357,127421,5,4,1:3:0:0:
197,321,127494,1,4,1:3:0:0:
155,261,127567,6,0,B|180:216|180:216|239:243,1,100,10|2,1:3|0:3,0:0:0:0:
