osu file format v14

[General]
AudioFilename: audioshot.mp3
AudioLeadIn: 0
PreviewTime: 89233
Countdown: 0
SampleSet: Soft
StackLeniency: 0.2
Mode: 0
LetterboxInBreaks: 0
WidescreenStoryboard: 1

[Editor]
Bookmarks: 11624,20900,30175,39450,48726,53363,62639,71914,81189,90465,118291,127566
DistanceSpacing: 1
BeatDivisor: 4
GridSize: 32
TimelineZoom: 2.6

[Metadata]
Title:BroGamer
TitleUnicode:BroGamer
Artist:USAO
ArtistUnicode:USAO
Creator:Arrival
Version:Alheak's Extreme
Source:beatmania IIDX 24 SINOBUZ
Tags:headshot gg noob dubstep camping fire in the hole hardstyle bemani konami super ultimate hyper core trap realazy linada alheak worminators avena priti kyuukai unmei muma gezo
BeatmapID:1366681
BeatmapSetID:635636

[Difficulty]
HPDrainRate:6
CircleSize:4.2
OverallDifficulty:9
ApproachRate:9.4
SliderMultiplier:1.4
SliderTickRate:1

[Events]
//Background and Video events
0,0,"headshot.jpg",0,0
//Break Periods
2,62838,64418
//Storyboard Layer 0 (Background)
//Storyboard Layer 1 (Fail)
//Storyboard Layer 2 (Pass)
//Storyboard Layer 3 (Foreground)
//Storyboard Sound Samples

[TimingPoints]
1190,289.855072463768,4,2,22,20,1,0
1190,-133.333333333333,4,2,22,20,0,0
1479,-133.333333333333,4,2,22,30,0,0
1769,-133.333333333333,4,2,22,40,0,0
2059,-133.333333333333,4,2,22,50,0,0
2204,-133.333333333333,4,2,22,5,0,0
2349,-133.333333333333,4,2,22,60,0,0
5827,-66.6666666666667,4,2,22,60,0,0
6987,-83.3333333333333,4,2,22,60,0,0
9305,-50,4,2,22,60,0,0
11624,-100,4,2,22,60,0,0
11914,-66.6666666666667,4,2,22,60,0,0
12204,-100,4,2,22,60,0,0
12494,-66.6666666666667,4,2,22,60,0,0
12784,-100,4,2,22,60,0,0
13074,-66.6666666666667,4,2,22,60,0,0
13363,-100,4,2,22,60,0,0
13653,-66.6666666666667,4,2,22,60,0,0
13943,-100,4,2,22,60,0,0
14233,-66.6666666666667,4,2,22,60,0,0
14523,-100,4,2,22,60,0,0
14813,-66.6666666666667,4,2,22,60,0,0
15103,-100,4,2,22,60,0,0
15392,-66.6666666666667,4,2,22,60,0,0
15682,-100,4,2,22,60,0,0
15972,-66.6666666666667,4,2,22,60,0,0
16262,-100,4,2,22,60,0,0
16552,-66.6666666666667,4,2,22,60,0,0
16697,-100,4,2,22,60,0,0
17132,-66.6666666666667,4,2,22,60,0,0
17421,-100,4,2,22,60,0,0
17711,-66.6666666666667,4,2,22,60,0,0
18001,-100,4,2,22,60,0,0
18291,-100,4,2,69,60,0,0
18871,-66.6666666666667,4,2,22,60,0,0
19161,-100,4,2,22,60,0,0
19450,-66.6666666666667,4,2,22,60,0,0
19740,-50,4,2,22,60,0,0
20030,-66.6666666666667,4,2,22,60,0,0
20755,-66.6666666666667,4,2,0,60,0,0
20900,-100,4,2,22,60,0,0
21189,-66.6666666666667,4,2,22,60,0,0
21479,-100,4,2,22,60,0,0
21769,-66.6666666666667,4,2,22,60,0,0
22059,-100,4,2,22,60,0,0
22349,-133.333333333333,4,2,22,60,0,0
22639,-66.6666666666667,4,2,22,60,0,0
23218,-100,4,2,22,60,0,0
23508,-66.6666666666667,4,2,22,60,0,0
23653,-100,4,2,22,60,0,0
24088,-66.6666666666667,4,2,22,60,0,0
24378,-100,4,2,22,60,0,0
25827,-66.6666666666667,4,2,22,60,0,0
26117,-100,4,2,22,60,0,0
26407,-66.6666666666667,4,2,22,60,0,0
26697,-100,4,2,22,60,0,0
26987,-133.333333333333,4,2,22,60,0,0
27276,-66.6666666666667,4,2,22,60,0,0
27856,-100,4,2,22,60,0,0
28146,-66.6666666666667,4,2,22,60,0,0
28291,-100,4,2,22,60,0,0
28436,-66.6666666666667,4,2,22,60,0,0
28726,-50,4,2,22,60,0,0
29016,-50,4,2,0,60,0,0
29161,-33.3333333333333,4,2,0,60,0,0
29305,-100,4,2,0,60,0,0
29450,-66.6666666666667,4,2,0,60,0,0
29595,-33.3333333333333,4,2,0,60,0,0
29885,-50,4,2,0,60,0,0
30175,-100,4,2,22,60,0,0
30465,-66.6666666666667,4,2,22,60,0,0
30755,-100,4,2,22,60,0,0
31045,-66.6666666666667,4,2,22,60,0,0
31334,-100,4,2,22,60,0,0
31624,-66.6666666666667,4,2,22,60,0,0
31914,-100,4,2,22,60,0,0
32204,-66.6666666666667,4,2,22,60,0,0
32494,-100,4,2,22,60,0,0
32784,-66.6666666666667,4,2,22,60,0,0
33653,-100,4,2,22,60,0,0
33943,-66.6666666666667,4,2,22,60,0,0
34088,-100,4,2,22,60,0,0
34523,-66.6666666666667,4,2,22,60,0,0
34813,-100,4,2,22,60,0,0
35103,-66.6666666666667,4,2,22,60,0,0
35392,-100,4,2,22,60,0,0
35682,-66.6666666666667,4,2,22,60,0,0
36262,-100,4,2,22,60,0,0
36842,-100,4,2,69,60,0,0
37421,-66.6666666666667,4,2,22,60,0,0
37711,-100,4,2,22,60,0,0
38001,-66.6666666666667,4,2,22,60,0,0
39450,-100,4,2,22,60,0,0
39740,-66.6666666666667,4,2,22,60,0,0
40030,-100,4,2,22,60,0,0
40320,-66.6666666666667,4,2,22,60,0,0
40610,-100,4,2,22,60,0,0
40900,-66.6666666666667,4,2,22,60,0,0
41189,-100,4,2,22,60,0,0
41479,-66.6666666666667,4,2,22,60,0,0
41769,-100,4,2,22,60,0,0
42059,-66.6666666666667,4,2,22,60,0,0
42349,-100,4,2,22,60,0,0
42639,-66.6666666666667,4,2,22,60,0,0
42929,-100,4,2,22,60,0,0
43218,-66.6666666666667,4,2,22,60,0,0
43508,-100,4,2,22,60,0,0
43798,-66.6666666666667,4,2,22,60,0,0
44088,-100,4,2,22,60,0,0
44378,-66.6666666666667,4,2,22,60,0,0
44668,-100,4,2,22,60,0,0
44958,-66.6666666666667,4,2,22,60,0,0
45537,-100,4,2,22,60,0,0
46117,-100,4,2,69,60,0,0
47566,-50,4,2,0,60,0,0
47856,-100,4,2,0,60,0,0
48001,-66.6666666666667,4,2,0,60,0,0
48146,-33.3333333333333,4,2,0,60,0,0
48436,-50,4,2,0,60,0,0
48726,-100,4,2,22,60,0,0
49740,-66.6666666666667,4,2,22,60,0,0
49885,-100,4,2,22,60,0,0
50175,-80,4,2,22,60,0,0
50465,-66.6666666666667,4,2,22,60,0,0
50755,-57.1428571428571,4,2,22,60,0,0
51045,-57.1428571428571,4,2,33,60,0,0
51189,-44.4444444444445,4,2,22,60,0,0
51334,-36.3636363636364,4,2,22,60,0,0
51479,-30.7692307692308,4,2,22,60,0,0
51624,-50,4,2,22,60,0,0
51697,-45.4545454545455,4,2,22,60,0,0
51769,-41.6666666666667,4,2,22,60,0,0
51842,-38.4615384615385,4,2,22,60,0,0
51914,-35.7142857142857,4,2,22,60,0,0
51987,-33.3333333333333,4,2,22,60,0,0
52059,-31.25,4,2,22,60,0,0
52132,-29.4117647058824,4,2,22,60,0,0
52204,-100,4,2,22,60,0,0
52494,-100,4,2,22,5,0,0
53363,-50,4,2,22,60,0,0
57711,-100,4,2,44,60,0,0
58001,-50,4,2,22,60,0,0
61624,-50,4,2,0,60,0,0
62349,-94.3396226415095,4,2,11,60,0,0
66117,-50,4,2,0,60,0,0
66407,-100,4,2,0,60,0,0
66552,-66.6666666666667,4,2,0,60,0,0
66697,-33.3333333333333,4,2,0,60,0,0
66987,-50,4,2,0,60,0,0
67276,-100,4,2,44,60,0,0
71045,-50,4,2,22,60,0,0
71189,-100,4,2,22,60,0,0
71479,-200,4,2,22,60,0,0
71661,-57.1428571428571,4,2,22,60,0,0
71914,-100,4,2,22,60,0,0
78871,-66.6666666666667,4,2,22,60,0,0
80030,-133.333333333333,4,2,0,60,0,0
80320,-66.6666666666667,4,2,0,60,0,0
80610,-33.3333333333333,4,2,0,60,0,0
80900,-50,4,2,0,60,0,0
81189,-100,4,2,22,60,0,0
83508,-50,4,2,22,60,0,0
83798,-66.6666666666667,4,2,22,60,0,0
84668,-100,4,2,22,60,0,0
85537,-66.6666666666667,4,2,22,60,0,0
86987,-50,4,2,69,60,0,0
89305,-50,4,2,22,60,0,0
90465,-66.6666666666667,4,2,69,60,0,1
94233,-66.6666666666667,4,2,22,60,0,1
98871,-66.6666666666667,4,2,0,60,0,1
99740,-66.6666666666667,4,2,69,60,0,1
103218,-66.6666666666667,4,2,44,60,0,1
104378,-66.6666666666667,4,2,69,60,0,1
108726,-66.6666666666667,4,2,22,60,0,0
109016,-66.6666666666667,4,2,69,60,0,1
113653,-66.6666666666667,4,2,11,60,0,1
117711,-66.6666666666667,4,2,0,60,0,1
118291,-50,4,2,22,60,0,0
122639,-50,4,2,44,60,0,0
126407,-400,4,2,22,60,0,0
126987,-100,4,2,1,60,0,0
127276,-100,4,2,0,60,0,0
127856,-100,4,2,0,5,0,0

[Colours]
Combo1 : 204,138,225
Combo2 : 241,88,80
Combo3 : 118,243,137
Combo4 : 121,155,236

[HitObjects]
256,192,1190,5,4,0:0:0:0:
256,192,1262,12,0,2204,0:0:0:0:
342,245,2349,6,0,P|325:226|302:212,1,52.5000020027161
170,245,2639,2,0,P|194:239|217:226,1,52.5000020027161
256,96,2929,6,0,P|248:120|248:146,1,52.5000020027161
256,96,3218,2,0,P|247:119|245:145,1,52.5000020027161
256,96,3508,2,0,P|244:117|238:143,1,52.5000020027161
256,96,3798,2,0,P|239:114|229:138,1,52.5000020027161
256,96,4088,2,0,P|235:109|218:129,1,52.5000020027161
256,96,4378,2,0,P|232:101|209:114,1,52.5000020027161
256,96,4668,2,0,P|232:90|206:93,1,52.5000020027161
257,96,4958,2,0,P|237:79|213:69,1,52.5000020027161
257,96,5247,2,0,P|249:71|234:50,1,52.5000020027161
257,96,5537,2,0,P|265:71|265:46,1,52.5000020027161
257,96,5827,2,0,P|278:82|295:62,3,52.5000020027161
257,96,6117,2,0,P|281:101|307:98,3,52.5000020027161
257,96,6407,2,0,P|269:118|288:135,3,52.5000020027161
257,96,6697,2,0,P|247:119|245:145,3,52.5000020027161
257,96,6987,6,0,P|217:109|174:104,1,83.9999974365235,4|0,0:0|0:0,0:0:0:0:
34,45,7276,1,8,1:0:0:0:
66,141,7421,2,0,L|53:227,2,83.9999974365235,2|0|0,0:0|0:0|0:0,0:0:0:0:
79,129,7856,1,8,1:0:0:0:
241,193,8001,1,0,0:0:0:0:
241,193,8146,6,0,P|204:172|160:170,1,83.9999974365235,2|0,0:0|0:0,0:0:0:0:
179,260,8436,1,8,1:0:0:0:
329,213,8581,1,0,0:0:0:0:
329,213,8726,2,0,P|329:170|308:130,1,83.9999974365235,2|0,0:0|0:0,0:0:0:0:
241,193,9016,1,8,1:0:0:0:
268,280,9161,1,0,0:0:0:0:
402,141,9305,6,0,P|368:64|252:64,1,210,4|0,0:0|0:0,0:0:0:0:
150,105,9595,5,8,1:0:0:0:
140,146,9668,1,0,0:0:0:0:
153,185,9740,1,0,0:0:0:0:
185,212,9813,1,0,0:0:0:0:
259,203,9885,5,2,0:0:0:0:
215,143,9958,1,0,0:0:0:0:
145,151,10030,1,0,0:0:0:0:
111,212,10103,1,0,0:0:0:0:
120,297,10175,6,0,P|138:287|152:270,1,35,8|0,1:0|0:0,0:0:0:0:
150,229,10247,2,0,P|164:214|174:195,1,35
163,158,10320,2,0,P|167:137|167:116,1,35
130,93,10392,2,0,P|119:74|102:60,1,35
14,34,10465,5,4,1:0:0:0:
310,26,11624,6,0,B|299:60|299:60|305:101,1,70,6|0,0:0|0:0,0:0:0:0:
414,126,11914,2,0,P|372:98|321:103,1,105.000004005432,8|0,0:0|0:0,0:0:0:0:
196,360,12204,2,0,B|207:326|207:326|201:285,1,70,2|0,0:0|0:0,0:0:0:0:
91,259,12494,2,0,P|134:287|185:281,1,105.000004005432,8|0,0:0|0:0,0:0:0:0:
355,181,12784,6,0,L|363:263,1,70,2|0,0:0|0:0,0:0:0:0:
389,364,13074,2,0,L|378:259,1,105.000004005432,8|0,0:0|0:0,0:0:0:0:
185,32,13364,2,0,L|177:114,1,70,2|0,0:0|0:0,0:0:0:0:
151,215,13654,2,0,L|161:110,1,105.000004005432,8|0,0:0|0:0,0:0:0:0:
403,158,13943,6,0,P|370:171|335:167,1,70,2|0,0:0|0:0,0:0:0:0:
308,54,14233,2,0,B|329:102|329:102|319:153,1,105.000004005432,8|0,0:0|0:0,0:0:0:0:
109,226,14523,2,0,P|142:213|177:217,1,70,2|0,0:0|0:0,0:0:0:0:
204,330,14813,2,0,B|183:282|183:282|192:230,1,105.000004005432,8|0,0:0|0:0,0:0:0:0:
417,247,15103,6,0,L|338:259,1,70,2|0,0:0|0:0,0:0:0:0:
275,370,15392,2,0,P|285:319|263:273,1,105.000004005432,8|0,0:0|0:0,0:0:0:0:
96,137,15682,2,0,L|175:125,1,70,2|0,0:0|0:0,0:0:0:0:
237,14,15972,2,0,P|227:64|249:111,1,105.000004005432,8|0,0:0|0:0,0:0:0:0:
451,177,16262,5,2,0:0:0:0:
308,54,16407,1,0,0:0:0:0:
273,240,16552,2,0,P|275:266|286:297,1,52.5000020027161,8|0,0:0|0:0,0:0:0:0:
406,96,16697,2,0,P|441:84|482:89,2,70,2|0|0,0:0|0:0|0:0,0:0:0:0:
386,244,17132,2,0,P|415:264|494:260,1,105.000004005432,8|0,0:0|0:0,0:0:0:0:
451,177,17349,1,0,0:0:0:0:
451,177,17421,6,0,L|371:167,1,70,2|0,0:0|0:0,0:0:0:0:
200,280,17711,2,0,B|178:235|178:235|185:181,1,105.000004005432,8|0,0:0|0:0,0:0:0:0:
121,82,18001,1,2,0:0:0:0:
260,97,18146,2,0,L|226:92,1,35
46,115,18291,5,12,0:1:0:0:
34,194,18388,1,2,0:0:0:0:
110,164,18484,1,2,0:0:0:0:
121,82,18581,6,0,P|99:52|67:35,1,70,2|0,0:0|0:0,0:0:0:0:
0,268,18871,2,0,P|52:272|95:244,1,105.000004005432,8|0,0:0|0:0,0:0:0:0:
204,47,19161,2,0,L|198:92,1,35,2|0,0:0|0:0,0:0:0:0:
110,164,19305,2,0,L|115:209,1,35
172,351,19450,2,0,B|179:298|179:298|228:268,1,105.000004005432,8|0,0:0|0:0,0:0:0:0:
360,127,19740,6,0,P|360:177|338:132,1,140,2|0,0:0|0:0,0:0:0:0:
431,86,20030,2,0,P|455:132|453:184,1,105.000004005432
324,313,20320,1,8,3:0:0:0:
383,245,20465,1,0,3:0:0:0:
399,281,20537,1,0,3:0:0:0:
433,352,20610,1,8,3:0:0:0:
443,337,20682,1,8,3:0:0:0:
484,271,20755,2,0,L|415:263,1,52.5000020027161,4|4,3:0|3:0,0:0:0:0:
238,300,20900,6,0,L|149:315,1,70,6|0,0:0|0:0,0:0:0:0:
64,364,21189,2,0,P|114:354|149:316,1,105.000004005432,8|0,0:0|0:0,0:0:0:0:
217,150,21479,2,0,L|127:164,1,70,2|0,0:0|0:0,0:0:0:0:
31,144,21769,2,0,P|82:137|127:162,1,105.000004005432,8|0,0:0|0:0,0:0:0:0:
76,284,22059,6,0,B|63:250|63:250|66:211,1,70,2|0,0:0|0:0,0:0:0:0:
194,230,22349,2,0,B|143:239,1,52.5000020027161,8|0,0:0|0:0,0:0:0:0:
194,230,22639,2,0,P|217:217|232:197,1,52.5000020027161,2|0,0:0|0:0,0:0:0:0:
213,49,22784,2,0,P|212:75|222:98,1,52.5000020027161,2|0,0:0|0:0,0:0:0:0:
360,159,22929,1,0,0:0:0:0:
360,159,23001,1,0,0:0:0:0:
360,159,23074,2,0,P|337:145|312:141,1,52.5000020027161
311,221,23218,5,2,0:0:0:0:
342,236,23291,1,0,0:0:0:0:
376,237,23363,2,0,P|397:228|413:216,1,35
448,97,23508,2,0,L|440:149,1,52.5000020027161,10|0,0:0|0:0,0:0:0:0:
356,315,23653,2,0,L|367:396,2,70,2|0|0,0:0|0:0|0:0,0:0:0:0:
479,362,24088,2,0,P|432:384|383:373,1,105.000004005432,10|0,0:0|0:0,0:0:0:0:
318,126,24378,6,0,L|306:195,1,70,2|0,0:0|0:0,0:0:0:0:
350,288,24595,1,0,0:0:0:0:
350,288,24668,1,0,0:0:0:0:
319,269,24740,1,0,0:0:0:0:
283,267,24813,1,0,0:0:0:0:
252,280,24885,1,0,0:0:0:0:
224,348,24958,2,0,L|232:304,1,35,2|0,0:0|0:0,0:0:0:0:
115,252,25103,2,0,L|109:218,1,35
259,134,25247,1,2,0:0:0:0:
72,25,25392,1,2,0:0:0:0:
286,0,25537,5,2,0:0:0:0:
90,121,25682,1,2,0:0:0:0:
310,198,25827,2,0,P|333:168|333:100,1,105.000004005432,8|0,0:0|0:0,0:0:0:0:
168,58,26117,2,0,L|181:132,1,70,2|0,0:0|0:0,0:0:0:0:
192,238,26407,2,0,P|164:194|168:143,1,105.000004005432,8|0,0:0|0:0,0:0:0:0:
335,18,26697,6,0,L|322:92,1,70,2|0,0:0|0:0,0:0:0:0:
299,246,26987,2,0,B|350:236,1,52.5000020027161,8|0,0:0|0:0,0:0:0:0:
299,246,27276,2,0,P|303:271|318:293,1,52.5000020027161,2|0,0:0|0:0,0:0:0:0:
441,132,27421,2,0,P|416:124|389:125,1,52.5000020027161,2|0,0:0|0:0,0:0:0:0:
466,313,27566,1,0,0:0:0:0:
466,313,27639,1,0,0:0:0:0:
466,313,27711,2,0,P|485:296|497:272,1,52.5000020027161
402,228,27856,5,2,0:0:0:0:
379,253,27929,1,0,0:0:0:0:
366,285,28001,2,0,P|366:302|371:319,1,35
483,162,28146,2,0,P|464:143|441:132,1,52.5000020027161,10|0,0:0|0:0,0:0:0:0:
218,109,28291,2,0,P|230:142|229:180,1,70,2|0,0:0|0:0,0:0:0:0:
111,305,28508,1,0,0:0:0:0:
111,305,28581,2,0,L|79:308,4,26.2500010013581,0|0|0|0|2,0:0|0:0|0:0|0:0|0:0,0:0:0:0:
299,269,28798,1,0,0:0:0:0:
299,269,28871,2,0,L|343:272,2,35
218,109,29016,6,0,P|230:143|227:183,1,70,2|0,0:0|0:0,0:0:0:0:
194,282,29161,2,0,P|224:239|235:188,1,105.000004005432,2|0,0:0|0:0,0:0:0:0:
118,55,29305,6,0,L|156:63,1,35,10|0,0:0|0:0,0:0:0:0:
356,127,29450,2,0,L|303:134,1,52.5000020027161,2|0,0:0|0:0,0:0:0:0:
141,157,29595,6,0,P|198:159|235:188,1,105.000004005432,2|0,0:3|0:0,0:0:0:0:
328,217,29740,2,0,P|270:214|233:185,1,105.000004005432,2|0,0:0|0:0,0:0:0:0:
249,23,29885,6,0,P|238:57|236:91,1,70,8|0,0:3|0:0,0:0:0:0:
183,300,30030,2,0,P|179:265|168:233,1,70,8|0,0:3|0:0,0:0:0:0:
49,40,30175,6,0,L|124:56,1,70,6|0,0:0|0:0,0:0:0:0:
205,50,30465,2,0,P|153:47|110:75,1,105.000004005432,8|0,0:0|0:0,0:0:0:0:
11,215,30755,2,0,L|86:231,1,70,2|0,0:0|0:0,0:0:0:0:
158,271,31045,2,0,P|109:254|81:211,1,105.000004005432,8|0,0:0|0:0,0:0:0:0:
173,124,31334,6,0,B|175:160|175:160|160:192,1,70,2|0,0:0|0:0,0:0:0:0:
84,130,31624,2,0,P|132:148|160:191,1,105.000004005432,8|0,0:0|0:0,0:0:0:0:
145,338,31914,2,0,B|143:302|143:302|158:270,1,70,2|0,0:0|0:0,0:0:0:0:
234,332,32204,2,0,P|185:315|157:272,1,105.000004005432,8|0,0:0|0:0,0:0:0:0:
208,92,32494,6,0,L|201:58,2,35,2|0|0,0:0|0:0|0:0,0:0:0:0:
276,50,32784,2,0,B|254:98|254:98|264:150,1,105.000004005432,8|0,0:0|0:0,0:0:0:0:
283,280,33074,1,2,0:0:0:0:
113,243,33218,1,2,0:0:0:0:
332,101,33363,2,0,P|354:49|339:-2,1,105.000004005432,8|0,0:0|0:0,0:0:0:0:
174,80,33653,6,0,L|185:161,1,70,2|0,0:0|0:0,0:0:0:0:
212,359,33943,2,0,L|204:301,1,52.5000020027161,8|0,0:0|0:0,0:0:0:0:
0,318,34088,2,0,P|14:326|34:332,1,35
196,228,34233,1,2,0:0:0:0:
58,137,34378,2,0,P|41:136|24:140,1,35,2|0,0:0|0:0,0:0:0:0:
48,254,34523,2,0,P|57:217|36:248,1,105.000004005432,8|0,0:0|0:0,0:0:0:0:
134,282,34813,6,0,P|146:247|143:213,1,70,2|0,0:0|0:0,0:0:0:0:
24,140,35103,2,0,B|77:145|77:145|124:121,1,105.000004005432,8|0,0:0|0:0,0:0:0:0:
200,4,35392,2,0,L|206:39,1,35,2|0,0:0|0:0,0:0:0:0:
68,28,35537,2,0,L|62:63,1,35
225,136,35682,2,0,L|234:188,1,52.5000020027161,8|0,0:0|0:0,0:0:0:0:
40,271,35827,2,0,P|47:246|63:224,1,52.5000020027161,2|0,0:0|0:0,0:0:0:0:
292,244,35972,6,0,P|312:292|300:343,1,105.000004005432,2|0,0:0|0:0,0:0:0:0:
164,346,36189,1,0,0:0:0:0:
164,346,36262,1,0,0:0:0:0:
170,311,36334,1,0,0:0:0:0:
176,276,36407,1,0,0:0:0:0:
182,241,36479,1,0,0:0:0:0:
233,188,36552,2,0,P|213:198|190:201,1,35,2|0,0:0|0:0,0:0:0:0:
88,121,36697,2,0,P|106:126|122:133,1,35
92,290,36842,5,12,0:1:0:0:
73,210,36938,1,2,0:0:0:0:
149,234,37035,1,2,0:0:0:0:
170,311,37132,6,0,P|153:342|126:364,1,70,2|0,0:0|0:0,0:0:0:0:
31,341,37421,2,0,P|75:369|127:363,1,105.000004005432,8|0,0:0|0:0,0:0:0:0:
149,234,37711,2,0,P|119:215|85:210,1,70,2|0,0:0|0:0,0:0:0:0:
13,275,38001,2,0,P|37:230|84:209,1,105.000004005432,8|0,0:0|0:0,0:0:0:0:
92,290,38291,5,4,0:0:0:0:
256,192,38363,12,0,39305,0:0:0:0:
297,65,39450,6,0,P|311:99|308:139,1,70,6|0,0:0|0:0,0:0:0:0:
352,200,39740,2,0,P|305:179|255:191,1,105.000004005432,8|0,0:0|0:0,0:0:0:0:
213,317,40030,2,0,P|199:283|202:243,1,70,2|0,0:0|0:0,0:0:0:0:
157,180,40320,2,0,P|204:201|255:191,1,105.000004005432,8|0,0:0|0:0,0:0:0:0:
86,60,40610,6,0,L|156:67,1,70,2|0,0:0|0:0,0:0:0:0:
222,20,40900,2,0,B|206:69|206:69|212:122,1,105.000004005432,8|0,0:0|0:0,0:0:0:0:
386,257,41189,2,0,L|316:250,1,70,2|0,0:0|0:0,0:0:0:0:
245,293,41479,2,0,B|260:243|260:243|254:190,1,105.000004005432,8|0,0:0|0:0,0:0:0:0:
68,146,41769,6,0,P|102:151|135:142,1,70,2|0,0:0|0:0,0:0:0:0:
183,68,42059,2,0,L|288:78,1,105.000004005432,8|0,0:0|0:0,0:0:0:0:
445,238,42349,2,0,P|410:243|377:234,1,70,2|0,0:0|0:0,0:0:0:0:
329,159,42639,2,0,L|224:168,1,105.000004005432,8|0,0:0|0:0,0:0:0:0:
88,307,42929,6,0,L|157:312,1,70,2|0,0:0|0:0,0:0:0:0:
229,349,43218,2,0,P|202:300|213:247,1,105.000004005432,8|0,0:0|0:0,0:0:0:0:
423,247,43508,2,0,L|353:252,1,70,2|0,0:0|0:0,0:0:0:0:
282,288,43798,2,0,P|308:243|301:192,1,105.000004005432,8|0,0:0|0:0,0:0:0:0:
265,63,44088,6,0,B|253:68|233:70|233:70|215:66|198:59,1,70,6|0,0:0|0:0,0:0:0:0:
158,26,44378,2,0,P|174:45|197:58,1,52.5000020027161,2|0,0:0|0:0,0:0:0:0:
311,39,44523,2,0,P|289:54|264:64,1,52.5000020027161,10|0,0:0|0:0,0:0:0:0:
155,169,44668,2,0,L|143:201,1,35
286,181,44813,2,0,L|291:215,1,35
114,277,44958,2,0,L|95:326,1,52.5000020027161,8|0,0:0|0:0,0:0:0:0:
321,343,45103,2,0,P|316:318|305:294,1,52.5000020027161,2|0,0:0|0:0,0:0:0:0:
75,244,45247,6,0,P|114:277|165:279,1,105.000004005432,2|0,0:0|0:0,0:0:0:0:
312,195,45465,1,0,0:0:0:0:
312,195,45537,1,0,0:0:0:0:
283,214,45610,1,0,0:0:0:0:
270,245,45682,1,0,0:0:0:0:
275,279,45755,1,0,0:0:0:0:
321,343,45827,2,0,P|308:328|294:318,1,35,2|0,0:0|0:0,0:0:0:0:
165,278,45972,2,0,P|182:275|198:268,1,35
304,102,46117,5,6,0:1:0:0:
316,181,46214,1,2,0:0:0:0:
379,131,46310,1,12,0:0:0:0:
367,51,46407,6,0,P|341:31|299:22,1,70,2|0,0:0|0:0,0:0:0:0:
235,60,46624,2,0,P|202:55|169:64,1,58.3333333333333,2|0,0:0|0:0,0:0:0:0:
125,133,46793,1,2,0:0:0:0:
138,206,46890,1,2,0:0:0:0:
151,279,46987,2,0,L|142:364,1,70,2|0,0:0|0:0,0:0:0:0:
207,231,47204,2,0,L|198:316,1,70,2|0,0:0|0:0,0:0:0:0:
266,188,47421,2,0,L|271:158,2,17.5,2|0|0,0:0|0:0|0:0,0:0:0:0:
395,277,47566,6,0,P|404:205|375:272,1,210,2|0,0:0|0:0,0:0:0:0:
289,296,47856,6,0,P|281:281|278:264,1,35,2|0,0:0|0:0,0:0:0:0:
393,115,48001,2,0,P|366:116|342:126,1,52.5000020027161,2|0,0:0|0:0,0:0:0:0:
69,224,48146,6,0,B|121:230|121:230|174:203,1,105.000004005432,2|0,0:3|0:0,0:0:0:0:
266,188,48291,2,0,B|214:182|214:182|161:209,1,105.000004005432,2|0,0:0|0:0,0:0:0:0:
37,139,48436,6,0,L|106:146,1,70,8|0,0:3|0:0,0:0:0:0:
298,274,48581,2,0,L|228:265,1,70,8|0,0:3|0:0,0:0:0:0:
177,43,48726,6,0,P|199:69|210:102,1,70,6|0,0:0|0:0,0:0:0:0:
292,109,48943,1,0,0:0:0:0:
292,109,49016,2,0,P|280:141|257:168,1,70,8|0,0:0|0:0,0:0:0:0:
292,241,49232,1,0,0:0:0:0:
292,241,49305,2,0,P|258:246|224:239,1,70,2|0,0:0|0:0,0:0:0:0:
178,306,49522,1,0,0:0:0:0:
179,306,49595,2,0,P|165:294|155:279,1,35,8|0,0:0|0:0,0:0:0:0:
193,53,49740,2,0,P|207:79|210:101,1,52.5000020027161
85,221,49885,6,0,P|118:217|148:199,1,70,2|0,0:0|0:0,0:0:0:0:
77,59,50175,2,0,P|74:102|93:140,1,87.5,8|0,0:0|0:0,0:0:0:0:
250,74,50465,2,0,P|199:62|152:84,1,105.000004005432,2|0,0:0|0:0,0:0:0:0:
207,252,50755,2,0,P|229:196|206:141,1,122.500001168251,8|0,0:0|0:0,0:0:0:0:
69,82,51045,6,0,P|75:112|91:138,1,61.2500005841255,6|0,0:3|0:0,0:0:0:0:
71,219,51189,2,0,P|110:220|145:202,1,78.7500030040742,2|0,0:0|0:0,0:0:0:0:
223,233,51334,2,0,P|231:186|211:143,1,96.2500009179115,2|0,0:0|0:0,0:0:0:0:
259,79,51479,2,0,P|206:60|154:80,1,113.750003254414,2|0,0:3|0:3,0:3:0:0:
70,225,51624,6,0,P|77:241|88:256,1,35,2|0,0:0|0:0,0:0:0:0:
73,238,51697,2,0,P|84:252|101:265,1,38.5000011749268,2|0,0:0|0:0,0:0:0:0:
82,253,51769,2,0,P|96:263|122:273,1,41.9999987182618,2|0,0:0|0:0,0:0:0:0:
95,264,51842,2,0,P|112:270|144:271,1,45.4999979171754,2|0,0:0|0:0,0:0:0:0:
186,206,51914,6,0,P|179:223|180:260,1,48.9999985046387,2|0,0:0|0:0,0:0:0:0:
202,180,51987,2,0,P|187:191|168:232,1,52.5000020027161,2|0,0:0|0:0,0:0:0:0:
233,163,52059,2,0,P|214:166|176:196,1,56,2|0,0:0|0:0,0:0:0:0:
266,163,52132,2,0,P|248:156|197:162,1,59.5000011348725,2|0,0:0|0:0,0:0:0:0:
255,240,52204,6,0,P|290:237|319:219,2,70,4|0|0,0:0|0:0|0:0,0:0:0:0:
303,46,53363,6,0,B|295:115|295:115|322:190,1,140,4|0,0:0|0:0,0:0:0:0:
386,219,53581,2,0,B|355:202|355:202|284:211|284:211|258:234,1,140,4|0,0:0|0:0,0:0:0:0:
133,249,53798,2,0,B|163:265|163:265|234:256|234:256|260:233,1,140,4|0,0:0|0:0,0:0:0:0:
204,37,54016,2,0,L|189:177,1,140,4|0,0:0|0:0,0:0:0:0:
330,290,54233,1,8,1:0:0:0:
330,290,54523,6,0,B|279:337|279:337|205:347,1,140,4|0,0:0|0:0,0:0:0:0:
78,321,54740,2,0,B|137:354|137:354|208:345,1,140,4|0,0:0|0:0,0:0:0:0:
260,233,54958,2,0,B|234:256|234:256|163:265|163:265|132:248,1,140,4|0,0:0|0:0,0:0:0:0:
299,165,55175,2,0,P|337:220|318:285,1,140,4|0,0:0|0:0,0:0:0:0:
190,177,55392,1,8,1:0:0:0:
190,177,55682,6,0,P|189:109|242:66,1,140,4|0,0:0|0:0,0:0:0:0:
377,82,55900,2,0,B|308:90|308:90|241:66,1,140,4|0,0:0|0:0,0:0:0:0:
106,50,56117,2,0,B|175:42|175:42|241:65,1,140,4|0,0:0|0:0,0:0:0:0:
391,95,56334,2,0,B|259:142,1,140,4|0,0:0|0:0,0:0:0:0:
72,210,56552,1,8,1:0:0:0:
72,210,56842,6,0,P|138:221|189:175,1,140,4|0,0:0|0:0,0:0:0:0:
146,27,57059,2,0,P|102:78|116:145,1,140,4|0,0:0|0:0,0:0:0:0:
243,120,57276,2,0,P|212:101|178:99,1,70,4|0,0:0|0:0,0:0:0:0:
62,279,57421,1,2,0:0:0:0:
63,279,57494,2,0,L|71:210,1,70,4|0,0:0|0:0,0:0:0:0:
179,99,57639,1,2,0:0:0:0:
189,176,57711,6,0,L|197:245,1,70,12|0,1:3|0:0,0:0:0:0:
189,176,58001,6,0,P|249:135|317:157,1,140,4|0,0:0|0:0,0:0:0:0:
327,285,58218,2,0,B|301:223|301:223|310:152,1,140,4|0,0:0|0:0,0:0:0:0:
437,166,58436,2,0,B|407:182|407:182|336:173|336:173|310:150,1,140,4|0,0:0|0:0,0:0:0:0:
329,12,58653,2,0,B|359:-4|359:-4|431:6|431:6|455:30,1,140,4|0,0:0|0:0,0:0:0:0:
466,279,58871,1,8,1:0:0:0:
466,279,59161,6,0,L|318:304,1,140,4|0,0:0|0:0,0:0:0:0:
231,384,59378,2,0,L|256:236,1,140,4|0,0:0|0:0,0:0:0:0:
337,149,59595,2,0,L|189:174,1,140,4|0,0:0|0:0,0:0:0:0:
102,254,59813,2,0,L|127:106,1,140,4|0,0:0|0:0,0:0:0:0:
208,19,60030,1,8,1:0:0:0:
208,19,60320,6,0,B|271:49|271:49|356:38,1,140,4|0,0:0|0:0,0:0:0:0:
474,101,60537,2,0,L|336:120,1,140,4|0,0:0|0:0,0:0:0:0:
240,251,60755,2,0,B|293:205|293:205|378:194,1,140,4|0,0:0|0:0,0:0:0:0:
466,316,60972,2,0,B|435:331|435:331|364:321|364:321|339:298,1,140,4|0,0:0|0:0,0:0:0:0:
213,136,61189,1,8,1:0:0:0:
213,136,61479,6,8,L|123:149,1,70,8|8,3:0|3:0,3:0:0:0:
118,211,61624,5,4,3:0:0:0:
118,211,61697,2,4,L|151:126,1,70,4|4,3:0|3:0,3:0:0:0:
99,91,61842,5,4,3:0:0:0:
99,91,61914,2,4,L|155:161,1,70,4|4,3:0|3:0,3:0:0:0:
197,214,62059,5,8,0:0:0:0:
266,203,62132,1,8,0:0:0:0:
335,192,62204,1,8,0:0:0:0:
144,353,62349,6,0,L|197:214,1,148.40000022644,4|0,0:1|0:0,0:0:0:0:
256,192,64958,12,0,65972,0:0:0:0:
257,51,66117,6,0,P|262:123|240:53,1,210,2|0,0:0|0:0,0:0:0:0:
137,30,66407,6,0,L|141:65,1,35,2|0,0:0|0:0,0:0:0:0:
362,133,66552,2,0,L|356:185,1,52.5000020027161,2|0,0:0|0:0,0:0:0:0:
215,341,66697,2,0,B|191:327|191:327|183:251,1,105.000004005432,2|0,0:3|0:0,0:0:0:0:
151,160,66842,2,0,B|175:174|175:174|183:250,1,105.000004005432,2|0,0:0|0:0,0:0:0:0:
120,374,66987,6,0,L|113:304,1,70,8|0,0:3|0:0,0:0:0:0:
91,123,67132,2,0,L|154:161,1,70,8|0,0:3|0:0,0:0:0:0:
346,278,67276,5,4,0:1:0:0:
256,192,67349,12,0,69305,0:0:0:0:
319,210,69450,5,2,0:0:0:0:
84,167,69595,2,0,B|65:100|65:100|-3:65,1,140,2|0,0:0|0:0,0:0:0:0:
242,284,70030,1,0,0:0:0:0:
242,284,70175,1,2,0:0:0:0:
418,239,70320,2,0,B|437:172|437:172|499:140|499:140|490:174,1,175,2|0,0:0|0:0,0:0:0:0:
441,340,70755,6,0,P|415:343|394:337,2,35,4|0|0,0:0|0:0|0:0,0:0:0:0:
498,304,71045,2,0,P|473:329|441:341,1,70
275,210,71189,2,0,L|304:240,1,35
307,345,71334,2,0,L|319:304,1,35
408,248,71479,2,0,L|374:257,1,35
241,289,71661,6,0,B|271:283|271:283|289:265|289:265|326:283|326:283|345:264|345:264|375:257,1,153.125001460314,2|0,0:0|0:0,0:0:0:0:
437,173,71914,6,0,P|445:109|391:55,1,140,6|8,0:0|0:0,0:0:0:0:
304,161,72349,1,2,0:0:0:0:
304,161,72494,2,0,B|331:140|331:140|366:132,1,70,2|0,0:0|0:0,0:0:0:0:
512,148,72784,1,8,0:0:0:0:
496,226,72929,1,2,0:0:0:0:
422,252,73074,6,0,B|390:239|390:239|366:214,2,70,2|2|8,0:0|0:0|0:0,0:0:0:0:
346,218,73508,1,2,0:0:0:0:
325,221,73798,1,2,0:0:0:0:
304,224,74088,1,2,0:0:0:0:
350,62,74233,6,0,P|319:8|271:46,1,140,2|8,0:0|0:0,0:0:0:0:
283,227,74668,1,2,0:0:0:0:
182,183,74813,1,2,0:0:0:0:
170,166,74958,1,2,0:0:0:0:
195,292,75102,1,8,0:0:0:0:
186,311,75247,1,2,0:0:0:0:
283,227,75392,1,0,0:0:0:0:
304,224,75537,1,2,0:0:0:0:
94,248,75682,6,0,L|21:257,1,70,10|0,0:0|0:0,0:0:0:0:
95,98,75972,2,0,B|148:144|148:144|218:152,1,140,2|8,0:0|0:0,0:0:0:0:
237,154,76552,6,0,P|189:197|196:273,1,140,6|8,0:0|0:0,0:0:0:0:
331,238,76987,1,0,0:0:0:0:
331,238,77132,2,0,L|258:229,1,70,2|0,0:0|0:0,0:0:0:0:
211,346,77421,1,8,0:0:0:0:
289,336,77566,1,0,0:0:0:0:
367,327,77711,6,0,L|440:318,2,70,2|2|8,0:0|0:0|0:0,0:0:0:0:
442,299,78146,1,2,0:0:0:0:
447,279,78436,1,2,0:0:0:0:
452,259,78726,1,2,0:0:0:0:
334,111,78871,6,0,P|343:57|392:138,1,210.000008010865,6|8,0:0|0:0,0:0:0:0:
256,192,79305,1,2,0:0:0:0:
256,192,79450,1,2,0:0:0:0:
97,124,79595,2,0,P|125:42|178:111,1,210.000008010865,2|0,0:0|0:0,0:0:0:0:
61,304,80030,6,0,L|48:212,1,91.8750035047532,4|0,0:0|0:0,0:0:0:0:
48,213,80356,2,0,B|67:220|67:220|79:307|79:307|103:315,1,131.25000500679,2|0,0:0|0:0,0:0:0:0:
258,336,80610,6,0,B|251:284|251:284|201:266,1,105.000004005432,2|0,0:3|0:0,0:0:0:0:
146,198,80755,2,0,B|152:249|152:249|202:267,1,105.000004005432,2|0,0:0|0:0,0:0:0:0:
348,281,80900,6,0,L|282:258,1,70,8|0,0:3|0:0,0:0:0:0:
137,183,81045,2,0,L|205:160,1,70,8|0,0:3|0:0,0:0:0:0:
406,6,81189,6,0,P|406:77|352:119,1,140,6|8,0:0|0:0,0:0:0:0:
265,32,81624,1,0,0:0:0:0:
265,32,81769,2,0,L|335:42,1,70,2|0,0:0|0:0,0:0:0:0:
192,149,82059,1,8,0:0:0:0:
262,112,82204,1,0,0:0:0:0:
195,70,82349,6,0,P|185:36|192:2,2,70,2|2|8,0:0|0:0|0:0,0:0:0:0:
173,8,82784,1,2,0:0:0:0:
152,12,83074,1,2,0:0:0:0:
131,16,83363,1,2,0:0:0:0:
137,206,83508,6,0,P|201:228|259:192,1,140,6|0,0:0|0:0,0:0:0:0:
211,53,83798,6,0,P|185:97|192:148,1,105.000004005432,8|0,0:0|0:0,0:0:0:0:
336,177,84088,2,0,P|310:132|263:112,1,105.000004005432,2|0,0:0|0:0,0:0:0:0:
165,224,84378,2,0,P|217:224|258:193,1,105.000004005432,8|0,0:0|0:0,0:0:0:0:
190,80,84668,2,0,P|184:115|192:149,1,70,2|0,0:0|0:0,0:0:0:0:
323,145,84958,2,0,P|296:122|263:111,1,70,8|0,0:0|0:0,0:0:0:0:
200,228,85248,2,0,P|232:216|258:193,1,70,2|0,0:0|0:0,0:0:0:0:
95,24,85537,2,0,B|88:76|88:76|111:139,1,105.000004005432,12|0,0:0|0:0,0:0:0:0:
336,176,85827,6,0,P|310:131|263:111,1,105.000004005432,6|0,0:0|0:0,0:0:0:0:
165,224,86117,2,0,P|216:224|257:193,1,105.000004005432,8|0,0:0|0:0,0:0:0:0:
211,52,86407,2,0,P|184:97|192:148,1,105.000004005432,2|0,0:0|0:0,0:0:0:0:
365,45,86697,1,10,0:0:0:0:
112,7,86842,1,2,0:0:0:0:
282,183,86987,6,0,B|345:263|345:263|299:254,1,140,6|0,0:0|0:0,0:0:0:0:
191,147,87276,2,0,B|229:51|229:51|244:96,1,140,8|0,0:0|0:0,0:0:0:0:
205,245,87566,2,0,B|103:260|103:260|134:224,1,140,2|0,0:0|0:0,0:0:0:0:
317,111,87856,1,10,0:0:0:0:
110,153,88001,1,2,0:0:0:0:
271,364,88146,6,0,L|284:295,1,70,6|0,0:0|0:0,0:0:0:0:
191,176,88291,2,0,L|205:245,1,70,2|0,0:0|0:0,0:0:0:0:
317,111,88436,5,10,0:0:0:0:
291,105,88508,1,10,0:0:0:0:
267,98,88581,1,10,0:0:0:0:
243,92,88653,1,10,0:0:0:0:
183,44,88726,6,0,P|167:75|167:109,1,70,2|0,0:0|0:0,0:0:0:0:
358,263,88871,2,0,P|338:234|308:216,1,70,2|0,0:0|0:0,0:0:0:0:
91,251,89016,5,10,0:0:0:0:
135,189,89088,1,10,0:0:0:0:
134,112,89161,1,10,0:0:0:0:
88,53,89233,1,10,0:0:0:0:
14,34,89305,5,4,0:1:0:0:
214,141,90465,6,0,B|201:188|201:188|247:222|247:222|297:196|297:196|293:147,1,210.000008010865,4|8,0:3|0:0,0:0:0:0:
141,54,90900,1,2,0:0:0:0:
167,245,91045,2,0,L|193:143,1,105.000004005432,2|0,0:0|0:0,0:0:0:0:
377,74,91334,5,8,0:0:0:0:
402,325,91479,1,2,0:0:0:0:
312,154,91624,2,0,L|322:258,1,105.000004005432,2|2,0:0|0:0,0:0:0:0:
329,143,91914,5,8,0:0:0:0:
151,250,92059,1,2,0:0:0:0:
181,129,92204,5,0,0:0:0:0:
340,267,92349,1,2,0:0:0:0:
346,133,92494,5,8,0:0:0:0:
81,298,92639,1,2,0:0:0:0:
151,55,92784,6,0,P|230:66|237:186,1,210.000008010865,2|8,0:0|0:0,0:0:0:0:
55,159,93218,1,2,0:0:0:0:
55,159,93363,5,2,0:0:0:0:
181,129,93508,1,2,0:0:0:0:
153,230,93653,5,8,0:0:0:0:
307,99,93798,1,2,0:0:0:0:
251,301,93943,5,0,0:0:0:0:
454,249,94088,1,2,0:0:0:0:
233,197,94233,2,0,L|252:311,1,105.000004005432,8|0,0:0|0:0,0:0:0:0:
370,342,94450,1,0,0:0:0:0:
370,342,94523,1,2,0:0:0:0:
364,303,94595,1,0,0:0:0:0:
358,264,94668,1,0,0:0:0:0:
352,225,94740,1,0,0:0:0:0:
387,152,94813,2,0,P|371:173|349:185,1,52.5000020027161
188,125,94958,2,0,P|178:100|178:74,1,52.5000020027161
324,50,95103,6,0,P|274:110|300:38,1,210.000008010865,4|8,0:0|0:0,0:0:0:0:
102,13,95537,1,2,0:0:0:0:
126,207,95682,2,0,P|149:160|187:124,1,105.000004005432,2|0,0:0|0:0,0:0:0:0:
485,155,95972,5,8,0:0:0:0:
297,76,96117,1,2,0:0:0:0:
341,287,96262,2,0,P|352:236|346:184,1,105.000004005432,2|2,0:0|0:0,0:0:0:0:
209,15,96552,5,8,0:0:0:0:
347,185,96697,1,2,0:0:0:0:
402,88,96842,5,0,0:0:0:0:
187,124,96987,1,2,0:0:0:0:
197,0,97132,5,8,0:0:0:0:
218,296,97276,1,2,0:0:0:0:
421,83,97421,6,0,P|483:156|429:160,1,210.000008010865,2|8,0:0|0:0,0:0:0:0:
165,131,97856,1,2,0:0:0:0:
361,199,98001,2,0,L|352:269,1,52.5000020027161,2|0,0:0|0:0,0:0:0:0:
180,234,98146,2,0,L|187:287,1,52.5000020027161
345,360,98291,2,0,B|328:309|328:309|335:259,1,105.000004005432,8|0,0:0|0:0,0:0:0:0:
373,72,98581,6,0,P|331:99|271:95,1,105.000004005432,8|0,0:0|0:0,0:0:0:0:
83,14,98871,2,4,L|96:99,1,70.0000026702882,4|4,3:0|3:0,3:0:0:0:
107,156,99016,1,4,3:0:0:0:
259,92,99161,2,4,L|248:161,1,70.0000026702882,4|4,3:0|3:0,3:0:0:0:
235,234,99306,1,4,3:0:0:0:
404,164,99450,2,0,P|387:217|391:166,1,157.500006008148,4|0,0:0|0:0,0:0:0:0:
451,72,99740,6,0,B|403:165|403:165|441:281,1,210.000008010865,6|8,0:3|0:0,0:0:0:0:
466,365,100175,1,2,0:0:0:0:
263,310,100320,2,0,L|410:352,1,105.000004005432,2|0,0:0|0:0,0:0:0:0:
492,173,100610,5,8,0:0:0:0:
138,268,100755,1,2,0:0:0:0:
341,213,100900,2,0,L|194:255,1,105.000004005432,2|2,0:0|0:0,0:0:0:0:
360,219,101189,5,8,0:0:0:0:
162,138,101334,1,2,0:0:0:0:
227,256,101479,5,0,0:0:0:0:
352,82,101624,1,2,0:0:0:0:
379,225,101769,5,8,0:0:0:0:
234,26,101914,1,2,0:0:0:0:
211,269,102059,6,0,B|205:322|205:322|122:260|122:260|175:240,1,210.000008010865,2|8,0:0|0:0,0:0:0:0:
437,162,102494,1,2,0:0:0:0:
437,162,102639,5,2,0:0:0:0:
336,132,102784,1,2,0:0:0:0:
367,286,102929,5,8,0:0:0:0:
470,262,103074,1,2,0:0:0:0:
235,102,103218,5,4,0:3:0:0:
264,310,103363,1,2,0:0:0:0:
430,181,103508,2,0,B|444:129|444:129|431:75,1,105.000004005432,10|0,0:0|0:0,0:0:0:0:
174,163,103798,1,2,0:0:0:0:
423,200,103943,1,2,0:0:0:0:
167,182,104088,2,0,B|152:233|152:233|165:287,1,105.000004005432,8|0,0:0|0:0,0:0:0:0:
326,335,104378,5,6,0:0:0:0:
363,128,104523,1,2,0:0:0:0:
234,235,104668,1,8,0:0:0:0:
197,28,104813,1,2,0:0:0:0:
234,235,104958,2,0,L|214:129,1,105.000004005432,2|0,0:0|0:0,0:0:0:0:
383,25,105247,5,8,0:0:0:0:
326,335,105392,1,2,0:0:0:0:
363,128,105537,2,0,L|344:233,1,105.000004005432,2|2,0:0|0:0,0:0:0:0:
377,114,105827,5,8,0:0:0:0:
220,248,105972,1,2,0:0:0:0:
195,124,106117,5,0,0:0:0:0:
362,240,106262,1,2,0:0:0:0:
391,100,106407,5,8,0:0:0:0:
245,372,106552,1,2,0:0:0:0:
82,109,106697,6,0,L|104:216,1,105.000004005432,6|0,0:0|0:0,0:0:0:0:
90,310,106914,2,0,B|79:259|79:259|109:198,1,105.000004005432,6|0,0:0|0:0,0:0:0:0:
264,201,107132,1,10,0:0:0:0:
233,265,107204,1,8,0:0:0:0:
162,270,107276,1,8,0:0:0:0:
224,142,107421,5,0,0:0:0:0:
231,128,107494,1,2,0:0:0:0:
308,260,107639,5,0,0:0:0:0:
316,273,107712,1,2,0:0:0:0:
149,272,107856,5,2,0:0:0:0:
331,174,108001,1,8,3:0:0:0:
127,92,108146,2,0,B|129:111|129:111|125:117|125:117|130:122|130:122|132:135|132:135|137:138|137:138|133:142|133:142|135:155|135:155|131:162|131:162|137:166|137:166|140:200,1,105.000004005432,4|0,0:0|0:0,0:0:0:0:
304,365,108436,2,0,B|305:346|305:346|311:342|311:342|307:335|307:335|309:322|309:322|305:318|305:318|310:315|310:315|312:302|312:302|317:297|317:297|313:291|313:291|315:272,1,105.000004005432,4|0,0:0|0:0,0:0:0:0:
354,58,108726,1,4,0:0:0:0:
373,52,109016,6,0,B|408:90|408:90|422:195|422:195|397:241,1,210.000008010865,6|8,0:3|0:0,0:0:0:0:
304,365,109450,1,2,0:0:0:0:
335,125,109595,2,0,B|341:177|341:177|316:223,1,105.000004005432,2|0,0:0|0:0,0:0:0:0:
222,347,109885,5,8,0:0:0:0:
178,143,110030,1,2,0:0:0:0:
147,383,110175,2,0,B|140:330|140:330|165:284,1,105.000004005432,2|2,0:0|0:0,0:0:0:0:
260,161,110465,5,8,0:0:0:0:
54,203,110610,1,2,0:0:0:0:
95,67,110755,5,0,0:0:0:0:
164,265,110900,1,2,0:0:0:0:
278,155,111045,5,8,0:0:0:0:
57,329,111189,1,2,0:0:0:0:
91,48,111334,6,0,P|31:69|116:114,1,210.000008010865,2|8,0:0|0:0,0:0:0:0:
241,0,111769,1,2,0:0:0:0:
241,0,111914,5,2,0:0:0:0:
167,71,112059,1,2,0:0:0:0:
367,129,112204,5,8,0:0:0:0:
341,27,112349,1,2,0:0:0:0:
191,173,112494,5,0,0:0:0:0:
292,201,112639,1,2,0:0:0:0:
241,0,112784,2,0,L|270:109,1,105.000004005432,8|0,0:0|0:0,0:0:0:0:
318,302,113074,1,2,0:0:0:0:
191,173,113218,1,2,0:0:0:0:
341,27,113363,2,0,P|370:72|368:132,1,105.000004005432,8|0,0:0|0:0,0:0:0:0:
217,274,113653,5,4,0:1:0:0:
391,225,113798,1,2,0:0:0:0:
191,173,113943,1,8,0:0:0:0:
318,302,114088,1,2,0:0:0:0:
267,101,114233,2,0,L|296:210,1,105.000004005432,2|0,0:0|0:0,0:0:0:0:
493,254,114523,5,8,0:0:0:0:
366,125,114668,1,2,0:0:0:0:
417,326,114813,2,0,L|388:217,1,105.000004005432,2|2,0:0|0:0,0:0:0:0:
191,173,115103,5,8,0:0:0:0:
318,302,115247,1,2,0:0:0:0:
385,206,115392,5,0,0:0:0:0:
222,286,115537,1,2,0:0:0:0:
185,154,115682,5,8,0:0:0:0:
414,318,115827,1,2,0:0:0:0:
170,351,115972,6,0,B|214:254|214:254|184:153,1,210.000008010865,2|8,0:0|0:0,0:0:0:0:
85,5,116407,1,2,0:0:0:0:
85,5,116552,2,0,L|102:61,1,52.5000020027161,2|0,0:0|0:0,0:0:0:0:
154,221,116697,2,0,L|175:173,1,52.5000020027161
296,22,116842,2,0,B|244:34|244:34|222:81,1,105.000004005432,8|0,0:0|0:0,0:0:0:0:
320,196,117132,6,0,P|327:145|300:102,1,105.000004005432,6|0,0:0|0:0,0:0:0:0:
109,142,117421,2,8,L|177:152,1,70.0000026702882,8|8,3:0|3:0,3:0:0:0:
250,163,117566,1,8,3:0:0:0:
466,196,117711,2,4,L|397:206,1,70.0000026702882,4|4,3:0|3:0,3:0:0:0:
325,217,117856,1,4,3:0:0:0:
75,247,118001,5,4,0:0:0:0:
75,247,118291,6,0,B|95:317|95:317|152:271,1,140,4|0,0:0|0:0,0:0:0:0:
175,202,118508,2,0,B|155:132|155:132|102:174,1,140,4|0,0:0|0:0,0:0:0:0:
147,274,118726,2,0,B|217:254|217:254|175:202,1,140,4|0,0:0|0:0,0:0:0:0:
102,174,118943,2,0,B|32:194|32:194|75:247,1,140,4|0,0:0|0:0,0:0:0:0:
166,365,119161,1,8,1:0:0:0:
166,365,119450,6,0,B|234:345|234:345|305:359,1,140,4|0,0:0|0:0,0:0:0:0:
382,287,119668,2,0,L|236:257,1,140,4|0,0:0|0:0,0:0:0:0:
214,131,119885,2,0,B|269:176|269:176|339:190,1,140,4|0,0:0|0:0,0:0:0:0:
423,58,120103,2,0,P|355:51|308:99,1,140,4|0,0:0|0:0,0:0:0:0:
432,207,120320,1,8,1:0:0:0:
432,207,120610,6,0,B|453:231|453:231|462:302|462:302|445:333,1,140,4|0,0:0|0:0,0:0:0:0:
265,339,120827,2,0,B|300:345|300:345|365:315|365:315|382:287,1,140,4|0,0:0|0:0,0:0:0:0:
297,126,121045,2,0,B|318:150|318:150|327:221|327:221|310:252,1,140,4|0,0:0|0:0,0:0:0:0:
130,258,121262,2,0,B|164:264|164:264|229:234|229:234|246:205,1,140,4|0,0:0|0:0,0:0:0:0:
154,13,121479,1,8,1:0:0:0:
154,13,121769,6,0,P|201:60|194:128,1,140,4|0,0:0|0:0,0:0:0:0:
115,177,121987,2,0,B|184:171|184:171|249:207,1,140,4|0,0:0|0:0,0:0:0:0:
382,286,122204,2,0,B|397:217,1,70,4|0,0:0|0:0,0:0:0:0:
297,111,122349,1,2,0:0:0:0:
297,111,122421,2,0,P|330:126|368:128,1,70,4|0,0:0|0:0,0:0:0:0:
492,70,122566,1,2,0:0:0:0:
475,142,122639,1,12,1:0:0:0:
475,142,122929,6,0,B|500:207|500:207|482:287,1,140,4|0,0:0|0:0,0:0:0:0:
366,354,123146,2,0,L|398:209,1,140,4|0,0:0|0:0,0:0:0:0:
357,116,123363,2,0,B|306:164|306:164|289:244,1,140,4|0,0:0|0:0,0:0:0:0:
241,345,123581,2,0,P|292:300|291:232,1,140,4|0,0:0|0:0,0:0:0:0:
190,131,123798,1,8,1:0:0:0:
190,131,124088,6,0,L|221:268,1,140,4|0,0:0|0:0,0:0:0:0:
170,380,124305,2,0,P|169:312|220:267,1,140,4|0,0:0|0:0,0:0:0:0:
382,288,124523,2,0,L|351:151,1,140,4|0,0:0|0:0,0:0:0:0:
402,39,124740,2,0,P|402:106|351:151,1,140,4|0,0:0|0:0,0:0:0:0:
78,102,124958,1,8,1:0:0:0:
78,102,125247,6,0,B|109:119|109:119|180:110|180:110|204:88,1,140,4|0,0:0|0:0,0:0:0:0:
332,75,125465,2,0,B|301:58|301:58|230:67|230:67|205:88,1,140,4|0,0:0|0:0,0:0:0:0:
83,141,125682,2,0,B|151:134|151:134|205:88,1,140,4|0,0:0|0:0,0:0:0:0:
328,34,125900,2,0,B|260:41|260:41|206:87,1,140,4|0,0:0|0:0,0:0:0:0:
225,207,126117,2,0,P|185:152|204:87,1,140,4|0,0:0|0:0,0:0:0:0:
457,57,126407,6,0,L|450:123,1,61.25,4|0,0:0|0:0,0:0:0:0:
361,114,126987,5,8,3:0:0:0:
366,147,127059,1,8,3:0:0:0:
378,223,127132,1,4,3:0:0:0:
368,205,127204,1,4,3:0:0:0:
301,172,127276,5,8,3:0:0:0:
307,206,127348,1,8,3:0:0:0:
318,281,127421,1,4,3:0:0:0:
308,263,127493,1,4,3:0:0:0:
237,235,127566,6,0,L|152:227,2,70,4|0|0,0:0|0:0|0:0,0:0:0:0:
