osu file format v14

[General]
AudioFilename: audioshot.mp3
AudioLeadIn: 0
PreviewTime: 89233
Countdown: 0
SampleSet: Normal
StackLeniency: 0.7
Mode: 1
LetterboxInBreaks: 0
WidescreenStoryboard: 1

[Editor]
Bookmarks: 11754,48856
DistanceSpacing: 0.6
BeatDivisor: 4
GridSize: 32
TimelineZoom: 2.3

[Metadata]
Title:BroGamer
TitleUnicode:BroGamer
Artist:USAO
ArtistUnicode:USAO
Creator:Arrival
Version:Muzukashii
Source:beatmania IIDX 24 SINOBUZ
Tags:headshot gg noob dubstep camping fire in the hole hardstyle bemani konami super ultimate hyper core trap realazy linada alheak worminators avena priti kyuukai unmei muma gezo
BeatmapID:1366524
BeatmapSetID:635636

[Difficulty]
HPDrainRate:5
CircleSize:2
OverallDifficulty:5
ApproachRate:0
SliderMultiplier:1.4
SliderTickRate:1

[Events]
//Background and Video events
0,0,"bruh-1-iloveimg-resized.jpg",0,100
//Break Periods
//Storyboard Layer 0 (Background)
//Storyboard Layer 1 (Fail)
//Storyboard Layer 2 (Pass)
//Storyboard Layer 3 (Foreground)
//Storyboard Sound Samples

[TimingPoints]
1190,289.855072463768,4,1,0,85,1,0
53363,-100,4,1,0,100,0,1
62639,-100,4,1,0,85,0,0
90465,-100,4,1,0,100,0,1
108798,-100,4,1,0,100,0,0
109016,-100,4,1,0,100,0,1
127566,-100,4,1,0,85,0,0

[HitObjects]
256,128,1190,5,0,0:0:0:0:
256,128,2349,1,0,0:0:0:0:
256,128,2929,1,8,0:0:0:0:
256,128,4088,1,8,0:0:0:0:
256,128,4668,1,0,0:0:0:0:
256,128,5247,1,8,0:0:0:0:
256,128,5827,1,0,0:0:0:0:
256,128,6117,1,0,0:0:0:0:
256,128,6407,1,8,0:0:0:0:
256,128,6842,1,8,0:0:0:0:
256,128,6987,1,0,0:0:0:0:
256,128,7276,1,8,0:0:0:0:
256,128,7711,1,0,0:0:0:0:
256,128,7856,1,8,0:0:0:0:
256,128,8001,1,0,0:0:0:0:
256,128,8291,1,0,0:0:0:0:
256,128,8436,1,8,0:0:0:0:
256,128,8726,1,0,0:0:0:0:
256,128,8871,1,0,0:0:0:0:
256,128,9016,1,8,0:0:0:0:
256,128,9305,1,4,0:0:0:0:
256,128,9595,1,0,0:0:0:0:
256,128,9740,1,8,0:0:0:0:
256,128,9885,1,0,0:0:0:0:
256,128,10175,1,8,0:0:0:0:
256,128,10320,1,8,0:0:0:0:
256,128,10465,1,4,0:0:0:0:
256,128,11624,1,4,0:0:0:0:
256,128,11914,1,8,0:0:0:0:
256,128,12059,1,0,0:0:0:0:
256,128,12349,1,0,0:0:0:0:
256,128,12494,1,8,0:0:0:0:
256,128,12639,1,0,0:0:0:0:
256,128,12929,1,0,0:0:0:0:
256,128,13074,1,8,0:0:0:0:
256,128,13363,1,0,0:0:0:0:
256,128,13508,1,0,0:0:0:0:
256,128,13653,1,8,0:0:0:0:
256,128,13943,1,0,0:0:0:0:
256,128,14233,1,8,0:0:0:0:
256,128,14378,1,0,0:0:0:0:
256,128,14668,1,0,0:0:0:0:
256,128,14813,1,8,0:0:0:0:
256,128,14958,1,0,0:0:0:0:
256,128,15247,1,0,0:0:0:0:
256,128,15392,1,8,0:0:0:0:
256,128,15537,1,8,0:0:0:0:
256,128,15682,1,0,0:0:0:0:
256,128,15755,1,0,0:0:0:0:
256,128,15827,1,0,0:0:0:0:
256,128,15972,1,8,0:0:0:0:
256,128,16262,1,0,0:0:0:0:
256,128,16552,1,0,0:0:0:0:
256,128,16697,1,8,0:0:0:0:
256,128,16987,1,8,0:0:0:0:
256,128,17132,1,0,0:0:0:0:
256,128,17276,1,8,0:0:0:0:
256,128,17566,1,0,0:0:0:0:
256,128,17711,1,8,0:0:0:0:
256,128,17929,1,8,0:0:0:0:
224,128,18146,1,0,0:0:0:0:
256,128,18291,1,0,0:0:0:0:
256,128,18436,1,8,0:0:0:0:
256,128,18726,1,0,0:0:0:0:
256,128,18871,1,8,0:0:0:0:
256,128,19161,1,0,0:0:0:0:
256,128,19305,1,0,0:0:0:0:
256,128,19450,1,8,0:0:0:0:
256,128,19595,1,0,0:0:0:0:
256,128,19668,1,0,0:0:0:0:
256,128,19740,1,0,0:0:0:0:
256,128,20030,1,8,0:0:0:0:
256,128,20175,1,8,0:0:0:0:
256,128,20320,1,0,0:0:0:0:
256,128,20900,1,0,0:0:0:0:
256,128,21189,1,8,0:0:0:0:
256,128,21334,1,8,0:0:0:0:
256,128,21479,1,0,0:0:0:0:
256,128,21624,1,0,0:0:0:0:
256,128,21769,1,8,0:0:0:0:
256,128,22059,1,0,0:0:0:0:
256,128,22204,1,0,0:0:0:0:
256,128,22349,1,8,0:0:0:0:
256,128,22494,1,0,0:0:0:0:
256,128,22784,1,0,0:0:0:0:
256,128,22929,1,8,0:0:0:0:
256,128,23001,1,8,0:0:0:0:
256,128,23074,1,8,0:0:0:0:
256,128,23218,1,0,0:0:0:0:
256,128,23508,1,8,0:0:0:0:
256,128,23653,1,0,0:0:0:0:
256,128,23943,1,0,0:0:0:0:
256,128,24088,1,8,0:0:0:0:
256,128,24233,1,8,0:0:0:0:
256,128,24378,1,0,0:0:0:0:
256,128,24668,1,8,0:0:0:0:
256,128,24958,1,0,0:0:0:0:
256,128,25103,1,0,0:0:0:0:
256,128,25247,1,8,0:0:0:0:
256,128,25392,1,8,0:0:0:0:
256,128,25465,1,8,0:0:0:0:
256,128,25537,1,8,0:0:0:0:
256,128,25682,1,0,0:0:0:0:
256,128,25827,1,8,0:0:0:0:
256,128,26117,1,0,0:0:0:0:
256,128,26262,1,0,0:0:0:0:
256,128,26407,1,8,0:0:0:0:
256,128,26697,1,0,0:0:0:0:
256,128,26987,1,8,0:0:0:0:
256,128,27132,1,8,0:0:0:0:
256,128,27276,1,0,0:0:0:0:
256,128,27421,1,8,0:0:0:0:
256,128,27494,1,8,0:0:0:0:
256,128,27566,1,8,0:0:0:0:
256,128,27711,1,8,0:0:0:0:
256,128,27856,1,0,0:0:0:0:
256,128,28146,1,0,0:0:0:0:
256,128,28291,1,8,0:0:0:0:
256,128,28581,1,8,0:0:0:0:
256,128,28726,1,0,0:0:0:0:
256,128,29016,1,0,0:0:0:0:
256,128,29305,1,0,0:0:0:0:
256,128,29450,1,8,0:0:0:0:
256,128,29595,1,8,0:0:0:0:
256,128,29885,1,8,0:0:0:0:
256,128,30030,1,0,0:0:0:0:
256,128,30103,1,0,0:0:0:0:
256,128,30175,1,0,0:0:0:0:
256,128,30465,1,8,0:0:0:0:
256,128,30610,1,0,0:0:0:0:
256,128,30755,1,8,0:0:0:0:
256,128,31045,1,0,0:0:0:0:
256,128,31334,1,0,0:0:0:0:
256,128,31479,1,8,0:0:0:0:
256,128,31624,1,0,0:0:0:0:
256,128,31769,1,0,0:0:0:0:
256,128,31914,1,8,0:0:0:0:
256,128,32204,1,8,0:0:0:0:
256,128,32349,1,8,0:0:0:0:
256,128,32494,1,0,0:0:0:0:
256,128,32784,1,8,0:0:0:0:
256,128,33074,1,0,0:0:0:0:
256,128,33218,1,0,0:0:0:0:
256,128,33363,1,8,0:0:0:0:
256,128,33653,1,0,0:0:0:0:
256,128,33798,1,8,0:0:0:0:
256,128,33943,1,0,0:0:0:0:
256,128,34088,1,8,0:0:0:0:
256,128,34161,1,8,0:0:0:0:
256,128,34233,1,8,0:0:0:0:
256,128,34523,1,12,0:0:0:0:
256,128,34813,1,0,0:0:0:0:
256,128,35103,1,8,0:0:0:0:
256,128,35392,1,8,0:0:0:0:
256,128,35537,1,8,0:0:0:0:
256,128,35682,1,0,0:0:0:0:
256,128,35827,1,8,0:0:0:0:
256,128,36117,1,8,0:0:0:0:
256,128,36262,1,0,0:0:0:0:
256,128,36407,1,8,0:0:0:0:
256,128,36552,1,8,0:0:0:0:
256,128,36842,1,0,0:0:0:0:
256,128,36938,1,0,0:0:0:0:
256,128,37035,1,0,0:0:0:0:
256,128,37132,1,0,0:0:0:0:
256,128,37421,1,8,0:0:0:0:
256,128,37711,1,8,0:0:0:0:
256,128,37856,1,0,0:0:0:0:
256,128,38001,1,0,0:0:0:0:
256,128,38146,1,8,0:0:0:0:
256,128,38291,1,4,0:0:0:0:
256,128,39450,1,0,0:0:0:0:
256,128,39740,1,8,0:0:0:0:
256,128,39885,1,0,0:0:0:0:
256,128,40030,1,8,0:0:0:0:
256,128,40320,1,0,0:0:0:0:
256,128,40609,1,0,0:0:0:0:
256,128,40754,1,8,0:0:0:0:
256,128,40899,1,0,0:0:0:0:
256,128,41044,1,0,0:0:0:0:
256,128,41189,1,8,0:0:0:0:
256,128,41479,1,8,0:0:0:0:
256,128,41624,1,8,0:0:0:0:
256,128,41769,1,0,0:0:0:0:
256,128,42059,1,8,0:0:0:0:
256,128,42349,1,0,0:0:0:0:
256,128,42493,1,0,0:0:0:0:
256,128,42638,1,8,0:0:0:0:
256,128,42784,1,8,0:0:0:0:
256,128,42928,1,0,0:0:0:0:
256,128,43218,1,8,0:0:0:0:
256,128,43363,1,8,0:0:0:0:
256,128,43508,1,0,0:0:0:0:
256,128,43653,1,8,0:0:0:0:
256,128,43726,1,8,0:0:0:0:
256,128,43798,1,8,0:0:0:0:
256,128,44088,1,4,0:0:0:0:
256,128,44378,1,8,0:0:0:0:
256,128,44668,1,8,0:0:0:0:
256,128,44813,1,8,0:0:0:0:
256,128,44958,1,0,0:0:0:0:
256,128,45103,1,8,0:0:0:0:
256,128,45392,1,8,0:0:0:0:
256,128,45537,1,0,0:0:0:0:
256,128,45682,1,8,0:0:0:0:
256,128,46117,1,0,0:0:0:0:
256,128,46214,1,0,0:0:0:0:
256,128,46310,1,0,0:0:0:0:
256,128,46407,1,0,0:0:0:0:
256,128,46600,1,8,0:0:0:0:
256,128,46793,1,8,0:0:0:0:
256,128,46987,1,0,0:0:0:0:
256,128,47180,1,8,0:0:0:0:
256,128,47373,1,8,0:0:0:0:
256,128,47566,1,4,0:0:0:0:
256,192,48726,12,0,52204,0:0:0:0:
256,128,53363,5,4,0:0:0:0:
256,128,53581,1,4,0:0:0:0:
256,128,53798,1,4,0:0:0:0:
256,128,54016,1,4,0:0:0:0:
256,128,54233,1,12,0:0:0:0:
256,128,54523,1,4,0:0:0:0:
256,128,54741,1,4,0:0:0:0:
256,128,54958,1,4,0:0:0:0:
256,128,55176,1,4,0:0:0:0:
256,128,55393,1,12,0:0:0:0:
256,128,55682,1,4,0:0:0:0:
256,128,55900,1,4,0:0:0:0:
256,128,56117,1,4,0:0:0:0:
256,128,56335,1,4,0:0:0:0:
256,128,56552,1,12,0:0:0:0:
256,128,56842,1,0,0:0:0:0:
256,128,57060,1,0,0:0:0:0:
256,128,57132,1,0,0:0:0:0:
256,128,57276,1,8,0:0:0:0:
256,128,57421,1,0,0:0:0:0:
256,128,57566,1,12,0:0:0:0:
256,128,57712,1,12,0:0:0:0:
256,128,58001,1,0,0:0:0:0:
256,128,58218,1,0,0:0:0:0:
256,128,58436,1,8,0:0:0:0:
256,128,58581,1,0,0:0:0:0:
256,128,58726,1,0,0:0:0:0:
256,128,58871,1,8,0:0:0:0:
256,128,59161,1,0,0:0:0:0:
256,128,59378,1,0,0:0:0:0:
256,128,59595,1,8,0:0:0:0:
256,128,59885,1,8,0:0:0:0:
256,128,60030,1,0,0:0:0:0:
256,128,60175,1,8,0:0:0:0:
256,128,60247,1,8,0:0:0:0:
256,128,60320,1,8,0:0:0:0:
256,128,60537,1,0,0:0:0:0:
256,128,60755,1,8,0:0:0:0:
256,128,60900,1,0,0:0:0:0:
256,128,61045,1,0,0:0:0:0:
256,128,61189,1,8,0:0:0:0:
256,128,61479,1,0,0:0:0:0:
256,128,61624,1,0,0:0:0:0:
256,128,61697,1,0,0:0:0:0:
256,128,61769,1,0,0:0:0:0:
256,128,61914,1,8,0:0:0:0:
256,128,62204,1,0,0:0:0:0:
256,128,62349,1,8,0:0:0:0:
256,128,62639,1,0,0:0:0:0:
256,192,64958,12,0,65827,0:0:0:0:
256,128,66117,5,0,0:0:0:0:
256,128,66407,1,0,0:0:0:0:
256,128,66697,1,8,0:0:0:0:
256,128,66987,1,8,0:0:0:0:
256,128,67132,1,8,0:0:0:0:
256,128,67276,1,4,0:0:0:0:
256,128,70755,1,4,0:0:0:0:
256,128,71914,1,0,0:0:0:0:
256,128,72204,1,0,0:0:0:0:
256,128,72349,1,0,0:0:0:0:
256,128,72494,1,8,0:0:0:0:
256,128,72784,1,0,0:0:0:0:
256,128,72929,1,8,0:0:0:0:
256,128,73074,1,0,0:0:0:0:
256,128,73363,1,0,0:0:0:0:
256,128,73653,1,8,0:0:0:0:
256,128,73943,1,8,0:0:0:0:
256,128,74088,1,8,0:0:0:0:
256,128,74233,1,0,0:0:0:0:
256,128,74523,1,0,0:0:0:0:
256,128,74813,1,0,0:0:0:0:
256,128,74958,1,8,0:0:0:0:
256,128,75247,1,8,0:0:0:0:
256,128,75392,1,0,0:0:0:0:
256,128,75537,1,8,0:0:0:0:
256,128,75682,1,0,0:0:0:0:
256,128,75827,1,0,0:0:0:0:
256,128,75972,1,8,0:0:0:0:
256,128,76262,1,8,0:0:0:0:
256,128,76552,1,4,0:0:0:0:
256,128,76842,1,0,0:0:0:0:
256,128,76987,1,0,0:0:0:0:
256,128,77132,1,8,0:0:0:0:
256,128,77421,1,0,0:0:0:0:
256,128,77566,1,8,0:0:0:0:
256,128,77711,1,0,0:0:0:0:
256,128,78001,1,0,0:0:0:0:
256,128,78146,1,0,0:0:0:0:
256,128,78291,1,0,0:0:0:0:
256,128,78436,1,8,0:0:0:0:
256,128,78726,1,8,0:0:0:0:
256,128,78871,1,4,0:0:0:0:
256,128,79161,1,0,0:0:0:0:
256,128,79305,1,8,0:0:0:0:
256,128,79595,1,8,0:0:0:0:
256,128,79740,1,0,0:0:0:0:
256,128,80030,1,4,0:0:0:0:
256,128,81189,1,4,0:0:0:0:
256,128,81479,1,8,0:0:0:0:
256,128,81769,1,0,0:0:0:0:
256,128,81914,1,0,0:0:0:0:
256,128,82059,1,8,0:0:0:0:
256,128,82349,1,0,0:0:0:0:
256,128,82639,1,8,0:0:0:0:
256,128,82929,1,0,0:0:0:0:
256,128,83074,1,0,0:0:0:0:
256,128,83218,1,8,0:0:0:0:
256,128,83363,1,8,0:0:0:0:
256,128,83508,1,0,0:0:0:0:
256,128,83798,1,8,0:0:0:0:
256,128,84088,1,0,0:0:0:0:
256,128,84378,1,8,0:0:0:0:
256,128,84523,1,8,0:0:0:0:
256,128,84668,1,0,0:0:0:0:
256,128,84958,1,8,0:0:0:0:
256,128,85247,1,0,0:0:0:0:
256,128,85392,1,0,0:0:0:0:
256,128,85537,1,8,0:0:0:0:
256,128,85682,1,8,0:0:0:0:
256,128,85827,1,0,0:0:0:0:
256,128,86117,1,8,0:0:0:0:
256,128,86407,1,0,0:0:0:0:
256,128,86697,1,8,0:0:0:0:
256,128,86842,1,8,0:0:0:0:
256,128,86987,1,8,0:0:0:0:
256,128,87276,1,0,0:0:0:0:
256,128,87566,1,8,0:0:0:0:
256,128,87856,1,0,0:0:0:0:
256,128,88001,1,0,0:0:0:0:
256,128,88146,1,0,0:0:0:0:
256,128,88436,1,8,0:0:0:0:
256,128,88581,1,8,0:0:0:0:
256,128,88653,1,8,0:0:0:0:
256,128,88726,1,8,0:0:0:0:
256,128,89016,1,0,0:0:0:0:
256,128,89161,1,0,0:0:0:0:
256,128,89233,1,0,0:0:0:0:
256,128,89305,1,0,0:0:0:0:
256,128,90465,1,4,0:0:0:0:
256,128,90755,1,8,0:0:0:0:
256,128,90900,1,0,0:0:0:0:
256,128,91045,1,8,0:0:0:0:
256,128,91334,1,0,0:0:0:0:
256,128,91479,1,8,0:0:0:0:
256,128,91624,1,0,0:0:0:0:
256,128,91914,1,0,0:0:0:0:
256,128,92059,1,0,0:0:0:0:
256,128,92204,1,8,0:0:0:0:
256,128,92349,1,8,0:0:0:0:
256,128,92494,1,0,0:0:0:0:
256,128,92639,1,8,0:0:0:0:
256,128,92711,1,8,0:0:0:0:
256,128,92784,1,8,0:0:0:0:
256,128,93074,1,8,0:0:0:0:
256,128,93363,1,0,0:0:0:0:
256,128,93508,1,8,0:0:0:0:
256,128,93798,1,8,0:0:0:0:
256,128,93943,1,0,0:0:0:0:
256,128,94088,1,8,0:0:0:0:
256,128,94378,1,8,0:0:0:0:
256,128,94523,1,8,0:0:0:0:
256,128,94668,1,8,0:0:0:0:
256,128,94740,1,8,0:0:0:0:
256,128,94813,1,8,0:0:0:0:
256,128,94958,1,8,0:0:0:0:
256,128,95103,1,0,0:0:0:0:
256,128,95392,1,8,0:0:0:0:
256,128,95537,1,0,0:0:0:0:
256,128,95682,1,8,0:0:0:0:
256,128,95971,1,0,0:0:0:0:
256,128,96116,1,8,0:0:0:0:
256,128,96261,1,0,0:0:0:0:
256,128,96551,1,8,0:0:0:0:
256,128,96696,1,0,0:0:0:0:
256,128,96841,1,8,0:0:0:0:
256,128,96986,1,8,0:0:0:0:
256,128,97131,1,0,0:0:0:0:
256,128,97276,1,8,0:0:0:0:
256,128,97348,1,8,0:0:0:0:
256,128,97421,1,8,0:0:0:0:
256,128,97711,1,8,0:0:0:0:
256,128,98000,1,0,0:0:0:0:
256,128,98145,1,8,0:0:0:0:
256,128,98435,1,8,0:0:0:0:
256,128,98580,1,0,0:0:0:0:
256,128,98725,1,8,0:0:0:0:
256,128,98871,1,0,0:0:0:0:
256,128,98943,1,0,0:0:0:0:
256,128,99015,1,0,0:0:0:0:
256,128,99161,1,8,0:0:0:0:
256,128,99450,1,8,0:0:0:0:
256,128,99595,1,8,0:0:0:0:
256,128,99740,1,4,0:0:0:0:
256,128,99885,1,0,0:0:0:0:
256,128,100030,1,8,0:0:0:0:
256,128,100320,1,0,0:0:0:0:
256,128,100610,1,8,0:0:0:0:
256,128,100755,1,8,0:0:0:0:
256,128,100900,1,0,0:0:0:0:
256,128,101189,1,8,0:0:0:0:
256,128,101479,1,8,0:0:0:0:
256,128,101624,1,0,0:0:0:0:
256,128,101769,1,8,0:0:0:0:
256,128,101914,1,8,0:0:0:0:
256,128,101987,1,8,0:0:0:0:
256,128,102059,1,8,0:0:0:0:
256,128,102349,1,0,0:0:0:0:
256,128,102494,1,8,0:0:0:0:
256,128,102639,1,8,0:0:0:0:
256,128,102784,1,0,0:0:0:0:
256,128,103074,1,8,0:0:0:0:
256,128,103218,1,0,0:0:0:0:
256,128,103508,1,0,0:0:0:0:
256,128,103653,1,8,0:0:0:0:
256,128,103726,1,8,0:0:0:0:
256,128,103798,1,8,0:0:0:0:
256,128,103943,1,0,0:0:0:0:
256,128,104088,1,8,0:0:0:0:
256,128,104378,1,0,0:0:0:0:
256,128,104523,1,8,0:0:0:0:
256,128,104668,1,0,0:0:0:0:
256,128,104813,1,0,0:0:0:0:
256,128,104958,1,8,0:0:0:0:
256,128,105247,1,0,0:0:0:0:
256,128,105392,1,8,0:0:0:0:
256,128,105537,1,0,0:0:0:0:
256,128,105827,1,8,0:0:0:0:
256,128,105972,1,0,0:0:0:0:
256,128,106117,1,8,0:0:0:0:
256,128,106262,1,8,0:0:0:0:
256,128,106407,1,0,0:0:0:0:
256,128,106697,1,0,0:0:0:0:
256,128,106890,1,8,0:0:0:0:
256,128,107083,1,8,0:0:0:0:
256,128,107276,1,0,0:0:0:0:
256,128,107470,1,8,0:0:0:0:
256,128,107663,1,8,0:0:0:0:
256,128,107856,1,0,0:0:0:0:
256,128,108436,1,0,0:0:0:0:
256,128,108508,1,0,0:0:0:0:
256,128,108581,1,0,0:0:0:0:
256,128,108726,1,12,0:0:0:0:
256,128,109016,1,4,0:0:0:0:
256,128,109305,1,8,0:0:0:0:
256,128,109450,1,0,0:0:0:0:
256,128,109595,1,8,0:0:0:0:
256,128,109885,1,0,0:0:0:0:
256,128,110030,1,8,0:0:0:0:
256,128,110175,1,0,0:0:0:0:
256,128,110320,1,0,0:0:0:0:
256,128,110465,1,8,0:0:0:0:
256,128,110755,1,8,0:0:0:0:
256,128,110900,1,8,0:0:0:0:
256,128,111045,1,0,0:0:0:0:
256,128,111190,1,8,0:0:0:0:
256,128,111262,1,8,0:0:0:0:
256,128,111334,1,8,0:0:0:0:
256,128,111624,1,8,0:0:0:0:
256,128,111914,1,0,0:0:0:0:
256,128,112059,1,8,0:0:0:0:
256,128,112349,1,8,0:0:0:0:
256,128,112494,1,0,0:0:0:0:
256,128,112639,1,8,0:0:0:0:
256,128,112929,1,8,0:0:0:0:
256,128,113074,1,8,0:0:0:0:
256,128,113218,1,8,0:0:0:0:
256,128,113291,1,8,0:0:0:0:
256,128,113363,1,8,0:0:0:0:
256,128,113508,1,8,0:0:0:0:
256,128,113653,1,0,0:0:0:0:
256,128,113944,1,8,0:0:0:0:
256,128,114089,1,0,0:0:0:0:
256,128,114234,1,8,0:0:0:0:
256,128,114523,1,0,0:0:0:0:
256,128,114668,1,8,0:0:0:0:
256,128,114813,1,0,0:0:0:0:
256,128,114958,1,0,0:0:0:0:
256,128,115103,1,8,0:0:0:0:
256,128,115392,1,8,0:0:0:0:
256,128,115537,1,8,0:0:0:0:
256,128,115682,1,0,0:0:0:0:
256,128,115827,1,8,0:0:0:0:
256,128,115899,1,8,0:0:0:0:
256,128,115972,1,8,0:0:0:0:
256,128,116262,1,8,0:0:0:0:
256,128,116552,1,0,0:0:0:0:
256,128,116697,1,8,0:0:0:0:
256,128,116987,1,8,0:0:0:0:
256,128,117132,1,0,0:0:0:0:
256,128,117276,1,8,0:0:0:0:
256,128,117421,1,0,0:0:0:0:
256,128,117494,1,0,0:0:0:0:
256,128,117566,1,0,0:0:0:0:
256,128,117711,1,8,0:0:0:0:
256,128,118291,1,4,0:0:0:0:
256,128,118508,1,4,0:0:0:0:
256,128,118726,1,4,0:0:0:0:
256,128,118943,1,4,0:0:0:0:
256,128,119161,1,12,0:0:0:0:
256,128,119450,1,4,0:0:0:0:
256,128,119668,1,4,0:0:0:0:
256,128,119885,1,4,0:0:0:0:
256,128,120103,1,4,0:0:0:0:
256,128,120320,1,12,0:0:0:0:
256,128,120610,1,4,0:0:0:0:
256,128,120827,1,4,0:0:0:0:
256,128,121045,1,4,0:0:0:0:
256,128,121262,1,4,0:0:0:0:
256,128,121479,1,12,0:0:0:0:
256,128,121769,1,0,0:0:0:0:
256,128,121987,1,0,0:0:0:0:
256,128,122059,1,0,0:0:0:0:
256,128,122204,1,8,0:0:0:0:
256,128,122349,1,0,0:0:0:0:
256,128,122494,1,12,0:0:0:0:
256,128,122639,1,12,0:0:0:0:
256,128,122928,1,0,0:0:0:0:
256,128,123146,1,0,0:0:0:0:
256,128,123363,1,8,0:0:0:0:
256,128,123508,1,0,0:0:0:0:
256,128,123653,1,0,0:0:0:0:
256,128,123798,1,8,0:0:0:0:
256,128,124088,1,0,0:0:0:0:
256,128,124305,1,0,0:0:0:0:
256,128,124523,1,8,0:0:0:0:
256,128,124813,1,8,0:0:0:0:
256,128,124958,1,8,0:0:0:0:
256,128,125030,1,8,0:0:0:0:
256,128,125103,1,8,0:0:0:0:
256,128,125247,1,0,0:0:0:0:
256,128,125465,1,0,0:0:0:0:
256,128,125682,1,8,0:0:0:0:
256,128,125827,1,0,0:0:0:0:
256,128,125972,1,0,0:0:0:0:
256,128,126117,1,8,0:0:0:0:
256,128,126189,1,8,0:0:0:0:
256,128,126262,1,8,0:0:0:0:
256,128,126407,1,4,0:0:0:0:
256,128,126987,2,0,L|320:128,6,35
256,128,127566,1,4,0:0:0:0:
