osu file format v14

[General]
AudioFilename: audio.mp3
AudioLeadIn: 0
PreviewTime: 31901
Countdown: 0
SampleSet: Normal
StackLeniency: 0.7
Mode: 0
LetterboxInBreaks: 0
WidescreenStoryboard: 1

[Editor]
Bookmarks: 6623,11676,16728,21781,24307,26834,31886,36939,41992,44518,52097,57149,62202,67255,72307,82413,87465,92518,97571,102623,107676,112728,115255,117781
DistanceSpacing: 1
BeatDivisor: 4
GridSize: 32
TimelineZoom: 2.3

[Metadata]
Title:Boss Rush
TitleUnicode:Boss Rush
Artist:USAO
ArtistUnicode:USAO
Creator:Lavender
Version:Yugu's Hyper
Source:jubeat Qubell
Tags:konami Qb Hardcore Dubstep SOUND VOLTEX IV HEAVENLY HAVEN POLICY BREAK Yugu Frey Moecho Moeri
BeatmapID:1314571
BeatmapSetID:619807

[Difficulty]
HPDrainRate:5
CircleSize:4
OverallDifficulty:6
ApproachRate:7.9
SliderMultiplier:1.5
SliderTickRate:1

[Events]
//Background and Video events
0,0,"48209501_p0.jpg",0,0
//Break Periods
2,62402,71543
//Storyboard Layer 0 (Background)
//Storyboard Layer 1 (Fail)
//Storyboard Layer 2 (Pass)
//Storyboard Layer 3 (Foreground)
//Storyboard Sound Samples

[TimingPoints]
1571,315.789473684211,4,1,1,35,1,0
1571,-133.333333333333,4,1,1,35,0,0
2676,-200,4,1,1,35,0,0
3623,-200,4,1,1,45,0,0
4097,-133.333333333333,4,1,1,45,0,0
5360,-100,4,1,1,55,0,0
7255,-133.333333333333,4,1,1,65,0,0
7728,-200,4,1,1,65,0,0
9149,-133.333333333333,4,1,1,75,0,0
10413,-100,4,1,1,75,0,0
11676,-133.333333333333,4,1,1,100,0,0
11992,-133.333333333333,4,1,1,75,0,0
12781,-200,4,1,1,75,0,0
14202,-133.333333333333,4,1,1,75,0,0
15465,-100,4,1,1,75,0,0
16728,-133.333333333333,4,1,1,75,0,0
17834,-200,4,1,1,75,0,0
19255,-133.333333333333,4,1,1,65,0,0
19886,-153.846153846154,4,1,1,55,0,0
20518,-181.818181818182,4,1,1,45,0,0
21149,-200,4,1,1,35,0,0
21781,-200,4,1,1,100,0,0
21939,-133.333333333333,4,1,1,80,0,0
23044,-117.647058823529,4,1,1,80,0,0
24307,-105.263157894737,4,1,1,80,0,0
29360,-105.263157894737,4,1,1,90,0,0
30623,-100,4,1,1,90,0,0
31886,-90.9090909090909,4,1,1,90,0,1
49571,-90.9090909090909,4,1,1,90,0,1
49886,-90.9090909090909,4,1,1,85,0,1
50202,-90.9090909090909,4,1,1,70,0,1
50518,-90.9090909090909,4,1,1,65,0,1
50834,-90.9090909090909,4,1,1,60,0,1
51149,-90.9090909090909,4,1,1,55,0,1
51465,-90.9090909090909,4,1,1,50,0,1
51781,-90.9090909090909,4,1,1,45,0,1
52097,-133.333333333333,4,1,1,70,0,0
53202,-200,4,1,1,70,0,0
54623,-133.333333333333,4,1,1,70,0,0
59202,-200,4,1,1,70,0,0
59676,-133.333333333333,4,1,1,70,0,0
60939,-100,4,1,1,80,0,0
62202,-100,4,1,1,90,0,0
72307,-200,4,1,1,100,0,0
72465,-133.333333333333,4,1,1,80,0,0
73570,-117.647058823529,4,1,1,80,0,0
74833,-105.263157894737,4,1,1,80,0,0
76097,-100,4,1,1,80,0,0
79886,-105.263157894737,4,1,1,90,0,0
81149,-100,4,1,1,90,0,0
82413,-83.3333333333333,4,1,1,90,0,1
83360,-90.9090909090909,4,1,1,90,0,1
87939,-83.3333333333333,4,1,1,90,0,1
91255,-100,4,1,1,90,0,1
92518,-83.3333333333333,4,1,1,90,0,1
93465,-90.9090909090909,4,1,1,90,0,1
98044,-83.3333333333333,4,1,1,90,0,1
101360,-100,4,1,1,90,0,1
102623,-100,4,1,1,100,0,0
102939,-100,4,1,1,70,0,0
103728,-111.111111111111,4,1,1,70,0,0
105149,-100,4,1,1,70,0,0
109728,-111.111111111111,4,1,1,70,0,0
110202,-100,4,1,1,70,0,0
112097,-133.333333333333,4,1,1,70,0,0
112728,-83.3333333333333,4,1,1,100,0,0
113992,-100,4,1,1,100,0,0
115255,-83.3333333333333,4,1,1,100,0,0
116518,-100,4,1,1,100,0,0
121571,-83.3333333333333,4,1,1,100,0,0
122755,-50,4,1,1,15,0,0

[Colours]
Combo1 : 128,255,128
Combo2 : 255,255,128
Combo3 : 128,255,255
Combo4 : 255,128,255

[HitObjects]
102,78,1571,5,6,0:0:0:0:
102,78,1886,1,0,0:0:0:0:
173,131,2202,2,0,L|167:212,2,56.2500021457673
254,98,2676,6,0,L|249:10,2,75
338,168,3623,6,0,L|335:131,2,37.5
369,189,4097,6,0,L|368:259,1,56.2500021457673
447,275,4413,2,0,L|446:205,1,56.2500021457673
439,134,4728,2,0,L|438:64,3,56.2500021457673
365,33,5360,6,0,L|279:42,1,75
221,110,5676,2,0,L|307:119,1,75
365,186,5992,2,0,L|279:195,3,75
256,277,6623,5,0,0:0:0:0:
256,277,6939,1,0,0:0:0:0:
139,210,7255,6,0,L|82:204,2,56.2500021457673
134,137,7728,6,0,L|47:129,2,75
247,61,8676,6,0,L|206:57,2,37.5
315,21,9149,6,0,L|333:90,1,56.2500021457673
408,78,9465,2,0,L|389:146,1,56.2500021457673
461,172,9781,2,0,L|410:222,3,56.2500021457673
385,311,10413,6,0,L|309:296,1,75
297,207,10728,2,0,L|223:232,1,75
169,161,11044,2,0,L|118:219,3,75
42,196,11676,5,6,0:0:0:0:
42,196,11992,1,0,0:0:0:0:
21,120,12307,2,0,L|31:44,2,56.2500021457673
102,88,12781,6,0,P|137:63|177:63,2,75
144,218,13728,2,0,L|148:181,2,37.5
177,254,14202,6,0,L|172:324,1,56.2500021457673
255,346,14518,2,0,L|250:276,1,56.2500021457673
334,254,14834,2,0,L|329:324,3,56.2500021457673
435,349,15465,6,0,L|419:268,1,75
379,186,15781,2,0,L|395:105,1,75
460,40,16097,2,0,L|476:121,3,75
461,191,16728,5,0,0:0:0:0:
461,191,17044,1,0,0:0:0:0:
386,148,17360,2,0,L|317:152,2,56.2500021457673
340,225,17834,6,0,L|262:229,2,75
412,317,18781,2,0,L|459:312,2,37.5
342,355,19255,6,0,L|265:349,1,56.2500021457673
237,287,19571,2,0,L|160:281,1,56.2500021457673
123,227,19886,6,0,L|118:162,1,48.7499977684022
57,130,20202,2,0,L|62:65,1,48.7499977684022
136,50,20518,6,0,L|143:98,1,41.2500012588501
214,126,20834,2,0,L|207:174,1,41.2500012588501
286,85,21149,6,0,L|278:38,2,37.5
360,169,21781,5,12,0:0:0:0:
360,169,21939,2,0,L|354:239,1,56.2500021457673
425,260,22255,1,8,0:0:0:0:
425,260,22413,2,0,L|419:330,1,56.2500021457673
490,351,22728,2,0,L|494:294,1,56.2500021457673,8|0,0:0|0:0,0:0:0:0:
493,215,23044,5,12,0:0:0:0:
493,215,23202,2,0,L|480:142,1,63.7500012159348
405,117,23518,1,8,0:0:0:0:
405,117,23676,2,0,L|392:44,1,63.7500012159348
312,33,23992,2,0,L|323:95,1,63.7500012159348,8|0,0:0|0:0,0:0:0:0:
278,176,24307,5,12,0:0:0:0:
278,176,24465,2,0,L|263:252,1,71.2499980974198
180,224,24781,1,8,0:0:0:0:
180,224,24939,2,0,L|165:300,1,71.2499980974198
85,322,25255,2,0,L|98:252,1,71.2499980974198,8|0,0:0|0:0,0:0:0:0:
48,182,25571,6,0,P|96:122|173:146,1,142.49999619484,2|8,0:0|0:0,0:0:0:0:
154,129,26044,1,2,0:0:0:0:
44,39,26360,5,8,0:0:0:0:
44,39,26518,2,0,L|128:45,1,71.2499980974198,0|2,0:0|0:0,0:0:0:0:
115,44,26755,1,0,0:0:0:0:
115,44,26834,5,12,0:0:0:0:
273,58,27149,1,8,0:0:0:0:
261,215,27465,1,8,0:0:0:0:
103,200,27781,1,8,0:0:0:0:
186,131,28097,5,12,0:0:0:0:
95,292,28413,1,8,0:0:0:0:
261,215,28728,1,8,0:0:0:0:
95,292,29044,1,8,0:0:0:0:
275,334,29360,6,8,L|359:357,1,71.2499980974198
492,306,29676,2,0,L|423:324,1,71.2499980974198,8|8,0:0|0:0,0:0:0:0:
324,268,29992,2,8,L|373:281,6,35.6249990487099
390,207,30623,6,0,L|228:167,1,150
244,171,31097,1,0,0:0:0:0:
512,74,31886,6,0,B|430:37|430:101|340:64,1,165.000005035401,6|2,0:0|0:0,0:0:0:0:
210,30,32518,1,8,0:0:0:0:
210,30,32676,2,0,P|147:32|90:124,1,165.000005035401
177,113,33149,1,2,0:0:0:0:
177,113,33307,2,0,P|215:182|184:256,1,165.000005035401,0|2,0:0|0:0,0:0:0:0:
82,192,33781,6,0,L|123:188,4,41.2500012588501,8|0|0|0|0,0:0|0:0|0:0|0:0|0:0,0:0:0:0:
0,338,34413,6,0,B|93:295|93:363|178:333,1,165.000005035401,2|2,0:0|0:0,0:0:0:0:
304,317,35044,1,8,0:0:0:0:
304,317,35202,2,0,P|363:280|449:322,1,165.000005035401
512,246,35676,1,2,0:0:0:0:
512,246,35834,2,0,P|460:198|479:104,1,165.000005035401,0|2,0:0|0:0,0:0:0:0:
434,32,36307,6,0,L|407:67,2,41.2500012588501,8|0|0,0:0|0:0|0:0,0:0:0:0:
338,47,36623,2,0,L|284:112,1,82.5000025177003
181,26,36939,6,0,B|244:98|153:98|191:203,1,165.000005035401,6|2,0:0|0:0,0:0:0:0:
363,203,37571,1,8,0:0:0:0:
363,203,37728,2,0,P|308:228|307:331,1,165.000005035401
398,383,38203,1,2,0:0:0:0:
398,383,38360,2,0,P|453:358|454:255,1,165.000005035401,0|2,0:0|0:0,0:0:0:0:
480,181,38834,6,0,L|486:113,4,41.2500012588501,8|0|0|0|0,0:0|0:0|0:0|0:0|0:0,0:0:0:0:
395,31,39465,5,2,0:0:0:0:
349,197,39781,1,2,0:0:0:0:
349,197,39939,2,0,P|287:173|208:233,1,165.000005035401
209,304,40413,1,0,0:0:0:0:
378,282,40571,1,0,0:0:0:0:
297,344,40728,6,0,L|290:261,1,82.5000025177003,2|0,0:0|0:0,0:0:0:0:
290,261,41044,1,0,0:0:0:0:
465,295,41360,6,0,L|458:378,1,82.5000025177003,2|0,0:0|0:0,0:0:0:0:
458,378,41676,1,0,0:0:0:0:
450,165,41992,6,0,B|488:79|398:79|459:-10,1,165.000005035401,6|0,0:0|0:0,0:0:0:0:
330,114,42623,1,8,0:0:0:0:
330,114,42781,2,0,L|367:293,1,165.000005035401
442,353,43255,1,2,0:0:0:0:
442,353,43413,2,0,L|479:174,1,165.000005035401,0|2,0:0|0:0,0:0:0:0:
439,118,43886,6,0,L|431:63,4,41.2500012588501,8|0|0|0|0,0:0|0:0|0:0|0:0|0:0,0:0:0:0:
293,207,44518,6,0,B|212:156|212:241|116:185,1,165.000005035401,2|2,0:0|0:0,0:0:0:0:
92,66,45149,1,8,0:0:0:0:
92,66,45307,2,0,P|157:42|217:137,1,165.000005035401
386,114,45781,1,2,0:0:0:0:
386,114,45939,2,0,P|317:125|313:237,1,165.000005035401,0|2,0:0|0:0,0:0:0:0:
414,216,46413,6,0,L|380:194,4,41.2500012588501,8|0|0|0|0,0:0|0:0|0:0|0:0|0:0,0:0:0:0:
373,341,47044,1,6,0:0:0:0:
293,207,47360,1,0,0:0:0:0:
254,282,47518,2,0,P|189:288|132:190,1,165.000005035401,2|0,0:0|0:0,0:0:0:0:
157,137,47992,1,2,0:0:0:0:
216,204,48149,1,0,0:0:0:0:
251,130,48307,5,2,0:0:0:0:
251,130,48465,1,0,0:0:0:0:
251,130,48623,2,0,L|216:205,1,82.5000025177003,0|2,0:0|0:0,0:0:0:0:
254,282,48939,2,0,P|331:305|393:255,1,165.000005035401,8|0,0:0|0:0,0:0:0:0:
474,269,49413,1,0,0:0:0:0:
256,192,49571,12,0,51781,0:0:0:0:
336,100,52097,6,0,P|324:154|343:206,1,112.500004291535,6|0,0:0|0:0,0:0:0:0:
428,203,52571,1,2,0:0:0:0:
428,203,52728,2,0,L|408:151,2,56.2500021457673,8|2|2,0:0|0:0|0:0,0:0:0:0:
500,254,53202,6,0,L|494:345,2,75,0|2|2,0:0|0:0|0:0,0:0:0:0:
484,126,54149,2,0,L|469:89,2,37.5
391,64,54623,5,2,0:0:0:0:
364,144,54781,1,0,0:0:0:0:
432,193,54939,1,0,0:0:0:0:
459,273,55097,1,2,0:0:0:0:
375,255,55255,6,0,P|301:241|254:252,1,112.500004291535,8|2,0:0|0:0,0:0:0:0:
229,324,55728,1,0,0:0:0:0:
144,297,55886,6,0,P|165:271|140:184,1,112.500004291535,2|0,0:0|0:0,0:0:0:0:
79,158,56360,1,2,0:0:0:0:
79,158,56518,2,0,L|98:42,1,112.500004291535,8|2,0:0|0:0,0:0:0:0:
154,197,57149,6,0,L|173:313,1,112.500004291535,6|0,0:0|0:0,0:0:0:0:
249,343,57623,1,2,0:0:0:0:
249,343,57781,2,0,L|310:333,1,56.2500021457673,8|0,0:0|0:0,0:0:0:0:
448,278,58097,2,0,L|503:287,1,56.2500021457673,2|0,0:0|0:0,0:0:0:0:
392,347,58413,5,0,0:0:0:0:
360,264,58571,1,0,0:0:0:0:
454,108,58728,5,0,0:0:0:0:
422,191,58886,2,0,L|352:180,1,56.2500021457673,2|8,0:0|0:0,0:0:0:0:
235,78,59202,6,0,L|186:72,2,37.5
314,59,59676,6,0,P|302:124|268:155,1,112.500004291535,2|0,0:0|0:0,0:0:0:0:
196,196,60149,1,2,0:0:0:0:
196,196,60307,2,0,L|70:181,1,112.500004291535,8|2,0:0|0:0,0:0:0:0:
23,242,60781,1,0,0:0:0:0:
62,340,60939,6,0,P|118:291|206:322,1,150,2|0,0:0|0:0,0:0:0:0:
291,259,61413,1,2,0:0:0:0:
291,259,61571,2,0,L|278:315,7,37.5,8|8|2|2|2|0|2|0,0:0|0:0|0:0|0:0|0:0|0:0|0:0|0:0,0:0:0:0:
303,326,62202,1,6,0:0:0:0:
304,161,72307,5,6,0:0:0:0:
304,161,72465,2,0,L|376:157,1,56.2500021457673
363,237,72781,1,8,0:0:0:0:
363,237,72939,2,0,L|435:233,1,56.2500021457673
477,309,73255,2,0,L|421:313,1,56.2500021457673,8|0,0:0|0:0,0:0:0:0:
358,358,73571,5,8,0:0:0:0:
358,358,73728,2,0,L|294:353,1,63.7500012159348
251,289,74044,1,8,0:0:0:0:
251,289,74202,2,0,L|187:284,1,63.7500012159348
84,212,74518,2,0,L|148:217,1,63.7500012159348,8|0,0:0|0:0,0:0:0:0:
213,151,74834,5,6,0:0:0:0:
213,151,74992,2,0,L|205:69,1,71.2499980974198
291,117,75307,1,8,0:0:0:0:
291,117,75465,2,0,L|283:35,1,71.2499980974198
363,9,75781,2,0,L|370:80,1,71.2499980974198,8|0,0:0|0:0,0:0:0:0:
440,170,76097,6,0,L|452:56,4,112.5,2|2|2|2|2,0:0|0:0|0:0|0:0|0:0,0:0:0:0:
354,83,77202,1,2,0:0:0:0:
354,83,77281,1,2,0:0:0:0:
354,83,77360,5,14,0:0:0:0:
197,55,77675,1,8,0:0:0:0:
168,210,77991,1,8,0:0:0:0:
325,236,78307,1,8,0:0:0:0:
262,148,78623,5,12,0:0:0:0:
309,327,78939,1,8,0:0:0:0:
168,210,79254,1,8,0:0:0:0:
309,327,79570,1,8,0:0:0:0:
125,331,79886,6,8,L|37:331,1,71.2499980974198
174,259,80202,2,8,L|262:259,1,71.2499980974198
94,245,80518,2,8,L|43:244,6,35.6249990487099
59,161,81149,6,0,P|52:138|73:75,1,75
130,30,81465,2,0,P|201:53|195:138,1,150,0|2,0:0|0:0,0:0:0:0:
94,245,82097,1,2,0:0:0:0:
259,279,82413,6,0,P|333:256|340:160,1,179.999994506836,6|8,0:0|0:0,0:0:0:0:
256,99,82886,2,0,L|446:73,1,179.999994506836,0|2,0:0|0:0,0:0:0:0:
511,27,83360,6,0,L|508:115,1,82.5000025177003,8|0,0:0|0:0,0:0:0:0:
437,158,83676,1,2,0:0:0:0:
437,158,83834,1,0,0:0:0:0:
437,158,83992,2,0,P|475:222|439:316,1,165.000005035401,8|0,0:0|0:0,0:0:0:0:
361,347,84465,6,0,L|373:241,1,82.5000025177003,2|8,0:0|0:0,0:0:0:0:
304,95,84939,1,6,0:0:0:0:
190,236,85255,1,8,0:0:0:0:
190,236,85413,2,0,L|161:58,1,165.000005035401,0|2,0:0|0:0,0:0:0:0:
90,19,85886,2,0,L|74:116,1,82.5000025177003,8|0,0:0|0:0,0:0:0:0:
11,165,86202,2,0,L|27:262,2,82.5000025177003,2|0|8,0:0|0:0|0:0,0:0:0:0:
163,73,86834,5,0,0:0:0:0:
239,102,86992,1,2,0:0:0:0:
227,20,87149,1,8,0:0:0:0:
190,236,87465,5,6,0:0:0:0:
322,334,87781,1,8,0:0:0:0:
322,334,87939,2,0,P|289:278|321:160,1,179.999994506836,0|2,0:0|0:0,0:0:0:0:
363,96,88413,2,0,L|274:78,1,89.9999972534181,8|0,0:0|0:0,0:0:0:0:
209,140,88728,5,2,0:0:0:0:
253,245,88886,1,0,0:0:0:0:
311,170,89044,1,8,0:0:0:0:
267,275,89202,1,0,0:0:0:0:
386,259,89360,6,0,L|475:247,1,89.9999972534181,0|2,0:0|0:0,0:0:0:0:
495,159,89676,1,8,0:0:0:0:
364,34,89992,6,0,L|201:19,1,134.999995880127,6|0,0:0|0:0,0:0:0:0:
185,12,90307,2,0,P|197:54|189:98,1,89.9999972534181,8|0,0:0|0:0,0:0:0:0:
85,237,90623,1,0,0:0:0:0:
70,149,90781,1,2,0:0:0:0:
1,205,90939,1,8,0:0:0:0:
237,325,91255,6,0,P|215:252|251:167,1,150,2|8,0:0|0:0,0:0:0:0:
283,49,91886,2,0,L|246:42,4,37.5,0|0|2|0|8,0:0|0:0|0:0|0:0|0:0,0:0:0:0:
441,37,92518,6,0,P|403:65|460:187,1,179.999994506836,6|8,0:0|0:0,0:0:0:0:
497,251,92992,2,0,L|306:269,1,179.999994506836,0|2,0:0|0:0,0:0:0:0:
238,312,93465,6,0,L|240:213,1,82.5000025177003,8|0,0:0|0:0,0:0:0:0:
198,157,93781,1,2,0:0:0:0:
290,13,93939,1,0,0:0:0:0:
324,90,94097,2,0,B|241:119|253:49|155:79,1,165.000005035401,8|0,0:0|0:0,0:0:0:0:
84,54,94571,2,0,L|90:136,1,82.5000025177003,2|8,0:0|0:0,0:0:0:0:
53,290,95044,5,6,0:0:0:0:
234,278,95360,1,8,0:0:0:0:
234,278,95518,2,0,L|414:272,1,165.000005035401,0|2,0:0|0:0,0:0:0:0:
431,187,95992,2,0,L|341:184,1,82.5000025177003,8|0,0:0|0:0,0:0:0:0:
388,102,96307,2,0,L|478:99,2,82.5000025177003,2|0|8,0:0|0:0|0:0,0:0:0:0:
175,63,96939,5,0,0:0:0:0:
229,1,97097,1,2,0:0:0:0:
255,78,97255,1,8,0:0:0:0:
237,242,97571,6,0,L|154:234,1,82.5000025177003,6|0,0:0|0:0,0:0:0:0:
95,168,97886,1,8,0:0:0:0:
95,168,98044,2,0,P|59:250|96:355,1,179.999994506836,0|2,0:0|0:0,0:0:0:0:
165,366,98518,2,0,L|254:352,1,89.9999972534181,8|0,0:0|0:0,0:0:0:0:
345,217,98834,5,2,0:0:0:0:
212,252,98992,1,0,0:0:0:0:
334,309,99149,1,8,0:0:0:0:
253,352,99307,1,0,0:0:0:0:
414,358,99465,2,0,P|427:315|416:272,2,89.9999972534181,0|2|8,0:0|0:0|0:0,0:0:0:0:
487,179,100097,6,0,L|488:128,14,44.999998626709,2|0|0|0|8|0|0|0|0|0|2|0|8|0|0,0:0|0:0|0:0|0:0|0:0|0:0|0:0|0:0|0:0|0:0|0:0|0:0|0:0|0:0|0:0,0:0:0:0:
447,259,101360,2,0,P|412:229|401:152,3,112.5,2|2|2|2,0:0|0:0|0:0|0:0,0:0:0:0:
310,72,102307,6,2,P|314:113|283:151,1,75
237,188,102544,1,2,0:0:0:0:
225,196,102623,6,0,L|216:45,1,150,6|8,0:0|0:0,0:0:0:0:
142,99,103097,1,0,0:0:0:0:
142,99,103255,2,0,L|147:184,2,75,0|2|8,0:0|0:0|0:0,0:0:0:0:
216,46,103728,6,0,P|279:49|321:134,2,134.999995880127
303,183,104676,2,0,P|304:228|284:251,2,67.4999979400635,2|8|0,0:0|0:0|0:0,0:0:0:0:
320,102,105149,5,2,0:0:0:0:
409,112,105307,1,0,0:0:0:0:
423,205,105465,5,8,0:0:0:0:
512,195,105623,1,0,0:0:0:0:
398,207,105781,6,0,L|416:363,1,150,0|8,0:0|0:0,0:0:0:0:
331,321,106255,1,0,0:0:0:0:
246,356,106413,6,0,L|264:207,1,150,2|8,0:0|0:0,0:0:0:0:
221,127,106886,1,0,0:0:0:0:
221,127,107044,2,0,P|143:155|75:115,1,150,0|8,0:0|0:0,0:0:0:0:
195,244,107676,6,0,P|273:216|341:256,1,150,6|8,0:0|0:0,0:0:0:0:
408,295,108149,1,0,0:0:0:0:
408,295,108307,2,0,L|416:209,1,75,0|2,0:0|0:0,0:0:0:0:
476,75,108623,2,0,L|468:-11,1,75,8|0,0:0|0:0,0:0:0:0:
403,132,108939,5,2,0:0:0:0:
320,96,109097,1,0,0:0:0:0:
392,42,109255,1,8,0:0:0:0:
331,186,109413,2,0,L|256:180,1,75
200,113,109728,6,0,L|208:41,2,67.4999979400635,2|8|0,0:0|0:0|0:0,0:0:0:0:
126,160,110202,6,0,P|94:117|-6:117,1,150,2|8,0:0|0:0,0:0:0:0:
42,186,110676,1,0,0:0:0:0:
42,186,110834,2,0,P|65:244|48:348,1,150,0|8,0:0|0:0,0:0:0:0:
141,358,111307,1,0,0:0:0:0:
202,299,111465,6,0,L|192:210,2,75,2|0|8,0:0|0:0|0:0,0:0:0:0:
286,331,111939,1,0,0:0:0:0:
352,269,112097,2,0,P|409:251|477:268,1,112.500004291535
453,47,112728,6,0,P|414:35|343:64,1,89.9999972534181,6|0,0:0|0:0,0:0:0:0:
408,125,113044,1,8,0:0:0:0:
449,204,113202,2,0,P|405:215|363:203,1,89.9999972534181
289,150,113518,1,2,0:0:0:0:
289,150,113676,1,8,0:0:0:0:
210,193,113834,5,0,0:0:0:0:
267,262,113992,2,0,L|259:340,1,75,2|0,0:0|0:0,0:0:0:0:
181,292,114307,1,8,0:0:0:0:
95,262,114465,2,0,L|103:340,2,75,0|0|2,0:0|0:0|0:0,0:0:0:0:
40,187,114939,2,0,P|62:156|67:119,1,75,8|0,0:0|0:0,0:0:0:0:
48,31,115255,6,0,L|144:47,1,89.9999972534181,6|0,0:0|0:0,0:0:0:0:
198,112,115571,1,8,0:0:0:0:
348,31,115728,2,0,L|252:47,1,89.9999972534181
198,200,116044,1,2,0:0:0:0:
198,200,116202,1,8,0:0:0:0:
267,257,116360,5,0,0:0:0:0:
331,193,116518,2,0,P|368:190|404:180,1,75,2|0,0:0|0:0,0:0:0:0:
404,333,116834,2,0,P|368:323|331:321,1,75,8|0,0:0|0:0,0:0:0:0:
267,257,117149,2,0,L|192:257,1,75
126,319,117465,2,0,P|130:263|121:207,1,112.5,8|0,0:0|0:0,0:0:0:0:
97,169,117781,6,0,L|10:158,1,75,6|0,0:0|0:0,0:0:0:0:
177,106,118097,2,0,L|95:72,1,75,8|2,0:0|0:0,0:0:0:0:
266,57,118413,2,0,L|196:3,1,75,0|2,0:0|0:0,0:0:0:0:
360,29,118728,1,8,0:0:0:0:
294,184,119044,6,0,P|294:221|283:257,1,75,2|0,0:0|0:0,0:0:0:0:
460,141,119360,2,0,P|427:122|401:95,1,75,8|2,0:0|0:0,0:0:0:0:
414,306,119676,2,0,P|446:287|482:278,1,75,0|2,0:0|0:0,0:0:0:0:
389,210,119992,1,8,0:0:0:0:
482,15,120307,6,0,L|381:8,1,75,6|0,0:0|0:0,0:0:0:0:
332,45,120623,2,0,L|231:38,1,75,8|2,0:0|0:0,0:0:0:0:
182,75,120939,2,0,L|81:68,1,75,2|2,0:0|0:0,0:0:0:0:
31,174,121255,2,0,L|132:167,1,75,8|2,0:0|0:0,0:0:0:0:
204,243,121571,6,0,P|258:198|255:124,3,134.999995880127,6|2|2|2,0:0|0:0|0:0|0:0,0:0:0:0:
367,157,122518,2,0,L|352:213,3,44.999998626709,6|0|2|2,0:0|0:0|0:0|0:0,0:0:0:0:
