osu file format v14

[General]
AudioFilename: audio.mp3
AudioLeadIn: 0
PreviewTime: 31901
Countdown: 0
SampleSet: Normal
StackLeniency: 0.4
Mode: 0
LetterboxInBreaks: 0
WidescreenStoryboard: 1

[Editor]
Bookmarks: 62202,67255
DistanceSpacing: 1
BeatDivisor: 4
GridSize: 4
TimelineZoom: 1.900002

[Metadata]
Title:Boss Rush
TitleUnicode:Boss Rush
Artist:USAO
ArtistUnicode:USAO
Creator:Lavender
Version:Frey's Insane
Source:jubeat Qubell
Tags:konami Qb Hardcore Dubstep SOUND VOLTEX IV HEAVENLY HAVEN POLICY BREAK Yugu Frey Moecho Moeri
BeatmapID:1324737
BeatmapSetID:619807

[Difficulty]
HPDrainRate:7
CircleSize:4
OverallDifficulty:7
ApproachRate:9
SliderMultiplier:1.8
SliderTickRate:0.5

[Events]
//Background and Video events
0,0,"48209501_p0.jpg",0,0
//Break Periods
2,62402,66655
//Storyboard Layer 0 (Background)
//Storyboard Layer 1 (Fail)
//Storyboard Layer 2 (Pass)
//Storyboard Layer 3 (Foreground)
//Storyboard Sound Samples

[TimingPoints]
1571,315.789473684211,4,1,0,40,1,0
4097,-100,4,1,0,45,0,0
6623,-100,4,1,0,55,0,0
9149,-100,4,1,0,60,0,0
10413,-100,4,1,0,65,0,0
11676,-100,4,1,0,70,0,0
16728,-100,4,1,0,65,0,0
17992,-100,4,1,0,60,0,0
19255,-100,4,1,0,55,0,0
20518,-100,4,1,0,50,0,0
21465,-100,4,1,0,70,0,0
31886,-100,4,1,0,75,0,1
52097,-100,4,1,0,70,0,0
74518,-142.857142857143,4,1,0,70,0,0
74834,-100,4,1,0,70,0,0
82413,-100,4,1,0,75,0,1
102544,-100,4,1,0,70,0,0
112413,-142.857142857143,4,1,0,70,0,0
112728,-100,4,1,0,70,0,0

[Colours]
Combo1 : 128,255,128
Combo2 : 192,192,192
Combo3 : 255,0,0
Combo4 : 255,255,128
Combo5 : 128,255,255
Combo6 : 255,128,255

[HitObjects]
256,192,939,12,4,1571,0:0:0:0:
388,128,1886,5,0,2:0:0:0:
388,128,2202,5,0,2:0:0:0:
324,192,2360,1,0,2:0:0:0:
412,216,2518,1,0,2:0:0:0:
476,152,2676,6,0,L|504:52,1,90,0|0,2:0|2:0,2:0:0:0:
388,128,2992,2,0,L|416:28,1,90,0|0,2:0|2:0,2:0:0:0:
300,104,3307,2,0,L|328:4,1,90,0|0,2:0|2:0,2:0:0:0:
124,176,3623,1,0,2:0:0:0:
212,152,3781,1,0,2:0:0:0:
188,240,3939,1,0,2:0:0:0:
100,264,4097,6,0,P|36:244|4:240,1,90,0|0,2:0|2:0,2:0:0:0:
148,87,4413,2,0,P|231:64|300:128,1,180,0|0,2:0|2:0,2:0:0:0:
284,212,4886,2,0,L|264:340,1,90,0|0,2:0|2:0,2:0:0:0:
364,297,5202,6,0,L|392:119,1,180,0|0,2:0|2:0,2:0:0:0:
148,87,5676,2,0,L|118:275,1,180,0|0,2:0|2:0,2:0:0:0:
108,352,6149,1,0,2:0:0:0:
36,300,6307,2,0,P|16:260|12:216,1,90,0|0,2:0|2:0,2:0:0:0:
229,159,6623,6,0,P|243:246|190:315,2,180,0|0|0,2:0|2:0|2:0,2:0:0:0:
168,92,7413,1,0,2:0:0:0:
140,176,7571,1,0,2:0:0:0:
229,159,7728,6,0,L|349:135,1,90,0|0,2:0|2:0,2:0:0:0:
168,92,8044,2,0,L|144:-28,1,90,0|0,2:0|2:0,2:0:0:0:
140,176,8360,2,0,L|51:193,1,90,0|0,2:0|2:0,2:0:0:0:
344,92,8676,1,0,2:0:0:0:
372,176,8834,1,0,2:0:0:0:
283,159,8992,1,0,2:0:0:0:
432,108,9149,6,0,P|455:146|460:190,1,90,0|0,3:0|3:0,3:0:0:0:
392,312,9465,2,0,L|184:288,1,180,0|0,3:0|3:0,3:0:0:0:
140,372,9939,2,0,L|123:282,1,90,0|0,3:0|3:0,3:0:0:0:
101,176,10255,6,0,P|172:125|256:148,1,180,0|0,3:0|3:0,3:0:0:0:
410,208,10728,2,0,P|339:259|255:236,1,180,0|0,3:0|3:0,3:0:0:0:
256,148,11202,1,0,3:0:0:0:
256,56,11360,1,0,3:0:0:0:
184,0,11518,1,0,3:0:0:0:
120,64,11676,6,0,L|136:264,1,180,4|8,0:0|0:2,0:0:0:0:
256,280,12149,1,0,0:0:0:0:
300,200,12307,1,0,0:0:0:0:
212,200,12465,1,0,0:0:0:0:
256,368,12623,1,8,0:2:0:0:
377,243,12781,6,0,L|388:124,1,90
256,16,13097,2,0,L|256:112,1,90,0|8,0:2|0:2,0:0:0:0:
134,243,13413,2,0,L|124:124,1,90
40,124,13728,1,0,0:0:0:0:
11,210,13886,1,8,0:2:0:0:
80,356,14044,1,0,0:0:0:0:
224,283,14202,6,0,P|268:286|307:307,1,90
136,132,14518,1,8,0:2:0:0:
224,108,14676,1,0,0:0:0:0:
200,196,14834,2,0,P|160:217|116:219,1,90
160,44,15149,1,8,0:2:0:0:
352,44,15307,6,0,P|380:128|352:212,1,180
160,340,15781,2,0,P|132:256|160:172,1,180,8|0,0:2|0:2,0:2:0:0:
224,108,16255,1,0,0:0:0:0:
288,276,16413,2,0,P|332:281|375:297,1,90,8|0,0:2|0:0,0:0:0:0:
511,82,16728,6,0,P|454:148|367:143,1,180,0|8,0:0|0:2,0:0:0:0:
304,80,17202,1,0,0:0:0:0:
392,56,17360,1,0,0:0:0:0:
412,228,17518,1,0,0:0:0:0:
256,156,17676,1,8,0:2:0:0:
367,143,17834,6,0,L|496:128,1,90
322,245,18149,2,0,L|332:334,1,90,0|8,0:0|0:2,0:0:0:0:
256,156,18465,2,0,L|166:166,1,90
20,212,18781,1,0,0:0:0:0:
44,300,18939,1,8,0:2:0:0:
108,236,19097,1,0,0:2:0:0:
52,64,19255,5,0,0:0:0:0:
20,212,19413,1,0,0:0:0:0:
166,166,19571,2,0,P|148:124|140:80,1,90,8|0,0:2|0:0,0:0:0:0:
256,228,19886,2,0,B|248:277|264:280|256:320,1,90
346,166,20202,2,0,P|363:124|371:80,1,90,8|0,0:2|0:0,0:0:0:0:
256,192,20518,12,8,21465,0:2:0:0:
240,104,21781,5,8,0:2:0:0:
173,161,21939,1,0,0:0:0:0:
106,217,22097,1,0,0:0:0:0:
272,280,22255,1,8,0:2:0:0:
256,192,22413,1,0,0:0:0:0:
240,104,22571,1,0,0:0:0:0:
106,217,22728,5,8,0:2:0:0:
272,280,22886,1,0,0:0:0:0:
240,104,23044,5,8,0:2:0:0:
152,120,23202,1,0,0:0:0:0:
64,136,23360,1,0,0:0:0:0:
272,280,23518,1,8,0:2:0:0:
360,264,23676,1,0,0:0:0:0:
448,248,23834,1,0,0:0:0:0:
332,112,23992,5,8,0:2:0:0:
272,280,24149,1,0,0:0:0:0:
448,248,24307,5,8,0:2:0:0:
464,160,24465,1,0,0:0:0:0:
480,72,24623,1,0,0:0:0:0:
304,40,24781,1,8,0:2:0:0:
288,128,24939,1,0,0:0:0:0:
272,216,25097,1,0,0:0:0:0:
464,160,25255,5,8,0:2:0:0:
304,40,25413,1,0,0:0:0:0:
208,76,25571,6,0,P|176:132|184:248,1,180,0|8,0:0|0:2,0:0:0:0:
304,308,26044,2,0,P|336:252|328:136,1,180
304,40,26518,1,8,0:2:0:0:
208,76,26676,1,0,0:0:0:0:
208,76,26755,1,0,0:0:0:0:
208,76,26834,6,0,P|124:108|100:116,1,90
36,140,27149,2,0,P|19:98|3:55,1,90,8|0,0:2|0:0,0:0:0:0:
196,172,27465,1,8,0:2:0:0:
92,296,27623,1,0,0:0:0:0:
23,236,27781,2,0,P|61:211|105:205,1,90,8|0,0:2|0:0,0:0:0:0:
244,60,28097,5,8,0:2:0:0:
328,96,28255,1,0,0:0:0:0:
256,148,28413,2,0,P|211:142|174:117,1,90,8|0,0:2|0:0,0:0:0:0:
256,236,28728,2,0,P|300:241|337:266,1,90,8|0,0:2|0:0,0:0:0:0:
268,324,29044,2,0,L|152:356,1,90,8|0,0:2|0:0,0:0:0:0:
120,220,29360,5,8,0:2:0:0:
96,132,29518,1,0,0:0:0:0:
184,108,29676,1,8,0:2:0:0:
208,196,29834,1,0,0:0:0:0:
392,284,29992,6,0,L|435:294,1,45,8|0,0:2|0:0,0:0:0:0:
416,196,30149,2,0,L|436:116,1,45
328,172,30307,2,0,L|284:161,1,45,8|0,0:2|0:0,0:0:0:0:
304,260,30465,2,0,L|293:303,1,45
134,342,30623,6,0,P|79:274|95:188,1,180,0|0,3:0|0:0,3:0:0:0:
377,41,31097,2,0,P|432:109|416:195,1,180,8|0,0:2|0:0,3:0:0:0:
304,260,31571,1,8,0:2:0:0:
232,156,31728,1,0,0:0:0:0:
228,132,31807,1,0,0:0:0:0:
224,108,31886,6,0,L|68:80,1,135,4|0,0:0|2:0,0:0:0:0:
32,156,32202,2,0,L|164:179,1,135,0|0,0:0|2:0,0:0:0:0:
200,264,32518,5,8,0:2:0:0:
360,176,32676,2,0,L|349:132,1,45,0|0,0:0|2:0,0:0:0:0:
272,200,32834,2,0,L|261:156,1,45,0|0,0:0|2:0,0:0:0:0:
340,264,32992,2,0,L|350:307,1,45,0|0,0:0|2:0,0:0:0:0:
428,240,33149,5,0,0:0:0:0:
256,360,33307,2,0,L|188:352,1,45,0|0,0:0|2:0,0:0:0:0:
168,284,33465,2,0,L|123:278,1,45,0|0,0:0|2:0,0:0:0:0:
80,208,33623,2,0,L|35:202,1,45,0|0,0:0|2:0,0:0:0:0:
164,179,33781,6,0,P|200:115|180:55,1,135,8|0,0:2|2:0,0:0:0:0:
116,0,34097,2,0,P|80:64|100:124,1,135,0|0,0:0|2:0,0:0:0:0:
164,179,34413,6,0,P|252:163|312:155,1,135,0|0,0:0|2:0,0:0:0:0:
344,236,34728,2,0,P|277:245|210:258,1,135,0|0,0:0|2:0,0:0:0:0:
120,276,35044,5,8,0:2:0:0:
96,119,35202,2,0,L|87:74,1,45,0|0,0:0|2:0,0:0:0:0:
184,102,35360,2,0,L|175:57,1,45,0|0,0:0|2:0,0:0:0:0:
271,86,35518,2,0,L|262:41,1,45,0|0,0:0|2:0,0:0:0:0:
241,173,35676,5,0,0:0:0:0:
392,208,35834,2,0,L|347:199,1,45,0|0,0:0|2:0,0:0:0:0:
376,296,35992,2,0,L|331:287,1,45,0|0,0:0|2:0,0:0:0:0:
460,268,36149,2,0,L|504:276,1,45,0|0,0:0|2:0,0:0:0:0:
408,120,36307,6,0,L|236:84,1,135,8|0,0:2|2:0,0:0:0:0:
216,24,36623,1,0,0:0:0:0:
112,204,36781,1,0,0:0:0:0:
35,152,36939,6,0,P|91:117|157:125,1,135,4|0,0:0|2:0,0:0:0:0:
203,204,37255,2,0,P|269:211|326:177,1,135,0|0,0:0|2:0,0:0:0:0:
360,92,37571,5,8,0:2:0:0:
452,240,37728,2,0,L|447:196,1,45,0|0,0:0|2:0,0:0:0:0:
428,328,37886,2,0,L|433:372,1,45,0|0,0:0|2:0,0:0:0:0:
340,303,38044,2,0,L|335:259,1,45,0|0,0:0|2:0,0:0:0:0:
325,177,38202,5,0,0:0:0:0:
187,207,38360,2,0,L|120:220,1,45,0|0,0:0|2:0,0:0:0:0:
241,123,38518,2,0,L|228:56,1,45,0|0,0:0|2:0,0:0:0:0:
271,261,38676,2,0,L|284:328,1,45,0|0,0:0|2:0,0:0:0:0:
344,368,38834,6,0,P|444:352|464:296,1,135,8|0,0:2|2:0,0:0:0:0:
484,244,39149,2,0,P|400:228|336:212,1,135,0|0,0:0|2:0,0:0:0:0:
271,261,39465,6,0,P|184:276|80:300,1,180
241,123,39939,2,0,P|328:108|432:84,1,180,2|2,0:2|0:2,0:0:0:0:
504,64,40413,1,2,0:2:0:0:
328,24,40571,1,0,0:2:0:0:
384,196,40728,5,0,0:0:0:0:
417,87,40886,1,0,0:0:0:0:
308,112,41044,2,0,P|298:155|286:199,1,90,2|0,0:2|0:0,0:0:0:0:
244,348,41360,1,8,0:2:0:0:
244,348,41439,1,0,0:0:0:0:
244,348,41518,1,0,0:0:0:0:
92,376,41676,2,0,P|52:320|84:256,1,135,2|0,0:2|0:0,0:0:0:0:
148,208,41992,6,0,P|135:140|112:52,1,135,4|0,0:0|2:0,0:0:0:0:
45,131,42307,2,0,P|57:198|81:287,1,135,0|0,0:0|2:0,0:0:0:0:
156,300,42623,1,8,0:2:0:0:
288,200,42781,2,0,L|244:189,1,45,0|0,0:0|2:0,0:0:0:0:
308,112,42939,2,0,L|264:101,1,45,0|0,0:0|2:0,0:0:0:0:
376,172,43097,2,0,L|419:182,1,45,0|0,0:0|2:0,0:0:0:0:
356,260,43255,5,0,0:0:0:0:
244,348,43413,2,0,L|238:303,1,45,0|0,0:0|2:0,0:0:0:0:
160,276,43571,2,0,L|154:231,1,45,0|0,0:0|2:0,0:0:0:0:
76,204,43728,2,0,L|70:159,1,45,0|0,0:0|2:0,0:0:0:0:
0,100,43886,6,0,P|55:64|118:83,1,135,8|0,0:2|2:0,0:0:0:0:
180,152,44202,2,0,P|264:164|340:180,1,135,0|0,0:0|2:0,0:0:0:0:
376,108,44518,6,0,P|439:125|494:91,1,135,0|0,0:0|2:0,0:0:0:0:
424,27,44834,2,0,P|360:9|305:43,1,135,0|0,0:0|2:0,0:0:0:0:
256,120,45149,5,8,0:2:0:0:
328,192,45307,2,0,L|376:240,1,45,0|0,0:0|2:0,0:0:0:0:
256,264,45465,2,0,L|256:324,1,45,0|0,0:0|2:0,0:0:0:0:
184,192,45623,2,0,L|136:240,1,45,0|0,0:0|2:0,0:0:0:0:
256,120,45781,6,0,P|319:74|256:29,1,180
120,76,46255,1,0,0:0:0:0:
77,212,46413,2,0,P|94:301|112:368,1,135,8|0,0:2|2:0,0:0:0:0:
192,376,46728,2,0,P|244:348|236:272,1,135,0|0,0:0|2:0,0:0:0:0:
184,192,47044,6,0,P|264:176|368:144,1,180,4|0,0:0|0:0,0:0:0:0:
159,39,47518,2,0,P|71:43|31:135,1,180,2|0,0:2|0:0,0:0:0:0:
108,244,47992,1,2,0:2:0:0:
188,284,48149,1,0,0:0:0:0:
184,192,48307,6,0,P|132:136|108:100,1,90
256,28,48623,1,2,0:2:0:0:
256,28,48781,1,0,0:0:0:0:
328,191,48939,2,0,P|359:160|387:125,1,90,8|0,0:2|0:0,0:0:0:0:
256,264,49255,1,0,0:0:0:0:
256,264,49413,1,0,0:0:0:0:
360,324,49571,5,0,0:0:0:0:
436,272,49728,1,0,0:0:0:0:
384,196,49886,1,0,0:0:0:0:
256,172,50044,1,0,0:0:0:0:
232,300,50202,2,0,P|187:310|136:312,1,90,8|0,0:2|0:0,0:0:0:0:
280,84,50518,2,0,P|324:73|376:72,1,90
192,108,50834,5,2,0:2:0:0:
216,20,50992,1,0,0:0:0:0:
255,172,51149,2,0,P|172:195|104:132,1,180,0|2,0:0|0:2,0:0:0:0:
192,108,51623,1,0,0:0:0:0:
405,138,51781,2,0,L|396:256,1,90,0|0,0:0|0:0,0:0:0:0:
256,340,52097,6,0,P|180:300|80:328,1,180,4|0,0:0|0:0,0:0:0:0:
24,380,52571,1,0,0:0:0:0:
60,232,52728,1,8,0:2:0:0:
148,248,52886,1,0,0:0:0:0:
91,319,53044,1,0,0:0:0:0:
208,140,53202,6,0,L|92:120,1,90
304,96,53518,2,0,P|376:84|412:60,1,90
208,288,53834,2,0,P|136:300|100:324,1,90,0|8,0:0|0:2,0:0:0:0:
92,220,54149,1,0,0:0:0:0:
208,140,54307,1,0,0:0:0:0:
304,244,54465,1,0,0:0:0:0:
392,220,54623,6,0,L|500:188,1,90
512,36,54939,2,0,L|425:61,1,90
256,112,55255,1,8,0:2:0:0:
212,36,55413,1,0,0:0:0:0:
300,36,55571,1,0,0:0:0:0:
151,172,55728,6,0,P|69:147|51:63,1,180
140,84,56202,1,0,0:0:0:0:
236,200,56360,1,0,0:0:0:0:
168,260,56518,2,0,L|76:280,1,90,8|0,0:2|0:0,0:0:0:0:
52,103,56834,2,0,L|139:83,1,90
236,200,57149,6,0,L|436:157,1,180,4|0,0:0|0:0,0:0:0:0:
452,332,57623,1,0,0:0:0:0:
362,356,57781,2,0,P|360:311|379:272,1,90,8|0,0:2|0:0,0:0:0:0:
500,188,58097,1,0,0:0:0:0:
411,162,58255,6,0,L|311:135,1,90
188,139,58571,2,0,L|101:162,1,90
300,44,58886,2,0,L|387:66,1,90,0|8,0:0|0:2,0:0:0:0:
168,228,59202,1,0,0:0:0:0:
188,140,59360,1,0,0:0:0:0:
256,200,59518,1,0,0:0:0:0:
236,288,59676,6,0,P|192:276|147:271,1,90
12,184,59992,2,0,P|56:178|100:167,1,90
188,139,60307,2,0,P|165:101|126:81,1,90,8|0,0:2|0:0,0:0:0:0:
64,299,60623,2,0,P|86:338|125:358,1,90
284,288,60939,6,0,P|300:172|304:116,1,135,0|0,0:0|2:0,2:0:0:0:
228,96,61255,2,0,P|212:212|208:268,1,135,0|0,0:0|2:0,2:0:0:0:
220,352,61571,5,0,0:0:0:0:
242,367,61649,1,0,0:0:0:0:
267,375,61728,1,0,0:0:0:0:
294,376,61807,1,0,0:0:0:0:
320,368,61886,1,0,0:0:0:0:
342,354,61965,1,0,0:0:0:0:
359,333,62044,2,0,P|372:276|380:248,1,45
301,154,62202,5,4,0:0:0:0:
120,164,67255,6,0,L|100:280,1,90
184,292,67571,2,0,L|199:203,1,90,8|0,0:2|0:0,0:0:0:0:
216,116,67886,1,0,0:0:0:0:
120,164,68044,1,0,0:0:0:0:
296,268,68202,2,0,L|396:248,1,90,8|0,0:2|0:0,0:0:0:0:
416,84,68518,5,0,0:0:0:0:
504,112,68676,1,0,0:0:0:0:
435,172,68834,2,0,P|390:169|347:143,1,90,8|0,0:2|0:0,0:0:0:0:
212,292,69149,2,0,P|251:270|295:267,1,90,8|0,0:2|0:0,0:0:0:0:
276,356,69465,1,8,0:2:0:0:
120,300,69623,1,0,0:0:0:0:
184,148,69781,6,0,P|208:92|224:40,1,90
48,132,70097,2,0,P|62:174|81:215,1,90,8|0,0:2|0:0,0:0:0:0:
120,300,70413,1,0,0:0:0:0:
328,148,70571,1,0,0:0:0:0:
184,148,70728,1,8,0:2:0:0:
256,272,70886,1,0,0:0:0:0:
256,192,71044,12,0,71992,0:0:0:0:
176,288,72307,5,8,0:2:0:0:
168,200,72465,1,0,0:0:0:0:
160,112,72623,1,0,0:0:0:0:
336,96,72781,1,8,0:2:0:0:
344,184,72939,1,0,0:0:0:0:
352,272,73097,1,0,0:0:0:0:
168,200,73255,5,8,0:2:0:0:
344,184,73413,1,0,0:0:0:0:
336,96,73571,5,8,0:2:0:0:
248,104,73729,1,0,0:0:0:0:
160,112,73886,1,0,0:0:0:0:
176,288,74044,1,8,0:2:0:0:
264,280,74202,1,0,0:0:0:0:
352,272,74360,1,0,0:0:0:0:
248,104,74518,6,0,L|260:228,1,94.499997116089,8|0,0:2|2:0,0:0:0:0:
264,280,74834,5,8,0:2:0:0:
316,352,74992,1,0,0:0:0:0:
352,272,75149,1,0,0:0:0:0:
452,176,75307,1,8,0:2:0:0:
416,96,75464,1,0,0:0:0:0:
364,168,75622,1,0,0:0:0:0:
504,104,75781,5,8,0:2:0:0:
328,88,75939,1,0,0:0:0:0:
256,248,76097,6,0,P|212:272|156:272,1,90,0|0,0:0|2:0,0:0:0:0:
152,264,76334,2,0,P|128:220|128:164,1,90,0|0,0:0|2:0,0:0:0:0:
136,160,76571,2,0,P|180:136|236:136,1,90,0|0,0:0|2:0,0:0:0:0:
240,144,76808,2,0,P|264:188|264:244,1,90,0|0,0:0|2:0,0:0:0:0:
256,248,77044,1,8,0:2:0:0:
172,364,77202,1,0,0:0:0:0:
172,364,77281,1,0,0:0:0:0:
172,364,77360,6,0,L|80:352,1,90
256,248,77676,2,0,L|345:259,1,90,8|0,0:2|0:0,0:0:0:0:
344,148,77992,1,0,0:0:0:0:
168,236,78149,1,0,0:0:0:0:
112,64,78307,2,0,P|120:132|148:180,1,90,8|0,0:2|0:0,0:0:0:0:
168,236,78623,5,0,0:0:0:0:
196,84,78781,1,0,0:0:0:0:
48,140,78939,1,8,0:2:0:0:
168,236,79097,1,0,0:0:0:0:
256,248,79255,2,0,P|296:244|344:216,1,90
412,64,79571,2,0,P|360:32|304:40,1,90,8|0,0:2|0:0,0:0:0:0:
172,72,79886,5,8,0:2:0:0:
340,120,80044,1,0,0:0:0:0:
172,172,80202,1,8,0:2:0:0:
339,220,80360,1,0,0:0:0:0:
172,272,80518,1,8,0:2:0:0:
155,269,80596,1,0,0:0:0:0:
138,267,80675,1,0,0:0:0:0:
121,264,80754,1,0,0:0:0:0:
105,262,80834,6,0,L|94:218,1,45,8|0,0:2|0:0,0:0:0:0:
24,304,80992,2,0,L|7:230,1,45
104,352,81149,5,0,0:0:0:0:
192,196,81307,1,0,0:0:0:0:
336,296,81465,2,0,P|424:284|472:212,2,180,2|0|2,0:2|0:0|0:2,0:0:0:0:
256,256,82255,1,0,0:0:0:0:
256,128,82413,6,0,P|332:112|376:96,1,90,4|0,0:0|0:0,0:0:0:0:
256,256,82728,2,0,P|180:272|136:288,1,90,8|0,0:2|0:0,0:0:0:0:
24,324,83044,1,0,0:0:0:0:
132,140,83202,1,0,0:0:0:0:
44,124,83360,1,8,0:2:0:0:
72,208,83518,1,0,0:0:0:0:
168,275,83676,5,0,0:0:0:0:
236,180,83834,1,0,0:0:0:0:
216,92,83992,2,0,L|198:3,1,90,8|0,0:2|0:0,0:0:0:0:
361,187,84307,2,0,P|363:142|381:91,1,90
168,274,84623,2,0,P|165:230|151:187,1,90,8|0,0:2|0:0,0:0:0:0:
64,212,84939,5,0,0:0:0:0:
144,364,85097,1,0,0:0:0:0:
296,288,85255,2,0,P|348:288|400:316,1,90,8|0,0:2|0:0,0:0:0:0:
352,152,85571,1,0,0:0:0:0:
216,96,85728,1,0,0:0:0:0:
160,232,85886,1,8,0:2:0:0:
296,288,86044,1,0,0:0:0:0:
236,164,86202,6,0,P|188:152|148:124,1,90
92,64,86518,1,8,0:2:0:0:
180,44,86676,1,0,0:0:0:0:
180,44,86755,1,0,0:0:0:0:
180,44,86834,1,0,0:0:0:0:
160,232,86992,1,0,0:0:0:0:
276,84,87149,2,0,P|324:72|364:44,1,90,8|0,0:2|0:0,0:0:0:0:
464,240,87465,6,0,L|447:143,1,90,4|0,0:0|0:0,0:0:0:0:
357,50,87781,1,8,0:2:0:0:
316,180,87939,1,0,0:0:0:0:
448,151,88097,1,0,0:0:0:0:
357,50,88255,1,0,0:0:0:0:
248,128,88413,2,0,L|144:140,1,90,8|0,0:2|0:0,0:0:0:0:
264,256,88728,6,0,L|368:268,1,90
436,232,89044,2,0,P|443:277|427:319,1,90,8|0,0:2|0:0,0:0:0:0:
331,140,89360,2,0,P|316:98|322:54,1,90,8|0,0:2|0:0,0:0:0:0:
408,88,89676,1,8,0:2:0:0:
256,192,89834,1,0,0:0:0:0:
104,87,89992,6,0,L|80:196,1,90
180,319,90307,1,8,0:2:0:0:
92,299,90465,1,0,0:0:0:0:
199,231,90623,1,0,0:0:0:0:
84,175,90781,1,0,0:0:0:0:
180,319,90939,2,0,P|224:318|262:294,1,90,8|0,0:2|0:0,0:0:0:0:
332,100,91255,6,0,P|256:60|176:104,1,180,0|8,0:0|0:2,0:0:0:0:
136,192,91728,1,0,0:0:0:0:
256,232,91886,1,0,0:0:0:0:
256,192,91965,1,0,0:0:0:0:
256,152,92044,1,0,0:0:0:0:
376,192,92202,5,8,0:2:0:0:
136,192,92360,1,0,0:2:0:0:
256,324,92518,6,0,P|320:328|364:348,1,90,4|0,0:0|0:0,0:0:0:0:
463,179,92834,2,0,P|420:191|375:191,1,90,8|0,0:2|0:0,0:0:0:0:
288,168,93149,1,0,0:0:0:0:
232,236,93307,1,0,0:0:0:0:
343,336,93465,1,8,0:2:0:0:
375,191,93623,1,0,0:0:0:0:
232,236,93781,6,0,L|128:268,1,90
59,145,94097,1,8,0:2:0:0:
59,239,94256,1,8,0:2:0:0:
145,121,94413,2,0,L|232:148,1,90
375,191,94728,1,8,0:2:0:0:
232,236,94886,1,0,0:0:0:0:
125,33,95044,5,0,0:0:0:0:
213,61,95202,1,0,0:0:0:0:
145,121,95360,2,0,P|100:140|40:144,1,90,8|0,0:2|0:0,0:0:0:0:
340,156,95676,1,0,0:0:0:0:
328,248,95834,1,0,0:0:0:0:
256,192,95992,1,8,0:2:0:0:
268,100,96149,1,0,0:0:0:0:
268,100,96228,1,0,0:0:0:0:
268,100,96307,6,0,L|368:60,1,90
244,284,96623,2,0,L|144:324,1,90,8|0,0:2|0:0,0:0:0:0:
96,192,96939,2,0,P|113:150|110:106,1,90
24,136,97255,1,8,0:2:0:0:
20,280,97413,1,0,0:0:0:0:
160,317,97571,6,0,P|224:325|264:341,1,90,4|0,0:0|0:0,0:0:0:0:
452,184,97886,1,8,0:2:0:0:
396,254,98044,2,0,P|310:259|255:191,1,180
380,92,98518,2,0,P|366:135|348:176,1,90,8|0,0:2|0:0,0:0:0:0:
163,176,98834,6,0,P|144:134|131:92,1,90
256,104,99149,1,8,0:2:0:0:
256,192,99307,1,0,0:0:0:0:
256,280,99465,2,0,L|164:304,1,90
43,114,99781,2,0,L|130:91,1,90,8|0,0:2|0:0,0:0:0:0:
114,221,100097,5,0,0:0:0:0:
25,203,100255,1,0,0:0:0:0:
43,114,100413,1,8,0:2:0:0:
132,132,100571,1,0,0:0:0:0:
200,284,100728,2,0,P|248:272|312:264,1,90
487,181,101044,1,8,0:2:0:0:
380,252,101202,1,0,0:0:0:0:
309,143,101360,6,0,P|311:99|331:59,1,90,0|0,0:0|2:0,0:0:0:0:
351,46,101597,2,0,P|395:48|436:68,1,90,0|0,0:0|2:0,0:0:0:0:
448,87,101834,2,0,P|446:131|427:172,1,90,0|0,0:0|2:0,0:0:0:0:
406,185,102071,2,0,P|362:183|322:164,1,90,0|0,0:0|2:0,0:0:0:0:
309,143,102307,1,8,0:2:0:0:
200,16,102465,1,0,0:0:0:0:
200,16,102544,1,0,0:0:0:0:
200,16,102623,6,0,B|116:-4|108:64|24:44,1,180,4|8,0:0|0:2,0:0:0:0:
100,160,103097,1,0,0:0:0:0:
188,184,103255,2,0,P|188:139|168:100,1,90
124,248,103571,1,8,0:2:0:0:
256,324,103728,6,0,P|332:308|372:308,1,90
344,76,104044,2,0,P|299:71|256:60,1,90,0|8,0:0|0:2,0:0:0:0:
376,192,104360,2,0,B|426:195|428:188|468:192,1,90
424,112,104676,1,0,0:0:0:0:
344,76,104834,1,8,0:2:0:0:
256,192,104992,1,0,0:0:0:0:
344,307,105149,6,0,P|348:258|344:216,1,90
256,104,105465,1,8,0:2:0:0:
167,217,105623,2,0,P|163:262|168:307,1,90
256,332,105939,1,0,0:0:0:0:
256,192,106097,1,8,0:2:0:0:
192,128,106255,6,0,P|106:141|74:221,1,180
320,256,106728,2,0,P|405:242|437:162,1,180,8|0,0:2|0:0,0:0:0:0:
392,80,107202,1,0,0:0:0:0:
268,132,107360,1,8,0:2:0:0:
320,256,107518,1,0,0:0:0:0:
392,80,107676,6,0,B|311:69|311:69|284:48|284:48|192:36,1,180,4|8,0:0|0:2,0:0:0:0:
56,72,108149,1,0,0:0:0:0:
164,196,108307,2,0,P|196:148|240:112,1,90
120,8,108623,1,8,0:2:0:0:
56,72,108781,6,0,L|64:192,1,90
169,285,109097,2,0,L|164:196,1,90,0|8,0:0|0:2,0:0:0:0:
27,263,109413,2,0,L|32:352,1,90
260,248,109728,1,0,0:2:0:0:
252,136,109886,1,8,0:2:0:0:
164,196,110044,1,0,0:0:0:0:
348,184,110202,6,0,L|452:176,1,90
508,236,110518,1,8,0:2:0:0:
496,108,110676,1,0,0:0:0:0:
384,52,110834,2,0,P|320:84|280:84,1,90
209,85,111149,2,0,P|165:76|128:52,1,90,8|0,0:2|0:0,0:0:0:0:
74,177,111465,6,0,L|164:184,1,90
16,108,111781,1,8,0:2:0:0:
4,236,111939,1,0,0:2:0:0:
116,340,112097,2,0,P|120:252|104:228,1,90
74,177,112413,6,0,P|98:121|152:104,1,94.499997116089,0|0,0:0|2:2,0:0:0:0:
125,106,112728,6,0,P|208:120|256:120,1,90,4|0,0:0|0:0,0:0:0:0:
298,264,113044,2,0,P|341:254|386:249,1,90,8|0,0:2|0:0,0:0:0:0:
200,224,113360,1,0,0:0:0:0:
214,120,113518,1,0,0:0:0:0:
312,160,113676,1,8,0:2:0:0:
298,264,113834,1,0,0:0:0:0:
186,328,113992,6,0,P|141:332|97:342,1,90,0|0,0:2|0:0,0:0:0:0:
16,180,114307,1,8,0:2:0:0:
8,316,114465,1,0,0:0:0:0:
128,256,114623,2,0,P|148:184|88:96,1,180,0|8,0:0|0:2,0:0:0:0:
16,180,115097,1,0,0:0:0:0:
128,256,115255,6,0,P|172:260|216:272,1,90
182,115,115571,2,0,P|137:110|93:98,1,90,8|0,0:2|0:0,0:0:0:0:
8,68,115886,1,0,0:0:0:0:
176,24,116044,1,0,0:0:0:0:
256,64,116202,1,8,0:2:0:0:
182,115,116360,1,0,0:0:0:0:
256,244,116518,5,0,0:0:0:0:
330,115,116676,1,0,0:0:0:0:
420,104,116834,2,0,L|512:92,1,90,8|0,0:2|0:0,0:0:0:0:
364,32,117149,1,0,0:0:0:0:
240,16,117307,1,0,0:0:0:0:
224,140,117465,1,8,0:2:0:0:
348,156,117623,1,0,0:0:0:0:
420,104,117781,5,0,0:0:0:0:
420,104,117939,1,0,0:0:0:0:
436,228,118097,1,8,0:2:0:0:
436,228,118255,1,0,0:0:0:0:
312,244,118413,2,0,P|240:232|200:232,1,90
296,120,118728,1,8,0:2:0:0:
436,228,118886,1,0,0:0:0:0:
491,160,119044,6,0,P|507:117|504:73,1,90
324,157,119360,2,0,P|308:199|311:243,1,90,8|0,0:2|0:0,0:0:0:0:
384,88,119676,1,0,0:0:0:0:
296,72,119834,1,0,0:0:0:0:
232,140,119992,2,0,L|144:156,1,90,8|0,0:2|0:0,0:0:0:0:
88,312,120307,6,0,P|24:288|-8:288,1,90
52,136,120623,1,8,0:2:0:0:
116,68,120781,1,0,0:0:0:0:
143,156,120939,6,0,L|128:232,1,45
208,88,121097,2,0,L|199:43,1,45
304,88,121255,2,0,L|312:43,1,45,8|0,0:2|0:0,0:0:0:0:
369,156,121413,2,0,L|384:232,1,45
256,292,121571,6,0,P|208:292|148:312,1,90,0|0,0:0|2:0,0:0:0:0:
148,288,121807,2,0,P|148:240|128:180,1,90,0|0,0:0|2:0,0:0:0:0:
152,180,122044,2,0,P|200:180|260:160,1,90,0|0,0:0|2:0,0:0:0:0:
260,184,122281,2,0,P|260:232|280:292,1,90,0|0,0:0|2:0,0:0:0:0:
280,296,122518,1,0,0:0:0:0:
456,208,122676,1,0,0:0:0:0:
456,208,122755,1,0,0:0:0:0:
