osu file format v14

[General]
AudioFilename: audio.mp3
AudioLeadIn: 0
PreviewTime: 31901
Countdown: 0
SampleSet: Normal
StackLeniency: 0.4
Mode: 0
LetterboxInBreaks: 0
WidescreenStoryboard: 1

[Editor]
DistanceSpacing: 1.3
BeatDivisor: 4
GridSize: 8
TimelineZoom: 4

[Metadata]
Title:Boss Rush
TitleUnicode:Boss Rush
Artist:USAO
ArtistUnicode:USAO
Creator:Lavender
Version:Advanced
Source:jubeat Qubell
Tags:konami Qb Hardcore Dubstep SOUND VOLTEX IV HEAVENLY HAVEN POLICY BREAK Yugu Frey Moecho Moeri
BeatmapID:1332912
BeatmapSetID:619807

[Difficulty]
HPDrainRate:4
CircleSize:3.5
OverallDifficulty:4.5
ApproachRate:6
SliderMultiplier:1.3
SliderTickRate:1

[Events]
//Background and Video events
0,0,"48209501_p0.jpg",0,0
//Break Periods
2,62402,66055
//Storyboard Layer 0 (Background)
//Storyboard Layer 1 (Fail)
//Storyboard Layer 2 (Pass)
//Storyboard Layer 3 (Foreground)
//Storyboard Sound Samples

[TimingPoints]
1571,315.789473684211,4,1,1,15,1,0
5044,-100,4,1,1,20,0,0
5992,-100,4,1,1,25,0,0
6623,-100,4,1,1,30,0,0
6939,-100,4,1,1,30,0,0
9149,-100,4,1,1,40,0,0
10413,-100,4,1,1,50,0,0
11360,-100,4,1,1,50,0,0
11676,-100,4,1,1,60,0,0
19886,-100,4,1,1,50,0,0
20518,-100,4,1,1,40,0,0
21149,-100,4,1,1,30,0,0
21465,-100,4,1,1,43,0,0
26992,-100,4,1,1,30,0,0
27149,-100,4,1,1,46,0,0
27307,-100,4,1,1,32,0,0
27465,-100,4,1,1,49,0,0
27623,-100,4,1,1,34,0,0
27781,-100,4,1,1,52,0,0
27939,-100,4,1,1,36,0,0
28097,-100,4,1,1,55,0,0
28255,-100,4,1,1,38,0,0
28413,-100,4,1,1,58,0,0
28571,-100,4,1,1,40,0,0
28728,-100,4,1,1,61,0,0
28886,-100,4,1,1,42,0,0
29044,-100,4,1,1,64,0,0
29202,-100,4,1,1,44,0,0
29360,-100,4,1,1,67,0,0
31255,-100,4,1,1,30,0,0
31886,-100,4,1,1,60,0,1
36307,-100,4,1,1,60,0,1
36623,-100,4,1,1,60,0,1
39149,-100,4,1,1,60,0,1
39465,-100,4,1,1,60,0,1
44202,-100,4,1,1,60,0,1
44518,-100,4,1,1,60,0,1
51465,-100,4,1,1,75,0,1
51505,-100,4,1,1,60,0,1
51623,-100,4,1,1,75,0,1
51663,-100,4,1,1,60,0,1
51781,-100,4,1,1,30,0,1
52097,-100,4,1,1,40,0,0
56834,-100,4,1,1,40,0,0
57149,-100,4,1,1,40,0,0
60939,-100,4,1,1,40,0,0
77518,-100,4,1,1,30,0,0
77675,-100,4,1,1,46,0,0
77833,-100,4,1,1,32,0,0
77991,-100,4,1,1,49,0,0
78149,-100,4,1,1,34,0,0
78307,-100,4,1,1,52,0,0
78465,-100,4,1,1,36,0,0
78623,-100,4,1,1,55,0,0
78781,-100,4,1,1,38,0,0
78939,-100,4,1,1,58,0,0
79097,-100,4,1,1,40,0,0
79254,-100,4,1,1,61,0,0
79412,-100,4,1,1,42,0,0
79570,-100,4,1,1,64,0,0
79728,-100,4,1,1,44,0,0
79886,-100,4,1,1,40,0,0
82097,-100,4,1,1,40,0,0
82413,-100,4,1,1,60,0,1
100886,-100,4,1,1,60,0,1
101360,-100,4,1,1,60,0,1
101597,-100,4,1,1,60,0,1
101834,-100,4,1,1,60,0,1
102071,-100,4,1,1,60,0,1
102307,-100,4,1,1,60,0,1
102544,-100,4,1,1,60,0,0
102939,-100,4,1,1,60,0,0
107360,-100,4,1,1,60,0,0
107676,-100,4,1,1,60,0,0
113834,-100,4,1,1,60,0,0
115255,-100,4,1,1,60,0,0
116360,-100,4,1,1,60,0,0
121571,-100,4,1,1,60,0,0
122044,-100,4,1,1,80,0,0
122518,-100,4,1,1,80,0,0

[Colours]
Combo1 : 128,255,128
Combo2 : 192,192,192
Combo3 : 255,0,0
Combo4 : 255,255,128
Combo5 : 128,255,255
Combo6 : 255,128,255

[HitObjects]
96,203,11676,6,0,P|158:216|217:190,1,130
352,88,12307,2,0,L|359:23,2,65,0|0|0,0:0|0:0|0:0,0:0:0:0:
394,161,12781,6,0,L|329:170,1,65,0|0,0:0|0:0,0:0:0:0:
349,252,13097,2,0,L|284:242,1,65,0|0,0:0|0:0,0:0:0:0:
278,326,13413,2,0,P|215:309|151:318,1,130,0|0,0:0|0:0,0:0:0:0:
76,279,13886,2,0,L|87:215,1,65,0|0,0:0|0:0,0:0:0:0:
137,146,14202,6,0,L|125:82,2,65,0|0|0,0:0|0:0|0:0,0:0:0:0:
199,203,14676,1,0,0:0:0:0:
199,203,14834,2,0,P|262:211|319:182,1,130,0|0,0:0|0:0,0:0:0:0:
369,113,15307,1,0,0:0:0:0:
461,254,15623,5,0,0:0:0:0:
461,254,15781,2,0,L|396:245,1,65,0|0,0:0|0:0,0:0:0:0:
362,323,16097,2,0,L|297:332,1,65,0|0,0:0|0:0,0:0:0:0:
221,294,16413,2,0,L|156:288,1,65,0|0,0:0|0:0,0:0:0:0:
95,346,16728,6,0,P|117:286|102:224,1,130,0|0,0:0|0:0,0:0:0:0:
199,84,17360,2,0,L|188:19,2,65,0|0|0,0:0|0:0|0:0,0:0:0:0:
255,145,17834,2,0,P|316:165|373:138,1,130,0|0,0:0|0:0,0:0:0:0:
430,76,18307,1,0,0:0:0:0:
430,76,18465,2,0,L|421:205,1,130,0|0,0:0|0:0,0:0:0:0:
417,290,18939,2,0,L|481:284,1,65,0|0,0:0|0:0,0:0:0:0:
473,369,19255,6,0,L|408:374,1,65,0|0,0:0|0:0,0:0:0:0:
336,328,19571,2,0,L|271:333,1,65,0|0,0:0|0:0,0:0:0:0:
196,294,19886,1,0,0:0:0:0:
41,363,20202,5,0,0:0:0:0:
40,363,20360,2,0,P|33:298|25:233,1,130
110,231,20834,2,0,P|111:199|115:167,1,65
88,86,21149,2,0,P|92:53|93:21,1,65
176,38,21465,2,0,P|224:44|272:44,1,97.5,0|0,0:0|0:0,0:0:0:0:
312,27,21781,6,0,P|317:59|315:91,2,65,8|0|0,0:0|0:0|0:0,0:0:0:0:
396,35,22255,2,0,P|399:67|397:99,2,65,8|0|0,0:0|0:0|0:0,0:0:0:0:
479,45,22728,2,0,P|481:77|477:109,1,65,8|0,0:0|0:0,0:0:0:0:
430,180,23044,6,0,P|398:185|366:183,2,65,8|0|0,0:0|0:0|0:0,0:0:0:0:
422,264,23518,2,0,P|390:267|358:265,2,65,8|0|0,0:0|0:0|0:0,0:0:0:0:
412,347,23992,1,8,0:0:0:0:
256,282,24307,6,0,P|251:250|253:218,2,65,8|0|0,0:0|0:0|0:0,0:0:0:0:
172,274,24782,2,0,P|169:242|171:210,2,65,8|0|0,0:0|0:0|0:0,0:0:0:0:
89,264,25255,2,0,P|86:232|88:200,1,65,8|0,0:0|0:0,0:0:0:0:
73,115,25571,6,0,P|136:122|192:91,1,130,2|8,0:0|0:0,0:0:0:0:
154,15,26044,2,0,P|209:46|273:38,1,130,2|8,0:0|0:0,0:0:0:0:
354,65,26518,1,2,0:0:0:0:
437,80,26676,6,0,L|469:76,2,32.5,2|2|8,0:0|0:0|0:0,0:0:0:0:
311,193,27149,1,8,0:0:0:0:
424,317,27465,2,0,P|424:252|419:187,1,130,8|8,0:0|0:0,0:0:0:0:
300,65,28097,5,8,0:0:0:0:
187,191,28412,1,8,0:0:0:0:
63,78,28728,2,0,P|127:77|192:82,1,130,8|8,0:0|0:0,0:0:0:0:
331,179,29360,6,0,P|333:211|337:243,1,65,0|2,3:0|3:0,0:0:0:0:
256,217,29676,2,0,L|254:281,1,65,2|2,3:0|3:0,0:0:0:0:
175,245,29992,2,0,P|174:262|172:278,2,32.5,0|0|0,3:0|3:0|3:0,0:0:0:0:
95,270,30307,2,0,P|92:285|88:301,2,32.5,0|0|0,3:0|3:0|3:0,0:0:0:0:
11,287,30623,1,0,0:0:0:0:
95,270,31886,6,0,P|158:281|216:256,1,130,6|2,0:0|0:0,0:0:0:0:
315,118,32518,1,8,0:0:0:0:
354,192,32676,2,0,L|418:182,2,65,0|0|0,0:0|0:0|0:0,0:0:0:0:
305,261,33149,1,2,0:0:0:0:
344,335,33307,2,0,L|408:325,2,65,0|0|2,0:0|0:0|0:0,0:0:0:0:
258,333,33781,2,0,B|202:317|202:317|131:330,1,130,8|0,0:0|0:0,0:0:0:0:
38,188,34413,6,0,B|94:204|94:204|164:190,1,130,2|2,0:0|0:0,0:0:0:0:
272,60,35044,1,8,0:0:0:0:
332,119,35202,2,0,P|322:149|324:182,2,65,0|0|0,0:0|0:0|0:0,0:0:0:0:
410,86,35676,1,2,0:0:0:0:
482,128,35834,2,0,P|491:98|489:65,2,65,0|0|2,0:0|0:0|0:0,0:0:0:0:
448,205,36307,2,0,B|412:257|412:257|353:260|280:267,1,195,8|0,0:0|0:0,0:0:0:0:
224,330,36939,6,0,P|161:344|104:317,1,130,2|2,0:0|0:0,0:0:0:0:
18,172,37571,1,8,0:0:0:0:
80,115,37728,2,0,L|82:50,2,65
134,179,38202,1,2,0:0:0:0:
205,133,38360,2,0,L|207:68,2,65,0|0|2,0:0|0:0|0:0,0:0:0:0:
264,194,38834,2,0,P|327:205|380:170,1,130,8|0,0:0|0:0,0:0:0:0:
262,292,39465,6,0,P|199:280|146:315,1,130,2|2,0:0|0:0,0:0:0:0:
216,364,39939,2,0,L|188:236,1,130,0|0,0:0|0:0,0:0:0:0:
103,234,40413,2,0,L|113:169,1,65,0|0,0:0|0:0,0:0:0:0:
161,100,40728,6,0,P|193:102|225:97,1,65,2|0,0:0|0:0,0:0:0:0:
304,66,41044,1,0,0:0:0:0:
438,168,41360,6,0,P|406:170|374:166,1,65,0|0,3:0|3:0,0:0:0:0:
292,150,41676,1,8,3:0:0:0:
252,314,41992,6,0,P|189:303|131:328,1,130,6|2,0:0|0:0,0:0:0:0:
265,226,42624,1,8,0:0:0:0:
226,152,42782,2,0,L|162:162,2,65,0|0|0,0:0|0:0|0:0,0:0:0:0:
275,83,43255,1,2,0:0:0:0:
236,10,43413,2,0,L|172:20,2,65,0|0|2,0:0|0:0|0:0,0:0:0:0:
321,12,43887,2,0,B|377:28|377:28|448:15,1,130,8|0,0:0|0:0,0:0:0:0:
402,178,44519,6,0,B|346:162|346:162|276:176,1,130,2|2,0:0|0:0,0:0:0:0:
220,335,45150,1,8,0:0:0:0:
160,276,45308,2,0,P|170:246|168:213,2,65,0|0|0,0:0|0:0|0:0,0:0:0:0:
82,309,45782,1,2,0:0:0:0:
10,267,45940,2,0,P|1:297|3:330,2,65,0|0|2,0:0|0:0|0:0,0:0:0:0:
50,192,46413,2,0,B|98:162|108:91|108:91|114:133|138:157,1,195,8|0,0:0|0:0,0:0:0:0:
193,92,47045,6,0,P|255:112|317:98,1,130,2|0,0:0|0:0,0:0:0:0:
378,39,47518,2,0,P|358:101|372:163,1,130,2|0,0:0|0:0,0:0:0:0:
426,228,47992,2,0,L|490:220,1,65,2|0,0:0|0:0,0:0:0:0:
505,304,48307,1,2,0:0:0:0:
505,304,48465,1,0,0:0:0:0:
458,374,48623,2,0,L|393:366,1,65,0|2,0:0|0:0,0:0:0:0:
332,307,48939,2,0,P|269:289|206:300,1,130,8|0,0:0|0:0,0:0:0:0:
71,197,49571,6,0,P|68:165|63:133,1,65,2|0,3:1|3:0,0:0:0:0:
140,97,49886,2,0,P|144:129|147:161,1,65,0|2,3:0|3:1,0:0:0:0:
230,177,50202,2,0,P|227:144|222:112,1,65,8|0,3:1|3:0,0:0:0:0:
278,48,50518,1,2,3:1:0:0:
278,48,50676,1,0,3:0:0:0:
350,91,50834,2,0,P|382:89|414:82,1,65,2|0,3:1|3:0,0:0:0:0:
472,21,51149,2,0,P|463:85|458:150,1,130,0|2,3:0|0:3,0:0:0:0:
411,220,51623,1,2,0:3:0:0:
410,220,51781,2,0,P|362:221|314:229,1,97.5,8|8,0:0|0:0,0:0:0:0:
279,253,52097,6,0,P|291:190|269:130,1,130,2|0,0:0|0:0,0:0:0:0:
113,61,52728,2,0,L|49:49,2,65,8|2|2,0:0|0:0|0:0,0:0:0:0:
176,116,53202,2,0,P|209:112|241:106,1,65,0|0,0:0|0:0,0:0:0:0:
243,191,53518,2,0,P|274:182|304:170,1,65,2|0,0:0|0:0,0:0:0:0:
322,254,53834,2,0,P|380:225|436:192,1,130,2|0,0:0|0:0,0:0:0:0:
459,110,54307,1,0,0:0:0:0:
459,110,54465,1,0,0:0:0:0:
374,109,54623,6,0,P|373:141|375:173,1,65,2|0,0:0|0:0,0:0:0:0:
294,200,54939,2,0,L|294:135,1,65,0|2,0:0|0:0,0:0:0:0:
212,109,55255,2,0,P|212:141|210:173,1,65,8|0,0:0|0:0,0:0:0:0:
152,236,55571,5,2,0:0:0:0:
152,235,55728,2,0,P|211:211|273:227,1,130,0|0,0:0|0:0,0:0:0:0:
334,287,56202,2,0,L|397:275,1,65,0|2,0:0|0:0,0:0:0:0:
467,226,56518,2,0,P|472:194|466:162,2,65,8|0|2,0:0|0:0|0:0,0:0:0:0:
300,196,57149,6,0,P|238:180|176:198,1,130,2|0,0:0|0:0,0:0:0:0:
170,29,57781,2,0,L|234:22,1,65,8|0,0:0|0:0,0:0:0:0:
267,101,58097,2,0,L|331:107,1,65,2|0,0:0|0:0,0:0:0:0:
408,69,58413,2,0,L|489:54,2,65,0|0|0,0:0|0:0|0:0,0:0:0:0:
331,107,58886,2,0,P|333:171|332:236,1,130,2|0,0:0|0:0,0:0:0:0:
283,306,59360,1,0,0:0:0:0:
283,306,59518,1,0,0:0:0:0:
203,278,59676,6,0,L|138:286,1,65,2|0,0:0|0:0,0:0:0:0:
63,242,59992,2,0,P|60:210|63:178,1,65,0|2,0:0|0:0,0:0:0:0:
138,134,60307,2,0,L|203:143,1,65,8|0,0:0|0:0,0:0:0:0:
264,84,60623,1,2,0:0:0:0:
264,84,60781,1,0,0:0:0:0:
338,123,60939,6,0,B|328:155|328:155|335:186,1,65,2|0,0:0|0:0,0:0:0:0:
254,209,61255,2,0,B|264:241|264:241|256:272,1,65,0|2,0:0|0:0,0:0:0:0:
192,327,61571,2,0,B|326:294|326:294|377:318,1,195,8|0,3:1|3:0,0:0:0:0:
318,378,62202,5,2,3:1:0:0:
256,192,67255,12,0,71044,0:0:0:0:
298,289,72307,6,0,P|303:321|301:353,2,65,8|0|0,0:0|0:0|0:0,0:0:0:0:
287,205,72781,2,0,P|313:186|341:172,2,65,8|0|0,0:0|0:0|0:0,0:0:0:0:
219,257,73255,2,0,P|188:245|161:227,1,65,8|0,0:0|0:0,0:0:0:0:
98,170,73571,6,0,P|90:201|76:230,2,65,8|0|0,0:0|0:0|0:0,0:0:0:0:
115,88,74045,2,0,P|147:80|179:78,2,65,8|0|0,0:0|0:0|0:0,0:0:0:0:
35,111,74518,1,8,0:3:0:0:
193,164,74834,6,0,P|167:184|139:198,2,65,8|0|0,0:0|0:0|0:0,0:0:0:0:
180,78,75307,2,0,P|178:45|182:14,2,65,8|0|0,0:0|0:0|0:0,0:0:0:0:
259,109,75781,2,0,P|288:122|314:140,1,65,8|0,0:0|0:0,0:0:0:0:
389,183,76097,6,0,B|432:162|432:162|481:167,1,97.5,2|2,0:0|0:0,0:0:0:0:
399,264,76571,2,0,B|355:284|355:284|306:279,1,97.5,2|2,0:0|0:0,0:0:0:0:
196,342,77044,1,2,0:0:0:0:
113,327,77202,6,0,L|81:331,2,32.5,2|2|8,0:0|0:0|0:0,0:0:0:0:
239,214,77675,1,8,0:0:0:0:
126,98,77991,2,0,P|126:163|131:228,1,130,8|8,0:0|0:0,0:0:0:0:
250,342,78623,5,8,0:0:0:0:
363,216,78938,1,8,0:0:0:0:
487,329,79255,2,0,P|422:329|357:324,1,130,8|8,0:0|0:0,0:0:0:0:
192,201,79886,6,0,P|190:169|186:137,1,65,0|0,3:0|3:0,0:0:0:0:
267,163,80202,2,0,L|269:99,1,65,0|0,3:0|3:0,0:0:0:0:
346,134,80518,2,0,P|347:117|349:101,2,32.5,0|0|0,3:0|3:0|3:0,0:0:0:0:
426,109,80834,2,0,P|428:93|432:77,2,32.5,0|0|0,3:0|3:0|3:0,0:0:0:0:
510,92,81149,1,0,0:0:0:0:
100,86,82413,6,0,P|164:81|229:73,1,130,6|8,0:0|0:0,0:0:0:0:
231,157,82886,2,0,P|295:161|360:169,1,130,0|2,0:0|0:0,0:0:0:0:
436,131,83360,2,0,P|440:98|441:66,1,65,8|0,0:0|0:0,0:0:0:0:
378,9,83676,5,2,0:0:0:0:
378,9,83834,1,0,0:0:0:0:
309,58,83992,2,0,P|309:123|313:188,1,130,8|0,0:0|0:0,0:0:0:0:
318,273,84465,1,2,0:0:0:0:
318,273,84623,2,0,P|285:268|253:267,1,65,8|0,0:0|0:0,0:0:0:0:
200,334,84939,6,0,P|218:273|189:216,1,130,2|8,0:0|0:0,0:0:0:0:
122,164,85413,2,0,P|103:224|132:281,1,130,0|2,0:0|0:0,0:0:0:0:
200,334,85886,2,0,L|264:326,1,65,8|0,0:0|0:0,0:0:0:0:
318,261,86202,5,2,0:0:0:0:
318,261,86360,1,0,0:0:0:0:
400,277,86518,2,0,P|397:244|398:212,1,65,8|0,0:0|0:0,0:0:0:0:
456,150,86834,2,0,P|458:117|457:85,2,65,0|2|8,0:0|0:0|0:0,0:0:0:0:
305,73,87465,6,0,B|247:96|247:96|180:86,1,130,2|8,0:0|0:0,0:0:0:0:
188,170,87939,2,0,B|121:160|121:160|63:183,1,130,0|2,0:0|0:0,0:0:0:0:
31,262,88413,2,0,P|37:293|42:325,1,65,8|0,0:0|0:0,0:0:0:0:
114,370,88728,6,0,L|178:364,1,65,2|0,0:0|0:0,0:0:0:0:
161,281,89044,2,0,L|225:286,1,65,8|0,0:0|0:0,0:0:0:0:
222,201,89360,2,0,L|284:218,2,65,0|2|8,0:0|0:0|0:0,0:0:0:0:
329,69,89992,6,0,P|267:88|207:67,1,130,2|8,0:0|0:0,0:0:0:0:
284,218,90623,2,0,P|252:214|220:212,2,65,0|2|8,0:0|0:0|0:0,0:0:0:0:
187,357,91255,6,0,P|126:336|65:355,1,130,2|8,0:0|0:0,0:0:0:0:
20,192,91886,2,0,L|84:184,1,65,2|2,0:0|0:0,0:0:0:0:
136,116,92202,1,8,0:0:0:0:
136,116,92360,1,2,0:0:0:0:
213,149,92518,6,0,P|276:155|331:123,1,130,6|8,0:0|0:0,0:0:0:0:
299,44,92992,2,0,P|354:76|417:69,1,130,0|2,0:0|0:0,0:0:0:0:
500,49,93465,2,0,L|491:113,1,65,8|0,0:0|0:0,0:0:0:0:
480,197,93781,5,2,0:0:0:0:
480,197,93939,1,0,0:0:0:0:
415,251,94097,2,0,P|382:248|350:247,1,65,8|0,0:0|0:0,0:0:0:0:
366,331,94413,2,0,P|333:331|301:334,2,65,0|2|8,0:0|0:0|0:0,0:0:0:0:
234,224,95044,6,0,P|216:163|245:106,1,130,2|8,0:0|0:0,0:0:0:0:
312,54,95518,2,0,P|331:114|302:171,1,130,0|2,0:0|0:0,0:0:0:0:
234,224,95991,2,0,L|170:216,1,65,8|0,0:0|0:0,0:0:0:0:
100,266,96307,5,2,0:0:0:0:
100,266,96465,1,0,0:0:0:0:
34,212,96623,2,0,P|31:179|32:147,1,65,8|0,0:0|0:0,0:0:0:0:
108,109,96939,2,0,P|110:76|109:44,2,65,0|2|8,0:0|0:0|0:0,0:0:0:0:
276,117,97571,6,0,P|340:108|404:97,1,130,2|8,0:0|0:0,0:0:0:0:
474,49,98044,2,0,P|441:103|451:166,1,130,0|2,0:0|0:0,0:0:0:0:
475,248,98518,2,0,P|442:246|410:245,1,65,8|0,0:0|0:0,0:0:0:0:
329,217,98834,6,0,P|329:249|328:281,1,65,2|0,0:0|0:0,0:0:0:0:
247,308,99149,2,0,L|247:243,1,65,8|0,0:0|0:0,0:0:0:0:
165,217,99465,2,0,P|164:249|165:281,2,65,0|2|8,0:0|0:0|0:0,0:0:0:0:
65,79,100097,6,0,P|48:51|38:20,2,65,2|0|8,3:1|3:0|3:1,0:0:0:0:
110,151,100571,2,0,P|93:178|72:201,2,65,0|0|2,3:0|3:0|0:0,0:0:0:0:
150,76,101044,2,0,P|182:79|213:86,1,65,8|0,0:0|3:0,0:0:0:0:
286,42,101360,6,0,B|329:21|329:21|378:26,1,97.5,2|2,0:0|0:0,0:0:0:0:
486,94,101834,2,0,B|442:114|442:114|393:109,1,97.5,2|2,0:0|0:0,0:0:0:0:
419,233,102307,1,2,0:0:0:0:
497,265,102465,6,0,L|493:297,2,32.5,0|2|6,0:0|0:0|0:0,0:0:0:0:
333,311,102939,2,0,P|302:306|269:304,1,65,8|0,0:0|0:0,0:0:0:0:
186,280,103255,2,0,P|189:312|189:344,2,65,0|2|8,0:0|0:0|0:0,0:0:0:0:
115,232,103728,6,0,L|103:168,1,65,0|2,0:0|0:0,0:0:0:0:
188,169,104044,2,0,L|187:104,1,65,0|8,0:0|0:0,0:0:0:0:
270,119,104360,2,0,L|280:54,1,65,0|0,0:0|0:0,0:0:0:0:
363,70,104676,2,0,L|353:6,2,65,2|8|0,0:0|0:0|0:0,0:0:0:0:
424,129,105149,6,0,P|456:124|488:123,2,65,2|0|8,0:0|0:0|0:0,0:0:0:0:
377,201,105623,2,0,P|381:233|384:265,2,65,0|0|2,0:0|0:0|0:0,0:0:0:0:
316,141,106097,5,8,0:0:0:0:
272,213,106255,2,0,P|210:229|153:200,1,130
76,165,106728,2,0,P|75:197|74:229,1,65,8|0,0:0|0:0,0:0:0:0:
113,306,107044,2,0,P|113:339|116:371,2,65,0|2|8,0:0|0:0|0:0,0:0:0:0:
226,179,107676,6,0,P|288:195|350:177,1,130,2|8,0:0|0:0,0:0:0:0:
356,346,108308,2,0,L|292:353,1,65,0|2,0:0|0:0,0:0:0:0:
259,274,108624,2,0,L|195:268,1,65,8|0,0:0|0:0,0:0:0:0:
118,306,108940,2,0,L|37:321,2,65,2|0|8,0:0|0:0|0:0,0:0:0:0:
195,268,109413,2,0,P|193:204|194:139,1,130,0|2,0:0|0:0,0:0:0:0:
243,69,109887,1,8,0:0:0:0:
243,69,110045,1,0,0:0:0:0:
323,97,110203,6,0,L|388:89,1,65,2|0,0:0|0:0,0:0:0:0:
463,133,110519,2,0,P|466:165|463:197,1,65,8|0,0:0|0:0,0:0:0:0:
388,241,110834,2,0,L|323:232,1,65,0|2,0:0|0:0,0:0:0:0:
262,291,111149,1,8,0:0:0:0:
179,274,111307,6,0,B|206:216|206:216|186:153,1,130
271,164,111782,2,0,B|259:132|259:132|268:102,1,65,8|0,0:0|0:0,0:0:0:0:
321,36,112098,2,0,P|265:67|202:55,1,130,0|0,3:0|3:0,0:0:0:0:
124,204,112728,6,0,L|59:200,2,65,6|0|8,0:0|0:0|0:0,0:0:0:0:
136,288,113202,2,0,L|200:284,1,65,0|0,0:0|0:0,0:0:0:0:
255,219,113518,1,2,0:0:0:0:
255,219,113676,1,8,0:0:0:0:
311,284,113834,6,0,L|376:288,1,65,0|2,0:0|0:0,0:0:0:0:
388,204,114150,2,0,L|452:200,2,65,0|8|0,0:0|0:0|0:0,0:0:0:0:
328,143,114623,2,0,P|324:110|325:78,1,65,0|2,0:0|0:0,0:0:0:0:
240,64,114939,2,0,P|244:97|243:129,1,65,8|0,0:0|0:0,0:0:0:0:
168,170,115255,6,0,P|135:167|103:166,2,65,2|0|8,0:0|0:0|0:0,0:0:0:0:
144,251,115728,2,0,P|177:248|209:247,1,65
256,319,116044,1,2,0:0:0:0:
256,319,116202,1,8,0:0:0:0:
302,248,116360,6,0,P|334:249|367:251,1,65,0|2,0:0|0:0,0:0:0:0:
344,170,116676,2,0,P|376:168|408:167,2,65,0|8|0,0:0|0:0|0:0,0:0:0:0:
357,86,117149,2,0,P|325:87|293:89,1,65,0|2,0:0|0:0,0:0:0:0:
229,147,117465,2,0,P|181:140|133:141,1,97.5,8|0,0:0|0:0,0:0:0:0:
102,109,117781,6,0,P|102:173|99:238,1,130,2|8,0:0|0:0,0:0:0:0:
35,295,118255,2,0,P|95:275|156:295,1,130,2|2,0:0|0:0,0:0:0:0:
237,319,118728,1,8,0:0:0:0:
296,160,119044,6,0,P|356:140|417:160,1,130,2|8,0:0|0:0,0:0:0:0:
472,225,119518,2,0,P|469:160|469:95,1,130,2|2,0:0|0:0,0:0:0:0:
395,55,119991,1,8,0:0:0:0:
225,53,120307,6,0,L|233:182,1,130,2|8,3:1|3:1,0:0:0:0:
316,164,120781,2,0,L|307:293,1,130,2|2,3:1|3:1,0:0:0:0:
229,328,121255,2,0,L|224:263,1,65,8|2,3:1|3:1,0:0:0:0:
156,212,121571,6,0,B|108:197|108:197|61:204,1,97.5,2|2,0:0|0:0,0:0:0:0:
157,122,122044,2,0,B|205:137|205:137|251:129,1,97.5,2|2,0:0|0:0,0:0:0:0:
353,52,122518,2,0,L|337:148,1,97.5,2|0,0:0|0:0,0:0:0:0:
