osu file format v14

[General]
AudioFilename: audio.mp3
AudioLeadIn: 0
PreviewTime: 31901
Countdown: 0
SampleSet: Normal
StackLeniency: 0.4
Mode: 0
LetterboxInBreaks: 0
WidescreenStoryboard: 1

[Editor]
Bookmarks: 84307,96939
DistanceSpacing: 1
BeatDivisor: 2
GridSize: 8
TimelineZoom: 2.100002

[Metadata]
Title:Boss Rush
TitleUnicode:Boss Rush
Artist:USAO
ArtistUnicode:USAO
Creator:Lavender
Version:Normal
Source:jubeat Qubell
Tags:konami Qb Hardcore Dubstep SOUND VOLTEX IV HEAVENLY HAVEN POLICY BREAK Yugu Frey Moecho Moeri
BeatmapID:1363096
BeatmapSetID:619807

[Difficulty]
HPDrainRate:2.5
CircleSize:3
OverallDifficulty:3
ApproachRate:4
SliderMultiplier:0.9
SliderTickRate:1

[Events]
//Background and Video events
0,0,"48209501_p0.jpg",0,0
//Break Periods
2,62402,65935
//Storyboard Layer 0 (Background)
//Storyboard Layer 1 (Fail)
//Storyboard Layer 2 (Pass)
//Storyboard Layer 3 (Foreground)
//Storyboard Sound Samples

[TimingPoints]
1571,315.789473684211,4,1,1,15,1,0
5044,-100,4,1,1,20,0,0
5992,-100,4,1,1,25,0,0
6623,-100,4,1,1,30,0,0
6939,-100,4,1,1,30,0,0
9149,-100,4,1,1,40,0,0
10413,-100,4,1,1,50,0,0
11360,-100,4,1,1,50,0,0
11676,-100,4,1,1,60,0,0
19886,-100,4,1,1,50,0,0
20518,-100,4,1,1,40,0,0
21149,-100,4,1,1,30,0,0
21465,-100,4,1,1,43,0,0
26992,-100,4,1,1,30,0,0
27149,-100,4,1,1,46,0,0
27307,-100,4,1,1,32,0,0
27465,-100,4,1,1,49,0,0
27623,-100,4,1,1,34,0,0
27781,-100,4,1,1,52,0,0
27939,-100,4,1,1,36,0,0
28097,-100,4,1,1,55,0,0
28255,-100,4,1,1,38,0,0
28413,-100,4,1,1,58,0,0
28571,-100,4,1,1,40,0,0
28728,-100,4,1,1,61,0,0
28886,-100,4,1,1,42,0,0
29044,-100,4,1,1,64,0,0
29202,-100,4,1,1,44,0,0
29360,-100,4,1,1,67,0,0
31255,-100,4,1,1,30,0,0
31886,-100,4,1,1,60,0,1
36307,-100,4,1,1,60,0,1
36623,-100,4,1,1,60,0,1
39149,-100,4,1,1,60,0,1
39465,-100,4,1,1,60,0,1
44202,-100,4,1,1,60,0,1
44518,-100,4,1,1,60,0,1
51465,-100,4,1,1,75,0,1
51505,-100,4,1,1,60,0,1
51623,-100,4,1,1,75,0,1
51663,-100,4,1,1,60,0,1
51781,-100,4,1,1,30,0,1
52097,-100,4,1,1,40,0,0
56834,-100,4,1,1,40,0,0
57149,-100,4,1,1,40,0,0
60939,-100,4,1,1,40,0,0
77518,-100,4,1,1,30,0,0
77675,-100,4,1,1,46,0,0
77833,-100,4,1,1,32,0,0
77991,-100,4,1,1,49,0,0
78149,-100,4,1,1,34,0,0
78307,-100,4,1,1,52,0,0
78465,-100,4,1,1,36,0,0
78623,-100,4,1,1,55,0,0
78781,-100,4,1,1,38,0,0
78939,-100,4,1,1,58,0,0
79097,-100,4,1,1,40,0,0
79254,-100,4,1,1,61,0,0
79412,-100,4,1,1,42,0,0
79570,-100,4,1,1,64,0,0
79728,-100,4,1,1,44,0,0
79886,-100,4,1,1,40,0,0
82097,-100,4,1,1,40,0,0
82413,-100,4,1,1,60,0,1
100886,-100,4,1,1,60,0,1
101360,-100,4,1,1,60,0,1
101597,-100,4,1,1,60,0,1
101834,-100,4,1,1,60,0,1
102071,-100,4,1,1,60,0,1
102307,-100,4,1,1,60,0,1
102623,-100,4,1,1,60,0,0
102939,-100,4,1,1,60,0,0
107360,-100,4,1,1,60,0,0
107676,-100,4,1,1,60,0,0
113834,-100,4,1,1,60,0,0
115255,-100,4,1,1,60,0,0
116360,-100,4,1,1,60,0,0
121571,-100,4,1,1,60,0,0
122044,-100,4,1,1,80,0,0
122518,-100,4,1,1,80,0,0

[Colours]
Combo1 : 128,255,128
Combo2 : 192,192,192
Combo3 : 255,0,0
Combo4 : 255,255,128
Combo5 : 128,255,255
Combo6 : 255,128,255

[HitObjects]
164,111,11676,6,0,P|250:132|323:84,1,180
412,95,12623,1,0,0:0:0:0:
460,170,12939,2,0,P|450:236|447:304,2,135,0|0|0,0:0|0:0|0:0,0:0:0:0:
411,95,14202,6,0,P|323:108|233:113,1,180,0|0,0:0|0:0,0:0:0:0:
156,66,15149,1,0,0:0:0:0:
95,132,15465,2,0,L|98:221,1,90,0|0,0:0|0:0,0:0:0:0:
25,275,16097,2,0,P|91:266|144:304,1,135,0|0,0:0|0:0,0:0:0:0:
172,340,16728,6,0,P|261:330|351:326,1,180,0|0,0:0|0:0,0:0:0:0:
421,269,17676,1,0,0:0:0:0:
353,209,17992,2,0,P|353:141|346:74,2,135,0|0|0,0:0|0:0|0:0,0:0:0:0:
272,253,19255,6,0,B|229:222|154:301|99:258,1,180,0|0,0:0|0:0,0:0:0:0:
35,195,20202,1,0,0:0:0:0:
94,127,20518,2,0,L|182:141,1,90,0|0,0:0|0:0,0:0:0:0:
188,51,21149,2,0,L|276:36,1,90,0|0,0:0|0:0,0:0:0:0:
330,109,21781,6,0,B|421:117|421:117|461:99,2,135,8|8|8,0:0|0:0|0:0,0:0:0:0:
256,160,23044,2,0,B|217:77|217:77|182:51,2,135,8|8|8,0:0|0:0|0:0,0:0:0:0:
338,199,24307,6,0,B|285:273|285:273|280:317,2,135,8|8|8,0:0|0:0|0:0,0:0:0:0:
330,109,25570,2,0,B|421:117|421:117|461:99,2,135,2|2|2,0:0|0:0|0:0,0:0:0:0:
253,60,26834,6,0,P|208:55|163:50,1,90,8|8,0:0|0:0,0:0:0:0:
140,137,27465,2,0,P|95:142|50:146,1,90,8|8,0:0|0:0,0:0:0:0:
53,237,28097,2,0,P|97:241|142:246,1,90,8|8,0:0|0:0,0:0:0:0:
166,333,28728,2,0,P|210:327|255:323,1,90,8|8,0:0|0:0,0:0:0:0:
325,266,29360,6,0,P|315:223|318:178,2,90,0|2|0,3:0|3:0|3:0,0:0:0:0:
408,304,30307,2,0,P|452:298|497:294,1,90,0|0,3:0|0:0,0:0:0:0:
207,80,31886,6,0,P|251:77|296:71,1,90,6|2,0:0|0:0,0:0:0:0:
367,126,32518,2,0,P|363:170|367:215,1,90,8|0,0:0|0:0,0:0:0:0:
437,271,33149,2,0,P|372:257|312:285,1,135,2|2,0:0|0:0,0:0:0:0:
287,324,33781,2,0,L|197:312,1,90,8|0,0:0|0:0,0:0:0:0:
129,252,34413,6,0,P|129:207|128:162,1,90,2|2,0:0|0:0,0:0:0:0:
82,84,35044,2,0,P|125:72|169:81,1,90,8|0,0:0|0:0,0:0:0:0:
255,108,35676,2,0,P|320:119|380:90,1,135,2|2,0:0|0:0,0:0:0:0:
415,61,36307,2,0,L|405:150,1,90,8|0,0:0|0:0,0:0:0:0:
366,232,36939,6,0,P|321:234|276:239,1,90,2|2,0:0|0:0,0:0:0:0:
274,329,37571,2,0,P|229:324|184:321,1,90,8|0,0:0|0:0,0:0:0:0:
109,269,38202,2,0,P|134:207|107:147,1,135,2|2,0:0|0:0,0:0:0:0:
70,121,38834,2,0,L|159:128,1,90,8|0,0:0|0:0,0:0:0:0:
238,83,39465,5,2,0:0:0:0:
323,110,39781,1,2,0:0:0:0:
408,136,40097,2,0,P|410:92|391:52,1,90,8|0,0:0|0:0,0:0:0:0:
323,110,40728,2,0,L|339:268,1,135,2|2,0:0|0:0,0:0:0:0:
366,278,41360,2,0,P|321:279|277:289,1,90,0|8,3:0|3:0,0:0:0:0:
191,318,41992,6,0,P|194:273|181:230,1,90,6|2,0:0|0:0,0:0:0:0:
267,203,42623,2,0,P|263:158|276:115,1,90,8|0,0:0|0:0,0:0:0:0:
341,53,43255,2,0,L|206:69,1,135,2|2,0:0|0:0,0:0:0:0:
171,41,43886,2,0,P|166:86|159:131,1,90,8|0,0:0|0:0,0:0:0:0:
91,190,44518,6,0,P|99:234|107:278,1,90,2|2,0:0|0:0,0:0:0:0:
77,364,45149,2,0,P|121:367|162:350,1,90,8|0,0:0|0:0,0:0:0:0:
243,307,45781,2,0,P|304:283|369:300,1,135,2|2,0:0|0:0,0:0:0:0:
405,328,46412,2,0,L|414:238,1,90,8|0,0:0|0:0,0:0:0:0:
484,181,47044,6,0,P|419:198|357:174,1,135,2|2,0:0|0:0,0:0:0:0:
325,143,47676,1,8,0:0:0:0:
268,213,47992,1,2,0:0:0:0:
185,178,48307,2,0,P|202:113|178:51,1,135,2|2,0:0|0:0,0:0:0:0:
147,19,48939,2,0,L|59:39,1,90,8|0,0:0|0:0,0:0:0:0:
11,115,49571,6,0,L|19:249,1,135,2|2,3:1|3:1,0:0:0:0:
6,291,50202,2,0,P|49:281|93:288,1,90,8|2,3:1|3:1,0:0:0:0:
179,317,50834,2,0,P|244:334|306:310,1,135,2|2,3:1|3:1,0:0:0:0:
345,330,51465,2,0,L|328:196,1,135,2|8,0:3|0:0,0:0:0:0:
297,162,52097,6,0,P|341:166|385:155,1,90,2|0,0:0|0:0,0:0:0:0:
449,92,52728,2,0,L|454:47,2,45,8|2|2,0:0|0:0|0:0,0:0:0:0:
317,54,53518,6,0,P|273:56|228:56,1,90,2|2,0:0|0:0,0:0:0:0:
183,50,53992,1,8,0:0:0:0:
64,184,54623,6,0,P|130:175|186:210,1,135,2|2,0:0|0:0,0:0:0:0:
205,251,55255,1,8,0:0:0:0:
271,190,55571,1,2,0:0:0:0:
338,249,55886,6,0,P|404:258|460:223,1,135,2|2,0:0|0:0,0:0:0:0:
488,188,56518,2,0,L|480:277,1,90,8|2,0:0|0:0,0:0:0:0:
437,356,57149,6,0,P|369:350|302:353,1,135,2|2,0:0|0:0,0:0:0:0:
268,323,57781,1,8,0:0:0:0:
185,358,58097,2,0,P|125:267|172:171,1,225,2|2,0:0|0:0,0:0:0:0:
210,146,59044,2,0,L|298:162,1,90,8|0,0:0|0:0,0:0:0:0:
346,238,59676,6,0,P|386:186|379:121,1,135,2|2,0:0|0:0,0:0:0:0:
352,84,60307,1,8,0:0:0:0:
424,30,60623,1,2,0:0:0:0:
491,88,60939,6,0,P|483:156|479:223,1,135,2|2,0:0|0:0,0:0:0:0:
499,264,61571,2,0,P|438:238|375:259,1,135,8|0,3:1|3:0,0:0:0:0:
348,295,62202,1,2,3:1:0:0:
256,192,67255,12,0,71044,0:0:0:0:
179,101,72307,6,0,P|111:93|45:81,2,135,8|8|8,0:0|0:0|0:0,0:0:0:0:
242,165,73571,2,0,P|281:110|325:58,2,135,8|8|8,0:0|0:0|0:3,0:0:0:0:
155,187,74834,6,0,P|182:248|205:312,2,135,8|8|8,0:0|0:0|0:0,0:0:0:0:
179,101,76097,2,0,P|111:93|45:81,2,135,2|2|2,0:0|0:0|0:0,0:0:0:0:
259,60,77360,6,0,P|304:55|349:50,1,90,8|8,0:0|0:0,0:0:0:0:
371,137,77991,2,0,P|416:142|461:146,1,90,8|8,0:0|0:0,0:0:0:0:
458,237,78623,2,0,P|414:241|369:246,1,90,8|8,0:0|0:0,0:0:0:0:
346,333,79255,2,0,P|302:329|257:324,1,90,8|8,0:0|0:0,0:0:0:0:
187,266,79886,6,0,P|197:223|194:178,2,90,0|0|0,3:0|3:0|3:0,0:0:0:0:
104,304,80833,2,0,P|60:298|15:294,1,90,0|0,3:0|0:0,0:0:0:0:
313,92,82413,6,0,L|306:181,1,90,6|8,0:0|0:0,0:0:0:0:
291,224,82886,2,0,P|358:216|425:211,1,135,0|8,0:0|0:0,0:0:0:0:
479,284,83676,2,0,L|487:328,2,45,2|0|8,0:0|0:0|0:0,0:0:0:0:
391,306,84307,2,0,L|382:350,2,45,0|2|8,0:0|0:0|0:0,0:0:0:0:
313,258,84939,6,0,P|268:256|223:260,1,90,2|8,0:0|0:0,0:0:0:0:
186,286,85413,2,0,P|196:219|175:156,1,135,0|8,0:0|0:0,0:0:0:0:
101,104,86202,2,0,L|56:108,2,45,2|0|8,0:0|0:0|0:0,0:0:0:0:
182,64,86834,2,0,L|226:68,2,45,0|2|8,0:0|0:0|0:0,0:0:0:0:
178,154,87465,6,0,L|170:243,1,90,2|8,0:0|0:0,0:0:0:0:
152,285,87939,2,0,P|218:273|283:290,1,135,0|8,0:0|0:0,0:0:0:0:
357,239,88728,2,0,L|362:194,2,45,2|0|8,0:0|0:0|0:0,0:0:0:0:
429,292,89360,2,0,L|434:336,2,45,0|2|8,0:0|0:0|0:0,0:0:0:0:
489,223,89992,6,0,P|500:181|491:137,1,90,2|8,0:0|0:0,0:0:0:0:
438,64,90623,2,0,L|445:13,2,45,0|2|8,0:0|0:0|0:0,0:0:0:0:
362,112,91255,2,0,L|272:106,1,90,2|8,0:0|0:0,0:0:0:0:
210,38,91886,2,0,P|227:103|202:164,1,135,2|2,0:0|0:0,0:0:0:0:
175,200,92518,6,0,L|85:190,1,90,6|8,0:0|0:0,0:0:0:0:
43,208,92992,2,0,P|15:267|33:331,1,135,0|8,0:0|0:0,0:0:0:0:
113,373,93781,2,0,L|157:375,2,45,2|0|8,0:0|0:0|0:0,0:0:0:0:
137,286,94413,2,0,L|181:283,2,45,0|2|8,0:0|0:0|0:0,0:0:0:0:
156,198,95044,6,0,P|200:193|244:184,1,90,2|8,0:0|0:0,0:0:0:0:
264,142,95518,2,0,P|322:175|387:161,1,135,0|8,0:0|0:0,0:0:0:0:
446,92,96307,2,0,L|450:47,2,45,2|0|8,0:0|0:0|0:0,0:0:0:0:
502,162,96939,2,0,L|506:206,2,45,0|2|8,0:0|0:0|0:0,0:0:0:0:
419,198,97571,6,0,L|412:287,1,90,2|8,0:0|0:0,0:0:0:0:
432,328,98044,2,0,P|368:309|307:333,1,135,0|8,0:0|0:0,0:0:0:0:
235,279,98834,2,0,L|190:269,2,45,2|0|8,0:0|0:0|0:0,0:0:0:0:
224,368,99465,2,0,L|179:377,2,45,0|2|8,0:0|0:0|0:0,0:0:0:0:
307,332,100097,6,0,P|324:292|319:247,1,90,2|8,3:1|3:1,0:0:0:0:
235,279,100728,2,0,P|229:234|246:193,1,90,0|8,3:0|0:0,0:0:0:0:
328,156,101360,2,0,P|396:151|463:145,2,135,2|2|2,0:0|0:0|0:0,0:0:0:0:
246,193,102623,6,0,L|156:187,1,90,6|8,0:0|0:0,0:0:0:0:
82,135,103255,2,0,L|75:90,2,45,0|2|8,0:0|0:0|0:0,0:0:0:0:
70,223,103886,2,0,P|56:266|63:310,1,90,2|8,0:0|0:0,0:0:0:0:
138,361,104518,2,0,L|182:356,2,45,0|2|8,0:0|0:0|0:0,0:0:0:0:
146,271,105149,5,2,0:0:0:0:
203,201,105465,2,0,P|268:215|324:181,1,135,8|2,0:0|0:0,0:0:0:0:
345,141,106097,1,8,0:0:0:0:
411,201,106413,1,2,0:0:0:0:
497,177,106728,2,0,P|488:244|482:312,1,135,8|2,0:0|0:0,0:0:0:0:
477,357,107360,1,8,0:0:0:0:
397,314,107676,6,0,P|354:300|309:305,1,90,2|8,0:0|0:0,0:0:0:0:
223,331,108307,2,0,L|227:286,2,45,0|2|8,0:0|0:0|0:0,0:0:0:0:
137,302,108939,2,0,P|123:259|128:214,1,90,2|8,0:0|0:0,0:0:0:0:
154,128,109570,2,0,L|109:132,2,45,0|2|8,0:0|0:0|0:0,0:0:0:0:
233,169,110202,5,2,0:0:0:0:
299,108,110518,2,0,P|366:112|433:116,1,135,8|2,0:0|0:0,0:0:0:0:
462,150,111149,1,8,0:0:0:0:
490,235,111465,5,2,0:0:0:0:
433,305,111781,2,0,P|368:291|313:326,1,135,8|0,0:0|3:0,0:0:0:0:
292,366,112413,1,0,3:0:0:0:
206,338,112728,6,0,L|200:248,1,90,6|8,0:0|0:0,0:0:0:0:
138,182,113360,2,0,P|115:183|93:184,2,45,0|2|8,0:0|0:0|0:0,0:0:0:0:
202,119,113992,2,0,P|246:125|288:111,1,90,2|8,0:0|0:0,0:0:0:0:
360,56,114623,2,0,L|364:11,2,45,0|2|8,0:0|0:0|0:0,0:0:0:0:
414,128,115255,6,0,L|419:217,1,90,2|8,0:0|0:0,0:0:0:0:
430,307,115886,2,0,L|474:300,2,45,0|2|8,0:0|0:0|0:0,0:0:0:0:
345,270,116518,2,0,P|302:259|259:268,1,90,2|8,0:0|0:0,0:0:0:0:
183,317,117149,2,0,L|187:361,2,45,0|2|8,0:0|0:0|0:0,0:0:0:0:
103,274,117781,6,0,L|114:184,1,90,2|8,0:0|0:0,0:0:0:0:
96,143,118255,2,0,P|158:166|223:154,1,135,2|8,0:0|0:0,0:0:0:0:
300,107,119044,2,0,P|342:92|385:100,1,90,2|8,0:0|0:0,0:0:0:0:
423,125,119518,2,0,L|431:259,1,135,2|8,0:0|0:0,0:0:0:0:
367,322,120307,6,0,P|324:309|280:318,1,90,2|8,3:1|3:1,0:0:0:0:
241,340,120781,2,0,L|248:250,2,90,2|2|2,3:1|3:1|3:1,0:0:0:0:
197,355,121571,2,0,P|75:295|167:195,1,315,2|0,0:0|0:0,0:0:0:0:
