osu file format v14

[General]
AudioFilename: audio.mp3
AudioLeadIn: 0
PreviewTime: 31901
Countdown: 0
SampleSet: Normal
StackLeniency: 0.4
Mode: 0
LetterboxInBreaks: 0
WidescreenStoryboard: 1

[Editor]
DistanceSpacing: 1.3
BeatDivisor: 8
GridSize: 8
TimelineZoom: 4

[Metadata]
Title:Boss Rush
TitleUnicode:Boss Rush
Artist:USAO
ArtistUnicode:USAO
Creator:Lavender
Version:Darkness
Source:jubeat Qubell
Tags:konami Qb Hardcore Dubstep SOUND VOLTEX IV HEAVENLY HAVEN POLICY BREAK Yugu Frey Moecho Moeri
BeatmapID:1306398
BeatmapSetID:619807

[Difficulty]
HPDrainRate:6
CircleSize:4
OverallDifficulty:8.3
ApproachRate:9.6
SliderMultiplier:1.9
SliderTickRate:1

[Events]
//Background and Video events
0,0,"48209501_p0.jpg",0,0
//Break Periods
2,62402,66070
//Storyboard Layer 0 (Background)
//Storyboard Layer 1 (Fail)
//Storyboard Layer 2 (Pass)
//Storyboard Layer 3 (Foreground)
//Storyboard Sound Samples

[TimingPoints]
1571,315.789473684211,4,1,1,15,1,0
1571,-133.333333333333,4,1,1,15,0,0
5044,-133.333333333333,4,1,1,20,0,0
5992,-133.333333333333,4,1,1,25,0,0
6623,-100,4,1,1,30,0,0
9149,-100,4,1,1,40,0,0
10413,-100,4,1,1,50,0,0
11360,-66.6666666666667,4,1,1,50,0,0
11676,-100,4,1,1,60,0,0
19886,-125,4,1,1,50,0,0
20518,-166.666666666667,4,1,1,40,0,0
21149,-250,4,1,1,30,0,0
21465,-66.6666666666667,4,1,1,43,0,0
26992,-66.6666666666667,4,1,1,30,0,0
27149,-66.6666666666667,4,1,1,46,0,0
27307,-66.6666666666667,4,1,1,32,0,0
27465,-66.6666666666667,4,1,1,49,0,0
27623,-66.6666666666667,4,1,1,34,0,0
27781,-66.6666666666667,4,1,1,52,0,0
27939,-66.6666666666667,4,1,1,36,0,0
28097,-66.6666666666667,4,1,1,55,0,0
28255,-66.6666666666667,4,1,1,38,0,0
28413,-66.6666666666667,4,1,1,58,0,0
28571,-66.6666666666667,4,1,1,40,0,0
28728,-66.6666666666667,4,1,1,61,0,0
28886,-66.6666666666667,4,1,1,42,0,0
29044,-66.6666666666667,4,1,1,64,0,0
29202,-66.6666666666667,4,1,1,44,0,0
29360,-66.6666666666667,4,1,1,100,0,0
29439,-66.6666666666667,4,1,1,5,0,0
29518,-66.6666666666667,4,1,1,100,0,0
29597,-66.6666666666667,4,1,1,5,0,0
29676,-66.6666666666667,4,1,1,100,0,0
29755,-66.6666666666667,4,1,1,5,0,0
29834,-66.6666666666667,4,1,1,100,0,0
29913,-66.6666666666667,4,1,1,5,0,0
29992,-66.6666666666667,4,1,1,100,0,0
30860,-66.6666666666667,4,1,1,5,0,0
30939,-66.6666666666667,4,1,1,100,0,0
31018,-66.6666666666667,4,1,1,5,0,0
31097,-66.6666666666667,4,1,1,100,0,0
31176,-66.6666666666667,4,1,1,5,0,0
31255,-66.6666666666667,4,1,1,30,0,0
31886,-62.5,4,1,1,60,0,1
36307,-76.9230769230769,4,1,1,60,0,1
36623,-62.5,4,1,1,60,0,1
39465,-62.5,4,1,1,60,0,1
44202,-76.9230769230769,4,1,1,60,0,1
44518,-62.5,4,1,1,60,0,1
51465,-62.5,4,1,1,75,0,1
51505,-62.5,4,1,1,60,0,1
51623,-62.5,4,1,1,75,0,1
51663,-62.5,4,1,1,60,0,1
51781,-62.5,4,1,1,30,0,1
52097,-100,4,1,1,40,0,0
56834,-76.9230769230769,4,1,1,40,0,0
57149,-100,4,1,1,40,0,0
60939,-62.5,4,1,1,40,0,0
77518,-62.5,4,1,1,30,0,0
77675,-62.5,4,1,1,46,0,0
77833,-62.5,4,1,1,32,0,0
77991,-62.5,4,1,1,49,0,0
78149,-62.5,4,1,1,34,0,0
78307,-62.5,4,1,1,52,0,0
78465,-62.5,4,1,1,36,0,0
78623,-62.5,4,1,1,55,0,0
78781,-62.5,4,1,1,38,0,0
78939,-62.5,4,1,1,58,0,0
79097,-62.5,4,1,1,40,0,0
79254,-62.5,4,1,1,61,0,0
79412,-62.5,4,1,1,42,0,0
79570,-62.5,4,1,1,64,0,0
79886,-83.3333333333333,4,1,1,60,0,0
80202,-62.5,4,1,1,80,0,0
80518,-62.5,4,1,1,100,0,0
81781,-62.5,4,1,1,60,0,0
81860,-62.5,4,1,1,5,0,0
81939,-62.5,4,1,1,100,0,0
82097,-55.5555555555556,4,1,1,40,0,0
82413,-62.5,4,1,1,60,0,1
100728,-83.3333333333333,4,1,1,60,0,1
101360,-100,4,1,1,60,0,1
101597,-83.3333333333333,4,1,1,60,0,1
101834,-71.4285714285714,4,1,1,60,0,1
102071,-62.5,4,1,1,60,0,1
102307,-55.5555555555556,4,1,1,60,0,1
102544,-76.9230769230769,4,1,1,60,0,0
102939,-100,4,1,1,60,0,0
107360,-66.6666666666667,4,1,1,60,0,0
107676,-100,4,1,1,60,0,0
113834,-83.3333333333333,4,1,1,60,0,0
115255,-71.4285714285714,4,1,1,60,0,0
116360,-62.5,4,1,1,60,0,0
120307,-62.5,4,1,1,70,0,0
120939,-62.5,4,1,1,80,0,0
121571,-33.3333333333333,4,1,1,80,0,0
121807,-33.3333333333333,4,1,1,85,0,0
122044,-33.3333333333333,4,1,1,90,0,0
122281,-33.3333333333333,4,1,1,95,0,0
122518,-62.5,4,1,96,80,0,0
122597,-62.5,4,2,83,80,0,0
122755,-62.5,4,1,95,80,0,0

[Colours]
Combo1 : 192,192,192
Combo2 : 255,0,0
Combo3 : 255,128,0
Combo4 : 0,128,128
Combo5 : 128,0,128
Combo6 : 255,0,128

[HitObjects]
458,242,1571,38,0,B|419:229|419:229|384:253|384:253|351:241|326:240,1,142.500005435944,6|0,0:0|0:0,0:0:0:0:
99,56,2202,1,0,0:0:0:0:
96,97,2360,1,0,0:0:0:0:
86,128,2518,1,0,0:0:0:0:
70,154,2676,2,0,P|106:153|141:160,1,71.2500027179719
388,112,2992,2,0,P|354:123|324:142,1,71.2500027179719
237,259,3307,2,0,B|234:239|217:213|217:213|236:180|236:180|226:149|232:126,1,142.500005435944
325,240,3781,1,0,0:0:0:0:
325,240,3939,1,0,0:0:0:0:
325,240,4097,6,0,B|357:222|357:222|391:228,1,71.2500027179719
238,294,4413,2,0,B|236:330|236:330|214:357,1,71.2500027179719
234,191,4728,2,0,B|216:158|216:158|222:124,1,71.2500027179719
316,140,5044,5,0,0:0:0:0:
123,178,5202,2,0,L|53:192,1,71.2500027179719
287,376,5518,5,0,0:0:0:0:
306,210,5676,2,0,L|316:140,1,71.2500027179719
160,255,5992,38,0,P|195:255|227:269,1,71.2500027179719
504,160,6307,2,0,P|451:152|403:173,1,106.875004076958
403,172,6623,6,0,B|424:42|424:42|381:81,1,190
117,274,7255,5,0,0:0:0:0:
254,238,7413,1,0,0:0:0:0:
176,216,7571,1,0,0:0:0:0:
275,317,7729,2,0,B|378:344|359:268|455:283,1,190
430,372,8202,1,0,0:0:0:0:
294,141,8360,70,0,P|305:188|309:235,1,95
275,317,8676,1,0,0:0:0:0:
388,153,8834,1,0,0:0:0:0:
454,282,8992,1,0,0:0:0:0:
310,236,9149,5,0,0:0:0:0:
290,226,9307,1,0,0:0:0:0:
389,59,9465,37,0,0:0:0:0:
409,49,9623,1,0,0:0:0:0:
310,106,9781,6,0,B|251:118|251:118|218:106,1,95
138,190,10097,2,0,B|81:169|81:169|47:176,1,95
95,74,10413,5,0,0:0:0:0:
227,308,10571,2,0,P|229:260|235:213,1,95
218,106,10886,5,0,0:0:0:0:
37,370,11044,2,0,P|34:322|28:275,1,95
145,128,11360,38,0,P|148:40|73:85,1,213.750008153916
98,211,11676,6,0,B|158:220|158:220|220:193|220:193|281:201,1,190,6|0,0:0|0:0,0:0:0:0:
455,360,12307,1,0,0:0:0:0:
458,319,12465,1,0,0:0:0:0:
468,288,12623,1,0,0:0:0:0:
482,260,12781,6,0,L|387:271,1,95
297,113,13097,2,0,L|202:102,1,95
92,340,13413,2,0,B|66:375|66:375|46:231,1,190
113,107,13886,1,0,0:0:0:0:
113,107,14044,1,0,0:0:0:0:
332,291,14202,5,0,0:0:0:0:
258,116,14360,1,0,0:0:0:0:
143,267,14518,2,0,P|190:271|237:278,1,95
426,179,14834,2,0,P|378:183|332:191,1,95
113,107,15149,1,0,0:0:0:0:
293,55,15307,1,0,0:0:0:0:
217,267,15465,38,0,L|218:172,1,95
417,84,15781,2,0,L|425:178,1,95
437,304,16097,1,0,0:0:0:0:
323,163,16255,1,0,0:0:0:0:
252,338,16413,2,0,P|205:342|158:347,1,95
12,252,16728,6,0,B|107:208|103:289|194:232,1,190
504,173,17360,5,0,0:0:0:0:
323,162,17518,1,0,0:0:0:0:
464,85,17676,1,0,0:0:0:0:
360,247,17834,2,0,P|375:325|436:274,1,190
358,64,18307,53,0,0:0:0:0:
504,173,18465,2,0,B|412:212|411:124|322:162,1,190
192,291,18939,1,0,0:0:0:0:
238,123,19097,1,0,0:0:0:0:
360,247,19255,6,0,P|405:263|451:256,2,95
215,207,19728,1,0,0:0:0:0:
192,291,19886,6,0,P|176:327|180:365,2,76
299,185,20360,1,0,0:0:0:0:
238,123,20518,6,0,P|214:106|186:99,2,56.9999982604981
276,269,20992,1,0,0:0:0:0:
422,276,21149,38,0,P|436:257|442:234,1,38
352,61,21465,6,0,B|347:218|347:218|359:193|377:169,1,213.750008153916
511,109,21781,54,0,L|439:114,1,71.2500027179719,8|0,0:0|0:0,0:0:0:0:
256,131,21939,69,0,0:0:0:0:
256,126,22097,1,0,0:0:0:0:
490,241,22255,6,0,L|425:210,1,71.2500027179719,8|0,0:0|0:0,0:0:0:0:
256,121,22413,69,0,0:0:0:0:
256,116,22571,1,0,0:0:0:0:
404,342,22728,6,0,L|363:283,1,71.2500027179719,8|0,0:0|0:0,0:0:0:0:
256,111,22886,69,0,0:0:0:0:
108,342,23044,6,0,L|148:283,1,71.2500027179719,8|0,0:0|0:0,0:0:0:0:
256,106,23202,69,0,0:0:0:0:
256,101,23360,1,0,0:0:0:0:
22,241,23518,6,0,L|86:210,1,71.2500027179719,8|0,0:0|0:0,0:0:0:0:
256,96,23676,69,0,0:0:0:0:
256,91,23834,1,0,0:0:0:0:
0,109,23992,6,0,L|71:114,1,71.2500027179719,8|0,0:0|0:0,0:0:0:0:
256,86,24149,69,0,0:0:0:0:
86,209,24307,6,0,P|121:200|151:181,1,71.2500027179719,8|0,0:0|0:0,0:0:0:0:
256,81,24465,69,0,0:0:0:0:
256,76,24623,1,0,0:0:0:0:
256,310,24781,6,0,L|256:238,1,71.2500027179719,8|0,0:0|0:0,0:0:0:0:
256,71,24939,69,0,0:0:0:0:
256,66,25097,1,0,0:0:0:0:
426,209,25255,6,0,P|391:200|361:181,1,71.2500027179719,8|0,0:0|0:0,0:0:0:0:
256,61,25413,69,0,0:0:0:0:
342,101,25571,6,0,L|377:96,6,35.625001358986,2|0|0|0|0|0|0,0:0|0:0|0:0|0:0|0:0|0:0|0:0,0:0:0:0:
256,56,25886,69,8,0:0:0:0:
170,101,26044,6,0,L|134:96,6,35.625001358986,2|0|0|0|0|0|0,0:0|0:0|0:0|0:0|0:0|0:0|0:0,0:0:0:0:
256,51,26359,69,8,0:0:0:0:
256,251,26518,1,2,0:0:0:0:
256,151,26676,5,2,0:0:0:0:
256,151,26755,1,2,0:0:0:0:
256,151,26834,1,8,0:0:0:0:
198,329,26992,69,2,0:0:0:0:
174,165,27149,5,8,0:0:0:0:
163,322,27307,69,2,0:0:0:0:
94,148,27465,5,8,0:0:0:0:
127,325,27623,69,2,0:0:0:0:
26,100,27781,5,8,0:0:0:0:
94,337,27939,69,2,0:0:0:0:
256,51,28097,5,8,0:0:0:0:
314,229,28256,69,2,0:0:0:0:
337,65,28412,5,8,0:0:0:0:
348,222,28571,69,2,0:0:0:0:
417,48,28728,5,8,0:0:0:0:
384,225,28886,69,2,0:0:0:0:
485,0,29044,5,8,0:0:0:0:
417,237,29202,69,2,0:0:0:0:
114,85,29360,6,0,L|121:155,1,71.2500027179719,0|0,3:0|0:0,0:0:0:0:
394,120,29518,2,0,L|388:190,1,71.2500027179719,2|0,3:0|0:0,0:0:0:0:
125,190,29676,2,0,L|132:261,1,71.2500027179719,2|0,3:0|0:0,0:0:0:0:
384,225,29834,2,0,L|378:295,1,71.2500027179719,2|0,3:0|0:0,0:0:0:0:
256,350,29992,69,0,3:0:0:0:
256,353,30071,1,0,3:0:0:0:
256,356,30149,1,0,3:0:0:0:
256,359,30228,1,0,3:0:0:0:
256,362,30307,1,0,3:0:0:0:
256,365,30386,1,0,3:0:0:0:
256,368,30465,1,0,3:0:0:0:
256,371,30544,1,0,3:0:0:0:
256,374,30623,6,0,B|260:229|260:229|215:280,1,213.750008153916,0|0,3:0|0:0,0:0:0:0:
167,195,30939,2,0,L|97:186,1,71.2500027179719
341,190,31097,2,0,L|411:180,1,71.2500027179719
267,49,31255,5,2,0:0:0:0:
267,49,31334,1,2,0:0:0:0:
267,49,31413,2,0,L|274:119,1,71.2500027179719,8|0,0:0|0:0,0:0:0:0:
368,285,31571,1,8,0:0:0:0:
223,275,31728,1,8,0:0:0:0:
223,275,31807,1,8,0:0:0:0:
223,275,31886,6,0,B|277:343|277:343|248:204,1,228,6|0,0:0|0:0,0:0:0:0:
275,120,32202,2,0,B|168:90|178:210|64:164,1,228,2|0,0:0|0:0,0:0:0:0:
33,150,32518,1,8,0:0:0:0:
84,13,32676,6,0,P|98:48|108:84,1,76
249,204,32834,2,0,P|234:239|224:275,1,76
141,384,32992,1,0,0:0:0:0:
141,187,33149,5,2,0:0:0:0:
43,301,33307,2,0,P|80:298|118:292,1,76
239,373,33465,2,0,P|276:367|314:364,1,76
350,182,33623,2,0,P|387:179|425:173,1,76,2|0,0:0|0:0,0:0:0:0:
483,346,33781,6,0,P|454:259|406:337,1,228,8|0,0:0|0:0,0:0:0:0:
405,335,34097,1,0,0:0:0:0:
493,108,34255,1,0,0:0:0:0:
275,131,34413,6,0,B|226:92|226:92|391:101,1,228,2|0,0:0|0:0,0:0:0:0:
414,187,34728,2,0,B|394:250|402:300|402:300|394:250|356:196,1,228,2|0,0:0|0:0,0:0:0:0:
293,4,35044,1,8,0:0:0:0:
142,263,35202,6,0,P|177:250|206:226,1,76
356,197,35360,2,0,P|327:171|292:159,1,76
193,45,35518,2,0,P|185:82|192:119,1,76
290,266,35676,1,2,0:0:0:0:
83,186,35834,6,0,L|91:110,1,76
293,4,35992,2,0,L|301:79,1,76
415,283,36150,1,2,0:0:0:0:
235,174,36307,6,0,B|269:173|292:185|292:185|344:166|344:166|377:182|412:182,1,185.249991519928,8|0,0:0|0:0,0:0:0:0:
449,204,36623,2,0,L|456:129,1,76
465,32,36781,1,0,0:0:0:0:
262,260,36939,6,0,P|289:172|341:248,1,228,2|0,0:0|0:0,0:0:0:0:
390,344,37255,2,0,B|348:345|316:338|316:338|261:360|261:360|206:333|171:336,1,228,2|0,0:0|0:0,0:0:0:0:
92,204,37571,1,8,0:0:0:0:
78,308,37728,6,0,P|48:284|11:276,1,76
189,164,37886,2,0,P|183:201|194:237,1,76
8,139,38044,2,0,P|42:124|68:97,1,76
256,48,38202,5,2,0:0:0:0:
151,0,38360,2,0,P|160:36|166:74,1,76
341,158,38518,2,0,P|332:194|325:232,1,76
256,361,38676,1,2,0:0:0:0:
194,237,38834,6,0,L|156:228,6,38,8|0|0|0|0|0|0,0:0|0:0|0:0|0:0|0:0|0:0|0:0,0:0:0:0:
330,310,39149,2,0,B|364:293|364:293|394:313|394:313|429:296|429:296|457:323,1,152
219,317,39465,6,0,B|193:348|193:348|193:236,1,152,2|0,0:0|0:0,0:0:0:0:
269,75,39781,1,2,0:0:0:0:
412,244,39939,2,0,P|294:242|385:168,1,304
493,315,40413,2,0,P|468:344|437:365,1,76
256,361,40571,2,0,P|227:335|207:303,1,76
368,52,40728,6,0,L|362:127,1,76,2|0,0:0|0:0,0:0:0:0:
355,223,40886,2,0,L|349:298,1,76
120,360,41044,2,0,L|107:208,1,152,0|2,0:0|0:0,0:0:0:0:
345,233,41360,5,0,3:0:0:0:
345,233,41439,1,0,3:0:0:0:
345,233,41518,1,0,3:0:0:0:
110,370,41676,2,0,B|98:218|98:218|119:257|151:269,1,228,8|0,3:0|0:0,0:0:0:0:
204,84,41992,6,0,P|145:15|132:105,1,228,6|0,0:0|0:0,0:0:0:0:
191,178,42307,2,0,B|256:182|293:135|293:135|347:166|400:141,1,228,2|0,0:0|0:0,0:0:0:0:
357,53,42623,1,8,0:0:0:0:
466,217,42781,6,0,P|429:225|397:244,1,76
208,345,42939,2,0,L|221:271,1,76
294,136,43097,2,0,L|307:210,1,76
328,335,43255,1,2,0:0:0:0:
409,49,43413,6,0,P|405:86|395:123,1,76
205,195,43571,2,0,P|211:233|221:270,1,76
328,335,43728,1,2,0:0:0:0:
200,97,43886,6,0,L|193:59,6,38,8|0|0|0|0|0|0,0:0|0:0|0:0|0:0|0:0|0:0|0:0,0:0:0:0:
294,136,44202,2,0,B|426:113|426:113|391:151,1,185.249991519928
133,263,44518,6,0,B|94:232|94:232|84:363|84:363|126:339,1,228,2|0,0:0|0:0,0:0:0:0:
226,309,44834,2,0,B|232:231|232:231|191:183|191:183|199:96,1,228,2|0,0:0|0:0,0:0:0:0:
294,136,45149,1,8,0:0:0:0:
21,159,45307,6,0,P|58:159|96:165,1,76
301,303,45465,2,0,P|263:308|225:308,1,76
160,236,45623,1,0,0:0:0:0:
386,117,45781,1,2,0:0:0:0:
300,173,45939,6,0,P|282:139|283:101,1,76
477,163,46097,2,0,P|456:194|423:212,1,76
380,14,46255,2,0,P|417:15|449:35,1,76,2|0,0:0|0:0,0:0:0:0:
300,173,46413,6,0,B|131:162|131:162|176:199,1,228,8|0,0:0|0:0,0:0:0:0:
256,342,46728,2,0,P|256:304|250:266,1,76
165,68,46886,1,0,0:0:0:0:
0,255,47044,6,0,B|77:241|77:241|134:288,1,152,2|0,0:0|0:0,0:0:0:0:
300,173,47360,1,0,0:0:0:0:
381,373,47518,2,0,B|384:311|393:212|393:212|372:239|346:259,1,228,2|0,0:0|0:0,0:0:0:0:
279,331,47834,5,0,0:0:0:0:
396,179,47992,1,2,0:0:0:0:
490,347,48149,1,0,0:0:0:0:
229,240,48307,6,0,P|266:236|303:226,1,76,2|0,0:0|0:0,0:0:0:0:
509,99,48465,2,0,P|471:95|434:85,1,76
226,18,48623,1,0,0:0:0:0:
396,179,48781,1,2,0:0:0:0:
324,17,48939,6,4,B|319:52|302:84|302:84|323:126|323:126|297:154|297:154|308:181|308:181|303:225,1,228,8|4,0:0|0:0,0:0:0:0:
196,341,49255,1,0,0:0:0:0:
152,85,49413,1,0,0:0:0:0:
56,237,49571,5,2,3:1:0:0:
84,253,49649,1,0,3:0:0:0:
116,258,49728,1,0,3:0:0:0:
147,252,49807,1,0,3:0:0:0:
179,242,49886,1,0,3:0:0:0:
211,240,49965,1,0,3:0:0:0:
241,251,50044,1,2,3:1:0:0:
267,270,50123,1,0,3:0:0:0:
305,303,50202,5,8,3:1:0:0:
354,314,50281,1,0,3:0:0:0:
402,300,50360,1,0,3:0:0:0:
438,265,50439,1,0,3:0:0:0:
453,217,50518,1,2,3:1:0:0:
443,168,50597,1,0,3:0:0:0:
410,130,50676,1,0,3:0:0:0:
364,112,50755,1,0,3:0:0:0:
314,118,50834,6,0,L|295:85,2,38,2|0|0,3:1|3:0|3:0,0:0:0:0:
228,170,50992,2,0,L|195:150,2,38,0|0|0,3:0|3:0|3:0,0:0:0:0:
178,258,51149,2,0,L|140:257,6,38,0|0|0|0|2|0|0,3:0|3:0|3:0|3:0|3:1|3:0|3:0,0:0:0:0:
71,94,51465,6,0,P|84:129|91:166,1,76,2|0,0:3|0:0,0:0:0:0:
262,337,51623,2,0,P|269:299|282:264,1,76,2|0,0:3|0:0,0:0:0:0:
437,19,51781,1,8,0:0:0:0:
189,117,51939,5,8,0:0:0:0:
189,117,52018,1,8,0:0:0:0:
189,117,52097,2,0,B|252:128|323:105|323:105|286:145,1,190,6|0,0:0|0:0,0:0:0:0:
108,179,52571,1,2,0:0:0:0:
242,18,52728,1,8,0:0:0:0:
255,235,52886,1,2,0:0:0:0:
431,201,53044,6,0,B|361:174|337:278|254:235,1,190,2|0,0:0|0:0,0:0:0:0:
417,290,53518,2,0,L|408:384,1,95,2|0,0:0|0:0,0:0:0:0:
286,144,53834,1,2,0:0:0:0:
161,275,53992,2,0,B|161:212|144:139|144:139|185:171,1,190,8|0,0:0|0:0,0:0:0:0:
255,235,54465,1,0,0:0:0:0:
195,374,54623,38,0,P|147:373|100:380,1,95,2|0,0:0|0:0,0:0:0:0:
349,245,54939,2,0,P|302:236|254:234,1,95,0|2,0:0|0:0,0:0:0:0:
512,135,55255,2,0,P|467:118|421:108,1,95,8|0,0:0|0:0,0:0:0:0:
230,52,55571,5,2,0:0:0:0:
349,245,55728,2,0,L|442:229,1,95,0|2,0:0|0:0,0:0:0:0:
366,120,56044,5,0,0:0:0:0:
247,313,56202,2,0,L|154:297,1,95,0|2,0:0|0:0,0:0:0:0:
230,188,56518,5,8,0:0:0:0:
349,381,56676,1,0,0:0:0:0:
230,188,56834,2,0,P|157:214|214:265,1,185.249991519928,2|0,0:0|0:0,0:0:0:0:
317,237,57149,38,0,B|363:139|270:139|313:57,1,190,2|0,0:0|0:0,0:0:0:0:
227,0,57623,1,2,0:0:0:0:
401,96,57781,2,0,L|494:81,2,95,8|0|2,0:0|0:0|0:0,0:0:0:0:
95,144,58255,1,0,0:0:0:0:
216,243,58413,6,0,P|200:198|198:150,1,95
449,191,58728,2,0,P|446:238|431:283,1,95,0|2,0:0|0:0,0:0:0:0:
183,340,59044,1,8,0:0:0:0:
328,151,59202,5,0,0:0:0:0:
328,240,59360,1,0,0:0:0:0:
328,329,59518,1,0,0:0:0:0:
236,96,59676,6,0,P|189:84|142:85,2,95,2|0|0,0:0|0:0|0:0,0:0:0:0:
421,185,60149,1,2,0:0:0:0:
435,56,60307,2,0,L|425:150,1,95,8|0,0:0|0:0,0:0:0:0:
183,184,60623,2,0,L|192:278,1,95,2|0,0:0|0:0,0:0:0:0:
308,359,60939,22,0,B|321:287|308:194|308:194|324:219|346:242,1,228,2|0,0:0|0:0,0:0:0:0:
366,277,61255,2,0,L|290:268,1,76
103,218,61413,1,2,0:0:0:0:
33,311,61571,5,8,3:1:0:0:
83,335,61649,1,0,3:0:0:0:
139,333,61728,1,0,3:0:0:0:
187,303,61807,1,0,3:0:0:0:
215,254,61886,5,0,3:0:0:0:
231,220,61965,1,0,3:0:0:0:
261,198,62044,1,0,3:0:0:0:
298,193,62123,1,0,3:0:0:0:
333,208,62202,1,6,3:1:0:0:
256,192,67255,12,0,71992,0:0:0:0:
256,59,72307,54,0,P|294:60|330:51,1,76,8|0,0:0|0:0,0:0:0:0:
475,7,72465,69,0,0:0:0:0:
475,7,72623,1,0,0:0:0:0:
256,59,72781,6,0,L|322:95,1,76,8|0,0:0|0:0,0:0:0:0:
455,169,72939,69,0,0:0:0:0:
455,169,73097,1,0,0:0:0:0:
256,59,73255,6,0,P|277:89|290:125,1,76,8|0,0:0|0:0,0:0:0:0:
296,276,73413,69,0,0:0:0:0:
256,59,73571,6,0,P|218:60|182:51,1,76,8|0,0:0|0:0,0:0:0:0:
38,7,73729,69,0,0:0:0:0:
38,7,73887,1,0,0:0:0:0:
256,59,74045,6,0,L|189:95,1,76,8|0,0:0|0:0,0:0:0:0:
56,169,74202,69,0,0:0:0:0:
56,169,74361,1,0,0:0:0:0:
256,59,74519,6,0,P|232:149|320:119,1,228,8|0,0:3|0:0,0:0:0:0:
388,18,74834,2,0,L|400:92,1,76,8|0,0:0|0:0,0:0:0:0:
430,280,74992,69,0,0:0:0:0:
430,280,75149,1,0,0:0:0:0:
256,59,75307,6,0,L|256:133,1,76,8|0,0:0|0:0,0:0:0:0:
256,324,75465,69,0,0:0:0:0:
256,324,75622,1,0,0:0:0:0:
124,18,75781,6,0,L|112:92,1,76,8|0,0:0|0:0,0:0:0:0:
81,280,75939,69,0,0:0:0:0:
280,132,76097,6,0,B|262:100|256:59|256:59|250:100|234:132,1,152,2|0,0:0|0:0,0:0:0:0:
297,327,76334,2,0,B|329:342|358:371|358:371|339:334|333:299,1,152,2|0,0:0|0:0,0:0:0:0:
169,182,76571,2,0,B|133:188|92:182|92:182|130:200|155:225,1,152,2|0,0:0|0:0,0:0:0:0:
360,226,76807,2,0,B|385:199|421:180|421:180|380:188|346:182,1,152,2|0,0:0|0:0,0:0:0:0:
180,300,77044,2,0,B|175:335|156:372|156:372|185:342|217:327,1,152,2|2,0:0|0:0,0:0:0:0:
256,233,77281,1,2,0:0:0:0:
256,233,77360,1,8,0:0:0:0:
256,336,77518,69,2,0:0:0:0:
226,193,77676,5,8,0:0:0:0:
286,296,77834,69,2,0:0:0:0:
196,153,77992,5,8,0:0:0:0:
316,256,78149,69,2,0:0:0:0:
166,113,78307,5,8,0:0:0:0:
346,216,78465,69,2,0:0:0:0:
136,73,78623,5,8,0:0:0:0:
376,176,78781,69,2,0:0:0:0:
105,192,78939,5,8,0:0:0:0:
376,192,79097,69,2,0:0:0:0:
136,311,79255,5,8,0:0:0:0:
376,208,79413,69,2,0:0:0:0:
150,121,79571,6,0,P|81:57|172:36,1,228,8|0,0:0|0:0,0:0:0:0:
238,100,79886,70,0,L|242:156,1,56.9999982604981,0|0,3:0|0:0,0:0:0:0:
249,241,80044,2,0,L|253:297,1,56.9999982604981,0|0,3:0|0:0,0:0:0:0:
369,272,80202,6,0,L|375:197,1,76,0|0,3:0|0:0,0:0:0:0:
384,85,80360,2,0,L|390:10,1,76,0|0,3:0|0:0,0:0:0:0:
508,156,80518,69,0,3:0:0:0:
499,159,80597,1,0,3:0:0:0:
490,156,80676,1,0,3:0:0:0:
487,147,80755,1,0,3:0:0:0:
490,138,80834,1,0,3:0:0:0:
499,134,80913,1,0,3:0:0:0:
508,138,80992,1,0,3:0:0:0:
512,147,81071,1,0,3:0:0:0:
500,146,81149,6,0,L|424:146,1,76
261,25,81307,1,0,0:0:0:0:
202,232,81465,2,0,B|278:209|320:274|320:274|348:244|402:237,1,228
340,78,81781,70,0,L|333:153,1,76,8|0,0:0|0:0,0:0:0:0:
234,319,81939,1,0,0:0:0:0:
119,181,82097,6,0,B|76:147|76:147|64:295|64:295|112:268,1,256.499992172241,8|0,0:3|0:0,0:0:0:0:
202,232,82413,6,0,B|199:199|220:165|220:165|190:101|190:101|221:61|208:19,1,228,6|0,0:0|0:0,0:0:0:0:
38,33,82728,2,0,L|113:40,1,76,8|0,0:0|0:0,0:0:0:0:
319,115,82886,2,0,P|391:60|303:41,1,228
192,100,83202,22,0,P|196:137|206:174,1,76,2|0,0:0|0:0,0:0:0:0:
467,172,83360,2,0,P|462:209|452:246,1,76,8|0,0:0|0:0,0:0:0:0:
332,376,83517,1,0,0:0:0:0:
501,347,83676,6,0,P|464:341|426:338,1,76,2|0,0:0|0:0,0:0:0:0:
362,215,83834,2,0,P|325:218|287:224,1,76
148,315,83992,2,0,P|93:242|184:249,1,228,8|0,0:0|0:0,0:0:0:0:
240,325,84307,5,0,0:0:0:0:
188,29,84465,1,2,0:0:0:0:
100,133,84623,2,0,B|152:108|206:139|206:139|244:92|309:96,1,228,8|0,0:0|0:0,0:0:0:0:
461,206,84939,6,0,B|376:222|295:194|295:194|337:237,1,228,2|0,0:0|0:0,0:0:0:0:
436,378,85255,2,0,P|431:340|421:303,1,76,8|0,0:0|0:0,0:0:0:0:
248,107,85413,2,0,B|208:67|208:67|193:237,1,228
182,344,85728,6,0,L|106:347,1,76,2|0,0:0|0:0,0:0:0:0:
296,195,85886,2,0,L|371:191,1,76,8|0,0:0|0:0,0:0:0:0:
99,167,86044,1,0,0:0:0:0:
294,270,86202,6,0,P|291:232|296:195,1,76,2|0,0:0|0:0,0:0:0:0:
99,167,86360,2,0,P|95:205|87:242,1,76
182,344,86518,2,0,L|202:116,1,228,8|0,0:0|0:0,0:0:0:0:
418,8,86834,6,0,L|425:83,1,76
444,271,86992,1,2,0:0:0:0:
505,170,87149,2,0,B|430:180|334:168|334:168|361:181|381:198,1,228,8|0,0:0|0:0,0:0:0:0:
444,270,87465,6,0,P|502:339|510:250,1,228,2|0,0:0|0:0,0:0:0:0:
425,83,87781,1,8,0:0:0:0:
298,262,87939,2,0,B|263:316|263:316|237:154,1,228
217,50,88255,6,0,P|181:62|143:68,1,76,2|0,0:0|0:0,0:0:0:0:
70,219,88413,2,0,P|107:225|143:237,1,76,8|0,0:0|0:0,0:0:0:0:
367,346,88571,1,0,0:0:0:0:
326,82,88728,6,0,L|337:157,1,76,2|0,0:0|0:0,0:0:0:0:
367,346,88886,1,0,0:0:0:0:
478,238,89044,6,0,P|440:242|402:244,1,76,8|0,0:0|0:0,0:0:0:0:
259,340,89202,2,0,P|221:342|183:346,1,76
8,187,89360,6,0,P|45:182|83:180,1,76
246,18,89518,1,2,0:0:0:0:
194,244,89676,2,0,B|167:80|167:80|193:104|217:117,1,228,8|0,0:0|0:0,0:0:0:0:
296,266,89992,6,0,B|247:287|247:287|131:262|131:262|80:285,1,228,2|0,0:0|0:0,0:0:0:0:
139,362,90307,2,0,L|104:377,6,38,8|0|0|0|0|0|0,0:0|0:0|0:0|0:0|0:0|0:0|0:0,0:0:0:0:
216,116,90623,6,0,L|232:190,1,76
314,358,90781,1,2,0:0:0:0:
397,202,90939,2,0,L|407:163,6,38,8|0|0|0|0|0|0,0:0|0:0|0:0|0:0|0:0|0:0|0:0,0:0:0:0:
342,99,91255,6,0,L|323:101,12,19,2|0|0|0|0|0|0|0|0|0|0|0|0,0:0|0:0|0:0|0:0|0:0|0:0|0:0|0:0|0:0|0:0|0:0|0:0|0:0,0:0:0:0:
496,140,91571,2,0,L|511:151,12,19,8|0|0|0|0|0|0|0|0|0|0|0|0,0:0|0:0|0:0|0:0|0:0|0:0|0:0|0:0|0:0|0:0|0:0|0:0|0:0,0:0:0:0:
342,268,91886,5,2,0:0:0:0:
375,285,91964,1,2,0:0:0:0:
413,287,92043,1,2,0:0:0:0:
415,128,92202,2,0,L|397:202,1,76,8|0,0:0|0:0,0:0:0:0:
354,369,92360,1,2,0:0:0:0:
58,241,92518,6,0,B|170:286|160:166|267:196,1,228,6|0,0:0|0:0,0:0:0:0:
461,296,92834,1,8,0:0:0:0:
354,369,92992,2,0,P|364:255|373:141,1,228
377,106,93307,6,0,L|303:90,1,76,2|0,0:0|0:0,0:0:0:0:
176,290,93465,2,0,L|102:306,1,76,8|0,0:0|0:0,0:0:0:0:
63,55,93623,1,0,0:0:0:0:
258,232,93781,6,0,P|243:198|233:161,1,76,2|0,0:0|0:0,0:0:0:0:
170,46,93939,2,0,P|161:83|145:118,1,76
81,320,94097,2,0,B|63:165|63:165|83:194|109:220,1,228,8|0,0:0|0:0,0:0:0:0:
176,290,94413,5,0,0:0:0:0:
225,41,94571,1,2,0:0:0:0:
385,114,94728,2,0,B|314:98|314:98|246:140|246:140|172:123,1,228,8|0,0:0|0:0,0:0:0:0:
172,123,95044,6,0,B|157:201|147:288|147:288|111:226,1,228,2|0,0:0|0:0,0:0:0:0:
71,161,95360,1,8,0:0:0:0:
255,193,95518,6,0,P|373:191|282:117,1,304,0|2,0:0|0:0,0:0:0:0:
174,264,95992,2,0,P|199:293|230:314,1,76,8|0,0:0|0:0,0:0:0:0:
411,310,96150,2,0,P|440:284|460:252,1,76
299,1,96307,6,0,L|305:76,1,76,2|0,0:0|0:0,0:0:0:0:
318,247,96465,2,0,L|312:172,1,76
133,54,96623,6,0,P|170:53|208:47,1,76,8|0,0:0|0:0,0:0:0:0:
386,165,96781,2,0,P|348:170|311:171,1,76
58,277,96939,5,0,0:0:0:0:
225,138,97097,1,2,0:0:0:0:
167,358,97255,2,0,B|143:190|143:190|163:212|186:229,1,228,8|0,0:0|0:0,0:0:0:0:
263,345,97571,6,0,P|350:323|275:272,1,228,2|0,0:0|0:0,0:0:0:0:
144,191,97886,1,8,0:0:0:0:
334,92,98044,2,0,B|258:113|258:113|227:168|227:168|143:190,1,228
134,11,98360,6,0,P|144:47|152:85,1,76,2|0,0:0|0:0,0:0:0:0:
330,204,98518,2,0,P|319:240|312:277,1,76,8|0,0:0|0:0,0:0:0:0:
189,379,98676,1,0,0:0:0:0:
368,379,98834,6,0,P|330:370|292:368,1,76,2|0,0:0|0:0,0:0:0:0:
26,329,98992,2,0,P|64:327|101:318,1,76
404,215,99149,6,0,P|366:206|328:204,1,76,8|0,0:0|0:0,0:0:0:0:
62,165,99307,2,0,P|99:163|136:154,1,76
189,379,99465,5,0,0:0:0:0:
259,68,99623,1,2,0:0:0:0:
215,260,99781,2,0,B|170:101|170:101|154:132|137:154,1,228,8|0,0:0|0:0,0:0:0:0:
154,336,100097,37,2,3:1:0:0:
189,351,100175,1,0,3:0:0:0:
235,348,100255,1,0,3:0:0:0:
273,329,100333,1,0,3:0:0:0:
302,296,100413,1,8,3:1:0:0:
332,262,100492,1,0,3:0:0:0:
370,244,100571,1,0,3:0:0:0:
413,245,100650,1,0,3:0:0:0:
452,259,100728,6,0,P|479:250|507:246,1,56.9999982604981,0|0,3:0|0:0,0:0:0:0:
274,193,100886,2,0,P|246:184|218:180,1,56.9999982604981,2|0,0:0|0:0,0:0:0:0:
430,157,101044,1,8,0:0:0:0:
390,333,101202,1,0,0:0:0:0:
347,63,101360,6,0,P|301:69|255:84,1,95,2|0,0:0|0:0,0:0:0:0:
189,118,101597,22,0,P|245:125|299:143,1,113.999996520996,2|0,0:0|0:0,0:0:0:0:
402,164,101834,6,0,P|335:170|273:193,1,132.999995941162,2|0,0:0|0:0,0:0:0:0:
147,224,102071,54,0,P|222:232|291:262,1,152,2|0,0:0|0:0,0:0:0:0:
455,266,102307,70,0,P|370:270|290:301,1,170.999994781494,2|0,0:0|0:0,0:0:0:0:
204,340,102544,1,2,0:0:0:0:
189,352,102623,22,0,B|206:288|181:177|181:177|228:228,1,246.999988693238,6|8,0:0|0:0,0:0:0:0:
291,301,103097,1,0,0:0:0:0:
96,251,103255,1,0,0:0:0:0:
273,125,103413,1,2,0:0:0:0:
189,352,103571,1,8,0:0:0:0:
178,137,103728,6,0,P|225:133|272:125,1,95,0|2,0:0|0:0,0:0:0:0:
95,36,104044,2,0,P|141:24|187:9,1,95,0|8,0:0|0:0,0:0:0:0:
241,252,104360,38,0,B|313:262|381:252|381:252|342:283,1,190,0|2,0:0|0:0,0:0:0:0:
269,350,104834,1,8,0:0:0:0:
173,168,104992,1,0,0:0:0:0:
305,9,105149,6,0,P|352:13|397:0,1,95,2|0,0:0|0:0,0:0:0:0:
466,93,105465,2,0,P|438:131|426:177,1,95,8|0,0:0|0:0,0:0:0:0:
311,190,105781,2,0,P|290:147|257:113,1,95,0|2,0:0|0:0,0:0:0:0:
360,97,106097,5,8,0:0:0:0:
207,374,106255,2,0,P|202:326|191:280,1,95,0|2,0:0|0:0,0:0:0:0:
124,56,106571,5,0,0:0:0:0:
296,283,106729,2,0,P|300:235|311:189,1,95,8|0,0:0|0:0,0:0:0:0:
257,113,107044,37,0,0:0:0:0:
90,320,107202,1,2,0:0:0:0:
257,113,107360,2,0,B|285:78|285:78|162:66|162:66|184:105,1,213.750008153916,8|0,0:0|0:0,0:0:0:0:
214,197,107676,6,0,B|270:202|270:202|322:265|322:265|373:270,1,190,2|8,0:0|0:0,0:0:0:0:
377,176,108149,1,0,0:0:0:0:
222,291,108307,2,0,P|233:337|237:384,2,95,0|2|8,0:0|0:0|0:0,0:0:0:0:
51,64,108781,1,0,0:0:0:0:
40,229,108939,5,2,0:0:0:0:
214,197,109097,1,0,0:0:0:0:
126,213,109255,1,8,0:0:0:0:
302,181,109413,6,0,B|343:222|343:222|348:90,1,190,0|2,0:0|0:0,0:0:0:0:
245,97,109886,1,8,0:0:0:0:
448,158,110044,1,0,0:0:0:0:
340,321,110202,38,0,P|292:317|246:304,1,95,2|0,0:0|0:0,0:0:0:0:
64,241,110518,2,0,P|111:237|157:224,1,95,8|0,0:0|0:0,0:0:0:0:
334,145,110834,2,0,P|286:141|240:128,1,95,0|2,0:0|0:0,0:0:0:0:
100,59,111149,5,8,0:0:0:0:
139,121,111307,2,0,L|153:27,1,95,0|2,0:0|0:0,0:0:0:0:
390,208,111623,5,0,0:0:0:0:
351,270,111781,2,0,L|336:176,1,95,8|0,0:0|0:0,0:0:0:0:
89,348,112097,5,0,3:0:0:0:
97,339,112255,1,0,3:0:0:0:
100,349,112413,1,0,3:0:0:0:
419,24,112728,69,6,0:0:0:0:
511,0,112886,1,0,0:0:0:0:
419,44,113044,5,8,0:0:0:0:
327,20,113202,1,0,0:0:0:0:
419,64,113360,37,0,0:0:0:0:
419,159,113518,70,0,L|371:152,1,47.5,2|0,0:0|0:0,0:0:0:0:
288,104,113676,2,0,L|240:110,1,47.5,8|0,0:0|0:0,0:0:0:0:
154,151,113834,5,0,0:0:0:0:
181,40,113992,1,2,0:0:0:0:
161,262,114149,5,0,0:0:0:0:
134,151,114307,1,8,0:0:0:0:
154,373,114465,5,0,0:0:0:0:
181,262,114623,1,0,0:0:0:0:
19,299,114781,38,0,L|76:307,1,56.9999982604981,2|0,0:0|0:0,0:0:0:0:
181,262,114939,2,0,L|238:254,1,56.9999982604981,8|0,0:0|0:0,0:0:0:0:
308,344,115097,2,0,L|365:352,1,56.9999982604981
468,166,115255,5,2,0:0:0:0:
512,291,115413,1,0,0:0:0:0:
468,146,115571,5,8,0:0:0:0:
424,271,115729,1,0,0:0:0:0:
468,126,115886,5,0,0:0:0:0:
362,206,116044,38,0,L|297:220,1,66.4999979705811,2|0,0:0|0:0,0:0:0:0:
287,353,116202,2,0,L|222:338,1,66.4999979705811,8|0,0:0|0:0,0:0:0:0:
107,237,116360,5,0,0:0:0:0:
65,383,116518,1,2,0:0:0:0:
56,121,116676,5,0,0:0:0:0:
98,267,116834,1,8,0:0:0:0:
107,5,116992,5,0,0:0:0:0:
65,151,117150,1,0,0:0:0:0:
213,115,117307,38,0,L|288:123,1,76,2|0,0:0|0:0,0:0:0:0:
491,49,117465,2,0,B|417:55|322:31|322:31|351:49|368:64,1,228,8|0,0:0|0:0,0:0:0:0:
433,183,117781,6,0,L|437:146,6,38,2|0|0|0|0|0|0,0:0|0:0|0:0|0:0|0:0|0:0|0:0,0:0:0:0:
374,259,118097,1,8,0:0:0:0:
315,335,118255,2,0,L|311:372,6,38,2|0|0|0|0|0|0,0:0|0:0|0:0|0:0|0:0|0:0|0:0,0:0:0:0:
256,259,118571,5,2,0:0:0:0:
197,183,118728,1,8,0:0:0:0:
256,107,118886,1,2,0:0:0:0:
197,31,119044,6,0,L|160:27,6,38,2|0|0|0|0|0|0,0:0|0:0|0:0|0:0|0:0|0:0|0:0,0:0:0:0:
256,107,119360,1,8,0:0:0:0:
315,183,119518,2,0,L|352:187,6,38,2|0|0|0|0|0|0,0:0|0:0|0:0|0:0|0:0|0:0|0:0,0:0:0:0:
256,107,119834,5,2,0:0:0:0:
197,183,119992,1,8,0:0:0:0:
138,107,120149,1,2,0:0:0:0:
79,183,120307,5,2,3:1:0:0:
108,197,120385,1,0,3:0:0:0:
141,202,120464,1,0,3:0:0:0:
173,193,120543,1,0,3:0:0:0:
203,179,120622,1,8,3:1:0:0:
233,166,120701,1,0,3:0:0:0:
266,162,120780,1,2,3:1:0:0:
298,169,120859,1,0,3:0:0:0:
328,184,120939,5,0,3:0:0:0:
289,211,121018,1,0,3:0:0:0:
244,226,121097,1,2,3:1:0:0:
197,226,121176,1,0,3:0:0:0:
151,213,121255,1,8,3:1:0:0:
112,187,121334,1,0,3:0:0:0:
81,151,121413,1,2,3:1:0:0:
63,107,121492,1,0,3:0:0:0:
57,61,121571,6,0,B|24:177|83:184|83:184|138:197|144:75,1,285.000010871888,2|0,0:0|0:0,0:0:0:0:
292,4,121808,2,0,B|224:-3|188:48|208:67|242:75|335:84|322:114|256:174|211:144,1,285.000010871888,2|0,0:0|0:0,0:0:0:0:
131,359,122045,2,0,B|185:226|185:226|225:366,1,285.000010871888,2|0,0:0|0:0,0:0:0:0:
328,200,122281,2,0,P|359:298|287:223,1,285.000010871888,2|0,0:0|0:0,0:0:0:0:
500,103,122518,6,0,L|490:178,1,76,6|0,0:0|0:0,0:0:0:0:
480,257,122676,1,0,0:0:0:0:
478,272,122755,1,2,1:0:0:0:
