osu file format v14

[General]
AudioFilename: audio.mp3
AudioLeadIn: 0
PreviewTime: 82362
Countdown: 0
SampleSet: Soft
StackLeniency: 0.2
Mode: 0
LetterboxInBreaks: 0
WidescreenStoryboard: 0

[Editor]
DistanceSpacing: 1
BeatDivisor: 4
GridSize: 4
TimelineZoom: 4.100003

[Metadata]
Title:Boss Rush
TitleUnicode:Boss Rush
Artist:USAO
ArtistUnicode:USAO
Creator:Intensity
Version:123
Source:jubeat Qubell
Tags:
BeatmapID:1127307
BeatmapSetID:532004

[Difficulty]
HPDrainRate:4
CircleSize:4.7
OverallDifficulty:8
ApproachRate:9.5
SliderMultiplier:1.85
SliderTickRate:1

[Events]
//Background and Video events
0,0,"br.jpg",0,0
//Break Periods
2,62351,66679
//Storyboard Layer 0 (Background)
//Storyboard Layer 1 (Fail)
//Storyboard Layer 2 (Pass)
//Storyboard Layer 3 (Foreground)
//Storyboard Sound Samples

[TimingPoints]
1520,315.789473684211,4,2,0,90,1,0
1677,-166.666666666667,4,2,0,90,0,0
11625,-125,4,2,0,90,0,0
20783,-100,4,2,0,90,0,0
21098,-66.6666666666667,4,2,0,90,0,0
21414,-100,4,2,0,90,0,0
21730,-125,4,2,0,90,0,0
26309,-66.6666666666667,4,2,0,90,0,0
26467,-100,4,2,0,90,0,0
26783,-125,4,2,0,90,0,0
29941,-83.3333333333333,4,2,0,90,0,0
30572,-66.6666666666667,4,2,0,90,0,0
31835,-100,4,2,0,90,0,0
32151,-66.6666666666667,4,2,0,90,0,0
32467,-100,4,2,0,90,0,0
32941,-66.6666666666667,4,2,0,90,0,0
33098,-100,4,2,0,90,0,0
33730,-66.6666666666667,4,2,0,90,0,0
34046,-50,4,2,0,90,0,0
34362,-100,4,2,0,90,0,0
34677,-66.6666666666667,4,2,0,90,0,0
35151,-100,4,2,0,90,0,0
35783,-66.6666666666667,4,2,0,90,0,0
35941,-100,4,2,0,90,0,0
36256,-76.9230769230769,4,2,0,90,0,0
36887,-100,4,2,0,90,0,0
37204,-66.6666666666667,4,2,0,90,0,0
37677,-100,4,2,0,90,0,0
39098,-66.6666666666667,4,2,0,90,0,0
39414,-166.666666666667,4,2,0,90,0,0
41625,-100,4,2,0,90,0,0
41941,-66.6666666666667,4,2,0,90,0,0
42256,-50,4,2,0,90,0,0
42572,-100,4,2,0,90,0,0
43046,-66.6666666666667,4,2,0,90,0,0
43204,-100,4,2,0,90,0,0
44151,-66.6666666666667,4,2,0,90,0,0
44783,-100,4,2,0,90,0,0
45256,-76.9230769230769,4,2,0,90,0,0
45730,-100,4,2,0,90,0,0
46362,-125,4,2,0,90,0,0
46677,-66.6666666666667,4,2,0,90,0,0
47309,-100,4,2,0,90,0,0
48256,-76.9230769230769,4,2,0,90,0,0
48572,-100,4,2,0,90,0,0
52046,-142.857142857143,4,2,0,90,0,0
60888,-66.6666666666667,4,2,0,90,0,0
67835,-100,4,2,0,90,0,0
68467,-83.3333333333333,4,2,0,90,0,0
69098,-76.9230769230769,4,2,0,90,0,0
69730,-200,4,2,0,90,0,0
69750,-200,4,2,0,5,0,0
72256,-200,4,2,0,90,0,0
74467,-50,4,2,0,90,0,0
74783,-100,4,2,0,90,0,0
76046,-66.6666666666667,4,2,0,90,0,0
77309,-100,4,2,0,90,0,0
79520,-66.6666666666667,4,2,0,90,0,0
81098,-76.9230769230769,4,2,0,90,0,0
82362,-66.6666666666667,4,2,0,90,0,0
85520,-100,4,2,0,90,0,0
86151,-66.6666666666667,4,2,0,90,0,0
88204,-100,4,2,0,90,0,0
88677,-76.9230769230769,4,2,0,90,0,0
91204,-50,4,2,0,90,0,0
92151,-66.6666666666667,4,2,0,90,0,0
96414,-100,4,2,0,90,0,0
97835,-66.6666666666667,4,2,0,90,0,0
100362,-83.3333333333333,4,2,0,90,0,0
100677,-111.111111111111,4,2,0,90,0,0
100993,-166.666666666666,4,2,0,90,0,0
101309,-100,4,2,0,90,0,0
102572,-83.3333333333333,4,2,0,90,0,0
110783,-100,4,2,0,90,0,0
112362,-66.6666666666667,4,2,0,90,0,0
112677,-83.3333333333333,4,2,0,90,0,0
121598,-66.6666666666667,4,2,0,90,0,0

[HitObjects]
56,128,1520,5,4,0:1:0:0:
256,152,1835,1,0,0:0:0:0:
160,120,2151,6,0,P|152:160|160:200,1,55.4999983062745,2|0,0:0|0:0,0:0:0:0:
256,140,2467,1,2,0:0:0:0:
456,128,2626,2,0,L|345:134,1,110.999996612549,2|0,0:0|0:0,0:0:0:0:
200,296,3256,2,0,P|262:289|316:296,1,110.999996612549,2|0,0:0|0:0,0:0:0:0:
416,280,3730,2,0,P|416:312|408:344,1,55.4999983062745,2|0,0:0|0:0,0:0:0:0:
256,328,4046,5,2,0:0:0:0:
256,328,4204,1,0,0:0:0:0:
184,232,4362,1,2,0:0:0:0:
184,232,4520,1,0,0:0:0:0:
256,192,4677,2,0,P|256:152|248:120,1,55.4999983062745,2|0,0:0|0:0,0:0:0:0:
253,272,4993,2,0,P|253:312|261:344,1,55.4999983062745,0|2,0:0|0:0,0:0:0:0:
148,176,5309,5,0,0:0:0:0:
112,240,5467,1,2,0:0:0:0:
160,296,5625,1,2,0:0:0:0:
196,232,5783,1,0,0:0:0:0:
68,184,5941,2,0,P|60:160|60:120,1,55.4999983062745,2|0,0:0|0:0,0:0:0:0:
1,247,6256,2,2,L|121:239,1,110.999996612549,2|0,0:0|0:0,0:0:0:0:
344,308,6888,5,0,0:0:0:0:
440,272,7204,6,0,P|448:312|448:344,1,55.4999983062745,2|0,0:0|0:0,0:0:0:0:
448,326,7520,1,2,0:0:0:0:
376,208,7677,2,0,P|432:184|496:200,1,110.999996612549,2|0,0:0|0:0,0:0:0:0:
416,112,8151,2,0,P|408:72|408:40,1,55.4999983062745,2|2,0:0|0:0,0:0:0:0:
184,88,8625,1,0,0:0:0:0:
96,112,8783,2,0,P|104:72|104:40,1,55.4999983062745,2|0,0:0|0:0,0:0:0:0:
20,76,9098,5,2,0:0:0:0:
20,76,9256,1,2,0:0:0:0:
32,196,9414,1,0,0:0:0:0:
32,196,9572,2,0,P|32:224|48:260,2,55.4999983062745,0|2|0,0:0|0:0|0:0,0:0:0:0:
120,304,10046,2,0,P|130:278|131:251,1,55.4999983062745,2|2,0:0|0:0,0:0:0:0:
256,332,10362,5,0,0:0:0:0:
328,316,10520,1,2,0:0:0:0:
328,316,10677,1,2,0:0:0:0:
472,280,10835,1,0,0:0:0:0:
396,272,10993,2,0,P|404:312|396:352,1,55.4999983062745,2|0,0:0|0:0,0:0:0:0:
436,136,11309,2,0,P|430:95|439:54,1,83.2499974594117,2|0,0:0|0:0,0:0:0:0:
436,40,11625,6,0,L|532:48,1,74,4|0,1:0|0:0,0:0:0:0:
324,120,11941,2,0,B|336:156|336:156|327:202,1,74,8|0,0:0|0:0,0:0:0:0:
188,56,12256,1,0,0:0:0:0:
148,36,12414,1,0,0:0:0:0:
112,64,12572,2,0,L|39:71,1,74,8|0,0:0|0:0,0:0:0:0:
192,256,12888,6,0,L|199:183,1,74
184,348,13204,1,8,0:0:0:0:
116,288,13361,2,0,B|192:270|185:302|262:289,1,148
32,256,13835,2,0,P|24:288|40:336,1,74,8|0,0:0|0:0,0:0:0:0:
116,288,14151,5,0,0:0:0:0:
116,288,14309,1,0,0:0:0:0:
256,336,14467,1,8,0:0:0:0:
188,312,14625,1,0,0:0:0:0:
328,288,14783,2,0,P|368:280|424:288,1,74
480,256,15098,2,0,P|487:291|478:327,1,74,8|0,0:0|0:0,0:0:0:0:
356,176,15414,5,0,0:0:0:0:
432,172,15572,1,0,0:0:0:0:
294,245,15730,2,0,L|206:237,1,74,8|0,0:0|0:0,0:0:0:0:
0,176,16046,2,0,L|96:184,1,74
160,192,16283,1,0,0:0:0:0:
144,200,16362,2,0,B|128:240|128:240|144:296,1,74,8|0,0:0|0:0,0:0:0:0:
256,352,16677,6,0,B|236:272|280:280|256:200,1,148,0|8,0:0|0:0,0:0:0:0:
376,312,17151,1,0,0:0:0:0:
456,264,17309,2,0,P|468:298|467:335,1,74
392,208,17625,1,8,0:0:0:0:
472,168,17783,2,0,L|296:152,1,148
256,32,18256,1,8,0:0:0:0:
184,80,18414,2,0,B|248:72|248:72|280:80|280:80|331:75,1,148
424,16,18888,2,0,B|440:48|440:48|432:120,1,74,8|0,0:0|0:0,0:0:0:0:
424,192,19204,5,0,0:0:0:0:
424,192,19362,1,0,0:0:0:0:
344,168,19520,1,8,0:0:0:0:
432,280,19677,1,0,0:0:0:0:
360,248,19835,2,0,L|286:241,1,74
208,320,20151,2,0,P|176:328|134:326,1,74,8|0,0:0|0:0,0:0:0:0:
56,312,20467,5,0,0:0:0:0:
56,312,20625,1,0,0:0:0:0:
0,224,20783,6,0,L|104:216,1,92.5,8|0,0:0|0:0,0:0:0:0:
256,32,21098,6,0,B|244:128|272:80|256:208,1,138.750005292893,8|0,0:0|0:0,0:0:0:0:
419,272,21414,6,0,L|512:280,1,92.5,8|0,0:0|1:0,0:0:0:0:
376,344,21651,1,0,1:0:0:0:
376,344,21730,6,0,P|344:304|344:256,1,74,4|0,1:0|0:0,0:0:0:0:
456,200,22046,1,0,0:0:0:0:
456,200,22204,2,0,P|481:226|491:261,1,74,0|0,1:0|0:0,0:0:0:0:
419,272,22520,1,0,0:0:0:0:
432,120,22677,2,0,L|440:24,1,74,0|0,1:0|1:0,0:0:0:0:
368,0,22914,1,0,1:0:0:0:
368,0,22993,6,0,P|356:39|360:87,1,74,0|0,1:0|0:0,0:0:0:0:
288,128,23309,1,0,0:0:0:0:
432,120,23467,1,0,1:0:0:0:
224,200,23626,2,0,L|128:208,1,74
56,248,23941,2,0,P|44:216|51:175,1,74,0|0,1:0|0:0,0:0:0:0:
88,152,24177,1,0,1:0:0:0:
88,152,24256,6,0,L|15:153,1,74,4|0,1:0|0:0,0:0:0:0:
56,248,24572,1,0,1:0:0:0:
150,206,24730,1,0,1:0:0:0:
264,336,24888,2,0,L|248:264,1,74,0|0,0:0|1:0,0:0:0:0:
362,206,25204,1,0,1:0:0:0:
456,248,25362,1,0,0:0:0:0:
440,160,25520,6,0,L|433:124,1,37,4|0,1:0|0:0,0:0:0:0:
352,48,25677,1,0,0:0:0:0:
352,48,25756,1,0,0:0:0:0:
352,48,25835,2,0,L|344:88,1,37,0|0,1:0|0:0,0:0:0:0:
272,136,25993,2,0,L|235:143,3,37,0|0|0|0,1:0|0:0|0:0|0:0,0:0:0:0:
264,224,26309,6,0,P|229:227|195:219,1,69.3750026464463,0|0,1:0|0:0,0:0:0:0:
164,108,26467,6,0,P|163:132|154:188,1,46.25,0|0,1:0|0:0,0:0:0:0:
16,144,26625,2,0,P|14:120|15:97,1,46.25,0|0,1:0|1:0,0:0:0:0:
88,120,26783,6,0,P|89:158|80:208,1,74,0|0,1:0|0:0,0:0:0:0:
128,32,27098,2,0,P|90:33|40:24,1,74,0|0,1:0|0:0,0:0:0:0:
256,232,27414,2,0,P|255:194|264:144,1,74,0|0,1:0|0:0,0:0:0:0:
216,320,27730,2,0,P|254:319|304:328,1,74,0|0,1:0|0:0,0:0:0:0:
464,336,27967,1,0,0:0:0:0:
464,336,28046,6,0,P|465:298|456:248,1,74,0|0,1:0|0:0,0:0:0:0:
376,312,28362,1,0,1:0:0:0:
384,216,28520,1,0,1:0:0:0:
136,312,28677,1,0,1:0:0:0:
128,216,28835,1,0,1:0:0:0:
392,120,28993,1,0,1:0:0:0:
120,120,29151,1,0,1:0:0:0:
120,120,29230,1,0,1:0:0:0:
120,120,29309,5,0,1:0:0:0:
32,176,29467,1,0,1:0:0:0:
256,168,29625,1,0,1:0:0:0:
480,176,29783,1,0,1:0:0:0:
384,260,29941,6,0,L|328:263,1,55.4999983062745,0|0,1:0|1:0,0:0:0:0:
184,200,30098,2,0,B|176:176|176:176|180:144,1,55.4999983062745,0|0,1:0|1:0,0:0:0:0:
332,136,30256,2,0,B|340:160|340:160|336:192,1,55.4999983062745,0|0,1:0|1:0,0:0:0:0:
184,277,30414,2,0,L|128:280,1,55.4999983062745,0|0,1:0|1:0,0:0:0:0:
96,264,30572,6,0,B|40:284|40:284|-20:280|-20:280|44:300|44:300|48:332,1,208.125007939339,4|0,0:1|0:0,1:0:0:0:
196,128,30888,2,0,P|244:104|244:40,1,69.3750026464463,0|0,1:0|3:0,1:0:0:0:
322,61,31046,2,0,B|262:65|262:65|234:49|234:49|138:57,1,138.750005292893,0|0,1:0|3:0,1:0:0:0:
112,60,31283,1,0,3:0:0:0:
36,56,31362,1,0,3:0:0:0:
116,76,31441,1,0,3:0:0:0:
108,44,31520,2,0,B|36:56|36:56|12:156,1,138.750005292893,0|0,1:0|1:0,1:0:0:0:
76,352,31835,6,0,B|68:307|80:307|72:259,1,92.5,4|0,1:0|0:0,1:0:0:0:
140,204,32151,2,0,B|60:224|80:176|-48:224,1,138.750005292893,0|0,1:0|0:0,1:0:0:0:
256,232,32467,5,8,1:0:0:0:
472,288,32625,2,0,L|461:358,1,46.25,0|0,1:0|0:0,0:0:0:0:
376,220,32783,2,0,P|369:198|355:178,1,46.25,0|0,1:0|0:0,1:0:0:0:
340,164,32941,2,0,L|409:167,1,69.3750026464463,0|0,1:0|0:0,1:0:0:0:
480,172,33098,5,0,1:0:0:0:
140,48,33256,2,0,L|186:46,1,46.25,0|0,1:0|0:0,1:0:0:0:
256,44,33414,2,0,L|302:42,1,46.25,0|0,1:0|0:0,1:0:0:0:
374,38,33572,1,0,1:0:0:0:
96,192,33730,6,2,P|71:248|101:325,1,138.750005292893,8|0,1:0|0:0,1:0:0:0:
300,252,34046,2,2,P|213:243|300:254,1,277.5,0|0,0:0|0:0,1:0:0:0:
416,208,34362,6,0,B|430:252|430:252|418:296,1,92.5,0|0,1:0|0:0,1:0:0:0:
464,20,34677,2,0,B|449:74|449:74|474:152,1,138.750005292893,0|0,1:0|0:0,1:0:0:0:
220,84,34993,6,0,L|289:88,1,69.3750026464463,8|0,1:0|0:0,0:0:0:0:
148,76,35151,6,0,P|144:104|152:140,1,46.25,0|0,1:0|0:0,1:0:0:0:
148,76,35309,2,0,P|152:48|144:12,1,46.25,0|0,1:0|0:0,1:0:0:0:
28,64,35467,2,0,L|116:72,1,46.25,0|0,1:0|0:0,1:0:0:0:
148,76,35625,5,0,1:0:0:0:
256,192,35783,6,0,B|246:224|246:224|264:277,1,69.3750026464463,0|0,1:0|0:0,1:0:0:0:
340,280,35941,2,0,P|340:240|328:212,1,46.25,0|0,1:0|0:0,1:0:0:0:
174,234,36098,1,0,1:0:0:0:
20,244,36256,2,0,B|68:284|52:348|52:348|84:284,1,180.374991743088,8|0,1:0|0:0,1:0:0:0:
96,212,36572,5,4,1:2:0:0:
416,212,36730,1,0,1:0:0:0:
488,72,36888,6,0,P|472:116|488:160,1,92.5,4|0,1:0|1:0,1:0:0:0:
460,316,37204,2,0,P|432:240|216:220,1,277.500010585785,0|8,1:0|1:0,1:0:0:0:
352,216,37677,2,2,P|356:180|352:144,1,46.25,0|0,1:0|0:0,1:0:0:0:
160,168,37835,2,2,P|156:204|160:240,1,46.25,0|0,1:0|0:0,1:0:0:0:
257,193,37993,1,0,1:0:0:0:
80,72,38151,6,0,L|4:76,1,46.25,0|0,1:0|0:0,1:0:0:0:
212,64,38309,2,2,L|136:68,1,46.25,0|0,1:0|0:0,1:0:0:0:
344,56,38467,2,2,L|298:59,1,46.25,0|0,1:0|0:0,1:0:0:0:
432,52,38625,2,0,L|478:49,1,46.25,0|0,1:0|0:0,1:0:0:0:
448,208,38783,6,0,B|416:156|416:156|424:108,1,92.5,8|0,1:0|0:0,0:0:0:0:
192,316,39098,6,0,B|256:344|256:344|324:312,1,138.750005292893,0|0,1:0|1:0,1:0:0:0:
140,240,39414,6,0,L|23:261,1,110.999996612549,0|0,1:0|1:0,0:0:0:0:
208,288,39888,2,0,B|256:320|256:320|320:308,1,110.999996612549,2|0,1:2|1:0,0:0:0:0:
309,310,40362,1,2,1:2:0:0:
309,310,40520,1,2,1:2:0:0:
164,48,40677,6,0,L|176:116,1,55.4999983062745,0|2,1:0|0:0,0:0:0:0:
316,228,40993,2,0,L|325:173,1,55.4999983062745,2|0,1:2|1:0,0:0:0:0:
329,157,41230,1,0,3:0:0:0:
332,140,41309,5,0,1:0:0:0:
348,44,41388,1,0,3:0:0:0:
336,120,41467,1,0,1:0:0:0:
96,304,41625,6,0,P|80:248|88:200,1,92.5,4|0,1:2|0:0,0:0:0:0:
396,172,41941,6,0,P|417:240|397:305,1,138.750005292893,4|0,1:0|0:0,1:0:0:0:
320,232,42256,6,0,B|372:232|372:232|380:240|380:240|448:240|448:240|456:248|456:248|504:248,1,185,0|0,1:0|0:0,1:0:0:0:
256,316,42572,5,8,1:0:0:0:
408,100,42730,2,0,L|401:146,1,46.25,0|0,1:0|0:0,1:0:0:0:
496,88,42888,2,0,L|489:134,1,46.25,0|0,1:0|0:0,1:0:0:0:
316,112,43046,2,0,P|323:68|359:28,1,69.3750026464463,0|0,1:0|0:0,1:0:0:0:
348,40,43204,5,0,1:0:0:0:
104,128,43362,2,0,L|196:136,1,92.5,0|0,1:0|1:0,1:0:0:0:
8,120,43677,1,0,1:0:0:0:
108,288,43835,2,0,B|44:308|44:308|128:348,1,138.75,8|0,1:0|0:0,0:0:0:0:
256,312,44151,6,0,B|188:296|188:336|96:308,1,138.750005292893,0|0,1:0|1:0,0:0:0:0:
252,120,44467,6,0,B|320:104|320:144|412:116,1,138.750005292893,0|0,1:0|0:0,0:0:0:0:
384,44,44783,2,0,P|320:128|380:208,1,185,0|8,1:0|1:0,0:0:0:0:
432,320,45256,6,0,L|356:328,1,60.1249972476961,0|0,1:0|0:0,1:0:0:0:
256,336,45414,2,0,B|232:324|232:324|194:322,1,60.1249972476961,0|0,1:0|0:0,1:0:0:0:
80,320,45572,1,0,1:0:0:0:
188,292,45730,6,0,P|164:252|128:224,1,92.5,0|0,1:0|1:0,0:0:0:0:
28,148,45967,1,0,1:0:0:0:
28,148,46046,2,0,B|86:151|86:151|143:129,1,92.5,0|0,1:0|1:0,0:0:0:0:
208,124,46283,1,0,1:0:0:0:
208,124,46362,6,0,P|156:109|136:60,1,111,8|0,1:0|0:0,1:0:0:0:
256,60,46677,6,2,B|308:68|344:52|344:52|376:68|376:68|420:40|468:60,1,208.125007939339,0|0,1:0|0:0,1:0:0:0:
432,124,46993,5,0,1:0:0:0:
320,292,47309,1,0,1:0:0:0:
464,324,47467,2,0,P|472:272|456:224,1,92.5,0|8,1:0|1:0,0:0:0:0:
392,280,47783,1,0,0:0:0:0:
256,240,47942,6,0,L|264:184,2,46.25,0|0|0,1:0|0:0|0:0,0:0:0:0:
244,308,48177,1,0,0:0:0:0:
168,336,48256,6,0,P|166:306|172:276,1,60.1249972476961,0|0,1:0|0:0,1:0:0:0:
80,216,48414,2,0,P|85:245|84:275,1,60.1249972476961,0|0,1:0|0:0,1:0:0:0:
16,344,48572,6,0,P|0:284|4:244,1,92.5,0|0,1:0|1:0,1:0:0:0:
152,100,48888,2,0,L|-24:112,1,138.75,8|0,1:0|0:0,0:0:0:0:
4,116,49204,2,0,P|0:56|24:24,1,92.5,0|0,1:0|0:0,0:0:0:0:
162,166,49520,5,0,1:0:0:0:
151,146,49599,1,0,3:0:0:0:
147,123,49678,1,0,3:0:0:0:
152,100,49757,1,0,3:0:0:0:
220,125,49836,1,0,3:0:0:0:
231,145,49915,1,0,3:0:0:0:
235,168,49994,1,0,1:0:0:0:
230,191,50073,1,0,3:0:0:0:
192,244,50151,5,8,1:0:0:0:
236,240,50229,1,0,3:0:0:0:
283,234,50308,1,0,3:0:0:0:
329,229,50387,1,0,3:0:0:0:
360,272,50467,5,0,1:0:0:0:
399,276,50545,1,0,3:0:0:0:
440,280,50624,1,0,3:0:0:0:
481,284,50703,1,0,3:0:0:0:
472,208,50783,6,0,L|468:176,4,23.125,0|0|0|0|0,1:0|3:0|3:0|3:0|3:0,3:0:0:0:
256,312,51098,1,0,1:0:0:0:
37,230,51256,2,0,L|40:208,4,23.125,0|0|0|0|0,1:0|3:0|3:0|3:0|3:0,3:0:0:0:
20,308,51572,1,0,3:0:0:0:
112,312,51730,6,0,P|145:281|155:237,1,92.5,2|0,0:0|0:0,0:0:0:0:
84,196,52046,6,0,L|220:184,1,129.499996047974,4|2,1:0|0:0,0:0:0:0:
300,172,52520,1,0,1:0:0:0:
248,120,52677,2,0,P|240:88|244:48,1,64.7499980239869,8|0,0:0|1:0,0:0:0:0:
408,112,52993,2,0,P|393:140|370:163,1,64.7499980239869,0|2,1:0|0:0,0:0:0:0:
324,84,53309,5,2,0:0:0:0:
164,100,53467,2,0,L|35:111,1,129.499996047974,0|0,1:0|1:0,0:0:0:0:
34,111,53941,2,0,P|42:155|42:187,1,64.7499980239869,8|2,0:0|0:0,0:0:0:0:
104,232,54256,2,0,P|102:264|95:295,1,64.7499980239869,0|2,0:0|0:0,0:0:0:0:
28,356,54572,5,0,1:0:0:0:
28,356,54730,1,2,0:0:0:0:
100,316,54888,1,2,0:0:0:0:
184,316,55046,1,0,1:0:0:0:
256,352,55204,2,0,B|332:336|320:372|408:344,1,129.499996047974,8|0,0:0|1:0,0:0:0:0:
360,260,55677,1,2,0:0:0:0:
272,248,55835,6,0,P|272:196|288:168,1,64.7499980239869,0|2,1:0|0:0,0:0:0:0:
360,260,56151,1,2,0:0:0:0:
504,276,56309,2,0,L|440:268,2,64.7499980239869,0|8|2,1:0|0:0|0:0,0:0:0:0:
408,192,56783,2,0,P|424:160|416:100,1,97.1249970359803,0|0,1:0|0:0,1:0:0:0:
400,104,57098,6,0,L|256:112,1,129.499996047974,8|0,0:0|1:0,0:0:0:0:
188,116,57572,1,0,1:0:0:0:
128,68,57730,2,0,L|44:76,2,64.7499980239869,8|0|8,0:0|0:0|0:0,0:0:0:0:
228,116,58204,2,0,P|240:164|224:252,1,129.499996047974,0|0,0:0|1:0,0:0:0:0:
192,328,58677,2,0,L|256:321,1,64.7499980239869,0|0,1:0|1:0,0:0:0:0:
116,336,58993,1,8,0:0:0:0:
116,336,59151,1,0,0:0:0:0:
328,352,59309,2,0,P|335:320|331:288,1,64.7499980239869,8|0,0:0|0:0,0:0:0:0:
416,180,59625,6,0,P|412:212|419:243,1,64.7499980239869,8|0,0:0|0:0,0:0:0:0:
496,212,59941,1,0,0:0:0:0:
496,212,60098,1,0,1:0:0:0:
336,212,60256,1,8,0:0:0:0:
419,243,60414,1,0,0:0:0:0:
408,88,60573,1,0,1:0:0:0:
428,332,60731,1,0,0:0:0:0:
284,352,60888,6,0,B|320:328|320:328|192:324|192:324|284:280,1,208.125007939339,4|0,1:0|0:0,0:0:0:0:
412,228,61204,2,0,B|380:224|380:224|342:231,1,69.3750026464463,0|0,1:0|0:0,0:0:0:0:
169,232,61362,2,0,B|132:240|132:240|100:236,1,69.3750026464463,0|0,1:0|1:0,0:0:0:0:
80,136,61520,5,8,1:0:0:0:
172,124,61598,1,0,1:0:0:0:
256,148,61677,1,0,1:0:0:0:
336,124,61755,1,0,1:0:0:0:
428,136,61835,1,8,1:0:0:0:
256,76,61993,1,0,1:0:0:0:
256,272,62151,5,4,1:0:0:0:
0,72,67204,6,0,B|43:63|73:75|73:75|86:110|75:147|75:147|-10:220|-10:220|24:192|0:167|0:167|83:252,1,416.250015878678
140,200,67835,6,0,B|151:292|151:292|168:300|168:300|217:296|217:296|228:284|228:284|216:164,1,277.5
304,284,68467,6,0,B|359:274|359:274|370:196|370:196|312:206|312:206|325:126|325:126|400:110,1,332.999989837647
460,112,69098,6,0,B|443:282|443:282|449:219|449:219|514:227|514:227|510:307,1,360.749983486176
212,300,69730,6,0,B|219:66|219:66|280:80|312:92|323:120|323:120|320:148|297:159|264:176|233:188|233:188|264:200|292:216|312:228|319:252|319:252|312:276|288:288|216:311,1,693.75
76,272,72256,6,0,P|76:248|72:212,1,46.25,0|0,1:0|0:0,0:0:0:0:
0,252,72572,1,8,0:0:0:0:
148,244,72730,1,0,1:0:0:0:
74,225,72888,1,8,0:0:0:0:
120,100,73046,1,0,0:0:0:0:
124,120,73125,1,0,0:0:0:0:
128,140,73204,1,8,1:2:0:0:
256,192,73363,1,0,1:0:0:0:
436,112,73520,6,0,P|436:136|440:172,1,46.25,0|0,1:0|0:0,0:0:0:0:
512,132,73836,1,8,0:0:0:0:
364,140,73994,1,0,1:0:0:0:
438,159,74152,1,8,0:0:0:0:
392,268,74310,1,0,0:0:0:0:
388,256,74389,1,0,0:0:0:0:
384,244,74467,6,0,P|327:263|400:300,1,185,4|0,1:0|0:0,1:0:0:0:
472,356,74783,5,4,1:0:0:0:
492,324,74862,1,0,0:0:0:0:
484,288,74941,1,0,0:0:0:0:
256,328,75098,2,0,P|248:284|256:236,1,92.5,8|0,0:0|1:0,0:0:0:0:
360,280,75414,1,8,0:0:0:0:
152,280,75572,1,0,0:0:0:0:
152,280,75651,1,0,0:0:0:0:
152,280,75730,1,8,1:2:0:0:
28,288,75888,1,0,0:0:0:0:
140,40,76046,6,0,P|72:80|48:144,1,138.750005292893,4|0,1:0|0:0,0:0:0:0:
180,352,76283,2,0,L|196:192,1,138.750005292893,0|0,1:0|0:0,0:0:0:0:
332,32,76520,2,0,L|316:192,1,138.750005292893,4|0,1:0|0:0,0:0:0:0:
372,343,76756,1,0,1:0:0:0:
372,343,76835,2,0,P|432:312|462:251,1,138.750005292893,0|0,1:0|1:0,0:0:0:0:
256,192,77151,1,0,1:0:0:0:
256,192,77230,1,0,1:0:0:0:
188,236,77309,6,0,P|180:188|192:148,3,46.25,4|0|0|0,1:2|0:0|1:0|1:0,0:0:0:0:
108,164,77625,2,0,P|100:212|112:252,3,46.25,0|0|0|0,1:0|0:0|1:0|1:0,0:0:0:0:
28,236,77941,2,0,P|20:188|32:148,3,46.25,0|0|0|0,1:0|0:0|1:0|1:0,0:0:0:0:
92,80,78256,6,0,L|180:88,1,46.25,0|0,1:0|0:0,0:0:0:0:
373,84,78414,2,0,L|420:80,1,46.25,0|0,1:0|0:0,0:0:0:0:
332,190,78572,5,4,1:2:0:0:
331,206,78651,1,0,1:0:0:0:
329,221,78730,1,0,1:0:0:0:
324,236,78808,1,0,1:0:0:0:
412,209,78888,1,0,1:0:0:0:
411,193,78967,1,0,1:0:0:0:
409,178,79046,1,0,1:0:0:0:
404,164,79124,1,0,1:0:0:0:
492,190,79204,1,0,1:0:0:0:
491,206,79283,1,0,1:0:0:0:
489,221,79362,1,0,1:0:0:0:
484,236,79440,1,0,1:0:0:0:
444,320,79520,6,0,L|338:310,1,69.3750026464463,0|0,1:0|0:0,0:0:0:0:
137,313,79677,2,0,L|68:320,1,69.3750026464463,0|0,1:0|0:0,0:0:0:0:
0,288,79835,5,4,1:2:0:0:
364,144,79993,1,0,1:0:0:0:
148,144,80151,1,0,1:0:0:0:
512,288,80309,1,0,1:0:0:0:
34,88,80467,5,4,1:2:0:0:
98,80,80546,1,0,1:0:0:0:
162,112,80625,1,0,1:0:0:0:
226,104,80704,1,0,1:0:0:0:
286,68,80783,5,4,1:2:0:0:
350,76,80862,1,0,1:0:0:0:
414,44,80941,1,0,1:0:0:0:
478,52,81020,1,0,1:0:0:0:
424,120,81098,6,0,L|395:125,1,30.062498623848,0|0,1:0|0:0,1:0:0:0:
88,152,81256,6,2,L|118:156,1,30.062498623848,0|0,1:0|0:0,1:0:0:0:
256,24,81414,2,0,L|256:152,1,120.249994495392,2|0,1:0|0:0,1:0:0:0:
16,196,81730,5,4,1:0:0:0:
256,288,81888,1,2,0:0:0:0:
256,288,81967,1,2,0:0:0:0:
256,288,82046,1,4,1:0:0:0:
496,196,82204,1,2,0:0:0:0:
480,104,82362,6,0,B|422:100|422:100|392:117|392:117|262:108,1,208.125007939339,4|0,1:0|0:0,1:0:0:0:
256,108,82677,1,8,1:0:0:0:
120,276,82835,2,0,B|260:252|252:316|396:284,1,277.500010585785,0|0,1:0|1:0,0:0:0:0:
208,292,83309,6,0,P|200:232|176:204,1,69.3750026464463,8|0,1:0|0:0,1:0:0:0:
32,252,83467,2,0,P|40:312|64:340,1,69.3750026464463,0|0,1:0|1:0,1:0:0:0:
132,344,83625,1,0,1:0:0:0:
456,332,83783,2,0,B|472:300|472:300|464:248,2,69.3750026464463,0|0|8,1:0|0:0|1:0,1:0:0:0:
256,160,84098,1,0,1:0:0:0:
44,56,84256,6,0,B|148:32|148:32|196:44,1,138.750005292893,0|0,1:0|1:0,0:0:0:0:
120,170,84572,2,0,B|197:139|185:187|257:159,1,138.750005292893,8|0,1:0|0:0,1:0:0:0:
16,264,84888,6,0,P|51:353|133:308,1,208.125007939339,0|0,1:0|0:0,1:0:0:0:
135,296,85204,2,0,L|201:325,1,69.3750026464463,8|0,1:0|0:0,0:0:0:0:
304,352,85362,2,0,B|288:320|288:320|296:283,1,69.3750026464463,0|0,1:0|0:0,1:0:0:0:
408,224,85520,6,0,P|384:232|344:228,1,46.25,0|0,1:0|0:0,0:0:0:0:
452,136,85677,2,0,P|472:132|500:132,1,46.25,0|0,1:0|1:0,1:0:0:0:
484,328,85835,2,0,L|481:282,1,46.25,8|0,1:0|0:0,0:0:0:0:
381,42,85993,2,0,L|384:88,1,46.25,0|0,1:0|0:0,1:0:0:0:
296,152,86151,6,0,P|300:88|192:60,1,138.750005292893,0|0,1:0|1:0,0:0:0:0:
228,216,86467,2,0,B|174:212|174:212|122:243|122:243|29:235,1,208.125007939339,8|0,1:0|0:0,0:0:0:0:
8,156,86783,2,0,B|41:150|41:150|73:166,1,69.3750026464463,0|0,1:0|0:0,0:0:0:0:
192,312,86941,2,0,B|225:317|225:317|257:301,1,69.3750026464463,0|0,1:0|1:0,0:0:0:0:
323,279,87098,2,0,P|383:335|507:331,1,208.125007939339,8|0,1:0|0:0,0:0:0:0:
460,264,87414,6,0,P|424:259|394:242,2,69.3750026464463,0|0|0,1:0|1:0|1:0,0:0:0:0:
472,112,87730,1,8,1:0:0:0:
152,92,87888,2,2,B|232:80|232:80|276:104|276:104|364:92,1,208.125007939339,0|0,1:0|0:0,1:0:0:0:
352,93,88204,6,2,L|344:138,1,46.25,0|0,1:0|0:0,1:0:0:0:
256,192,88362,2,2,L|249:237,1,46.25,8|0,1:0|0:0,1:0:0:0:
228,320,88520,2,2,L|156:332,1,46.25,0|0,1:0|0:0,1:0:0:0:
88,348,88677,5,0,1:0:0:0:
424,348,88835,2,2,B|397:340|397:340|365:344,1,60.1249972476961,0|0,1:0|0:0,1:0:0:0:
360,252,88993,2,2,B|427:271|427:271|506:261,1,120.249994495392,8|0,1:0|0:0,1:0:0:0:
199,145,89309,2,0,L|316:176,1,120.249994495392,0|2,1:0|1:0,0:0:0:0:
432,184,89625,1,10,1:0:0:0:
80,184,89783,1,0,1:0:0:0:
232,296,89941,6,0,B|251:355|251:355|293:297,1,120.249994495392,0|0,1:0|0:0,1:0:0:0:
480,112,90256,2,2,B|453:31|453:31|397:109,1,180.374991743088,8|0,1:0|0:0,1:0:0:0:
360,176,90572,2,0,L|288:184,1,60.1249972476961,0|0,1:0|0:0,0:0:0:0:
196,256,90730,2,2,B|188:224|188:224|212:168,1,60.1249972476961,0|0,1:0|0:0,1:0:0:0:
256,120,90888,2,2,B|128:132,1,120.249994495392,8|0,1:0|0:0,1:0:0:0:
8,40,91204,6,2,B|104:16|100:84|240:28,1,185,2|0,1:0|0:0,0:0:0:0:
500,128,91520,2,2,B|406:104|410:172|320:132,1,185,8|0,1:0|0:0,1:0:0:0:
36,188,91835,5,0,1:0:0:0:
47,189,91914,1,0,1:0:0:0:
59,190,91993,1,0,1:0:0:0:
74,192,92072,1,0,1:0:0:0:
128,244,92151,2,0,B|169:274|169:274|255:260,1,138.750005292893,8|0,1:0|1:0,0:0:0:0:
328,348,92467,6,0,P|380:240|344:196,1,138.750005292893,4|0,1:0|0:0,0:0:0:0:
96,80,92783,1,8,1:0:0:0:
240,96,92941,2,0,B|396:48|364:132|520:72,1,277.500010585785,0|0,1:0|1:0,0:0:0:0:
300,176,93414,6,0,B|270:196|270:196|236:196,1,69.3750026464463,8|0,1:0|0:0,1:0:0:0:
168,144,93572,2,0,L|98:137,1,69.3750026464463,0|0,1:0|1:0,1:0:0:0:
20,84,93730,2,0,B|80:56|80:56|176:64,1,138.750005292893,0|0,1:0|1:0,0:0:0:0:
372,276,94046,2,0,P|248:226|138:301,1,277.500010585785,8|0,1:0|1:0,0:0:0:0:
220,88,94520,2,0,B|256:28|256:28|300:100,1,138.750005292893,0|8,1:0|1:0,0:0:0:0:
264,228,94835,1,0,1:0:0:0:
340,240,94914,1,0,1:0:0:0:
412,256,94993,6,0,P|488:240|460:332,1,208.125007939339,0|0,1:0|0:0,0:0:0:0:
380,332,95309,2,0,L|288:336,1,69.3750026464463,8|0,1:0|0:0,0:0:0:0:
132,340,95467,2,0,B|92:289|92:289|24:293|24:293|3:270|3:270|43:190,1,208.125007939339,0|0,1:0|0:0,0:0:0:0:
100,216,95784,2,0,B|112:184|112:184|100:148,1,69.3750026464463,0|0,1:0|0:0,0:0:0:0:
16,24,95941,2,0,B|4:56|4:56|16:92,1,69.3750026464463,8|0,1:0|0:0,1:0:0:0:
176,136,96098,2,0,L|280:124,1,69.3750026464463,0|0,1:0|1:0,1:0:0:0:
336,112,96256,5,0,1:0:0:0:
415,200,96414,2,0,P|415:177|408:156,1,46.25,0|0,1:0|0:0,1:0:0:0:
464,96,96572,2,0,L|509:89,1,46.25,8|0,1:0|0:0,1:0:0:0:
396,56,96730,2,0,P|388:34|388:11,1,46.25,0|0,1:0|0:0,1:0:0:0:
340,256,96888,2,0,P|348:312|376:364,1,92.5,0|0,1:0|1:0,0:0:0:0:
504,228,97204,2,0,P|508:274|503:320,1,92.5,8|0,1:0|0:0,0:0:0:0:
252,312,97520,6,0,L|188:320,2,46.25,0|0|0,1:0|0:0|0:0,0:0:0:0:
128,296,97835,6,2,B|124:332|124:332|144:376,1,69.3750026464463,8|0,1:0|0:0,1:0:0:0:
132,208,97993,2,0,B|136:151|136:151|172:120|172:120|176:56|176:56|136:20|136:20|68:56,1,277.500010585785,2|0,1:0|1:0,0:0:0:0:
32,112,98467,1,8,1:0:0:0:
256,124,98625,1,0,1:0:0:0:
256,124,98783,6,2,L|394:120,1,138.750005292893,0|0,1:0|1:0,1:0:0:0:
488,248,99098,2,0,P|516:284|408:316,1,208.125007939339,10|0,1:0|0:0,0:0:0:0:
412,251,99414,2,0,B|381:159|381:159|401:99,1,138.750005292893,0|0,1:0|1:0,0:0:0:0:
436,32,99651,1,0,1:0:0:0:
436,32,99730,2,0,B|408:84|408:84|300:92,1,138.750005292893,8|0,1:0|1:0,0:0:0:0:
24,72,100046,6,0,L|59:76,1,34.6875013232232,0|0,1:0|0:0,0:0:0:0:
68,84,100125,2,0,L|103:88,1,34.6875013232232
112,96,100204,2,0,L|147:100,1,34.6875013232232
156,108,100283,2,0,L|191:112,1,34.6875013232232
212,116,100362,6,0,L|177:120,1,27.7499991531372,8|0,1:0|0:0,0:0:0:0:
180,128,100441,2,0,L|145:132,1,27.7499991531372
148,140,100520,2,0,L|113:144,1,27.7499991531372
116,152,100599,2,0,L|81:156,1,27.7499991531372
60,164,100677,6,0,L|95:168,1,20.8124993648529
88,180,100756,2,0,L|123:184,1,20.8124993648529
116,200,100835,2,0,L|151:204,1,20.8124993648529,0|0,1:0|0:0,0:0:0:0:
144,216,100914,2,0,L|179:220,1,20.8124993648529
172,232,100993,6,0,L|147:234,1,13.8749995765686,8|0,1:0|0:0,0:0:0:0:
152,248,101072,2,0,L|127:250,1,13.8749995765686
132,272,101151,2,0,L|107:274,1,13.8749995765686
112,288,101230,2,0,L|87:290,1,13.8749995765686
88,300,101309,6,0,L|212:312,1,92.5,4|0,1:0|0:0,0:0:0:0:
344,276,101546,2,0,L|251:267,1,92.5,0|0,1:0|0:0,0:0:0:0:
88,300,101783,2,0,B|116:332|116:332|176:308,1,92.5,4|0,1:0|0:0,0:0:0:0:
344,276,102020,2,0,B|316:244|316:244|269:262,1,92.5,0|0,1:0|0:0,0:0:0:0:
132,308,102256,2,0,L|8:284,1,92.5,0|0,1:0|1:0,0:0:0:0:
12,200,102493,1,0,1:0:0:0:
12,200,102572,6,0,L|136:220,1,110.999996612549,4|0,1:0|0:0,0:0:0:0:
256,336,102888,2,0,P|312:352|376:332,1,110.999996612549,8|0,0:0|1:0,0:0:0:0:
440,148,103204,1,0,0:0:0:0:
400,244,103362,1,0,1:0:0:0:
400,244,103441,1,0,0:0:0:0:
400,244,103520,2,0,L|512:232,1,110.999996612549,8|0,0:0|1:0,0:0:0:0:
268,100,103835,6,0,B|244:161|244:161|256:205,1,110.999996612549,0|0,1:0|0:0,0:0:0:0:
256,204,104151,1,8,0:0:0:0:
148,240,104309,2,0,B|252:277|248:201|364:233,1,221.999993225098,0|0,1:0|1:0,0:0:0:0:
456,360,104783,2,0,P|469:306|456:252,1,110.999996612549,8|0,0:0|1:0,0:0:0:0:
376,112,105098,6,0,P|431:111|485:98,1,110.999996612549,0|0,1:0|0:0,0:0:0:0:
268,88,105414,1,8,0:0:0:0:
256,248,105572,1,0,0:0:0:0:
256,248,105651,1,0,0:0:0:0:
256,248,105730,2,0,P|257:303|249:358,1,110.999996612549,0|0,0:0|1:0,0:0:0:0:
52,336,106046,2,0,P|50:280|58:225,1,110.999996612549,8|0,0:0|0:0,0:0:0:0:
4,120,106362,5,0,1:0:0:0:
104,112,106520,1,0,0:0:0:0:
200,164,106677,1,8,0:0:0:0:
300,156,106835,1,0,0:0:0:0:
412,116,106993,5,0,1:0:0:0:
512,108,107151,1,0,1:0:0:0:
216,72,107308,1,8,0:0:0:0:
316,64,107466,1,0,0:0:0:0:
44,140,107625,6,0,B|168:112|144:184|292:148,1,221.999993225098,0|8,1:0|0:0,0:0:0:0:
324,240,108098,1,0,1:0:0:0:
440,232,108256,2,0,P|436:284|443:342,1,110.999996612549,0|0,0:0|1:0,0:0:0:0:
476,140,108572,1,8,0:0:0:0:
512,48,108730,6,0,P|448:84|280:56,1,221.999993225098,2|2,0:0|0:0,0:0:0:0:
156,104,109204,1,0,0:0:0:0:
256,148,109362,2,0,P|192:112|24:140,1,221.999993225098,2|0,0:0|1:0,0:0:0:0:
0,248,109835,2,0,P|65:240|116:244,1,110.999996612549,8|0,0:0|1:0,0:0:0:0:
232,64,110151,6,0,L|243:174,1,110.999996612549,0|0,1:0|0:0,0:0:0:0:
256,336,110467,1,8,0:0:0:0:
402,316,110625,1,0,0:0:0:0:
402,316,110704,1,0,0:0:0:0:
402,316,110783,2,0,L|412:208,1,92.5,0|0,0:0|1:0,0:0:0:0:
384,100,111098,2,0,P|433:103|486:98,1,92.5,8|0,0:0|1:0,0:0:0:0:
256,340,111414,5,0,1:0:0:0:
447,322,111572,2,0,P|424:321|402:316,1,46.25,2|0,0:0|0:0,0:0:0:0:
256,340,111730,2,0,L|256:293,1,46.25,8|0,0:0|0:0,0:0:0:0:
64,321,111888,2,0,P|87:319|110:315,1,46.25,0|0,1:0|0:0,0:0:0:0:
213,213,112046,6,0,B|256:223|256:223|341:205,1,92.5,4|0,1:2|0:0,0:0:0:0:
4,108,112362,2,0,B|60:112|60:112|88:84|88:84|156:104|152:64|212:100,1,208.125007939339,4|0,1:2|0:0,0:0:0:0:
256,144,112677,6,0,B|276:92|236:88|256:20,1,110.999996612549,0|2,1:0|0:0,0:0:0:0:
508,108,112993,1,8,0:0:0:0:
396,76,113151,1,2,0:0:0:0:
390,85,113230,1,0,0:0:0:0:
385,95,113309,2,0,L|393:23,1,55.4999983062745,0|0,1:0|0:0,0:0:0:0:
484,192,113467,2,0,L|428:199,1,55.4999983062745,0|2,1:0|0:0,0:0:0:0:
256,96,113625,2,0,B|264:124|264:124|256:156,1,55.4999983062745,8|0,0:0|0:0,0:0:0:0:
368,276,113783,2,0,L|362:331,1,55.4999983062745,2|0,0:0|0:0,0:0:0:0:
256,348,113941,6,0,B|240:296|240:296|256:240,1,110.999996612549,0|2,1:0|0:0,0:0:0:0:
164,32,114256,2,0,L|54:48,1,110.999996612549,8|0,0:0|0:0,0:0:0:0:
54,337,114572,2,0,L|190:317,1,110.999996612549,0|0,1:0|1:0,0:0:0:0:
163,320,114809,1,0,1:0:0:0:
163,320,114888,1,8,0:0:0:0:
32,200,115046,1,0,1:0:0:0:
112,40,115204,6,0,P|107:95|116:149,1,110.999996612549,0|2,1:0|0:0,0:0:0:0:
399,39,115520,2,0,P|404:95|395:149,1,110.999996612549,8|0,0:0|0:0,0:0:0:0:
476,240,115835,2,0,L|392:232,1,55.4999983062745,0|0,1:0|0:0,0:0:0:0:
468,336,115993,2,0,L|413:334,1,55.4999983062745,0|0,1:0|0:0,0:0:0:0:
312,208,116151,2,0,P|284:203|257:201,1,55.4999983062745,8|0,0:0|0:0,0:0:0:0:
236,348,116309,2,0,P|263:351|291:350,1,55.4999983062745,0|0,1:0|0:0,0:0:0:0:
272,276,116467,6,0,B|236:272|236:272|215:278|215:278|156:272,1,110.999996612549,0|2,1:0|0:0,0:0:0:0:
8,156,116783,2,0,P|64:140|132:148,1,110.999996612549,8|2,0:0|0:0,0:0:0:0:
116,144,117020,1,2,0:0:0:0:
116,144,117098,1,0,1:0:0:0:
163,273,117256,1,0,1:0:0:0:
288,40,117414,2,0,B|237:17|237:17|232:76,1,110.999996612549,8|0,0:0|0:0,0:0:0:0:
296,112,117651,1,0,0:0:0:0:
296,112,117730,6,0,P|304:140|284:196,1,55.4999983062745,4|0,1:0|0:0,0:0:0:0:
424,196,117888,1,0,0:0:0:0:
424,196,117967,1,0,0:0:0:0:
424,196,118046,6,0,B|512:184,1,55.4999983062745,8|0,0:0|0:0,0:0:0:0:
392,308,118204,6,0,B|396:336|396:336|385:363,1,55.4999983062745,0|0,1:0|0:0,0:0:0:0:
296,328,118362,5,0,0:0:0:0:
256,324,118441,1,0,0:0:0:0:
224,320,118520,6,0,L|152:312,1,55.4999983062745,0|0,1:0|0:0,0:0:0:0:
28,352,118677,6,0,B|24:324|24:324|35:297,1,55.4999983062745,8|0,0:0|0:0,0:0:0:0:
175,260,118835,6,0,B|179:288|179:288|168:315,1,55.4999983062745,0|0,1:0|0:0,0:0:0:0:
100,188,118993,6,0,L|84:112,1,55.4999983062745,0|0,1:0|0:0,0:0:0:0:
68,40,119151,1,0,0:0:0:0:
68,40,119230,1,0,0:0:0:0:
68,40,119309,6,0,P|16:48|-12:32,1,55.4999983062745,8|0,0:0|0:0,0:0:0:0:
204,76,119467,2,0,P|152:68|124:84,1,55.4999983062745,0|0,1:0|0:0,0:0:0:0:
307,87,119625,6,0,P|333:97|361:95,1,55.4999983062745,0|0,1:0|0:0,0:0:0:0:
497,116,119783,2,0,P|469:114|443:124,1,55.4999983062745,0|0,1:0|0:0,0:0:0:0:
340,28,119941,6,0,L|358:137,1,110.999996612549,8|0,0:0|1:0,0:0:0:0:
340,236,120177,1,0,0:0:0:0:
348,216,120256,5,0,1:0:0:0:
388,220,120336,1,0,0:0:0:0:
380,240,120414,1,0,1:0:0:0:
305,278,120493,1,0,0:0:0:0:
257,304,120572,1,0,1:0:0:0:
202,310,120651,1,0,0:0:0:0:
149,294,120730,1,0,1:0:0:0:
106,259,120808,1,0,0:0:0:0:
40,188,120888,5,0,1:0:0:0:
76,185,120966,1,0,1:0:0:0:
113,182,121045,1,0,1:0:0:0:
150,179,121124,1,0,1:0:0:0:
236,112,121204,1,0,1:0:0:0:
273,109,121282,1,0,1:0:0:0:
380,144,121361,1,0,1:0:0:0:
417,141,121440,1,0,1:0:0:0:
496,112,121520,5,4,1:2:0:0:
496,112,121598,2,0,B|488:80|488:80|500:20,1,69.3750026464463
380,144,121756,5,4,1:2:0:0:
380,144,121835,2,0,B|400:176|400:176|392:228,1,69.3750026464463
260,340,121993,5,4,1:2:0:0:
260,340,122072,2,0,L|244:252,1,69.3750026464463
100,216,122230,5,4,1:2:0:0:
100,216,122309,2,0,P|96:252|108:304,1,69.3750026464463
12,212,122467,5,4,1:2:0:0:
52,144,122546,1,0,1:0:0:0:
132,136,122625,1,0,1:0:0:0:
184,192,122704,1,4,1:0:0:0:
