osu file format v14

[General]
AudioFilename: audio.mp3
AudioLeadIn: 0
PreviewTime: 82412
Countdown: 1
SampleSet: None
StackLeniency: 0.7
Mode: 1
LetterboxInBreaks: 0
WidescreenStoryboard: 0

[Editor]
DistanceSpacing: 1.3
BeatDivisor: 4
GridSize: 32
TimelineZoom: 2.5

[Metadata]
Title:Boss Rush
TitleUnicode:Boss Rush
Artist:USAO
ArtistUnicode:USAO
Creator:HiroK
Version:Speedrun
Source:jubeat Qubell
Tags:konami qb hardcore dubstep drumstep sound voltex iv heavenly haven policy break
BeatmapID:1807832
BeatmapSetID:864400

[Difficulty]
HPDrainRate:6
CircleSize:5
OverallDifficulty:6.7
ApproachRate:5
SliderMultiplier:1.4
SliderTickRate:1

[Events]
//Background and Video events
0,0,"bg bossrush2.jpg",0,50
//Break Periods
//Storyboard Layer 0 (Background)
//Storyboard Layer 1 (Fail)
//Storyboard Layer 2 (Pass)
//Storyboard Layer 3 (Foreground)
//Storyboard Sound Samples

[TimingPoints]
1570,315.789473684211,4,1,0,70,1,0
1648,-125,4,1,0,40,0,0
4096,-125,4,1,0,50,0,0
6622,-125,4,1,0,60,0,0
9148,-125,4,1,0,70,0,0
11675,-111.111111111111,4,1,0,70,0,0
18780,-114.285714285714,4,1,0,67,0,0
18938,-117.647058823529,4,1,0,65,0,0
19096,-121.212121212121,4,1,0,62,0,0
19254,-125,4,1,0,57,0,0
19412,-128.205128205128,4,1,0,55,0,0
19570,-131.578947368421,4,1,0,52,0,0
19885,-133.333333333333,4,1,0,52,0,0
20043,-135.135135135135,4,1,0,52,0,0
20201,-136.986301369863,4,1,0,52,0,0
20359,-138.888888888889,4,1,0,52,0,0
20675,-133.333333333333,4,1,0,54,0,0
20833,-128.205128205128,4,1,0,56,0,0
20991,-123.456790123457,4,1,0,58,0,0
21148,-119.047619047619,4,1,0,60,0,0
21306,-114.942528735632,4,1,0,65,0,0
21464,-111.111111111111,4,1,0,70,0,0
21780,-100,4,1,0,80,0,0
31806,-76.9230769230769,4,1,0,80,0,0
32438,-100,4,1,0,80,0,0
34333,-76.9230769230769,4,1,0,80,0,0
34964,-100,4,1,0,80,0,0
36859,-76.9230769230769,4,1,0,80,0,0
37491,-100,4,1,0,80,0,0
39385,-76.9230769230769,4,1,0,80,0,0
40017,-100,4,1,0,80,0,0
41912,-76.9230769230769,4,1,0,80,0,0
42543,-100,4,1,0,80,0,0
44438,-76.9230769230769,4,1,0,80,0,0
45070,-100,4,1,0,80,0,0
52017,-105.263157894737,4,1,0,80,0,0
62122,-111.111111111111,4,1,0,80,0,0
69938,-113.636363636364,4,1,0,78,0,0
70096,-116.279069767442,4,1,0,76,0,0
70254,-119.047619047619,4,1,0,74,0,0
70412,-121.951219512195,4,1,0,72,0,0
70570,-125,4,1,0,70,0,0
70727,-128.205128205128,4,1,0,68,0,0
71043,-128.205128205128,4,1,0,70,0,0
71201,-125,4,1,0,70,0,0
71359,-121.951219512195,4,1,0,72,0,0
71517,-119.047619047619,4,1,0,74,0,0
71675,-116.279069767442,4,1,0,76,0,0
71833,-113.636363636364,4,1,0,78,0,0
71991,-111.111111111111,4,1,0,80,0,0
81306,-113.636363636364,4,1,0,80,0,0
81464,-116.279069767442,4,1,0,80,0,0
81622,-119.047619047619,4,1,0,80,0,0
81780,-121.951219512195,4,1,0,80,0,0
82096,-125,4,1,0,80,0,0
82254,-117.647058823529,4,1,0,80,0,0
82412,-100,4,1,0,80,0,1
87306,-95.2380952380952,4,1,0,80,0,1
87464,-90.9090909090909,4,1,0,80,0,1
92201,-93.4579439252336,4,1,0,80,0,1
92359,-96.1538461538461,4,1,0,80,0,1
92517,-100,4,1,0,80,0,1
97412,-95.2380952380952,4,1,0,80,0,1
97570,-90.9090909090909,4,1,0,80,0,1
101280,-76.9230769230769,4,1,0,80,0,1
102306,-80,4,1,0,80,0,1
102464,-86.9565217391304,4,1,0,80,0,1
102543,-88.8888888888889,4,1,0,80,0,1
102622,-90.9090909090909,4,1,0,80,0,1
112096,-95.2380952380952,4,1,0,80,0,1
112254,-100,4,1,0,80,0,1
112412,-105.263157894737,4,1,0,80,0,1
112727,-90.9090909090909,4,1,0,80,0,1
117701,-86.9565217391304,4,1,0,80,0,1
117859,-90.9090909090909,4,1,0,80,0,1
118175,-86.9565217391304,4,1,0,80,0,1
118333,-90.9090909090909,4,1,0,80,0,1
118964,-86.9565217391304,4,1,0,80,0,1
119122,-90.9090909090909,4,1,0,80,0,1
119438,-86.9565217391304,4,1,0,80,0,1
119596,-90.9090909090909,4,1,0,80,0,1
122754,-90.9090909090909,4,1,0,80,0,0

[HitObjects]
251,188,1570,5,4,0:0:0:0:
251,188,1885,1,8,0:0:0:0:
251,188,2201,1,0,0:0:0:0:
251,188,2359,1,0,0:0:0:0:
251,188,2517,1,8,0:0:0:0:
251,188,2675,1,0,0:0:0:0:
251,188,2991,1,0,0:0:0:0:
251,188,3148,1,0,0:0:0:0:
251,188,3306,1,8,0:0:0:0:
268,183,3622,1,0,0:0:0:0:
268,183,3780,1,8,0:0:0:0:
268,183,3938,1,8,0:0:0:0:
268,183,4096,1,0,0:0:0:0:
285,180,4254,1,0,0:0:0:0:
285,180,4412,1,8,0:0:0:0:
264,191,4727,1,8,0:0:0:0:
264,191,4885,1,0,0:0:0:0:
264,191,5043,1,8,0:0:0:0:
264,191,5201,1,8,0:0:0:0:
264,191,5517,1,8,0:0:0:0:
266,182,5675,1,8,0:0:0:0:
266,182,5833,1,0,0:0:0:0:
266,182,5991,1,8,0:0:0:0:
266,182,6148,1,0,0:0:0:0:
266,182,6306,1,8,0:0:0:0:
264,191,6464,1,8,0:0:0:0:
261,188,6622,1,0,0:0:0:0:
256,188,6938,1,0,0:0:0:0:
277,195,7254,1,8,0:0:0:0:
249,186,7412,1,0,0:0:0:0:
249,186,7570,1,0,0:0:0:0:
249,186,7727,1,8,0:0:0:0:
249,186,7885,1,8,0:0:0:0:
258,183,8043,1,0,0:0:0:0:
258,183,8201,1,0,0:0:0:0:
262,187,8359,1,8,0:0:0:0:
256,181,8675,1,0,0:0:0:0:
256,181,8833,1,8,0:0:0:0:
249,173,8991,1,0,0:0:0:0:
246,178,9148,1,8,0:0:0:0:
246,178,9306,1,8,0:0:0:0:
246,178,9464,1,0,0:0:0:0:
288,177,9780,1,8,0:0:0:0:
288,177,9938,1,0,0:0:0:0:
288,177,10096,1,8,0:0:0:0:
288,177,10254,1,8,0:0:0:0:
288,177,10570,1,8,0:0:0:0:
265,183,10727,1,8,0:0:0:0:
235,173,10885,1,0,0:0:0:0:
257,178,11043,1,8,0:0:0:0:
257,178,11201,1,0,0:0:0:0:
257,178,11359,1,8,0:0:0:0:
257,178,11675,1,4,0:0:0:0:
255,191,11991,1,0,0:0:0:0:
255,197,12306,1,8,0:0:0:0:
255,197,12464,1,0,0:0:0:0:
255,197,12622,1,8,0:0:0:0:
255,197,12780,1,8,0:0:0:0:
267,191,12938,1,0,0:0:0:0:
267,191,13096,1,8,0:0:0:0:
267,191,13254,1,0,0:0:0:0:
263,172,13412,1,8,0:0:0:0:
265,173,13727,1,0,0:0:0:0:
265,173,13885,1,8,0:0:0:0:
270,178,14043,1,0,0:0:0:0:
270,178,14201,1,8,0:0:0:0:
263,172,14359,1,8,0:0:0:0:
263,172,14517,1,0,0:0:0:0:
247,166,14675,1,0,0:0:0:0:
247,166,14833,1,8,0:0:0:0:
247,166,14991,1,0,0:0:0:0:
247,166,15148,1,8,0:0:0:0:
247,166,15306,1,8,0:0:0:0:
247,166,15622,1,8,0:0:0:0:
247,166,15780,1,8,0:0:0:0:
254,165,15938,1,0,0:0:0:0:
254,165,16096,1,8,0:0:0:0:
256,173,16254,1,0,0:0:0:0:
256,173,16412,1,8,0:0:0:0:
256,173,16570,1,8,0:0:0:0:
256,173,16727,1,0,0:0:0:0:
256,173,17043,1,0,0:0:0:0:
267,183,17359,1,8,0:0:0:0:
267,183,17517,1,0,0:0:0:0:
267,183,17675,1,8,0:0:0:0:
267,183,17833,1,8,0:0:0:0:
267,183,17991,1,8,0:0:0:0:
267,183,18148,1,0,0:0:0:0:
267,183,18306,1,0,0:0:0:0:
267,183,18464,1,8,0:0:0:0:
267,183,18780,1,0,0:0:0:0:
267,183,18938,1,8,0:0:0:0:
267,183,19096,1,0,0:0:0:0:
267,183,19254,1,8,0:0:0:0:
261,182,19412,1,8,0:0:0:0:
261,182,19570,1,0,0:0:0:0:
245,178,19885,1,8,0:0:0:0:
245,178,20043,1,0,0:0:0:0:
245,178,20201,1,8,0:0:0:0:
245,178,20359,1,0,0:0:0:0:
252,181,20675,1,8,0:0:0:0:
257,145,20833,1,0,0:0:0:0:
261,171,20991,1,0,0:0:0:0:
261,171,21148,1,8,0:0:0:0:
261,171,21306,1,0,0:0:0:0:
261,171,21464,1,8,0:0:0:0:
261,171,21780,1,4,0:0:0:0:
265,178,21938,1,8,0:0:0:0:
289,183,22017,1,8,0:0:0:0:
265,178,22096,1,8,0:0:0:0:
265,178,22254,1,0,0:0:0:0:
265,178,22412,1,8,0:0:0:0:
289,183,22491,1,8,0:0:0:0:
265,178,22570,1,0,0:0:0:0:
267,190,22648,1,0,0:0:0:0:
269,193,22727,1,8,0:0:0:0:
269,193,22885,1,8,0:0:0:0:
269,193,23043,1,0,0:0:0:0:
257,192,23201,1,8,0:0:0:0:
267,190,23280,1,8,0:0:0:0:
257,192,23359,1,8,0:0:0:0:
257,192,23517,1,0,0:0:0:0:
257,192,23675,1,8,0:0:0:0:
257,192,23833,1,0,0:0:0:0:
269,193,23912,1,0,0:0:0:0:
258,184,23991,1,8,0:0:0:0:
258,184,24148,1,8,0:0:0:0:
251,172,24306,1,4,0:0:0:0:
261,187,24464,1,8,0:0:0:0:
261,187,24543,1,8,0:0:0:0:
261,187,24622,1,8,0:0:0:0:
261,188,24780,1,0,0:0:0:0:
261,188,24938,1,8,0:0:0:0:
261,188,25017,1,8,0:0:0:0:
261,188,25096,1,0,0:0:0:0:
261,188,25175,1,0,0:0:0:0:
261,188,25254,1,8,0:0:0:0:
261,187,25412,1,8,0:0:0:0:
261,187,25570,1,0,0:0:0:0:
254,194,25648,1,0,0:0:0:0:
254,194,25727,1,8,0:0:0:0:
276,185,25806,1,0,0:0:0:0:
276,185,25885,1,8,0:0:0:0:
276,185,25964,1,8,0:0:0:0:
276,185,26043,1,0,0:0:0:0:
276,185,26122,1,0,0:0:0:0:
276,185,26201,1,8,0:0:0:0:
259,179,26280,1,0,0:0:0:0:
259,179,26359,1,8,0:0:0:0:
259,179,26438,1,8,0:0:0:0:
259,179,26517,1,8,0:0:0:0:
244,178,26675,1,0,0:0:0:0:
244,178,26833,1,12,0:0:0:0:
255,181,26991,1,0,0:0:0:0:
256,191,27148,1,8,0:0:0:0:
260,202,27227,1,8,0:0:0:0:
259,179,27306,1,0,0:0:0:0:
251,177,27385,1,0,0:0:0:0:
251,177,27464,1,8,0:0:0:0:
251,177,27622,1,0,0:0:0:0:
251,177,27701,1,0,0:0:0:0:
251,177,27780,1,8,0:0:0:0:
273,176,27859,1,8,0:0:0:0:
251,177,27938,1,0,0:0:0:0:
251,177,28096,1,8,0:0:0:0:
246,174,28254,1,0,0:0:0:0:
260,202,28333,1,0,0:0:0:0:
251,177,28412,1,8,0:0:0:0:
260,202,28491,1,8,0:0:0:0:
251,177,28570,1,0,0:0:0:0:
251,177,28648,1,0,0:0:0:0:
264,174,28727,1,8,0:0:0:0:
246,172,28885,1,0,0:0:0:0:
258,184,29043,1,8,0:0:0:0:
258,184,29122,1,8,0:0:0:0:
258,184,29201,1,0,0:0:0:0:
251,179,29359,1,8,0:0:0:0:
251,177,29438,1,0,0:0:0:0:
251,179,29517,1,8,0:0:0:0:
251,177,29596,1,0,0:0:0:0:
251,177,29675,1,8,0:0:0:0:
251,179,29754,1,8,0:0:0:0:
251,179,29833,1,0,0:0:0:0:
251,179,29912,1,0,0:0:0:0:
251,179,29991,1,8,0:0:0:0:
251,179,30070,1,8,0:0:0:0:
251,179,30148,1,8,0:0:0:0:
251,179,30227,1,0,0:0:0:0:
251,179,30306,1,8,0:0:0:0:
251,179,30385,1,8,0:0:0:0:
251,177,30464,1,8,0:0:0:0:
251,179,30543,1,8,0:0:0:0:
251,177,30622,1,0,0:0:0:0:
246,173,30938,1,0,0:0:0:0:
246,173,31017,1,0,0:0:0:0:
246,173,31096,1,8,0:0:0:0:
223,181,31254,1,8,0:0:0:0:
231,180,31333,1,8,0:0:0:0:
231,180,31412,1,0,0:0:0:0:
268,175,31570,1,8,0:0:0:0:
268,175,31885,1,4,0:0:0:0:
238,183,32201,1,4,0:0:0:0:
256,183,32517,1,0,0:0:0:0:
240,188,32675,1,8,0:0:0:0:
240,188,32714,1,8,0:0:0:0:
250,188,32833,1,8,0:0:0:0:
250,188,32872,1,8,0:0:0:0:
250,188,32991,1,8,0:0:0:0:
250,188,33030,1,8,0:0:0:0:
259,179,33148,1,0,0:0:0:0:
256,183,33306,1,8,0:0:0:0:
256,183,33346,1,8,0:0:0:0:
256,183,33464,1,8,0:0:0:0:
256,183,33504,1,8,0:0:0:0:
291,190,33622,1,0,0:0:0:0:
262,180,33780,1,0,0:0:0:0:
299,185,33833,1,0,0:0:0:0:
257,183,33885,1,0,0:0:0:0:
275,194,33938,1,0,0:0:0:0:
259,179,34096,1,8,0:0:0:0:
256,183,34148,1,0,0:0:0:0:
198,173,34201,1,0,0:0:0:0:
256,183,34254,1,8,0:0:0:0:
256,183,34412,1,4,0:0:0:0:
263,185,34727,1,4,0:0:0:0:
261,189,35043,1,0,0:0:0:0:
268,179,35201,1,8,0:0:0:0:
268,179,35241,1,8,0:0:0:0:
261,185,35359,1,8,0:0:0:0:
261,185,35398,1,8,0:0:0:0:
263,185,35517,1,8,0:0:0:0:
263,185,35556,1,8,0:0:0:0:
252,192,35675,1,0,0:0:0:0:
258,176,35833,1,0,0:0:0:0:
258,176,35872,1,8,0:0:0:0:
258,176,35991,1,8,0:0:0:0:
258,181,36030,1,8,0:0:0:0:
259,178,36148,1,0,0:0:0:0:
258,168,36306,1,8,0:0:0:0:
258,168,36359,1,8,0:0:0:0:
258,168,36412,1,0,0:0:0:0:
258,168,36464,1,0,0:0:0:0:
252,192,36622,1,8,0:0:0:0:
256,183,36780,1,8,0:0:0:0:
266,182,36938,1,4,0:0:0:0:
257,188,37254,1,4,0:0:0:0:
267,198,37570,1,0,0:0:0:0:
271,223,37727,1,8,0:0:0:0:
271,223,37767,1,8,0:0:0:0:
274,208,37885,1,8,0:0:0:0:
274,208,37925,1,8,0:0:0:0:
274,208,38043,1,8,0:0:0:0:
274,208,38083,1,8,0:0:0:0:
261,203,38201,1,0,0:0:0:0:
286,188,38359,1,8,0:0:0:0:
286,188,38398,1,8,0:0:0:0:
286,188,38517,1,8,0:0:0:0:
286,188,38556,1,8,0:0:0:0:
286,199,38675,1,0,0:0:0:0:
285,231,38833,1,0,0:0:0:0:
280,194,38885,1,0,0:0:0:0:
206,187,38938,1,0,0:0:0:0:
280,194,38991,1,0,0:0:0:0:
247,184,39148,1,8,0:0:0:0:
253,184,39201,1,8,0:0:0:0:
253,184,39254,1,8,0:0:0:0:
253,184,39306,1,8,0:0:0:0:
264,208,39464,1,4,0:0:0:0:
269,192,39780,1,4,0:0:0:0:
257,193,40096,1,0,0:0:0:0:
253,184,40254,1,0,0:0:0:0:
253,184,40333,1,0,0:0:0:0:
220,202,40412,1,8,0:0:0:0:
220,202,40464,1,8,0:0:0:0:
220,202,40517,1,8,0:0:0:0:
220,202,40570,1,0,0:0:0:0:
264,183,40727,1,8,0:0:0:0:
261,147,40885,1,0,0:0:0:0:
261,147,40964,1,0,0:0:0:0:
261,147,41043,1,8,0:0:0:0:
261,147,41201,1,0,0:0:0:0:
261,147,41359,1,8,0:0:0:0:
261,147,41438,1,8,0:0:0:0:
261,147,41517,1,0,0:0:0:0:
261,147,41675,1,8,0:0:0:0:
261,147,41991,1,4,0:0:0:0:
261,147,42306,1,4,0:0:0:0:
261,159,42622,1,0,0:0:0:0:
257,136,42780,1,8,0:0:0:0:
257,136,42820,1,8,0:0:0:0:
253,188,42938,1,8,0:0:0:0:
253,188,42977,1,8,0:0:0:0:
253,183,43096,1,0,0:0:0:0:
253,183,43135,1,8,0:0:0:0:
253,183,43254,1,0,0:0:0:0:
253,183,43412,1,8,0:0:0:0:
253,183,43451,1,0,0:0:0:0:
250,168,43570,1,8,0:0:0:0:
250,168,43609,1,8,0:0:0:0:
250,182,43727,1,0,0:0:0:0:
238,199,43885,1,0,0:0:0:0:
253,188,43938,1,0,0:0:0:0:
251,183,43991,1,0,0:0:0:0:
253,183,44043,1,0,0:0:0:0:
263,168,44201,1,8,0:0:0:0:
266,158,44254,1,8,0:0:0:0:
266,158,44306,1,0,0:0:0:0:
266,158,44359,1,0,0:0:0:0:
256,172,44517,1,4,0:0:0:0:
256,171,44833,1,4,0:0:0:0:
253,177,45148,1,0,0:0:0:0:
240,176,45306,1,8,0:0:0:0:
239,176,45346,1,8,0:0:0:0:
261,157,45464,1,8,0:0:0:0:
261,157,45504,1,0,0:0:0:0:
260,156,45622,1,8,0:0:0:0:
260,156,45662,1,8,0:0:0:0:
260,156,45780,1,0,0:0:0:0:
254,157,45938,1,0,0:0:0:0:
254,157,46017,1,0,0:0:0:0:
254,156,46096,1,8,0:0:0:0:
254,156,46254,1,0,0:0:0:0:
260,163,46412,1,0,0:0:0:0:
261,163,46464,1,0,0:0:0:0:
261,163,46517,1,0,0:0:0:0:
261,163,46570,1,0,0:0:0:0:
261,163,46727,1,8,0:0:0:0:
261,163,46780,1,8,0:0:0:0:
261,163,46833,1,8,0:0:0:0:
261,163,46885,1,0,0:0:0:0:
251,176,47043,1,4,0:0:0:0:
272,177,47201,1,0,0:0:0:0:
272,177,47280,1,0,0:0:0:0:
272,177,47359,1,0,0:0:0:0:
250,180,47517,1,8,0:0:0:0:
249,180,47675,1,0,0:0:0:0:
249,180,47833,1,8,0:0:0:0:
257,177,47912,1,8,0:0:0:0:
257,177,47991,1,0,0:0:0:0:
206,164,48070,1,0,0:0:0:0:
257,177,48148,1,8,0:0:0:0:
282,187,48306,1,0,0:0:0:0:
282,187,48464,1,8,0:0:0:0:
282,187,48543,1,0,0:0:0:0:
282,187,48622,1,8,0:0:0:0:
284,175,48780,1,0,0:0:0:0:
284,175,48859,1,0,0:0:0:0:
284,175,48938,1,8,0:0:0:0:
245,180,49096,1,0,0:0:0:0:
245,180,49254,1,8,0:0:0:0:
271,181,49412,1,8,0:0:0:0:
271,181,49570,1,0,0:0:0:0:
256,190,49648,1,0,0:0:0:0:
256,190,49727,1,8,0:0:0:0:
256,190,49806,1,0,0:0:0:0:
256,190,49885,1,8,0:0:0:0:
256,190,49964,1,8,0:0:0:0:
256,190,50043,1,0,0:0:0:0:
256,190,50122,1,0,0:0:0:0:
256,190,50201,1,8,0:0:0:0:
256,190,50280,1,0,0:0:0:0:
256,190,50359,1,0,0:0:0:0:
256,190,50438,1,0,0:0:0:0:
256,190,50517,1,8,0:0:0:0:
256,190,50596,1,0,0:0:0:0:
256,190,50675,1,8,0:0:0:0:
256,190,50754,1,8,0:0:0:0:
256,190,50833,1,0,0:0:0:0:
254,160,50885,1,0,0:0:0:0:
249,165,50938,1,0,0:0:0:0:
249,165,50991,1,8,0:0:0:0:
249,165,51043,1,0,0:0:0:0:
249,165,51096,1,0,0:0:0:0:
249,165,51148,1,8,0:0:0:0:
255,165,51227,1,8,0:0:0:0:
255,165,51306,1,0,0:0:0:0:
245,165,51385,1,0,0:0:0:0:
245,165,51464,1,8,0:0:0:0:
260,181,51622,1,0,0:0:0:0:
260,181,51780,1,8,0:0:0:0:
260,181,52096,1,4,0:0:0:0:
230,144,52412,1,0,0:0:0:0:
261,207,52570,1,0,0:0:0:0:
265,189,52727,1,8,0:0:0:0:
260,181,52885,1,0,0:0:0:0:
260,181,53043,1,8,0:0:0:0:
241,189,53201,1,8,0:0:0:0:
260,185,53359,1,0,0:0:0:0:
251,197,53517,1,8,0:0:0:0:
247,193,53596,1,0,0:0:0:0:
247,193,53675,1,8,0:0:0:0:
255,184,53754,1,8,0:0:0:0:
252,186,53833,1,0,0:0:0:0:
252,186,53912,1,0,0:0:0:0:
252,186,53991,1,8,0:0:0:0:
298,220,54148,1,0,0:0:0:0:
260,185,54306,1,8,0:0:0:0:
263,187,54464,1,0,0:0:0:0:
264,187,54622,1,8,0:0:0:0:
264,187,54780,1,8,0:0:0:0:
264,187,54859,1,8,0:0:0:0:
259,186,54938,1,0,0:0:0:0:
260,185,55096,1,0,0:0:0:0:
260,185,55175,1,0,0:0:0:0:
260,185,55254,1,8,0:0:0:0:
265,197,55333,1,8,0:0:0:0:
263,187,55412,1,0,0:0:0:0:
263,187,55570,1,8,0:0:0:0:
274,189,55727,1,8,0:0:0:0:
251,140,55885,1,0,0:0:0:0:
269,183,56043,1,8,0:0:0:0:
261,179,56122,1,0,0:0:0:0:
261,179,56201,1,8,0:0:0:0:
261,179,56280,1,8,0:0:0:0:
261,179,56359,1,0,0:0:0:0:
229,189,56517,1,8,0:0:0:0:
229,189,56675,1,0,0:0:0:0:
229,189,56754,1,0,0:0:0:0:
229,189,56833,1,8,0:0:0:0:
212,191,56991,1,8,0:0:0:0:
216,188,57148,1,4,0:0:0:0:
241,163,57464,1,0,0:0:0:0:
241,163,57622,1,0,0:0:0:0:
241,163,57780,1,8,0:0:0:0:
252,178,57938,1,0,0:0:0:0:
256,174,58096,1,8,0:0:0:0:
256,174,58254,1,8,0:0:0:0:
256,174,58333,1,0,0:0:0:0:
256,174,58412,1,8,0:0:0:0:
256,174,58491,1,8,0:0:0:0:
256,174,58570,1,0,0:0:0:0:
256,174,58727,1,0,0:0:0:0:
288,198,58885,1,8,0:0:0:0:
270,208,58964,1,8,0:0:0:0:
261,208,59043,1,0,0:0:0:0:
261,208,59201,1,0,0:0:0:0:
262,197,59280,1,0,0:0:0:0:
262,197,59359,1,8,0:0:0:0:
262,197,59438,1,8,0:0:0:0:
262,197,59517,1,0,0:0:0:0:
263,194,59675,1,8,0:0:0:0:
260,192,59833,1,0,0:0:0:0:
260,192,59912,1,0,0:0:0:0:
260,192,59991,1,8,0:0:0:0:
242,193,60148,1,0,0:0:0:0:
242,193,60306,1,8,0:0:0:0:
242,193,60464,1,0,0:0:0:0:
242,193,60543,1,0,0:0:0:0:
242,193,60622,1,8,0:0:0:0:
242,193,60701,1,0,0:0:0:0:
242,193,60780,1,8,0:0:0:0:
273,192,60938,1,0,0:0:0:0:
273,192,60977,1,0,0:0:0:0:
273,192,61096,1,0,0:0:0:0:
273,192,61135,1,0,0:0:0:0:
246,182,61254,1,8,0:0:0:0:
246,182,61293,1,8,0:0:0:0:
258,151,61412,1,0,0:0:0:0:
269,145,61570,1,8,0:0:0:0:
269,145,61648,1,8,0:0:0:0:
269,145,61727,1,0,0:0:0:0:
269,145,61806,1,0,0:0:0:0:
269,145,61885,1,8,0:0:0:0:
269,145,61938,1,8,0:0:0:0:
246,173,61991,1,8,0:0:0:0:
246,173,62043,1,0,0:0:0:0:
246,173,62201,1,4,0:0:0:0:
257,183,62517,1,8,0:0:0:0:
257,183,62675,1,0,0:0:0:0:
257,183,62833,1,8,0:0:0:0:
255,187,63148,1,0,0:0:0:0:
256,163,63306,1,0,0:0:0:0:
256,173,63464,1,8,0:0:0:0:
256,173,63622,1,8,0:0:0:0:
256,173,63780,1,0,0:0:0:0:
256,173,64096,1,8,0:0:0:0:
249,173,64254,1,0,0:0:0:0:
249,173,64412,1,0,0:0:0:0:
256,173,64570,1,8,0:0:0:0:
262,184,64885,1,8,0:0:0:0:
262,175,65043,1,8,0:0:0:0:
251,177,65201,1,0,0:0:0:0:
251,177,65359,1,8,0:0:0:0:
244,168,65517,1,0,0:0:0:0:
250,177,65675,1,8,0:0:0:0:
243,168,65833,1,8,0:0:0:0:
242,174,66148,1,8,0:0:0:0:
242,174,66306,1,8,0:0:0:0:
245,173,66464,1,0,0:0:0:0:
255,174,66622,1,8,0:0:0:0:
255,174,66780,1,0,0:0:0:0:
255,174,66938,1,8,0:0:0:0:
278,180,67254,1,0,0:0:0:0:
278,180,67412,1,8,0:0:0:0:
278,180,67570,1,8,0:0:0:0:
278,180,67727,1,0,0:0:0:0:
278,180,67885,1,8,0:0:0:0:
278,180,68043,1,0,0:0:0:0:
278,180,68201,1,8,0:0:0:0:
278,180,68359,1,8,0:0:0:0:
267,186,68675,1,8,0:0:0:0:
267,186,68833,1,8,0:0:0:0:
267,186,68991,1,0,0:0:0:0:
267,186,69148,1,8,0:0:0:0:
267,186,69306,1,0,0:0:0:0:
267,186,69464,1,0,0:0:0:0:
267,186,69622,1,8,0:0:0:0:
267,173,69938,1,0,0:0:0:0:
266,173,70096,1,8,0:0:0:0:
266,173,70254,1,0,0:0:0:0:
266,173,70412,1,8,0:0:0:0:
266,173,70570,1,0,0:0:0:0:
267,173,70727,1,8,0:0:0:0:
267,173,70885,1,8,0:0:0:0:
266,173,71043,1,0,0:0:0:0:
266,173,71201,5,0,0:0:0:0:
266,173,71359,1,8,0:0:0:0:
266,173,71517,1,0,0:0:0:0:
267,173,71675,1,8,0:0:0:0:
267,173,71833,1,8,0:0:0:0:
266,173,71991,1,0,0:0:0:0:
261,171,72306,5,4,0:0:0:0:
265,178,72464,1,8,0:0:0:0:
289,183,72543,1,8,0:0:0:0:
265,178,72622,1,8,0:0:0:0:
265,178,72780,1,0,0:0:0:0:
265,178,72938,1,8,0:0:0:0:
289,183,73017,1,8,0:0:0:0:
265,178,73096,1,0,0:0:0:0:
267,190,73174,1,0,0:0:0:0:
269,193,73253,1,8,0:0:0:0:
269,193,73411,1,8,0:0:0:0:
269,193,73569,1,0,0:0:0:0:
257,192,73727,1,8,0:0:0:0:
267,190,73806,1,8,0:0:0:0:
257,192,73885,1,8,0:0:0:0:
257,192,74043,1,0,0:0:0:0:
257,192,74201,1,8,0:0:0:0:
257,192,74359,1,0,0:0:0:0:
269,193,74438,1,0,0:0:0:0:
258,184,74517,1,8,0:0:0:0:
258,184,74570,1,8,0:0:0:0:
196,197,74622,1,8,0:0:0:0:
196,197,74675,1,0,0:0:0:0:
251,172,74832,1,4,0:0:0:0:
261,187,74990,1,8,0:0:0:0:
261,187,75069,1,8,0:0:0:0:
261,187,75148,1,8,0:0:0:0:
261,188,75306,1,0,0:0:0:0:
261,188,75464,1,8,0:0:0:0:
261,188,75543,1,8,0:0:0:0:
261,188,75622,1,0,0:0:0:0:
261,188,75701,1,0,0:0:0:0:
261,188,75780,1,8,0:0:0:0:
261,187,75938,1,8,0:0:0:0:
261,187,76096,1,0,0:0:0:0:
254,194,76174,1,8,0:0:0:0:
254,194,76253,1,8,0:0:0:0:
276,185,76332,1,0,0:0:0:0:
276,185,76411,1,8,0:0:0:0:
276,185,76490,1,8,0:0:0:0:
276,185,76569,1,0,0:0:0:0:
276,185,76648,1,8,0:0:0:0:
276,185,76727,1,0,0:0:0:0:
259,179,76806,1,8,0:0:0:0:
259,179,76885,1,8,0:0:0:0:
259,179,76964,1,0,0:0:0:0:
259,179,77043,1,8,0:0:0:0:
244,178,77201,1,0,0:0:0:0:
244,178,77359,1,12,0:0:0:0:
255,181,77517,1,0,0:0:0:0:
256,191,77674,1,8,0:0:0:0:
260,202,77753,1,8,0:0:0:0:
259,179,77832,1,0,0:0:0:0:
251,177,77911,1,0,0:0:0:0:
251,177,77990,1,8,0:0:0:0:
251,177,78148,1,0,0:0:0:0:
251,177,78227,1,0,0:0:0:0:
251,177,78306,1,8,0:0:0:0:
273,176,78385,1,8,0:0:0:0:
251,177,78464,1,0,0:0:0:0:
251,177,78622,1,8,0:0:0:0:
246,174,78780,1,0,0:0:0:0:
260,202,78859,1,0,0:0:0:0:
251,177,78938,1,8,0:0:0:0:
260,202,79017,1,8,0:0:0:0:
251,177,79096,1,0,0:0:0:0:
251,177,79174,1,0,0:0:0:0:
264,174,79253,1,8,0:0:0:0:
246,172,79411,1,0,0:0:0:0:
258,184,79569,1,8,0:0:0:0:
258,184,79622,1,8,0:0:0:0:
243,207,79675,1,8,0:0:0:0:
258,184,79727,1,0,0:0:0:0:
251,179,79885,1,8,0:0:0:0:
251,177,79964,1,0,0:0:0:0:
251,179,80043,1,8,0:0:0:0:
251,177,80122,1,0,0:0:0:0:
251,177,80201,1,8,0:0:0:0:
251,179,80280,1,8,0:0:0:0:
251,179,80359,1,0,0:0:0:0:
251,179,80438,1,0,0:0:0:0:
251,179,80517,1,8,0:0:0:0:
251,179,80596,1,8,0:0:0:0:
251,179,80674,1,8,0:0:0:0:
251,179,80753,1,0,0:0:0:0:
251,179,80832,1,8,0:0:0:0:
251,179,80911,1,8,0:0:0:0:
251,177,80990,1,8,0:0:0:0:
251,179,81069,1,8,0:0:0:0:
251,177,81148,1,0,0:0:0:0:
251,166,81306,1,0,0:0:0:0:
253,185,81464,1,8,0:0:0:0:
252,184,81622,1,0,0:0:0:0:
261,184,81780,1,8,0:0:0:0:
291,208,82096,1,8,0:0:0:0:
251,178,82254,1,8,0:0:0:0:
256,183,82412,5,4,0:0:0:0:
247,190,82570,1,0,0:0:0:0:
247,190,82648,1,0,0:0:0:0:
247,190,82727,1,0,0:0:0:0:
249,189,82885,1,8,0:0:0:0:
256,167,83043,1,0,0:0:0:0:
267,174,83201,1,8,0:0:0:0:
263,171,83280,1,8,0:0:0:0:
263,172,83359,1,0,0:0:0:0:
261,176,83438,1,0,0:0:0:0:
261,176,83517,1,8,0:0:0:0:
260,184,83675,1,0,0:0:0:0:
260,184,83833,1,8,0:0:0:0:
260,184,83912,1,0,0:0:0:0:
260,184,83991,1,8,0:0:0:0:
260,184,84148,1,0,0:0:0:0:
239,158,84227,1,0,0:0:0:0:
257,178,84306,1,8,0:0:0:0:
266,166,84385,1,8,0:0:0:0:
264,166,84464,1,0,0:0:0:0:
264,166,84622,1,8,0:0:0:0:
264,166,84780,1,8,0:0:0:0:
264,166,84938,1,0,0:0:0:0:
264,166,85096,1,0,0:0:0:0:
264,166,85175,1,0,0:0:0:0:
264,166,85254,1,0,0:0:0:0:
266,166,85412,1,8,0:0:0:0:
264,166,85570,1,0,0:0:0:0:
264,166,85727,1,8,0:0:0:0:
264,166,85806,1,8,0:0:0:0:
264,166,85885,1,0,0:0:0:0:
264,166,85964,1,0,0:0:0:0:
264,166,86043,1,8,0:0:0:0:
256,173,86201,1,8,0:0:0:0:
256,173,86359,1,8,0:0:0:0:
256,173,86438,1,0,0:0:0:0:
216,153,86517,1,8,0:0:0:0:
264,166,86596,1,8,0:0:0:0:
264,166,86675,1,0,0:0:0:0:
261,175,86833,1,8,0:0:0:0:
261,175,86991,1,0,0:0:0:0:
261,175,87070,1,0,0:0:0:0:
261,175,87148,1,8,0:0:0:0:
261,175,87306,1,8,0:0:0:0:
267,173,87464,1,4,0:0:0:0:
265,182,87622,1,0,0:0:0:0:
281,184,87701,1,0,0:0:0:0:
243,177,87780,1,0,0:0:0:0:
265,182,87938,1,8,0:0:0:0:
267,167,87991,1,8,0:0:0:0:
240,173,88043,1,8,0:0:0:0:
240,173,88096,1,8,0:0:0:0:
252,150,88254,1,0,0:0:0:0:
261,154,88293,1,0,0:0:0:0:
273,177,88412,1,0,0:0:0:0:
273,177,88451,1,8,0:0:0:0:
273,177,88570,1,0,0:0:0:0:
273,177,88609,1,0,0:0:0:0:
273,177,88727,1,8,0:0:0:0:
273,177,88767,1,8,0:0:0:0:
274,191,88885,1,8,0:0:0:0:
274,191,88925,1,0,0:0:0:0:
291,199,89043,1,8,0:0:0:0:
291,199,89083,1,8,0:0:0:0:
265,179,89201,1,0,0:0:0:0:
291,199,89359,1,8,0:0:0:0:
291,199,89398,1,0,0:0:0:0:
291,199,89517,1,0,0:0:0:0:
296,203,89556,1,0,0:0:0:0:
292,188,89675,1,8,0:0:0:0:
292,188,89714,1,8,0:0:0:0:
272,182,89833,1,0,0:0:0:0:
270,182,89912,1,0,0:0:0:0:
265,178,89991,1,8,0:0:0:0:
280,196,90148,1,0,0:0:0:0:
271,149,90306,1,8,0:0:0:0:
265,155,90359,1,8,0:0:0:0:
265,155,90412,1,8,0:0:0:0:
264,155,90464,1,0,0:0:0:0:
256,172,90622,1,0,0:0:0:0:
256,171,90780,1,8,0:0:0:0:
256,171,90938,1,8,0:0:0:0:
256,171,90991,1,8,0:0:0:0:
256,171,91043,1,8,0:0:0:0:
256,171,91096,1,0,0:0:0:0:
254,178,91254,1,8,0:0:0:0:
261,168,91306,1,8,0:0:0:0:
261,168,91359,1,8,0:0:0:0:
261,168,91412,1,8,0:0:0:0:
261,168,91570,1,0,0:0:0:0:
261,168,91622,1,0,0:0:0:0:
261,168,91675,1,0,0:0:0:0:
261,168,91727,1,0,0:0:0:0:
254,156,91885,1,8,0:0:0:0:
255,156,91964,1,0,0:0:0:0:
256,156,92043,1,0,0:0:0:0:
258,154,92201,1,8,0:0:0:0:
258,154,92359,1,8,0:0:0:0:
261,160,92517,1,4,0:0:0:0:
261,185,92675,1,0,0:0:0:0:
261,185,92754,1,0,0:0:0:0:
261,185,92833,1,0,0:0:0:0:
255,175,92991,1,8,0:0:0:0:
263,193,93148,1,0,0:0:0:0:
263,193,93306,1,8,0:0:0:0:
263,193,93385,1,8,0:0:0:0:
263,193,93464,1,0,0:0:0:0:
205,166,93543,1,0,0:0:0:0:
205,166,93622,1,8,0:0:0:0:
264,179,93780,1,0,0:0:0:0:
264,179,93938,1,8,0:0:0:0:
264,179,94017,1,0,0:0:0:0:
264,179,94096,1,8,0:0:0:0:
262,178,94254,1,0,0:0:0:0:
258,173,94333,1,0,0:0:0:0:
262,178,94412,1,8,0:0:0:0:
258,173,94491,1,8,0:0:0:0:
256,175,94570,1,0,0:0:0:0:
256,175,94727,1,8,0:0:0:0:
226,171,94885,1,8,0:0:0:0:
254,189,95043,1,0,0:0:0:0:
254,189,95201,1,0,0:0:0:0:
254,189,95280,1,0,0:0:0:0:
254,189,95359,1,0,0:0:0:0:
254,189,95517,1,8,0:0:0:0:
272,179,95675,1,0,0:0:0:0:
267,179,95833,1,0,0:0:0:0:
254,189,95912,1,0,0:0:0:0:
254,189,95991,1,8,0:0:0:0:
271,186,96148,1,0,0:0:0:0:
267,181,96306,1,8,0:0:0:0:
257,184,96464,1,8,0:0:0:0:
257,192,96543,1,0,0:0:0:0:
257,192,96622,1,8,0:0:0:0:
257,192,96701,1,8,0:0:0:0:
257,192,96780,1,0,0:0:0:0:
248,184,96938,1,8,0:0:0:0:
248,184,97096,1,0,0:0:0:0:
248,184,97175,1,0,0:0:0:0:
248,184,97254,1,8,0:0:0:0:
257,184,97412,1,8,0:0:0:0:
253,186,97570,1,4,0:0:0:0:
257,181,97727,1,0,0:0:0:0:
257,181,97806,1,0,0:0:0:0:
257,181,97885,1,0,0:0:0:0:
246,163,98043,1,8,0:0:0:0:
246,163,98096,1,8,0:0:0:0:
246,163,98148,1,8,0:0:0:0:
246,163,98201,1,8,0:0:0:0:
274,175,98359,1,0,0:0:0:0:
273,175,98398,1,0,0:0:0:0:
273,175,98517,1,0,0:0:0:0:
273,175,98556,1,8,0:0:0:0:
273,175,98675,1,0,0:0:0:0:
273,175,98714,1,0,0:0:0:0:
273,175,98833,1,8,0:0:0:0:
273,175,98872,1,8,0:0:0:0:
274,175,98991,1,8,0:0:0:0:
274,175,99030,1,0,0:0:0:0:
274,175,99148,1,8,0:0:0:0:
274,175,99188,1,8,0:0:0:0:
279,154,99306,1,0,0:0:0:0:
257,176,99464,1,8,0:0:0:0:
271,189,99504,1,0,0:0:0:0:
271,189,99622,1,0,0:0:0:0:
271,189,99662,1,0,0:0:0:0:
268,189,99780,1,8,0:0:0:0:
268,189,99820,1,8,0:0:0:0:
260,177,99938,1,0,0:0:0:0:
267,187,100096,1,8,0:0:0:0:
267,187,100148,1,8,0:0:0:0:
267,187,100201,1,8,0:0:0:0:
265,201,100254,1,0,0:0:0:0:
266,189,100306,1,0,0:0:0:0:
266,189,100359,1,0,0:0:0:0:
266,189,100412,1,8,0:0:0:0:
288,138,100491,1,8,0:0:0:0:
270,167,100570,1,0,0:0:0:0:
270,167,100622,1,0,0:0:0:0:
270,167,100675,1,0,0:0:0:0:
270,167,100727,1,8,0:0:0:0:
266,175,100806,1,8,0:0:0:0:
266,175,100885,1,0,0:0:0:0:
274,162,100938,1,8,0:0:0:0:
260,175,100991,1,8,0:0:0:0:
260,175,101043,1,0,0:0:0:0:
260,175,101122,1,0,0:0:0:0:
260,175,101201,1,8,0:0:0:0:
266,178,101359,1,4,0:0:0:0:
269,182,101596,1,4,0:0:0:0:
271,167,101833,1,4,0:0:0:0:
271,165,102070,1,4,0:0:0:0:
271,165,102306,1,12,0:0:0:0:
271,165,102464,1,8,0:0:0:0:
271,165,102543,1,8,0:0:0:0:
271,165,102622,1,0,0:0:0:0:
265,160,102780,1,0,0:0:0:0:
265,160,102859,1,0,0:0:0:0:
265,160,102938,1,8,0:0:0:0:
272,151,103096,1,0,0:0:0:0:
264,168,103254,1,8,0:0:0:0:
262,168,103412,1,0,0:0:0:0:
247,153,103491,1,0,0:0:0:0:
247,153,103570,1,8,0:0:0:0:
247,153,103648,1,8,0:0:0:0:
247,153,103727,1,0,0:0:0:0:
249,188,103806,1,8,0:0:0:0:
249,188,103885,1,0,0:0:0:0:
257,183,104043,1,8,0:0:0:0:
257,183,104122,1,8,0:0:0:0:
268,179,104201,1,0,0:0:0:0:
268,179,104280,1,0,0:0:0:0:
266,182,104359,1,8,0:0:0:0:
266,182,104517,1,0,0:0:0:0:
266,182,104675,1,0,0:0:0:0:
266,182,104754,1,0,0:0:0:0:
266,182,104833,1,8,0:0:0:0:
266,182,104991,1,0,0:0:0:0:
266,182,105148,1,8,0:0:0:0:
257,180,105306,1,0,0:0:0:0:
256,180,105385,1,0,0:0:0:0:
256,180,105464,1,8,0:0:0:0:
256,180,105543,1,8,0:0:0:0:
256,180,105622,1,0,0:0:0:0:
242,183,105780,1,8,0:0:0:0:
256,175,105938,1,0,0:0:0:0:
256,175,106017,1,0,0:0:0:0:
256,175,106096,1,8,0:0:0:0:
256,174,106175,1,0,0:0:0:0:
256,174,106254,1,8,0:0:0:0:
256,174,106412,1,0,0:0:0:0:
256,174,106570,1,8,0:0:0:0:
249,173,106648,1,8,0:0:0:0:
249,173,106727,1,0,0:0:0:0:
249,173,106806,1,8,0:0:0:0:
249,173,106885,1,0,0:0:0:0:
256,175,107043,1,8,0:0:0:0:
256,174,107201,1,0,0:0:0:0:
256,174,107280,1,0,0:0:0:0:
252,169,107359,1,8,0:0:0:0:
252,169,107438,1,8,0:0:0:0:
252,169,107517,1,8,0:0:0:0:
252,169,107675,1,4,0:0:0:0:
256,169,107833,1,0,0:0:0:0:
256,169,107912,1,0,0:0:0:0:
256,169,107991,1,8,0:0:0:0:
266,170,108148,1,0,0:0:0:0:
266,170,108306,1,8,0:0:0:0:
266,170,108385,1,8,0:0:0:0:
266,170,108464,1,0,0:0:0:0:
266,170,108543,1,0,0:0:0:0:
266,170,108622,1,8,0:0:0:0:
266,170,108780,1,8,0:0:0:0:
266,170,108859,1,0,0:0:0:0:
266,170,108938,1,8,0:0:0:0:
266,170,109017,1,8,0:0:0:0:
266,170,109096,1,0,0:0:0:0:
266,170,109175,1,8,0:0:0:0:
266,161,109254,1,0,0:0:0:0:
256,183,109412,1,8,0:0:0:0:
256,183,109570,1,0,0:0:0:0:
256,183,109727,1,0,0:0:0:0:
256,183,109806,1,0,0:0:0:0:
256,183,109885,1,8,0:0:0:0:
256,183,109964,1,8,0:0:0:0:
256,183,110043,1,0,0:0:0:0:
256,183,110201,1,8,0:0:0:0:
256,183,110359,1,0,0:0:0:0:
256,183,110438,1,0,0:0:0:0:
256,183,110517,1,8,0:0:0:0:
254,188,110675,1,0,0:0:0:0:
290,185,110754,1,0,0:0:0:0:
264,138,110833,1,8,0:0:0:0:
262,143,110912,1,8,0:0:0:0:
262,143,110991,1,0,0:0:0:0:
266,173,111070,1,0,0:0:0:0:
267,172,111148,1,8,0:0:0:0:
267,172,111227,1,0,0:0:0:0:
267,172,111306,1,8,0:0:0:0:
267,172,111464,1,0,0:0:0:0:
264,177,111622,1,8,0:0:0:0:
264,177,111701,1,0,0:0:0:0:
266,173,111780,1,8,0:0:0:0:
248,134,111859,1,8,0:0:0:0:
248,134,111938,1,0,0:0:0:0:
266,173,112096,1,8,0:0:0:0:
267,172,112254,1,0,0:0:0:0:
267,172,112412,1,8,0:0:0:0:
256,185,112727,1,4,0:0:0:0:
256,188,112885,1,8,0:0:0:0:
256,188,112964,1,8,0:0:0:0:
256,188,113043,1,8,0:0:0:0:
256,188,113201,1,0,0:0:0:0:
256,188,113359,1,8,0:0:0:0:
256,188,113438,1,8,0:0:0:0:
256,185,113517,1,0,0:0:0:0:
256,185,113596,1,0,0:0:0:0:
256,185,113675,1,8,0:0:0:0:
256,188,113833,1,8,0:0:0:0:
260,183,113991,1,0,0:0:0:0:
260,183,114148,1,0,0:0:0:0:
260,183,114227,1,8,0:0:0:0:
260,183,114306,1,0,0:0:0:0:
260,183,114464,1,8,0:0:0:0:
256,185,114543,1,0,0:0:0:0:
256,185,114622,1,8,0:0:0:0:
256,185,114701,1,8,0:0:0:0:
260,183,114780,1,0,0:0:0:0:
260,183,114938,1,0,0:0:0:0:
260,183,115096,1,8,0:0:0:0:
260,183,115254,1,0,0:0:0:0:
260,183,115412,1,8,0:0:0:0:
260,183,115491,1,8,0:0:0:0:
256,185,115570,1,0,0:0:0:0:
288,185,115648,1,8,0:0:0:0:
270,186,115727,1,0,0:0:0:0:
251,185,115885,1,8,0:0:0:0:
251,185,116043,1,0,0:0:0:0:
251,185,116122,1,0,0:0:0:0:
251,185,116201,1,0,0:0:0:0:
246,170,116359,1,8,0:0:0:0:
253,178,116517,1,0,0:0:0:0:
253,178,116675,1,8,0:0:0:0:
253,178,116754,1,0,0:0:0:0:
253,178,116833,1,8,0:0:0:0:
253,178,116912,1,8,0:0:0:0:
253,178,116991,1,0,0:0:0:0:
253,178,117148,1,0,0:0:0:0:
256,173,117306,1,0,0:0:0:0:
256,177,117385,1,0,0:0:0:0:
253,178,117464,1,8,0:0:0:0:
253,178,117622,1,8,0:0:0:0:
269,178,117780,1,4,0:0:0:0:
269,178,117938,1,0,0:0:0:0:
269,178,118017,1,0,0:0:0:0:
269,178,118096,1,8,0:0:0:0:
256,178,118254,1,4,0:0:0:0:
256,177,118412,1,0,0:0:0:0:
253,178,118491,1,0,0:0:0:0:
253,178,118570,1,0,0:0:0:0:
244,170,118727,1,8,0:0:0:0:
244,170,118806,1,8,0:0:0:0:
244,168,118885,1,0,0:0:0:0:
265,198,119043,1,4,0:0:0:0:
287,177,119201,1,0,0:0:0:0:
287,177,119280,1,0,0:0:0:0:
287,177,119359,1,8,0:0:0:0:
287,177,119517,1,4,0:0:0:0:
287,177,119675,1,0,0:0:0:0:
287,177,119754,1,0,0:0:0:0:
287,177,119833,1,8,0:0:0:0:
287,177,119912,1,0,0:0:0:0:
287,177,119991,1,8,0:0:0:0:
287,177,120070,1,8,0:0:0:0:
287,177,120148,1,0,0:0:0:0:
251,191,120306,1,8,0:0:0:0:
241,179,120385,1,0,0:0:0:0:
269,188,120464,1,8,0:0:0:0:
266,186,120517,1,0,0:0:0:0:
266,186,120570,1,0,0:0:0:0:
266,186,120622,1,8,0:0:0:0:
197,189,120701,1,0,0:0:0:0:
268,186,120780,1,8,0:0:0:0:
267,183,120833,1,8,0:0:0:0:
266,183,120885,1,8,0:0:0:0:
266,183,120938,1,0,0:0:0:0:
266,183,121017,1,8,0:0:0:0:
266,183,121096,1,0,0:0:0:0:
260,181,121148,1,0,0:0:0:0:
215,193,121201,1,0,0:0:0:0:
211,173,121254,1,8,0:0:0:0:
230,144,121333,1,0,0:0:0:0:
217,184,121412,1,0,0:0:0:0:
261,157,121491,1,8,0:0:0:0:
260,181,121570,1,0,0:0:0:0:
252,179,121648,1,8,0:0:0:0:
252,179,121727,1,8,0:0:0:0:
252,179,121806,1,0,0:0:0:0:
252,179,121885,1,8,0:0:0:0:
252,179,121964,1,8,0:0:0:0:
252,179,122043,1,0,0:0:0:0:
252,179,122122,1,8,0:0:0:0:
252,179,122201,1,0,0:0:0:0:
252,179,122280,1,8,0:0:0:0:
252,179,122359,1,8,0:0:0:0:
252,179,122438,1,0,0:0:0:0:
252,179,122517,1,8,0:0:0:0:
252,179,122675,1,8,0:0:0:0:
252,179,122754,1,0,0:0:0:0:
