osu file format v14

[General]
AudioFilename: audio.mp3
AudioLeadIn: 0
PreviewTime: 173945
Countdown: 0
SampleSet: Soft
StackLeniency: 0.7
Mode: 0
LetterboxInBreaks: 0
WidescreenStoryboard: 1

[Editor]
Bookmarks: 89472,127682,127998,128156,155156,169051,170156,170314,191787,193051,194314
DistanceSpacing: 1
BeatDivisor: 4
GridSize: 16
TimelineZoom: 2.7

[Metadata]
Title:Boss Rush (Extended Mix)
TitleUnicode:Boss Rush (Extended Mix)
Artist:USAO
ArtistUnicode:USAO
Creator:Depths
Version:Calamity
Source:jubeat Qubell
Tags:
BeatmapID:1745948
BeatmapSetID:833515

[Difficulty]
HPDrainRate:6.3
CircleSize:4.2
OverallDifficulty:9.2
ApproachRate:9.5
SliderMultiplier:1.9
SliderTickRate:1

[Events]
//Background and Video events
0,0,"ANIME-PICTURES.NET_-_554750-1920x1080-azur+lane-tagme+%28character%29-admiral+hipper+%28azur+lane%29-izumo+%28azur+lane%29-ibuki+%28azur+lane%29-roon+%28azur+lane%29.jpg",0,0
//Break Periods
2,102303,106631
2,145682,149156
2,151051,154524
//Storyboard Layer 0 (Background)
//Storyboard Layer 1 (Fail)
//Storyboard Layer 2 (Pass)
//Storyboard Layer 3 (Foreground)
//Storyboard Sound Samples

[TimingPoints]
1051,315.789473684211,4,2,1,15,1,0
21261,-133.333333333333,4,2,1,40,0,0
26235,-133.333333333333,4,2,1,5,0,0
26314,-83.3333333333333,4,2,1,40,0,0
26551,-83.3333333333333,4,2,1,5,0,0
26629,-133.333333333333,4,2,1,40,0,0
26866,-133.333333333333,4,2,1,5,0,0
26945,-133.333333333333,4,2,1,50,0,0
31051,-66.6666666666667,4,2,1,50,0,0
31287,-66.6666666666667,4,2,1,5,0,0
31366,-100,4,2,1,50,0,0
36024,-100,4,2,1,5,0,0
36103,-100,4,2,1,50,0,0
36340,-100,4,2,1,5,0,0
36419,-66.6666666666667,4,2,1,50,0,0
36656,-66.6666666666667,4,2,1,5,0,0
36735,-100,4,2,1,50,0,0
37445,-100,4,2,1,5,0,0
37524,-100,4,2,1,50,0,0
37761,-100,4,2,1,5,0,0
37840,-100,4,2,1,50,0,0
37919,-100,4,2,1,5,0,0
37998,-100,4,2,1,50,0,0
38156,-100,4,2,1,50,0,0
38393,-100,4,2,1,5,0,0
38472,-100,4,2,1,50,0,0
38629,-100,4,2,1,50,0,0
38708,-100,4,2,1,5,0,0
38787,-100,4,2,1,60,0,0
38945,-100,4,2,1,55,0,0
39103,-100,4,2,1,50,0,0
39261,-100,4,2,1,45,0,0
39419,-100,4,2,1,43,0,0
39577,-100,4,2,1,40,0,0
39735,-100,4,2,1,38,0,0
39893,-100,4,2,1,34,0,0
40051,-100,4,2,1,31,0,0
40208,-100,4,2,1,28,0,0
40366,-100,4,2,1,22,0,0
40524,-100,4,2,1,30,0,0
40840,-250,4,2,1,30,0,0
41077,-250,4,2,1,5,0,0
41156,-66.6666666666667,4,2,1,20,0,0
41472,-66.6666666666667,4,2,1,50,0,0
43919,-66.6666666666667,4,2,1,5,0,0
43998,-66.6666666666667,4,2,1,50,0,0
50551,-66.6666666666667,4,2,1,5,0,0
50629,-66.6666666666667,4,2,1,50,0,0
51577,-62.5,4,2,1,80,0,1
53708,-62.5,4,2,1,5,0,1
53787,-62.5,4,2,1,80,0,1
54024,-62.5,4,2,1,5,0,1
54103,-62.5,4,2,1,80,0,1
54340,-62.5,4,2,1,5,0,1
54419,-62.5,4,2,1,80,0,1
59077,-62.5,4,2,1,5,0,1
59156,-62.5,4,2,1,80,0,1
59393,-62.5,4,2,1,5,0,1
59472,-62.5,4,2,1,80,0,1
61051,-83.3333333333333,4,2,1,80,0,1
61366,-76.9230769230769,4,2,1,80,0,1
61682,-62.5,4,2,1,80,0,1
71156,-62.5,4,2,1,80,0,0
71787,-62.5,4,2,1,80,0,1
72103,-76.9230769230769,4,2,1,80,0,1
73998,-66.6666666666667,4,2,1,80,0,1
74314,-76.9230769230769,4,2,1,80,0,1
75261,-71.4285714285714,4,2,1,80,0,1
75577,-76.9230769230769,4,2,1,80,0,1
76524,-62.5,4,2,1,80,0,1
89077,-62.5,4,2,1,5,0,1
89156,-76.9230769230769,4,2,1,80,0,1
89472,-62.5,4,2,1,80,0,1
91366,-83.3333333333333,4,2,1,80,0,1
91998,-100,4,2,1,40,0,0
93340,-100,4,2,1,5,0,0
93419,-100,4,2,1,40,0,0
96419,-76.9230769230769,4,2,1,40,0,0
97366,-100,4,2,1,40,0,0
100840,-66.6666666666667,4,2,1,40,0,0
111893,-66.6666666666667,4,2,1,5,0,0
112208,-66.6666666666667,4,2,1,50,0,0
115998,-62.5,4,2,1,50,0,0
121998,-83.3333333333333,4,2,1,60,0,0
122314,-71.4285714285714,4,2,1,80,0,1
122551,-71.4285714285714,4,2,1,5,0,1
122629,-200,4,2,1,80,0,0
122945,-71.4285714285714,4,2,1,80,0,1
123182,-71.4285714285714,4,2,1,5,0,1
123261,-200,4,2,1,80,0,0
123498,-200,4,2,1,5,0,1
123577,-71.4285714285714,4,2,1,80,0,1
123814,-71.4285714285714,4,2,1,5,0,1
123893,-66.6666666666667,4,2,1,80,0,1
124603,-66.6666666666667,4,2,1,5,0,1
124840,-71.4285714285714,4,2,1,80,0,1
132419,-71.4285714285714,4,2,1,80,0,1
132656,-71.4285714285714,4,2,1,5,0,1
132735,-166.666666666667,4,2,1,80,0,0
132972,-166.666666666667,4,2,1,5,0,1
133051,-71.4285714285714,4,2,1,80,0,1
133287,-71.4285714285714,4,2,1,5,0,1
133366,-166.666666666667,4,2,1,80,0,0
133603,-166.666666666667,4,2,1,5,0,1
133682,-71.4285714285714,4,2,1,80,0,1
134314,-90.9090909090909,4,2,1,80,0,1
134629,-66.6666666666667,4,2,1,80,0,1
134866,-66.6666666666667,4,2,1,5,0,1
134945,-71.4285714285714,4,2,1,80,0,1
140235,-71.4285714285714,4,2,1,5,0,1
140314,-71.4285714285714,4,2,1,80,0,1
140551,-71.4285714285714,4,2,1,5,0,1
140629,-71.4285714285714,4,2,1,80,0,1
142761,-71.4285714285714,4,2,1,5,0,1
142840,-71.4285714285714,4,2,1,80,0,1
143077,-71.4285714285714,4,2,1,5,0,1
143156,-71.4285714285714,4,2,1,80,0,1
144972,-71.4285714285714,4,2,1,5,0,1
145051,-100,4,2,1,80,0,0
150182,-100,4,2,1,5,0,0
155156,-125,4,2,1,40,0,0
159893,-100,4,2,1,40,0,0
160129,-100,4,2,1,5,0,0
160208,-100,4,2,1,40,0,0
160445,-100,4,2,1,5,0,0
160524,-83.3333333333333,4,2,1,50,0,0
160761,-83.3333333333333,4,2,1,5,0,0
160840,-125,4,2,1,50,0,0
163051,-125,4,2,1,60,0,0
164629,-100,4,2,1,60,0,0
164945,-66.6666666666667,4,2,1,60,0,0
165261,-66.6666666666667,4,2,1,80,0,0
167708,-66.6666666666667,4,2,1,5,0,0
167787,-66.6666666666667,4,2,1,80,0,0
173156,-62.5,4,2,1,80,0,0
173472,-66.6666666666667,4,2,1,80,0,0
175366,-60.6060606060606,4,2,2,100,0,1
175682,-60.6060606060606,4,2,1,80,0,1
184840,-60.6060606060606,4,2,1,80,0,0
185472,-60.6060606060606,4,2,2,100,0,1
185787,-60.6060606060606,4,2,1,80,0,1
194314,-66.6666666666667,4,2,1,80,0,1
195577,-66.6666666666667,4,2,1,80,0,0
195893,-200,4,2,1,80,0,0
196208,-66.6666666666667,4,2,1,80,0,0
196524,-200,4,2,1,80,0,0
196840,-66.6666666666667,4,2,1,80,0,0
197156,-200,4,2,1,80,0,0
197472,-66.6666666666667,4,2,1,80,0,0
198103,-60.6060606060606,4,2,1,80,0,1
205366,-76.9230769230769,4,2,1,80,0,1
205682,-66.6666666666667,4,2,1,80,0,0
210735,-66.6666666666667,4,2,1,80,0,1
215708,-66.6666666666667,4,2,1,80,0,0

[Colours]
Combo1 : 0,242,242
Combo2 : 0,0,255
Combo3 : 255,0,0
Combo4 : 255,128,64
Combo5 : 180,180,180

[HitObjects]
449,75,21261,6,0,L|295:94,1,142.500005435944,4|0,3:2|0:0,0:0:0:0:
118,305,21893,1,2,0:0:0:0:
105,288,22051,1,2,0:0:0:0:
96,268,22208,1,2,0:0:0:0:
99,246,22366,6,0,L|184:256,1,71.2500027179719,2|0,0:0|0:0,0:0:0:0:
403,168,22682,2,0,L|318:178,1,71.2500027179719,2|0,0:0|0:0,0:0:0:0:
244,322,22998,2,0,B|268:275|268:275|246:165,1,142.500005435944,2|2,0:0|0:0,0:0:0:0:
443,305,23472,1,2,0:0:0:0:
443,305,23629,1,2,0:0:0:0:
443,305,23787,6,0,P|401:307|372:322,1,71.2500027179719,2|0,0:0|0:0,0:0:0:0:
104,231,24103,2,0,P|139:235|169:253,1,71.2500027179719,2|0,0:0|0:0,0:0:0:0:
345,101,24419,6,0,L|340:177,1,71.2500027179719,2|0,0:0|0:0,0:0:0:0:
115,307,24735,5,0,0:0:0:0:
80,127,24893,2,0,L|64:57,1,71.2500027179719,2|0,0:0|0:0,0:0:0:0:
295,350,25208,5,2,0:0:0:0:
330,170,25366,2,0,L|345:100,1,71.2500027179719,2|0,0:0|0:0,0:0:0:0:
131,229,25682,6,0,P|97:230|55:252,1,71.2500027179719,2|0,0:0|0:0,0:0:0:0:
248,68,25998,2,0,P|295:69|346:102,1,106.875004076958,2|0,0:0|0:0,0:0:0:0:
350,179,26314,6,0,B|387:125|358:58|358:58|354:96|326:121,1,170.999994781494
274,191,26629,6,0,P|294:232|375:251,1,106.875004076958
473,153,26945,1,2,0:0:0:0:
350,179,27103,1,2,0:0:0:0:
430,290,27261,1,2,0:0:0:0:
414,87,27419,6,0,L|320:103,1,71.2500027179719,2|0,0:0|0:0,0:0:0:0:
192,193,27735,1,2,0:0:0:0:
348,255,27893,1,2,0:0:0:0:
256,11,28051,2,0,B|232:57|232:57|268:156,1,142.500005435944,2|0,0:0|0:0,0:0:0:0:
158,251,28524,5,2,0:0:0:0:
139,261,28682,1,2,0:0:0:0:
315,356,28840,5,2,0:0:0:0:
334,366,28998,1,2,0:0:0:0:
166,322,29156,2,0,L|151:241,1,71.2500027179719,2|0,0:0|0:0,0:0:0:0:
334,366,29472,2,0,L|346:295,1,71.2500027179719,2|0,0:0|0:0,0:0:0:0:
250,307,29787,5,2,0:0:0:0:
298,165,29945,2,0,L|324:82,1,71.2500027179719,2|0,0:0|0:0,0:0:0:0:
153,251,30261,5,2,0:0:0:0:
102,110,30419,2,0,L|80:42,1,71.2500027179719,2|0,0:0|0:0,0:0:0:0:
298,165,30735,2,0,L|319:97,1,71.2500027179719,2|0,0:0|0:0,0:0:0:0:
80,42,31051,6,0,P|151:32|99:109,1,213.750008153916,2|0,0:0|0:0,0:0:0:0:
83,180,31366,6,0,B|121:194|157:180|157:180|180:223|180:223|211:215|260:236,1,190,4|0,3:2|0:0,0:0:0:0:
38,352,31998,1,2,0:0:0:0:
25,335,32156,1,2,0:0:0:0:
16,315,32314,1,2,0:0:0:0:
19,293,32472,6,0,P|65:297|119:324,1,95,2|0,0:0|0:0,0:0:0:0:
334,205,32787,2,0,P|286:209|243:229,1,95,2|0,0:0|0:0,0:0:0:0:
85,36,33103,2,0,B|124:-1|124:-1|108:144,1,190,2|0,0:0|0:0,0:0:0:0:
21,92,33577,5,2,0:0:0:0:
201,152,33735,1,2,0:0:0:0:
29,222,33893,5,2,0:0:0:0:
29,222,34051,1,2,0:0:0:0:
201,152,34208,2,0,P|222:109|217:49,1,95,2|0,0:0|0:0,0:0:0:0:
196,285,34524,2,0,P|242:271|283:227,1,95,2|0,0:0|0:0,0:0:0:0:
367,31,34840,5,2,0:0:0:0:
386,201,34998,2,0,L|398:295,1,95,2|0,0:0|0:0,0:0:0:0:
147,93,35314,5,2,0:0:0:0:
128,263,35472,2,0,L|116:357,1,95,2|0,0:0|0:0,0:0:0:0:
413,113,35787,6,0,P|345:123|296:183,1,142.5,2|0,0:0|0:0,0:0:0:0:
283,162,36103,2,0,P|328:109|397:98,1,142.5,2|0,0:0|0:0,0:0:0:0:
339,345,36419,6,0,B|352:188|352:188|336:220|306:234,1,213.750008153916
295,243,36735,6,0,L|411:254,1,95
397,98,37051,5,2,0:0:0:0:
339,345,37208,1,2,0:0:0:0:
235,157,37366,6,0,L|305:164,1,47.5
451,37,37524,2,0,P|366:30|313:79,1,142.5,2|0,0:0|0:0,0:0:0:0:
316,90,37840,6,0,L|307:21,1,47.5
467,61,37998,1,2,0:0:0:0:
107,131,38156,6,0,P|175:119|234:156,1,142.5,2|0,0:0|0:0,0:0:0:0:
247,182,38472,1,0,0:0:0:0:
97,169,38629,6,0,L|76:100,1,47.5,2|0,0:0|0:0,0:0:0:0:
59,40,38787,1,0,0:0:0:0:
121,276,38945,1,2,0:0:0:0:
210,55,39103,5,2,0:0:0:0:
129,259,39261,1,2,0:0:0:0:
46,28,39419,5,0,0:0:0:0:
141,233,39577,1,2,0:0:0:0:
210,29,39735,5,0,0:0:0:0:
152,206,39893,1,2,0:0:0:0:
46,28,40051,5,2,0:0:0:0:
46,28,40208,1,0,0:0:0:0:
183,123,40366,1,2,0:0:0:0:
40,226,40524,2,0,L|22:121,1,95,2|0,0:0|0:0,0:0:0:0:
242,326,40840,6,0,L|256:255,1,57,2|0,0:0|0:0,0:0:0:0:
220,185,41156,6,0,B|345:160|298:281|440:230,1,213.750008153916,2|0,0:0|0:0,0:0:0:0:
354,80,41472,6,0,P|375:117|381:153,1,71.2500027179719,12|0,0:0|0:0,0:0:0:0:
253,97,41629,5,0,3:0:0:0:
487,143,41787,1,0,3:0:0:0:
152,275,41945,6,0,P|133:244|125:210,1,71.2500027179719,12|0,0:0|0:0,0:0:0:0:
252,257,42103,5,0,3:0:0:0:
18,211,42261,1,0,3:0:0:0:
253,97,42419,5,8,0:0:0:0:
8,231,42577,1,0,3:3:0:0:
143,16,42735,6,0,L|152:90,1,71.2500027179719,12|0,0:0|0:0,0:0:0:0:
272,86,42893,5,0,3:0:0:0:
4,40,43051,1,0,3:0:0:0:
254,178,43208,6,0,L|243:251,1,71.2500027179719,12|0,0:0|0:0,0:0:0:0:
113,165,43366,5,0,3:0:0:0:
360,279,43524,1,0,3:0:0:0:
364,22,43682,6,0,B|407:-18|407:-18|388:157,1,213.750008153916,12|0,0:0|0:0,0:0:0:0:
352,197,43998,6,0,P|325:167|319:125,1,71.2500027179719,12|0,0:0|0:0,0:0:0:0:
470,83,44156,5,0,3:0:0:0:
254,229,44314,1,0,3:0:0:0:
175,48,44472,6,0,P|199:73|208:107,1,71.2500027179719,12|0,0:0|0:0,0:0:0:0:
57,162,44629,5,0,3:0:0:0:
273,16,44787,1,0,3:0:0:0:
183,217,44945,6,0,L|256:229,1,71.2500027179719,12|0,0:0|0:0,0:0:0:0:
175,48,45103,5,0,3:0:0:0:
258,360,45261,1,4,3:2:0:0:
424,115,45419,1,0,3:0:0:0:
430,135,45498,1,0,0:0:0:0:
437,154,45577,2,0,L|351:163,1,71.2500027179719,8|0,0:0|0:0,0:0:0:0:
117,1,45735,5,4,3:2:0:0:
111,21,45814,1,0,0:0:0:0:
104,40,45893,2,0,L|174:47,1,71.2500027179719,0|0,3:0|0:0,0:0:0:0:
437,154,46051,1,8,0:0:0:0:
176,286,46208,1,8,0:0:0:0:
285,31,46366,1,0,0:0:0:0:
285,31,46445,1,0,0:0:0:0:
285,31,46524,6,0,L|293:116,1,71.2500027179719,12|0,0:0|0:0,0:0:0:0:
199,370,46682,1,0,0:0:0:0:
225,346,46761,1,0,0:0:0:0:
239,313,46840,1,8,0:0:0:0:
231,278,46919,1,0,0:0:0:0:
206,252,46998,1,0,0:0:0:0:
178,229,47077,1,0,0:0:0:0:
160,198,47156,5,8,0:0:0:0:
155,162,47235,1,0,0:0:0:0:
167,128,47314,1,0,0:0:0:0:
191,101,47393,1,0,0:0:0:0:
223,85,47472,6,0,L|297:95,1,71.2500027179719,8|0,0:0|0:0,0:0:0:0:
206,252,47629,2,0,L|277:261,1,71.2500027179719,8|0,0:0|0:0,0:0:0:0:
404,225,47787,5,12,0:0:0:0:
457,246,47866,1,0,0:0:0:0:
480,298,47945,1,0,0:0:0:0:
457,350,48024,1,0,0:0:0:0:
403,367,48103,1,8,0:0:0:0:
354,339,48182,1,0,0:0:0:0:
348,282,48261,1,0,0:0:0:0:
389,242,48340,1,0,0:0:0:0:
445,230,48419,5,8,0:0:0:0:
495,202,48498,1,0,0:0:0:0:
507,146,48577,1,0,0:0:0:0:
475,98,48656,1,0,0:0:0:0:
420,83,48735,1,8,0:0:0:0:
367,104,48814,1,0,0:0:0:0:
356,160,48893,1,0,0:0:0:0:
319,204,48972,1,0,0:0:0:0:
264,220,49051,6,0,P|226:198|200:160,1,71.2500027179719,12|0,0:0|0:0,0:0:0:0:
196,62,49208,2,0,P|216:23|253:-4,1,71.2500027179719,12|0,0:0|0:0,0:0:0:0:
475,98,49366,6,0,P|480:141|465:185,1,71.2500027179719,12|0,0:0|0:0,0:0:0:0:
354,339,49524,2,0,P|316:360|270:363,1,71.2500027179719,12|0,0:0|0:0,0:0:0:0:
27,269,49682,5,8,0:0:0:0:
68,275,49761,1,8,0:0:0:0:
109,282,49840,1,8,0:0:0:0:
151,288,49919,1,8,0:0:0:0:
225,313,49998,1,8,0:0:0:0:
298,289,50077,1,8,0:0:0:0:
334,217,50156,1,8,0:0:0:0:
300,146,50235,1,8,0:0:0:0:
232,105,50314,6,0,B|168:75|84:114|84:114|123:112|158:148,1,213.750008153916
87,191,50629,2,0,P|52:182|22:160,1,71.2500027179719
79,18,50787,1,0,0:0:0:0:
79,18,50866,1,0,0:0:0:0:
79,18,50945,2,0,P|47:33|22:59,1,71.2500027179719,0|0,3:0|0:0,0:0:0:0:
25,184,51103,2,0,P|54:205|89:214,1,71.2500027179719,0|0,3:0|0:0,0:0:0:0:
314,102,51261,6,0,B|247:130|195:74|195:74|180:120|124:138,1,213.750008153916
176,333,51577,6,0,B|231:261|212:175|212:175|188:206|154:217,1,228,4|0,0:0|0:0,0:0:0:0:
0,110,51893,2,0,B|75:84|144:130|144:130|105:138|86:196,1,228,0|0,3:0|0:0,0:0:0:0:
50,345,52208,1,8,0:0:0:0:
213,156,52366,6,0,P|213:114|181:69,1,76
55,243,52524,2,0,P|96:251|146:228,1,76
39,48,52682,2,0,P|9:78|1:132,1,76
128,241,52840,5,0,3:0:0:0:
197,84,52998,2,0,L|205:6,1,76
257,201,53156,2,0,L|288:129,1,76
276,331,53314,2,0,L|328:276,1,76,0|0,3:0|0:0,0:0:0:0:
128,241,53472,6,0,B|90:245|53:203|53:203|115:138|187:175,1,228,8|0,0:0|0:0,0:0:0:0:
398,189,53787,2,0,B|362:209|318:190|318:190|280:227|280:227|242:216|242:216|217:242|181:241,1,228
133,64,54103,6,0,B|162:11|162:11|216:99|173:183,1,228,0|0,3:0|0:0,0:0:0:0:
151,340,54419,2,0,P|63:317|148:249,1,228,0|0,3:0|0:0,0:0:0:0:
339,267,54735,1,8,0:0:0:0:
251,38,54893,6,0,P|259:75|260:113,1,76
249,241,55051,2,0,P|250:282|267:339,1,76
291,102,55208,2,0,P|290:61|273:4,1,76
257,315,55366,5,0,3:0:0:0:
217,94,55524,2,0,P|257:90|300:107,1,76
331,322,55682,2,0,P|291:326|248:309,1,76
103,163,55840,2,0,L|191:172,1,76,0|0,3:0|0:0,0:0:0:0:
346,195,55998,6,0,B|221:183|284:283|127:257,1,228,8|0,0:0|0:0,0:0:0:0:
319,340,56314,2,0,B|329:298|329:298|308:248,1,76
175,98,56472,2,0,B|165:140|165:140|186:190,1,76
395,367,56629,6,0,B|445:371|473:339|473:339|490:252|419:192,1,228,4|0,3:2|0:0,0:0:0:0:
350,12,56945,2,0,B|334:70|404:123|404:123|347:147|343:213,1,228,0|0,3:0|0:0,0:0:0:0:
395,367,57261,1,8,0:0:0:0:
511,196,57419,2,0,L|435:207,1,76
213,105,57577,2,0,L|288:116,1,76
352,268,57735,2,0,P|342:219|354:170,1,76
436,32,57893,5,0,3:0:0:0:
345,193,58051,2,0,P|342:231|352:268,1,76
292,125,58208,2,0,P|270:156|260:193,1,76
273,42,58366,2,0,P|239:60|214:89,1,76,0|0,3:0|0:0,0:0:0:0:
140,286,58524,2,0,B|179:326|195:372|195:372|244:332|253:231,1,228,8|0,0:0|0:0,0:0:0:0:
126,103,58840,6,0,P|29:74|78:155,1,228,0|0,3:0|0:0,0:0:0:0:
268,144,59156,6,0,B|225:180|187:160|187:160|163:198|163:198|126:198|126:198|104:231|64:237,1,228,0|0,3:0|0:0,0:0:0:0:
225,349,59472,6,0,B|258:348|289:374|289:374|323:277|257:210,1,228,0|0,3:0|0:0,0:0:0:0:
126,103,59787,1,8,0:0:0:0:
332,7,59945,1,0,0:0:0:0:
107,17,60103,2,0,L|196:31,1,76
380,83,60261,2,0,L|291:97,1,76
105,147,60419,5,0,3:0:0:0:
352,240,60577,1,0,0:0:0:0:
125,326,60735,5,0,0:0:0:0:
372,233,60893,1,0,3:0:0:0:
256,104,61051,6,0,L|265:39,2,56.9999982604981,0|0|0,3:0|3:0|3:0,0:0:0:0:
425,178,61366,6,0,B|400:168|370:168|370:168|338:191|338:191|302:175|302:175|278:194|238:188,1,185.249991519928,8|0,0:0|0:0,0:0:0:0:
175,235,61682,6,0,P|264:247|191:310,1,228,4|0,3:2|0:0,0:0:0:0:
21,254,61998,2,0,B|82:211|174:235|174:235|130:254|121:298,1,228,0|0,3:0|0:0,0:0:0:0:
84,372,62314,1,8,0:0:0:0:
132,44,62472,6,0,P|120:80|119:147,1,76
5,179,62629,2,0,P|16:215|20:253,1,76
188,161,62787,2,0,P|176:197|172:235,1,76
84,372,62945,1,0,3:0:0:0:
289,183,63103,2,0,L|301:96,1,76
107,281,63261,2,0,L|97:206,1,76
261,356,63419,1,0,3:0:0:0:
169,56,63577,2,0,B|213:14|213:14|194:195,1,228,8|0,0:0|0:0,0:0:0:0:
190,264,63893,6,0,P|151:180|248:217,1,228
379,297,64208,6,0,B|351:298|316:286|316:286|290:324|290:324|247:317|247:317|209:350|157:330,1,228,0|0,3:0|0:0,0:0:0:0:
3,184,64524,2,0,B|28:189|65:183|65:183|84:225|84:225|127:226|127:226|147:262|192:264,1,228,0|0,3:0|0:0,0:0:0:0:
47,375,64840,1,8,0:0:0:0:
37,113,64998,2,0,P|85:115|117:131,1,76
267,180,65156,2,0,P|219:182|187:198,1,76
60,362,65314,2,0,L|43:286,1,76
186,103,65472,5,0,3:0:0:0:
32,207,65629,2,0,P|59:210|108:235,1,76
214,97,65787,2,0,P|241:94|290:69,1,76
253,299,65945,1,0,3:0:0:0:
462,143,66103,6,0,B|411:148|365:98|365:98|344:169|265:172,1,228,8|0,0:0|0:0,0:0:0:0:
274,79,66419,2,0,P|292:37|318:14,1,76
462,143,66577,1,0,0:0:0:0:
89,208,66735,6,0,B|137:224|170:205|170:205|175:249|207:272,1,152,0|0,3:0|0:0,0:0:0:0:
462,143,67051,2,0,B|414:159|381:140|381:140|376:184|344:207,1,152,0|0,3:0|0:0,0:0:0:0:
303,139,67287,1,0,0:0:0:0:
303,139,67366,2,0,P|291:103|298:53,1,76,8|0,0:0|0:0,0:0:0:0:
388,2,67524,2,0,P|424:10|463:43,1,76
276,217,67682,6,0,P|243:197|216:154,1,76
396,73,67840,2,0,P|396:110|374:156,1,76
203,53,67998,5,0,3:0:0:0:
326,95,68156,1,0,0:0:0:0:
221,167,68314,1,0,0:0:0:0:
343,22,68472,2,0,P|383:49|398:81,1,76,0|0,3:0|0:0,0:0:0:0:
383,342,68629,6,0,B|332:374|332:374|348:186,1,228,8|0,0:0|0:0,0:0:0:0:
361,135,68945,6,0,P|402:163|423:214,1,76
493,350,69103,1,0,0:0:0:0:
141,164,69261,5,0,3:0:0:0:
181,143,69340,1,0,0:0:0:0:
225,151,69419,1,0,0:0:0:0:
260,179,69498,1,0,0:0:0:0:
280,219,69577,1,0,0:0:0:0:
317,244,69656,1,0,0:0:0:0:
360,258,69735,1,0,3:0:0:0:
402,240,69814,1,0,0:0:0:0:
430,185,69893,1,8,0:0:0:0:
393,136,69972,1,0,0:0:0:0:
334,118,70051,5,0,0:0:0:0:
290,76,70129,1,0,0:0:0:0:
310,18,70208,1,0,3:0:0:0:
370,18,70287,1,0,0:0:0:0:
407,65,70366,1,0,0:0:0:0:
376,117,70445,1,0,0:0:0:0:
322,170,70524,5,0,3:0:0:0:
332,245,70603,1,0,0:0:0:0:
405,264,70682,1,0,0:0:0:0:
455,206,70761,1,0,0:0:0:0:
413,142,70840,1,0,0:0:0:0:
337,149,70919,1,0,0:0:0:0:
277,196,70998,2,0,P|235:198|192:180,1,76,0|0,3:0|0:0,0:0:0:0:
33,42,71156,5,8,0:0:0:0:
57,71,71235,1,0,0:0:0:0:
93,81,71314,1,0,3:0:0:0:
129,71,71393,1,0,0:0:0:0:
162,53,71472,2,0,B|219:5|322:42|322:42|290:54|272:87,1,228
307,221,71787,6,0,B|366:261|366:261|400:170|334:103,1,228,4|0,3:2|0:0,0:0:0:0:
235,190,72103,6,0,P|232:244|294:302,1,123.499994346619,0|0,3:0|0:0,0:0:0:0:
511,142,72419,2,0,L|449:154,1,61.7499971733095,8|0,0:0|0:0,0:0:0:0:
307,221,72577,2,0,L|367:232,1,61.7499971733095
421,16,72735,2,0,B|372:35|372:35|337:89|381:165,1,185.249991519928
433,211,73051,6,0,P|447:181|446:130,1,61.7499971733095,0|0,3:0|0:0,0:0:0:0:
271,64,73208,2,0,L|193:74,1,61.7499971733095
286,336,73366,2,0,P|314:268|296:201,1,123.499994346619,0|0,0:0|3:0,0:0:0:0:
38,119,73682,2,0,B|77:117|103:146|103:146|141:132|141:132|178:166|224:156,1,185.249991519928,8|0,0:0|0:0,0:0:0:0:
367,104,73998,6,0,B|308:55|221:81|221:81|258:91|281:130,1,213.750008153916
315,301,74314,2,0,B|333:167|333:167|316:187|279:197,1,185.249991519928,0|0,3:0|0:0,0:0:0:0:
223,223,74629,2,0,L|349:236,1,123.499994346619,0|0,3:0|0:0,0:0:0:0:
503,267,74945,2,0,L|429:278,1,61.7499971733095,8|0,0:0|0:0,0:0:0:0:
430,81,75103,2,0,L|420:142,1,61.7499971733095
376,349,75261,2,0,B|401:212|401:212|363:235|319:239,1,199.499993911743
341,155,75577,6,0,L|355:78,1,61.7499971733095,0|0,3:0|0:0,0:0:0:0:
441,20,75735,2,0,L|429:80,1,61.7499971733095
401,213,75893,6,0,L|415:136,1,61.7499971733095
501,78,76051,2,0,L|489:138,1,61.7499971733095
376,349,76208,2,0,B|410:358|430:386|430:386|458:328|435:260,1,185.249991519928,8|0,0:0|0:0,0:0:0:0:
353,275,76524,6,0,L|257:286,1,76
101,303,76682,1,0,0:0:0:0:
191,46,76840,6,0,B|210:85|183:127|183:127|208:160|208:160|188:200|188:200|203:233|182:278,1,228,0|0,3:0|0:0,0:0:0:0:
189,294,77156,1,0,3:0:0:0:
54,98,77314,2,0,P|86:83|131:79,1,76
191,46,77472,2,0,P|226:57|256:81,1,76,8|0,0:0|0:0,0:0:0:0:
330,98,77629,2,0,P|348:130|356:167,1,76
256,81,77787,6,0,P|226:58|191:46,1,76
126,78,77945,2,0,P|88:82|54:98,1,76
189,294,78103,6,0,B|223:251|223:251|226:201|226:201|189:150,1,152,0|0,3:0|0:0,0:0:0:0:
11,231,78419,2,0,B|46:244|46:244|92:229,1,76
126,78,78577,2,0,B|113:113|113:113|128:159,1,76,0|0,3:0|0:0,0:0:0:0:
151,363,78735,6,0,B|188:326|188:326|188:264|143:214,1,152,8|0,0:0|0:0,0:0:0:0:
12,94,79051,2,0,B|54:111|100:83|100:83|125:149|125:149|161:140|203:157,1,228
388,323,79366,6,0,P|483:300|413:249,1,228,0|0,3:0|0:0,0:0:0:0:
240,204,79682,2,0,B|307:155|397:165|397:165|358:177|345:210,1,228,0|0,3:0|0:0,0:0:0:0:
407,322,79998,2,0,L|419:228,1,76,8|0,0:0|0:0,0:0:0:0:
386,90,80156,2,0,L|398:182,1,76
306,302,80314,6,0,B|274:352|274:352|238:333|199:259|244:197,1,228
370,46,80629,2,0,B|414:6|414:6|429:101|429:101|390:175,1,228,0|0,3:0|0:0,0:0:0:0:
376,244,80945,2,0,P|317:191|325:123,1,152,0|0,0:0|3:0,0:0:0:0:
489,25,81261,1,0,3:0:0:0:
512,72,81340,1,0,3:0:0:0:
496,123,81419,1,0,3:0:0:0:
176,147,81577,2,0,B|253:97|323:127|323:127|286:149|270:192,1,228,0|0,3:0|0:0,0:0:0:0:
369,340,81893,6,0,B|342:277|280:272|280:272|342:264|369:183,1,228,4|0,3:2|0:0,0:0:0:0:
212,325,82208,2,0,P|246:351|286:357,1,76,0|0,3:0|0:0,0:0:0:0:
274,180,82366,2,0,P|232:192|204:221,1,76
434,240,82524,6,0,P|440:197|427:159,1,76,8|0,0:0|0:0,0:0:0:0:
344,54,82682,2,0,P|304:36|264:40,1,76
69,118,82840,1,0,0:0:0:0:
196,241,82998,1,0,0:0:0:0:
162,35,83156,6,0,L|177:118,1,76,0|0,3:0|0:0,0:0:0:0:
293,197,83314,2,0,L|279:271,1,76
18,288,83472,6,0,P|99:290|141:348,1,152,0|0,0:0|3:0,0:0:0:0:
153,377,83708,1,0,0:0:0:0:
153,377,83787,2,0,P|138:300|65:267,1,152,8|0,0:0|0:0,0:0:0:0:
261,90,84103,2,0,B|273:139|255:178|255:178|280:224|280:224|257:264|276:324,1,228
434,319,84419,6,0,B|460:290|502:291|502:291|421:235|353:274,1,228,0|0,3:0|0:0,0:0:0:0:
261,305,84735,2,0,B|246:261|269:221|269:221|244:175|244:175|262:136|250:87,1,228,0|0,3:0|0:0,0:0:0:0:
248,49,85051,1,8,0:0:0:0:
66,197,85208,2,0,L|144:208,1,76
399,158,85366,2,0,L|323:168,1,76
140,69,85524,1,0,3:0:0:0:
269,223,85682,5,0,0:0:0:0:
329,52,85840,2,0,L|240:73,1,76,0|0,3:0|0:0,0:0:0:0:
22,190,85998,2,0,B|77:194|106:232|106:232|158:169|143:97,1,228
109,42,86314,2,0,P|81:76|72:128,1,76,8|0,0:0|0:0,0:0:0:0:
33,276,86472,2,0,P|66:303|119:313,1,76
354,217,86629,2,0,B|306:163|215:171|215:171|259:189|275:239,1,228,0|0,3:0|0:0,0:0:0:0:
433,372,86945,6,0,B|462:298|424:226|424:226|408:280|355:288,1,228,4|0,3:2|0:0,0:0:0:0:
342,301,87261,2,0,L|436:313,1,76
482,111,87419,1,0,3:0:0:0:
292,98,87577,6,0,L|388:119,1,76,8|0,0:0|0:0,0:0:0:0:
500,211,87735,2,0,L|404:232,1,76
284,302,87893,2,0,L|263:206,1,76,0|0,3:0|0:0,0:0:0:0:
245,44,88051,1,0,0:0:0:0:
440,130,88208,6,0,L|355:111,1,76,0|0,3:0|0:0,0:0:0:0:
94,161,88366,2,0,L|179:142,1,76
284,302,88524,2,0,L|265:217,1,76
292,41,88682,1,0,3:0:0:0:
154,325,88840,6,0,B|224:383|309:358|309:358|278:289,1,228,8|0,0:0|0:0,0:0:0:0:
396,290,89156,2,0,P|332:316|274:294,1,123.499994346619
133,78,89472,5,0,3:0:0:0:
175,60,89551,1,0,0:0:0:0:
219,68,89629,1,0,0:0:0:0:
247,103,89708,1,0,0:0:0:0:
238,147,89787,1,0,0:0:0:0:
206,179,89866,1,0,0:0:0:0:
162,193,89945,1,0,3:0:0:0:
135,230,90024,1,0,0:0:0:0:
152,288,90103,5,8,0:0:0:0:
204,318,90182,1,0,0:0:0:0:
260,296,90261,1,0,0:0:0:0:
306,256,90340,1,0,0:0:0:0:
365,242,90419,1,0,3:0:0:0:
415,276,90498,1,0,0:0:0:0:
450,325,90577,2,0,L|463:243,1,76
429,59,90735,6,0,L|414:5,2,38,0|0|0,3:0|0:0|0:0,0:0:0:0:
437,93,90893,2,0,P|398:91|349:106,1,76
111,145,91051,6,0,L|57:160,2,38
144,144,91208,2,0,P|146:106|137:69,1,76,0|0,3:0|0:0,0:0:0:0:
305,10,91366,2,0,B|418:22,1,113.999996520996,8|0,0:0|0:0,0:0:0:0:
256,260,91682,1,0,0:0:0:0:
305,10,91840,5,0,0:0:0:0:
305,10,91919,1,0,0:0:0:0:
305,10,91998,2,0,B|348:57|348:57|319:195,1,190,6|2,3:2|0:0,0:0:0:0:
161,142,92472,5,0,3:0:0:0:
322,180,92629,1,8,0:0:0:0:
182,241,92787,1,0,3:0:0:0:
257,108,92945,1,2,3:0:0:0:
255,358,93103,6,0,B|229:312|229:312|261:206,1,142.5,2|0,0:0|0:0,0:0:0:0:
254,226,93419,2,0,L|356:249,1,95,2|0,0:0|0:0,0:0:0:0:
509,156,93735,2,0,L|416:176,1,95,2|8,3:2|0:0,0:0:0:0:
263,119,94051,1,0,0:0:0:0:
400,198,94208,1,0,0:0:0:0:
314,312,94366,1,0,0:0:0:0:
336,158,94524,6,0,L|351:57,1,95,2|2,3:2|0:0,0:0:0:0:
173,239,94840,2,0,L|159:145,1,95,2|0,0:0|3:0,0:0:0:0:
324,343,95156,2,0,L|338:249,1,95,10|0,0:0|0:0,0:0:0:0:
367,38,95472,5,0,3:0:0:0:
136,66,95629,2,0,P|96:94|77:146,1,95,2|0,0:0|3:0,0:0:0:0:
252,305,95945,5,2,0:0:0:0:
255,112,96103,2,0,L|243:-5,1,95,2|0,0:0|3:0,0:0:0:0:
393,133,96419,6,0,B|287:114|337:217|199:175,1,185.249991519928,10|0,0:0|0:0,0:0:0:0:
143,92,96735,2,0,B|210:55|277:71|277:71|251:117,1,185.249991519928,2|0,3:0|0:0,0:0:0:0:
205,292,97051,2,0,B|168:225|184:158|184:158|230:184,1,185.249991519928,6|0,3:2|0:0,0:0:0:0:
257,198,97366,6,0,L|149:207,1,95,2|0,0:0|3:0,0:0:0:0:
7,157,97682,1,10,0:0:0:0:
143,92,97840,1,2,0:0:0:0:
76,253,97998,1,2,3:0:0:0:
13,17,98156,6,0,B|89:24|89:24|113:70|113:70|194:83,1,190,2|0,0:0|0:0,0:0:0:0:
359,120,98629,1,2,0:0:0:0:
232,233,98787,2,0,L|216:260,2,23.75,0|0|0,3:0|0:0|0:0,0:0:0:0:
248,211,98945,2,0,L|255:162,1,47.5,8|0,0:0|0:0,0:0:0:0:
272,20,99103,1,2,0:0:0:0:
434,178,99261,1,2,0:0:0:0:
248,211,99419,1,2,0:0:0:0:
352,353,99577,6,0,L|368:241,1,95,2|0,3:2|0:0,0:0:0:0:
275,45,99893,1,2,0:0:0:0:
463,113,100051,1,2,0:0:0:0:
254,163,100208,2,0,B|348:173,1,95,10|0,0:0|0:0,0:0:0:0:
275,45,100524,5,0,3:0:0:0:
275,45,100682,1,2,0:0:0:0:
240,360,100840,6,0,B|232:317|264:289|264:289|241:237|241:237|267:196|242:152,1,213.750008153916,0|0,3:0|0:0,0:0:0:0:
178,195,101156,2,0,P|168:224|172:271,1,71.2500027179719
365,258,101314,1,0,3:0:0:0:
125,20,101472,5,8,0:0:0:0:
68,26,101551,1,8,0:0:0:0:
31,68,101629,1,8,0:0:0:0:
46,122,101708,1,8,0:0:0:0:
96,147,101787,1,8,0:0:0:0:
114,141,101866,5,8,0:0:0:0:
127,136,101945,5,8,0:0:0:0:
140,131,102024,5,8,0:0:0:0:
153,125,102103,5,8,0:0:0:0:
256,192,107156,12,0,111893,0:0:0:0:
119,48,112208,6,0,L|110:129,1,71.2500027179719,12|0,0:0|0:0,0:0:0:0:
227,63,112366,5,0,3:0:0:0:
13,128,112524,1,0,3:0:0:0:
311,273,112682,6,0,L|320:192,1,71.2500027179719,8|0,0:0|0:0,0:0:0:0:
203,258,112840,5,0,3:0:0:0:
417,193,112998,1,0,3:0:0:0:
227,63,113156,5,8,0:0:0:0:
430,212,113314,1,0,0:3:0:0:
178,181,113472,6,0,L|99:195,1,71.2500027179719,12|0,0:0|0:0,0:0:0:0:
235,44,113629,5,0,3:0:0:0:
203,323,113787,1,0,3:0:0:0:
343,149,113945,6,0,P|356:117|354:75,1,71.2500027179719,8|0,0:0|0:0,0:0:0:0:
213,43,114103,5,0,3:0:0:0:
492,97,114261,1,0,3:0:0:0:
363,229,114419,6,0,B|320:233|285:212|285:212|248:249|248:249|209:234|209:234|156:254,1,213.750008153916,8|0,0:0|0:0,0:0:0:0:
111,286,114735,2,0,P|103:256|111:207,1,71.2500027179719,12|0,0:0|0:0,0:0:0:0:
238,55,114893,5,0,3:0:0:0:
309,329,115051,1,0,3:0:0:0:
390,117,115208,6,0,P|402:82|404:43,1,71.2500027179719,8|0,0:0|0:0,0:0:0:0:
251,43,115366,5,0,3:0:0:0:
496,197,115524,1,0,3:0:0:0:
311,96,115682,5,8,0:0:0:0:
435,292,115840,1,0,3:0:0:0:
445,55,115998,6,0,P|373:50|303:113,1,152,4|0,3:2|0:0,0:0:0:0:
400,195,116235,1,0,3:0:0:0:
434,211,116314,2,0,L|447:126,1,76
120,119,116472,6,0,P|192:114|262:177,1,152,4|0,3:2|0:0,0:0:0:0:
165,259,116708,1,0,3:0:0:0:
131,275,116787,2,0,L|115:191,1,76
434,211,116945,6,0,P|359:206|300:251,1,152,4|0,3:2|3:0,0:0:0:0:
389,351,117182,1,0,3:0:0:0:
423,367,117261,2,0,L|436:292,1,76,8|0,0:0|0:0,0:0:0:0:
477,57,117419,1,0,0:0:0:0:
443,39,117498,1,0,0:0:0:0:
405,41,117577,1,8,0:0:0:0:
370,58,117656,1,0,0:0:0:0:
354,92,117735,1,0,0:0:0:0:
358,129,117814,1,0,0:0:0:0:
339,186,117893,5,8,0:0:0:0:
280,203,117972,1,0,0:0:0:0:
221,185,118051,1,0,0:0:0:0:
194,131,118129,1,0,0:0:0:0:
222,77,118208,1,8,0:0:0:0:
280,60,118287,1,0,0:0:0:0:
334,87,118366,1,8,0:0:0:0:
345,146,118445,1,0,0:0:0:0:
310,204,118524,5,8,0:0:0:0:
273,261,118603,1,0,0:0:0:0:
298,324,118682,1,0,0:0:0:0:
365,337,118761,1,0,0:0:0:0:
417,293,118840,1,8,0:0:0:0:
397,227,118919,1,0,0:0:0:0:
327,196,118998,1,0,0:0:0:0:
255,223,119077,1,0,0:0:0:0:
187,187,119156,5,8,0:0:0:0:
168,113,119235,1,0,0:0:0:0:
216,54,119314,1,0,0:0:0:0:
291,47,119393,1,0,0:0:0:0:
340,104,119472,2,0,B|289:132|241:105|241:105|200:125|200:125|157:106|104:130,1,228,8|0,0:0|0:0,0:0:0:0:
169,194,119787,6,0,P|178:233|201:268,1,76,8|0,0:0|0:0,0:0:0:0:
308,353,119945,2,0,P|346:362|388:361,1,76,8|0,0:0|0:0,0:0:0:0:
367,14,120103,6,0,P|331:34|304:65,1,76,8|0,0:0|0:0,0:0:0:0:
266,211,120261,2,0,P|265:251|279:291,1,76,8|0,0:0|0:0,0:0:0:0:
505,75,120419,5,8,0:0:0:0:
462,57,120498,1,8,0:0:0:0:
416,60,120577,1,8,0:0:0:0:
383,91,120656,1,8,0:0:0:0:
331,147,120735,5,8,0:0:0:0:
254,145,120814,1,8,0:0:0:0:
193,190,120893,1,8,0:0:0:0:
182,265,120972,1,8,0:0:0:0:
234,320,121051,5,0,0:0:0:0:
37,190,121208,1,0,0:0:0:0:
260,122,121366,1,0,0:0:0:0:
113,323,121524,1,0,0:0:0:0:
123,30,121682,1,8,0:0:0:0:
122,45,121761,1,8,0:0:0:0:
121,60,121840,1,8,0:0:0:0:
120,75,121919,1,8,0:0:0:0:
89,109,121998,6,0,P|177:109|257:147,1,170.999994781494
484,338,122314,6,0,P|408:337|368:229,1,199.499993911743,0|0,3:0|0:0,0:0:0:0:
456,193,122629,6,0,L|445:278,1,71.25,8|0,0:0|0:0,0:0:0:0:
95,182,122945,6,0,B|141:176|171:199|171:199|223:171|223:171|247:194|301:194,1,199.499993911743,0|0,3:0|0:0,0:0:0:0:
130,339,123261,6,0,L|115:255,1,71.25,8|0,0:0|0:0,0:0:0:0:
222,18,123577,6,0,B|252:-25|252:-25|274:133,1,199.499993911743,0|0,3:0|0:0,0:0:0:0:
308,323,123893,2,0,B|349:342|383:341|383:341|401:271|349:198,1,213.750008153916,8|0,0:0|0:0,0:0:0:0:
280,192,124208,2,0,L|210:215,1,71.2500027179719,0|0,3:0|0:0,0:0:0:0:
308,323,124366,2,0,L|329:252,1,71.2500027179719,0|0,3:0|0:0,0:0:0:0:
186,282,124524,2,0,L|230:338,1,71.2500027179719,8|0,0:0|0:0,0:0:0:0:
420,42,124840,6,0,B|379:23|345:24|345:24|327:94|380:162,1,199.499993911743,4|0,3:2|0:0,0:0:0:0:
454,282,125156,2,0,P|499:204|485:140,1,132.999995941162,8|0,0:0|0:0,0:0:0:0:
495,164,125393,1,0,0:0:0:0:
495,164,125472,2,0,L|420:177,1,66.4999979705811
215,180,125629,2,0,L|280:191,1,66.4999979705811,0|0,3:0|0:0,0:0:0:0:
425,203,125787,1,8,0:0:0:0:
250,46,125945,2,0,L|299:89,1,66.4999979705811
317,281,126103,5,0,3:0:0:0:
489,40,126261,1,0,0:0:0:0:
488,66,126340,1,0,0:0:0:0:
486,92,126419,2,0,L|411:105,1,66.4999979705811,8|0,0:0|0:0,0:0:0:0:
128,112,126577,5,0,0:0:0:0:
173,138,126656,1,0,0:0:0:0:
219,163,126735,2,0,L|295:197,1,66.4999979705811
352,36,126893,1,0,3:0:0:0:
267,276,127051,6,0,P|300:274|342:251,1,66.4999979705811,8|0,0:0|0:0,0:0:0:0:
360,161,127208,2,0,P|342:133|300:109,1,66.4999979705811
77,78,127366,6,0,B|34:131|34:204|34:204|64:175|92:168,1,199.499993911743,0|0,3:0|0:0,0:0:0:0:
279,190,127682,2,0,B|213:216|164:181|164:181|156:233|101:250,1,199.499993911743,8|0,0:0|0:0,0:0:0:0:
86,169,127998,2,0,P|103:137|137:108,1,66.4999979705811
293,100,128156,2,0,L|222:108,1,66.4999979705811,0|0,3:0|0:0,0:0:0:0:
75,153,128314,6,0,P|92:121|126:92,1,66.4999979705811,8|0,0:0|0:0,0:0:0:0:
282,84,128472,2,0,L|211:92,1,66.4999979705811
172,305,128629,6,0,B|146:267|146:267|170:165,1,132.999995941162,0|0,3:0|0:0,0:0:0:0:
165,182,128866,1,0,0:0:0:0:
165,182,128945,2,0,P|196:197|242:200,1,66.4999979705811,8|0,0:0|0:0,0:0:0:0:
477,49,129103,5,0,0:0:0:0:
430,73,129182,1,0,0:0:0:0:
383,96,129261,2,0,L|321:120,1,66.4999979705811
165,182,129419,1,0,3:0:0:0:
316,327,129577,2,0,L|326:257,1,66.4999979705811,8|0,0:0|0:0,0:0:0:0:
162,202,129735,2,0,L|152:132,1,66.4999979705811
291,29,129893,6,0,B|239:-7|239:-7|261:129,1,199.499993911743,4|0,3:2|0:0,0:0:0:0:
413,152,130208,2,0,B|305:114|353:233|221:203,1,199.499993911743,8|0,0:0|0:0,0:0:0:0:
196,203,130524,1,0,0:0:0:0:
57,57,130682,1,0,3:0:0:0:
57,57,130761,1,0,0:0:0:0:
57,57,130840,2,0,L|136:70,1,66.4999979705811,8|0,0:0|0:0,0:0:0:0:
186,268,130998,2,0,L|198:182,1,66.4999979705811
266,59,131156,5,0,3:0:0:0:
34,138,131314,2,0,L|113:151,1,66.4999979705811
236,205,131472,1,8,0:0:0:0:
189,39,131629,2,0,P|194:71|188:104,1,66.4999979705811
97,181,131787,2,0,P|91:213|97:246,1,66.4999979705811
140,359,131945,1,0,3:0:0:0:
321,227,132103,2,0,L|254:234,1,66.4999979705811,8|0,0:0|0:0,0:0:0:0:
97,181,132261,2,0,L|163:188,1,66.4999979705811
410,112,132419,6,0,B|453:73|453:73|387:31|314:62,1,199.499993911743,4|0,3:2|0:0,0:0:0:0:
257,135,132735,6,0,P|307:156|356:142,1,85.4999973907472,8|0,0:0|0:0,0:0:0:0:
385,330,133051,6,0,B|441:309|441:309|458:272|444:210|382:168,1,199.499993911743,4|0,3:2|0:0,0:0:0:0:
314,305,133366,6,0,P|314:349|346:395,1,85.4999973907472,8|0,0:0|0:0,0:0:0:0:
402,183,133682,6,0,L|324:190,1,66.4999979705811,0|0,3:0|0:0,0:0:0:0:
157,206,133840,2,0,L|219:212,1,66.4999979705811
408,165,133998,6,0,L|334:176,1,66.4999979705811,8|0,0:0|0:0,0:0:0:0:
163,188,134156,2,0,L|228:197,1,66.4999979705811
288,80,134314,6,0,L|299:25,2,52.2500015945435,0|0|0,3:0|3:0|3:0,0:0:0:0:
254,340,134629,6,0,B|297:374|297:374|339:327|333:265|278:216,1,213.750008153916,8|0,0:0|0:0,0:0:0:0:
163,188,134945,6,0,P|121:193|88:216,1,66.4999979705811,0|0,3:0|0:0,0:0:0:0:
45,297,135103,2,0,P|52:338|78:369,1,66.4999979705811
254,340,135261,6,0,B|261:307|236:267|236:267|260:232|260:232|239:197|254:137,1,199.499993911743,8|0,0:0|0:0,0:0:0:0:
370,55,135577,2,0,P|376:94|370:129,1,66.4999979705811
176,108,135735,2,0,P|200:85|231:71,1,66.4999979705811,0|0,3:0|0:0,0:0:0:0:
320,182,135893,2,0,P|335:211|341:244,1,66.4999979705811,8|0,0:0|0:0,0:0:0:0:
134,174,136051,2,0,P|109:143|96:109,1,66.4999979705811
292,26,136208,5,0,3:0:0:0:
240,274,136366,2,0,L|226:204,1,66.4999979705811
200,26,136524,1,8,0:0:0:0:
425,100,136682,6,0,L|349:115,1,66.4999979705811
176,108,136840,2,0,L|241:120,1,66.4999979705811
423,179,136998,1,0,3:0:0:0:
246,286,137156,1,8,0:0:0:0:
319,61,137314,2,0,L|331:138,1,66.4999979705811
345,332,137472,6,0,B|353:207|353:207|312:217|276:193,1,199.499993911743,0|0,3:0|0:0,0:0:0:0:
73,334,137787,2,0,B|126:353|176:308|176:308|202:365|258:359,1,199.499993911743,8|0,0:0|0:0,0:0:0:0:
312,280,138103,2,0,L|230:287,1,66.4999979705811
44,249,138261,2,0,L|108:263,1,66.4999979705811,0|0,3:0|0:0,0:0:0:0:
252,178,138419,1,8,0:0:0:0:
241,359,138577,1,0,0:0:0:0:
44,249,138735,5,0,3:0:0:0:
244,111,138893,2,0,L|254:194,1,66.4999979705811
241,359,139051,2,0,L|248:292,1,66.4999979705811,8|0,0:0|0:0,0:0:0:0:
120,104,139208,6,0,L|130:187,1,66.4999979705811
117,352,139366,2,0,L|124:285,1,66.4999979705811
315,194,139524,2,0,L|253:226,1,66.4999979705811,0|0,3:0|0:0,0:0:0:0:
120,104,139682,2,0,L|130:187,1,66.4999979705811,8|0,0:0|0:0,0:0:0:0:
241,359,139840,1,0,0:0:0:0:
267,89,139998,6,0,B|322:60|322:60|345:136|313:196,1,199.499993911743,4|0,3:2|0:0,0:0:0:0:
127,170,140314,2,0,B|96:124|96:124|174:102|233:157,1,199.499993911743,8|0,0:0|0:0,0:0:0:0:
168,241,140629,2,0,P|138:250|100:246,1,66.4999979705811
128,32,140787,1,0,3:0:0:0:
325,73,140945,6,0,L|254:89,1,66.4999979705811,8|0,0:0|0:0,0:0:0:0:
62,155,141103,2,0,L|126:169,1,66.4999979705811
264,203,141261,1,0,3:0:0:0:
174,10,141419,1,0,0:0:0:0:
174,10,141498,1,0,0:0:0:0:
174,10,141577,6,0,L|163:80,1,66.4999979705811,8|0,0:0|0:0,0:0:0:0:
162,312,141735,2,0,L|176:245,1,66.4999979705811
341,97,141893,2,0,L|275:112,1,66.4999979705811
62,155,142051,1,0,3:0:0:0:
299,236,142208,1,8,0:0:0:0:
163,75,142366,1,0,0:0:0:0:
151,359,142524,6,0,B|206:382|206:382|173:236,1,199.499993911743,0|0,3:0|0:0,0:0:0:0:
3,195,142840,2,0,B|53:139|137:169|137:169|112:181|98:211,1,199.499993911743,0|0,3:0|0:0,0:0:0:0:
55,373,143156,2,0,B|22:341|22:341|20:287|53:237,1,132.999995941162,8|0,0:0|0:0,0:0:0:0:
265,315,143472,1,0,0:0:0:0:
265,315,143629,1,0,0:0:0:0:
261,22,143787,6,0,B|232:66|232:66|250:148,1,132.999995941162,0|0,3:0|0:0,0:0:0:0:
347,290,144103,2,0,L|368:214,1,66.4999979705811,8|0,0:0|0:0,0:0:0:0:
176,295,144261,2,0,L|158:230,1,66.4999979705811
312,81,144419,1,0,3:0:0:0:
312,81,144498,1,0,3:0:0:0:
312,81,144577,1,0,3:0:0:0:
489,261,144735,6,0,B|425:208|365:225|365:225|391:286,1,199.499993911743,8|0,0:0|0:0,0:0:0:0:
422,375,145051,5,4,3:2:0:0:
493,308,150103,6,0,L|486:239,1,47.5,4|0,3:2|0:0,0:0:0:0:
480,128,155156,6,0,P|407:132|346:70,1,152,4|0,3:2|0:0,0:0:0:0:
71,101,155787,1,2,0:0:0:0:
58,118,155945,1,2,0:0:0:0:
49,138,156102,1,2,0:0:0:0:
45,160,156261,2,0,L|127:169,1,76,2|0,0:0|0:0,0:0:0:0:
350,82,156577,2,0,L|267:92,1,76,2|0,0:0|0:0,0:0:0:0:
224,285,156893,2,0,L|200:129,1,152,2|0,0:0|0:0,0:0:0:0:
377,197,157366,1,2,0:0:0:0:
377,197,157524,1,2,0:0:0:0:
317,341,157682,6,0,L|302:240,1,76,2|2,0:0|0:0,0:0:0:0:
446,326,157998,1,2,0:0:0:0:
446,326,158156,1,2,0:0:0:0:
224,285,158314,5,2,0:0:0:0:
224,285,158472,1,2,0:0:0:0:
395,71,158629,5,2,0:0:0:0:
430,251,158787,2,0,L|446:327,1,76,2|0,0:0|0:0,0:0:0:0:
122,146,159102,5,2,0:0:0:0:
302,181,159261,2,0,L|376:196,1,76,2|0,0:0|0:0,0:0:0:0:
231,360,159577,6,0,L|222:271,1,76,2|0,0:0|0:0,0:0:0:0:
104,67,159893,6,0,P|172:84|203:146,1,142.5,2|0,0:0|0:0,0:0:0:0:
222,131,160208,2,0,P|190:69|123:53,1,142.5
141,132,160524,6,0,B|105:194|128:263|128:263|166:228,1,170.999994781494
189,225,160840,6,0,L|97:233,1,76,2|0,0:0|0:0,0:0:0:0:
93,40,161156,1,2,0:0:0:0:
297,125,161314,6,0,L|203:132,1,76,2|0,0:0|0:0,0:0:0:0:
55,150,161629,1,2,0:0:0:0:
200,265,161787,1,2,0:0:0:0:
134,5,161945,2,0,B|107:41|107:41|140:163,1,152,2|0,0:0|0:0,0:0:0:0:
316,247,162419,1,0,0:0:0:0:
325,217,162577,1,0,0:0:0:0:
138,324,162735,1,0,0:0:0:0:
129,294,162893,1,0,0:0:0:0:
325,217,163051,6,0,P|360:220|398:241,1,76,2|0,0:0|0:0,0:0:0:0:
134,144,163366,2,0,P|98:147|60:168,1,76,2|0,0:0|0:0,0:0:0:0:
215,356,163682,5,2,0:0:0:0:
241,175,163840,2,0,L|253:98,1,76,2|0,0:0|0:0,0:0:0:0:
409,238,164156,5,2,0:0:0:0:
228,264,164314,2,0,L|151:276,1,76,2|0,0:0|0:0,0:0:0:0:
19,108,164629,6,0,B|55:86|55:86|165:109,1,142.5,2|0,0:0|0:0,0:0:0:0:
272,142,164945,2,0,B|221:188|130:166|130:166|161:83,1,213.750008153916,12|0,0:0|0:0,0:0:0:0:
221,18,165261,6,0,P|228:53|220:91,1,71.2500027179719,12|0,0:0|0:0,0:0:0:0:
37,97,165419,5,0,3:0:0:0:
383,162,165577,1,0,3:0:0:0:
229,355,165735,6,0,L|221:277,1,71.2500027179719,8|0,0:0|0:0,0:0:0:0:
152,106,165893,5,0,3:0:0:0:
382,326,166051,1,0,3:0:0:0:
456,86,166208,5,8,0:0:0:0:
377,348,166366,1,0,3:0:0:0:
202,150,166524,6,0,P|238:152|283:135,1,71.2500027179719,8|0,0:0|0:0,0:0:0:0:
229,355,166682,5,0,3:0:0:0:
120,47,166840,1,0,3:0:0:0:
388,75,166998,6,0,L|302:82,1,71.2500027179719,8|0,0:0|0:0,0:0:0:0:
97,53,167156,5,0,3:0:0:0:
434,195,167314,1,0,3:0:0:0:
202,348,167472,6,0,B|150:320|150:320|133:234|191:154,1,213.750008153916,8|0,0:0|0:0,0:0:0:0:
229,110,167787,6,0,P|247:140|253:186,1,71.2500027179719,8|0,0:0|0:0,0:0:0:0:
65,292,167945,5,0,3:0:0:0:
402,195,168103,1,0,3:0:0:0:
179,171,168261,6,0,L|192:250,1,71.2500027179719,8|0,0:0|0:0,0:0:0:0:
348,68,168419,5,0,3:0:0:0:
50,242,168577,1,0,3:0:0:0:
369,257,168735,5,8,0:0:0:0:
68,131,168893,1,0,3:0:0:0:
272,32,169051,1,0,3:0:0:0:
178,324,169208,1,8,0:0:0:0:
178,324,169366,1,8,0:0:0:0:
195,54,169524,6,0,B|148:19|148:19|172:178,1,213.750008153916,4|0,3:2|0:0,0:0:0:0:
189,246,169840,2,0,P|115:221|99:156,1,142.500005435944,8|0,0:0|3:0,0:0:0:0:
327,50,170156,5,0,3:0:0:0:
327,50,170235,1,0,3:0:0:0:
327,50,170314,6,0,L|320:123,1,71.2500027179719,8|0,0:0|0:0,0:0:0:0:
310,349,170472,69,0,0:0:0:0:
280,206,170629,5,8,0:0:0:0:
340,309,170787,69,0,0:0:0:0:
250,166,170945,5,8,0:0:0:0:
370,269,171103,69,0,0:0:0:0:
220,126,171261,5,8,0:0:0:0:
400,229,171419,69,0,0:0:0:0:
190,86,171577,5,8,0:0:0:0:
430,189,171735,69,0,0:0:0:0:
159,205,171893,5,8,0:0:0:0:
430,205,172051,69,0,0:0:0:0:
190,324,172208,5,8,0:0:0:0:
430,221,172366,69,0,0:0:0:0:
295,373,172524,5,8,0:0:0:0:
430,237,172682,5,0,0:0:0:0:
295,373,172840,6,0,L|300:301,1,71.2500027179719,8|0,0:0|0:0,0:0:0:0:
309,194,172998,2,0,L|314:122,1,71.2500027179719,8|0,0:0|0:0,0:0:0:0:
115,37,173156,6,0,P|93:68|85:105,1,76,8|0,0:0|0:0,0:0:0:0:
68,244,173314,2,0,P|72:282|90:316,1,76,8|0,0:0|0:0,0:0:0:0:
242,373,173472,5,8,0:0:0:0:
244,345,173551,1,8,0:0:0:0:
247,318,173629,1,8,0:0:0:0:
249,290,173708,1,8,0:0:0:0:
300,231,173787,5,8,0:0:0:0:
295,189,173866,1,8,0:0:0:0:
290,147,173945,1,8,0:0:0:0:
285,105,174024,1,8,0:0:0:0:
278,63,174103,1,8,0:0:0:0:
142,257,174261,1,0,3:0:0:0:
483,139,174419,6,0,B|412:87|344:105|344:105|374:127|377:160,1,213.750008153916,0|0,3:0|0:0,0:0:0:0:
433,276,174735,2,0,P|442:242|440:207,1,71.2500027179719,0|0,3:0|3:0,0:0:0:0:
275,62,174893,2,0,P|265:97|267:132,1,71.2500027179719,0|0,3:0|0:0,0:0:0:0:
316,368,175051,6,0,L|323:298,1,71.2500027179719,8|0,0:0|0:0,0:0:0:0:
336,176,175208,2,0,L|343:106,1,71.2500027179719,0|0,3:0|0:0,0:0:0:0:
94,144,175366,6,0,B|40:101|40:101|111:21|200:71,1,235.125002242327,4|0,3:0|0:0,0:0:0:0:
266,131,175682,2,0,L|257:226,1,78.3750007474423,8|0,0:0|0:0,0:0:0:0:
165,379,175840,6,0,B|179:334|160:299|160:299|202:262|202:262|170:218|190:168,1,235.125002242327
335,193,176156,1,0,3:0:0:0:
335,193,176235,1,0,0:0:0:0:
335,193,176314,2,0,L|243:211,1,78.3750007474423,8|0,0:0|0:0,0:0:0:0:
30,227,176472,2,0,L|106:242,1,78.3750007474423
252,330,176629,5,0,3:0:0:0:
189,170,176787,2,0,P|217:143|253:130,1,78.3750007474423
471,92,176945,6,0,B|417:48|417:48|431:224,1,235.125002242327,8|0,0:0|0:0,0:0:0:0:
414,282,177261,2,0,P|379:262|361:225,1,78.3750007474423
263,55,177419,1,0,3:0:0:0:
111,161,177577,6,0,L|196:170,1,78.3750007474423,8|0,0:0|0:0,0:0:0:0:
361,229,177735,2,0,L|276:238,1,78.3750007474423
79,263,177893,6,0,B|119:280|157:258|157:258|187:297|187:297|219:285|219:285|246:317|300:316,1,235.125002242327,0|0,3:0|0:0,0:0:0:0:
342,366,178208,2,0,P|382:373|425:365,1,78.3750007474423,8|0,0:0|0:0,0:0:0:0:
313,119,178366,6,0,B|257:75|257:75|279:240,1,235.125002242327
281,316,178682,1,0,3:0:0:0:
453,184,178840,2,0,P|411:185|371:201,1,78.3750007474423,8|0,0:0|0:0,0:0:0:0:
203,220,178998,2,0,P|241:222|278:237,1,78.3750007474423,0|0,3:0|0:0,0:0:0:0:
342,366,179156,2,0,P|343:324|359:284,1,78.3750007474423,0|0,3:0|0:0,0:0:0:0:
273,124,179314,1,0,0:0:0:0:
466,189,179472,6,0,B|514:145|514:145|446:76|352:122,1,235.125002242327,8|0,0:0|0:0,0:0:0:0:
285,148,179787,1,0,0:0:0:0:
368,352,179945,2,0,L|380:275,1,78.3750007474423,0|0,3:0|0:0,0:0:0:0:
410,0,180103,6,0,B|365:152|365:152|350:104|323:86,1,235.125002242327,8|0,0:0|0:0,0:0:0:0:
204,122,180419,2,0,P|207:208|278:138,1,235.125002242327,0|0,3:0|0:0,0:0:0:0:
204,122,180735,2,0,L|105:129,1,78.3750007474423,8|0,0:0|0:0,0:0:0:0:
68,350,180893,6,0,B|55:262|105:197|105:197|115:233|145:263,1,235.125002242327
186,195,181208,2,0,L|265:210,1,78.3750007474423,0|0,3:0|0:0,0:0:0:0:
487,241,181366,2,0,L|408:256,1,78.3750007474423,8|0,0:0|0:0,0:0:0:0:
250,345,181524,1,0,0:0:0:0:
378,153,181682,2,0,P|377:116|399:55,1,78.3750007474423,0|0,3:0|0:0,0:0:0:0:
186,195,181840,2,0,P|187:158|165:97,1,78.3750007474423
302,60,181998,6,0,B|252:17|252:17|274:192,1,235.125002242327,8|0,0:0|0:0,0:0:0:0:
290,262,182314,2,0,P|328:264|367:281,1,78.3750007474423,0|0,3:0|0:0,0:0:0:0:
471,348,182472,1,0,3:0:0:0:
266,272,182629,2,0,L|278:355,1,78.3750007474423,8|0,0:0|0:0,0:0:0:0:
447,262,182787,1,0,0:0:0:0:
79,132,182945,6,0,P|51:223|142:193,1,235.125002242327,0|0,3:0|0:0,0:0:0:0:
260,65,183261,2,0,B|194:27|103:62|103:62|144:82|153:128,1,235.125002242327,8|0,0:0|0:0,0:0:0:0:
235,208,183577,2,0,P|246:163|233:117,1,78.3750007474423,0|0,3:0|0:0,0:0:0:0:
79,132,183735,2,0,P|68:177|81:223,1,78.3750007474423,0|0,3:0|0:0,0:0:0:0:
189,292,183893,6,0,B|230:320|288:289|288:289|329:330|329:330|366:316|412:335,1,235.125002242327,8|0,0:0|0:0,0:0:0:0:
419,161,184208,6,0,P|335:135|389:221,1,235.125002242327,0|0,3:0|0:0,0:0:0:0:
505,21,184524,6,0,B|445:4|392:14|356:55|356:55|392:49|439:75,1,235.125002242327,8|0,0:0|0:0,0:0:0:0:
460,223,184840,1,0,3:0:0:0:
485,183,184919,1,0,3:0:0:0:
485,135,184998,1,0,3:0:0:0:
119,111,185156,6,0,L|204:127,1,78.3750007474423,0|0,3:0|0:0,0:0:0:0:
419,161,185314,2,0,L|341:175,1,78.3750007474423,0|0,3:0|0:0,0:0:0:0:
209,315,185472,6,0,B|246:356|246:356|286:308|297:246|256:163,1,235.125002242327,4|0,3:0|0:0,0:0:0:0:
229,42,185787,1,8,0:0:0:0:
54,161,185945,2,0,B|116:146|116:146|178:224|96:278|39:261,1,235.125002242327
27,173,186261,6,0,P|24:135|39:93,1,78.3750007474423,0|0,3:0|0:0,0:0:0:0:
101,27,186419,2,0,P|135:10|178:9,1,78.3750007474423,8|0,0:0|0:0,0:0:0:0:
268,27,186577,2,0,P|299:48|321:85,1,78.3750007474423
174,8,186735,6,0,P|135:9|100:26,1,78.3750007474423,0|0,3:0|0:0,0:0:0:0:
37,98,186893,2,0,P|24:134|27:173,1,78.3750007474423,0|0,0:0|0:0,0:0:0:0:
384,201,187051,6,0,B|220:184|220:184|244:198|263:243,1,235.125002242327,8|0,0:0|0:0,0:0:0:0:
337,355,187366,2,0,P|347:310|327:254,1,78.3750007474423
308,66,187524,2,0,L|220:92,1,78.3750007474423,0|0,3:0|0:0,0:0:0:0:
89,317,187682,6,0,B|103:370|103:370|162:381|213:319|186:249,1,235.125002242327,8|0,0:0|0:0,0:0:0:0:
18,73,187998,6,0,B|78:101|153:57|153:57|137:107|173:146,1,235.125002242327,0|0,3:0|0:0,0:0:0:0:
70,240,188314,2,0,L|54:149,1,78.3750007474423,8|0,0:0|0:0,0:0:0:0:
284,162,188472,6,0,P|337:103|229:97,1,235.125002242327
185,248,188787,1,0,3:0:0:0:
427,330,188945,6,0,P|420:284|439:240,1,78.3750007474423,8|0,0:0|0:0,0:0:0:0:
284,162,189103,2,0,P|295:124|287:86,1,78.3750007474423
490,54,189261,6,0,L|413:65,1,78.3750007474423,0|0,3:0|0:0,0:0:0:0:
287,86,189419,2,0,L|209:97,1,78.3750007474423
310,371,189577,6,0,B|335:215|335:215|305:244|261:236,1,235.125002242327,8|0,0:0|0:0,0:0:0:0:
103,343,189893,2,0,P|140:351|193:338,1,78.3750007474423
276,84,190051,2,0,L|287:176,1,78.3750007474423,0|0,3:0|0:0,0:0:0:0:
144,274,190208,2,0,B|94:244|94:244|93:121|93:121|150:88,1,235.125002242327,8|0,0:0|0:0,0:0:0:0:
400,48,190524,6,0,B|355:3|285:-5|243:30|243:30|281:93,1,235.125002242327,4|0,3:2|0:0,0:0:0:0:
346,225,190840,1,8,0:0:0:0:
500,148,190998,2,0,B|455:149|432:121|432:121|382:137|349:108|349:108|325:160|274:161,1,235.125002242327
369,298,191314,1,0,3:0:0:0:
475,51,191472,6,0,P|430:40|390:51,1,78.3750007474423,8|0,0:0|0:0,0:0:0:0:
275,83,191629,2,0,P|238:109|221:148,1,78.3750007474423
360,375,191787,6,0,L|369:291,1,78.3750007474423,0|0,3:0|0:0,0:0:0:0:
380,194,191945,2,0,L|389:110,1,78.3750007474423
247,220,192103,6,0,B|207:237|169:215|169:215|139:254|139:254|107:242|107:242|80:274|26:273,1,235.125002242327,8|0,0:0|0:0,0:0:0:0:
187,376,192419,2,0,L|200:295,1,78.3750007474423
196,73,192577,2,0,L|209:154,1,78.3750007474423,0|0,3:0|0:0,0:0:0:0:
469,236,192735,6,0,B|434:189|362:175|315:191|315:191|346:214|356:258,1,235.125002242327,8|0,0:0|0:0,0:0:0:0:
360,377,193051,5,0,3:0:0:0:
306,384,193129,1,0,0:0:0:0:
261,351,193208,1,0,0:0:0:0:
246,297,193287,1,0,0:0:0:0:
280,253,193366,1,8,0:0:0:0:
320,215,193445,1,0,0:0:0:0:
312,160,193524,1,0,0:0:0:0:
272,122,193603,1,0,0:0:0:0:
286,69,193682,1,0,0:0:0:0:
337,50,193761,1,0,0:0:0:0:
384,77,193840,1,0,3:0:0:0:
389,131,193919,1,0,0:0:0:0:
355,174,193998,6,0,L|256:192,1,78.3750007474423,8|0,0:0|0:0,0:0:0:0:
50,113,194156,2,0,L|152:129,1,78.3750007474423
421,2,194314,6,0,P|333:16|293:78,1,142.500005435944,0|0,3:0|0:0,0:0:0:0:
106,45,194551,6,0,P|173:64|211:122,1,142.500005435944,0|0,3:0|0:0,0:0:0:0:
397,130,194788,6,0,P|309:144|269:206,1,142.500005435944,0|0,3:0|0:0,0:0:0:0:
140,226,195025,6,0,P|207:245|245:303,1,142.500005435944,0|0,3:0|0:0,0:0:0:0:
358,282,195261,6,0,P|290:301|252:359,1,142.500005435944,0|0,3:0|3:0,0:0:0:0:
431,348,195498,1,0,3:0:0:0:
456,335,195577,6,0,B|502:306|514:243|480:199|480:199|461:230|416:240,1,213.750008153916,4|0,3:2|0:0,0:0:0:0:
409,91,195893,6,0,L|419:165,1,71.25,8|0,0:0|0:0,0:0:0:0:
75,140,196208,6,0,B|33:104|33:104|49:64|126:47|180:86,1,213.750008153916,4|0,3:2|0:0,0:0:0:0:
142,225,196524,6,0,P|155:186|142:140,1,71.25,8|0,0:0|0:0,0:0:0:0:
435,98,196840,6,0,B|287:74|287:74|314:90|325:129,1,213.750008153916,4|0,3:2|0:0,0:0:0:0:
386,254,197156,2,0,P|398:218|386:170,1,71.25,8|0,0:0|0:0,0:0:0:0:
79,150,197472,6,0,L|157:157,1,71.2500027179719,4|0,3:2|0:0,0:0:0:0:
327,210,197629,2,0,L|242:219,1,71.2500027179719,0|0,3:0|0:0,0:0:0:0:
166,367,197787,6,0,B|202:319|202:319|178:229,1,142.500005435944,8|0,0:0|0:0,0:0:0:0:
101,228,198024,1,0,0:0:0:0:
100,227,198103,6,0,L|120:302,1,78.3750007474423,0|0,3:0|0:0,0:0:0:0:
276,293,198261,2,0,L|256:218,1,78.3750007474423
185,26,198419,6,0,B|130:-2|130:-2|98:49|98:113|163:168,1,235.125002242327,8|0,0:0|0:0,0:0:0:0:
255,217,198735,2,0,P|260:178|251:137,1,78.3750007474423
39,113,198893,1,0,3:0:0:0:
260,6,199051,2,0,L|175:28,1,78.3750007474423,8|0,0:0|0:0,0:0:0:0:
130,231,199208,2,0,L|152:146,1,78.3750007474423
21,34,199366,6,0,L|106:56,1,78.3750007474423,0|0,3:0|0:0,0:0:0:0:
330,137,199524,5,0,0:0:0:0:
327,152,199603,1,0,0:0:0:0:
324,167,199682,2,0,L|240:179,1,78.3750007474423,8|0,0:0|0:0,0:0:0:0:
31,224,199840,2,0,L|108:235,1,78.3750007474423
170,7,199998,6,0,B|136:53|136:53|166:171,1,156.750001494885,0|0,0:0|3:0,0:0:0:0:
211,355,200314,2,0,P|281:294|183:271,1,235.125002242327,8|0,0:0|0:0,0:0:0:0:
1,160,200629,6,0,B|66:124|161:147|161:147|120:161|102:197,1,235.125002242327,4|0,3:2|0:0,0:0:0:0:
87,350,200945,6,0,B|41:368|41:368|22:234|22:234|80:254,1,235.125002242327,8|0,0:0|0:0,0:0:0:0:
185,267,201261,6,0,L|275:284,1,78.3750007474423
470,184,201419,2,0,L|392:198,1,78.3750007474423,0|0,3:0|0:0,0:0:0:0:
257,51,201577,2,0,L|271:128,1,78.3750007474423,8|0,0:0|0:0,0:0:0:0:
314,358,201735,6,0,B|345:311|345:311|317:190,1,156.750001494885,0|0,0:0|3:0,0:0:0:0:
106,189,202051,1,0,0:0:0:0:
267,298,202208,1,8,0:0:0:0:
210,45,202366,2,0,B|259:8|259:8|240:201,1,235.125002242327
137,283,202682,2,0,L|124:184,1,78.3750007474423,0|0,3:0|0:0,0:0:0:0:
305,308,202840,2,0,L|318:209,1,78.3750007474423,8|0,0:0|0:0,0:0:0:0:
127,312,202998,2,0,L|116:234,1,78.3750007474423
322,196,203156,5,0,3:0:0:0:
118,130,203314,1,0,0:0:0:0:
381,132,203472,6,0,B|440:117|440:117|427:43|346:27|303:47,1,235.125002242327,8|0,0:0|0:0,0:0:0:0:
157,115,203787,1,0,0:0:0:0:
322,196,203945,1,0,3:0:0:0:
194,26,204103,2,0,L|112:37,1,78.3750007474423,8|0,0:0|0:0,0:0:0:0:
235,234,204261,2,0,P|242:190|234:153,1,78.3750007474423
305,45,204419,6,0,B|332:58|366:51|366:51|385:81|385:81|420:77|450:97,1,156.750001494885,0|0,3:0|0:0,0:0:0:0:
235,157,204735,1,8,0:0:0:0:
434,246,204893,1,0,0:0:0:0:
305,45,205051,1,0,0:0:0:0:
305,45,205208,5,0,3:0:0:0:
364,384,205366,6,0,B|370:348|343:317|343:317|367:285|367:285|345:247|370:193,1,185.249991519928,8|0,0:0|0:0,0:0:0:0:
342,74,205682,6,0,B|272:77|235:35|235:35|270:85|243:140,1,213.750008153916,4|0,3:2|0:0,0:0:0:0:
107,76,205998,2,0,L|177:87,1,71.2500027179719,8|0,0:0|0:0,0:0:0:0:
391,132,206156,2,0,P|355:145|321:143,1,71.2500027179719
92,197,206314,1,0,0:0:0:0:
259,275,206472,1,0,3:0:0:0:
177,87,206629,1,8,0:0:0:0:
177,87,206787,1,0,0:0:0:0:
181,307,206945,6,0,L|168:234,1,71.2500027179719,0|0,3:0|0:0,0:0:0:0:
310,213,207103,2,0,L|322:142,1,71.2500027179719
254,13,207261,1,8,0:0:0:0:
254,13,207419,1,0,0:0:0:0:
122,133,207577,5,0,0:0:0:0:
288,78,207735,1,0,3:0:0:0:
114,41,207893,1,8,0:0:0:0:
240,227,208051,1,0,0:0:0:0:
224,20,208208,6,0,B|191:56|191:56|219:157,1,142.500005435944,0|0,3:0|0:0,0:0:0:0:
383,195,208524,1,8,0:0:0:0:
273,76,208682,1,0,0:0:0:0:
301,300,208840,1,0,0:0:0:0:
301,300,208998,1,0,3:0:0:0:
498,134,209156,2,0,B|468:123|432:143|432:143|401:117|354:127,1,142.500005435944,8|0,0:0|0:0,0:0:0:0:
146,244,209472,5,0,3:0:0:0:
383,195,209629,1,0,0:0:0:0:
234,36,209787,2,0,L|245:120,1,71.2500027179719,8|0,0:0|0:0,0:0:0:0:
293,218,209945,2,0,L|283:288,1,71.2500027179719
208,25,210103,5,0,0:0:0:0:
276,324,210261,1,0,3:0:0:0:
38,290,210419,6,0,P|21:254|25:206,1,71.2500027179719,8|0,0:0|0:0,0:0:0:0:
73,68,210577,2,0,P|103:44|152:37,1,71.2500027179719
387,37,210735,6,0,L|376:116,1,71.2500027179719,4|0,3:2|0:0,0:0:0:0:
329,366,210893,1,0,0:0:0:0:
334,352,210972,1,0,0:0:0:0:
339,338,211051,1,8,0:0:0:0:
345,325,211129,1,0,0:0:0:0:
356,283,211208,5,0,3:0:0:0:
341,242,211287,1,0,0:0:0:0:
304,219,211366,1,0,0:0:0:0:
261,219,211445,1,0,0:0:0:0:
225,242,211524,1,0,3:0:0:0:
211,282,211603,1,0,0:0:0:0:
196,337,211682,5,8,0:0:0:0:
156,377,211761,1,0,0:0:0:0:
99,382,211840,1,0,0:0:0:0:
46,358,211919,1,0,0:0:0:0:
46,300,211998,1,0,3:0:0:0:
91,265,212077,1,0,0:0:0:0:
159,285,212156,5,0,0:0:0:0:
168,355,212235,1,0,0:0:0:0:
236,374,212314,1,8,0:0:0:0:
299,341,212393,1,0,0:0:0:0:
291,270,212472,1,0,3:0:0:0:
248,212,212551,1,0,0:0:0:0:
190,158,212629,5,0,0:0:0:0:
196,83,212708,1,0,0:0:0:0:
264,52,212787,1,0,3:0:0:0:
325,95,212866,1,0,0:0:0:0:
318,169,212945,1,8,0:0:0:0:
258,220,213024,1,0,0:0:0:0:
214,285,213103,5,0,3:0:0:0:
231,361,213182,1,0,0:0:0:0:
309,382,213261,1,0,3:0:0:0:
364,327,213340,1,0,0:0:0:0:
326,257,213419,1,0,0:0:0:0:
258,220,213498,1,0,0:0:0:0:
203,163,213577,5,8,0:0:0:0:
197,84,213656,1,0,0:0:0:0:
259,36,213735,1,0,3:0:0:0:
334,58,213814,1,0,0:0:0:0:
379,122,213893,6,0,P|378:162|360:206,1,71.2500027179719
287,319,214051,2,0,P|258:346|213:364,1,71.2500027179719,0|0,3:0|0:0,0:0:0:0:
10,105,214208,6,0,L|88:115,1,71.2500027179719,8|0,0:0|0:0,0:0:0:0:
237,136,214366,2,0,L|315:146,1,71.2500027179719,0|0,3:0|0:0,0:0:0:0:
110,330,214524,6,0,P|78:251|113:192,1,142.500005435944,4|0,3:2|0:0,0:0:0:0:
240,229,214761,1,0,3:0:0:0:
227,250,214840,2,0,L|145:258,1,71.2500027179719
437,246,214998,6,0,P|469:167|434:108,1,142.500005435944,4|0,3:2|0:0,0:0:0:0:
307,145,215235,1,0,3:0:0:0:
320,166,215314,2,0,L|402:174,1,71.2500027179719
148,20,215472,5,0,3:0:0:0:
153,55,215551,1,0,3:0:0:0:
172,100,215629,5,0,3:0:0:0:
166,149,215708,1,0,3:0:0:0:
