osu file format v14

[General]
AudioFilename: audio.mp3
AudioLeadIn: 0
PreviewTime: -1
Countdown: 0
SampleSet: Soft
StackLeniency: 0.6
Mode: 0
LetterboxInBreaks: 0
WidescreenStoryboard: 0

[Editor]
DistanceSpacing: 0.5
BeatDivisor: 4
GridSize: 32
TimelineZoom: 1

[Metadata]
Title:Boss Rush
TitleUnicode:Boss Rush
Artist:USAO
ArtistUnicode:USAO
Creator:Down
Version:Normal
Source:
Tags:
BeatmapID:1181820
BeatmapSetID:558728

[Difficulty]
HPDrainRate:7
CircleSize:4
OverallDifficulty:8
ApproachRate:9.5
SliderMultiplier:1.9
SliderTickRate:1

[Events]
//Background and Video events
0,0,"bg.jpg",0,0
//Break Periods
2,62351,71731
//Storyboard Layer 0 (Background)
//Storyboard Layer 1 (Fail)
//Storyboard Layer 2 (Pass)
//Storyboard Layer 3 (Foreground)
//Storyboard Sound Samples

[TimingPoints]
1520,315.789473684211,4,2,0,100,1,0
1520,-133.333333333333,4,2,0,100,0,0
3493,-133.333333333333,4,2,0,5,0,0
3572,-133.333333333333,4,2,0,100,0,0
6256,-100,4,2,0,100,0,0
6493,-100,4,2,0,5,0,0
6572,-125,4,2,0,100,0,0
11309,-100,4,2,0,100,0,0
16598,-100,4,2,0,5,0,0
16677,-100,4,2,0,100,0,0
18020,-100,4,2,0,5,0,0
18098,-100,4,2,0,100,0,0
18651,-100,4,2,0,5,0,0
18730,-100,4,2,0,100,0,0
21730,-83.3333333333333,4,2,0,100,0,0
30572,-200,4,2,0,100,0,0
30888,-76.9230769230769,4,2,0,100,0,0
31204,-83.3333333333333,4,2,0,100,0,0
33730,-66.6666666666667,4,2,0,100,0,0
34362,-83.3333333333333,4,2,0,100,0,0
36256,-100,4,2,0,100,0,0
36888,-83.3333333333333,4,2,0,100,0,0
38783,-66.6666666666667,4,2,0,100,0,0
39414,-83.3333333333333,4,2,0,100,0,0
44151,-66.6666666666667,4,2,0,100,0,0
44467,-83.3333333333333,4,2,0,100,0,0
50783,-66.6666666666667,4,2,0,100,0,0
51256,-76.9230769230769,4,2,0,100,0,0
52046,-83.3333333333333,4,2,0,100,0,0
60888,-66.6666666666667,4,2,0,100,0,0
61677,-76.9230769230769,4,2,0,100,0,0
61835,-90.9090909090909,4,2,0,100,0,0
61993,-111.111111111111,4,2,0,100,0,0
72256,-83.3333333333333,4,2,0,100,0,0
81098,-100,4,2,0,100,0,0
82362,-76.9230769230769,4,2,0,100,0,0
101309,-66.6666666666667,4,2,0,100,0,0
101783,-100,4,2,0,100,0,0
102572,-83.3333333333333,4,2,0,100,0,0
112046,-125,4,2,0,100,0,0
112362,-200,4,2,0,100,0,0
112677,-83.3333333333333,4,2,0,100,0,0
120256,-66.6666666666667,4,2,0,100,0,0
121520,-83.3333333333333,4,2,0,100,0,0

[HitObjects]
112,261,1520,6,0,B|147:208|217:231|217:231|183:259,1,142.500005435944
198,245,2151,6,0,P|208:214|211:166,1,71.2500027179719
152,106,2467,1,0,0:0:0:0:
282,167,2625,6,0,L|191:177,1,71.2500027179719
351,106,2941,2,0,L|387:22,1,71.2500027179719
371,195,3256,2,0,P|373:245|360:326,1,106.875004076958
359,327,3572,1,0,0:0:0:0:
283,250,3730,1,0,0:0:0:0:
459,259,3888,1,0,0:0:0:0:
258,339,4046,6,0,P|225:319|188:279,1,71.2500027179719
252,165,4362,2,0,P|219:185|182:225,1,71.2500027179719
283,250,4677,2,0,P|321:254|370:255,1,71.2500027179719
447,233,4993,1,0,0:0:0:0:
417,319,5151,1,0,0:0:0:0:
373,174,5309,6,0,P|371:141|378:88,1,71.2500027179719
439,38,5625,1,0,0:0:0:0:
303,101,5783,2,0,P|336:99|389:105,1,71.2500027179719
465,130,6098,1,0,0:0:0:0:
303,101,6256,6,0,B|231:80|242:138|164:112,1,142.5
141,195,6572,6,0,B|116:131|138:85|138:85|183:129,1,152
165,112,7204,2,0,P|129:117|58:108,1,76
5,92,7520,1,0,0:0:0:0:
175,189,7677,6,0,B|212:186|238:150|238:150|272:192|238:234,1,152
146,268,8151,1,0,0:0:0:0:
319,250,8309,2,0,B|282:253|256:289|256:289|222:247|256:205,1,152
374,190,8783,2,0,P|397:221|397:271,1,76
374,109,9098,6,0,L|409:29,1,76
319,250,9414,2,0,L|284:330,1,76
288,96,9730,1,0,0:0:0:0:
374,190,9888,1,0,0:0:0:0:
246,219,10046,1,0,0:0:0:0:
374,109,10204,1,0,0:0:0:0:
212,133,10362,6,0,B|197:96|197:96|209:47,1,76
246,219,10677,2,0,B|260:255|260:255|249:305,1,76
173,266,10993,1,0,0:0:0:0:
212,133,11151,1,0,0:0:0:0:
134,333,11309,6,0,P|170:290|263:299,1,142.5
327,325,11625,6,0,P|373:318|441:304,1,95
480,241,11941,1,0,0:0:0:0:
298,214,12098,1,0,0:0:0:0:
381,73,12256,5,0,0:0:0:0:
429,148,12414,1,0,0:0:0:0:
388,227,12572,1,0,0:0:0:0:
381,73,12730,5,0,0:0:0:0:
388,227,12888,1,0,0:0:0:0:
343,143,13046,5,0,0:0:0:0:
472,59,13204,1,0,0:0:0:0:
429,148,13362,5,0,0:0:0:0:
291,78,13520,1,0,0:0:0:0:
298,214,13677,5,0,0:0:0:0:
381,73,13835,1,0,0:0:0:0:
298,214,13993,1,0,0:0:0:0:
202,81,14151,5,0,0:0:0:0:
343,143,14309,1,0,0:0:0:0:
218,234,14467,1,0,0:0:0:0:
247,151,14625,5,0,0:0:0:0:
132,245,14783,1,0,0:0:0:0:
273,307,14941,1,0,0:0:0:0:
159,167,15098,1,0,0:0:0:0:
285,322,15256,1,0,0:0:0:0:
144,151,15414,5,0,0:0:0:0:
298,214,15572,1,0,0:0:0:0:
180,324,15730,1,0,0:0:0:0:
247,151,15888,1,0,0:0:0:0:
354,278,16046,1,0,0:0:0:0:
361,163,16204,1,0,0:0:0:0:
180,324,16362,6,0,B|126:291|169:219|169:219|190:254,1,142.5
180,324,16677,6,0,P|235:314|280:320,1,95
354,278,16993,1,0,0:0:0:0:
180,238,17151,1,0,0:0:0:0:
326,203,17309,1,0,0:0:0:0:
180,238,17467,1,0,0:0:0:0:
326,203,17625,1,0,0:0:0:0:
394,350,17783,6,0,B|387:306|390:253|390:253|371:279|335:280,1,142.5
326,203,18098,1,0,0:0:0:0:
459,119,18256,1,0,0:0:0:0:
263,32,18414,2,0,B|231:76|231:76|249:169,1,142.5
326,203,18730,5,0,0:0:0:0:
321,96,18888,1,0,0:0:0:0:
250,245,19046,1,0,0:0:0:0:
156,115,19204,5,0,0:0:0:0:
321,96,19362,1,0,0:0:0:0:
250,245,19520,1,0,0:0:0:0:
181,98,19677,5,0,0:0:0:0:
328,119,19835,1,0,0:0:0:0:
232,232,19993,1,0,0:0:0:0:
247,152,20151,5,0,0:0:0:0:
247,152,20309,1,0,0:0:0:0:
232,232,20467,5,0,0:0:0:0:
328,119,20625,1,0,0:0:0:0:
181,98,20783,1,0,0:0:0:0:
250,245,20941,5,0,0:0:0:0:
321,96,21099,1,0,0:0:0:0:
156,115,21256,1,0,0:0:0:0:
327,196,21414,2,0,P|382:220|457:186,1,142.5
469,105,21730,6,0,L|475:201,1,56.9999982604981
414,320,21888,2,0,L|408:224,1,56.9999982604981
387,136,22046,1,0,0:0:0:0:
245,227,22204,6,0,L|239:131,1,56.9999982604981
300,12,22362,2,0,L|306:108,1,56.9999982604981
327,196,22520,1,0,0:0:0:0:
205,83,22677,6,0,L|106:76,1,56.9999982604981
344,208,22835,2,0,L|443:201,1,56.9999982604981
151,159,22993,6,0,L|52:152,1,56.9999982604981
303,68,23151,2,0,L|402:61,1,56.9999982604981
241,170,23309,1,0,0:0:0:0:
141,176,23467,6,0,L|42:169,1,56.9999982604981
293,85,23625,2,0,L|392:78,1,56.9999982604981
231,187,23783,1,0,0:0:0:0:
199,49,23941,6,0,P|191:82|197:122,1,56.9999982604981
270,319,24098,2,0,P|278:286|272:246,1,56.9999982604981
63,118,24256,6,0,L|101:218,1,56.9999982604981
65,310,24414,2,0,L|103:210,1,56.9999982604981
156,214,24572,1,0,0:0:0:0:
231,85,24730,6,0,L|193:185,1,56.9999982604981
237,345,24888,2,0,L|199:245,1,56.9999982604981
175,214,25046,1,0,0:0:0:0:
296,176,25204,6,0,P|325:172|360:176,1,56.9999982604981
472,110,25362,2,0,P|443:114|408:110,1,56.9999982604981
315,68,25520,5,0,0:0:0:0:
452,198,25677,2,0,L|436:275,1,56.9999982604981
369,340,25835,2,0,L|353:263,3,56.9999982604981
328,280,26151,1,0,0:0:0:0:
304,264,26229,1,0,0:0:0:0:
276,257,26308,1,0,0:0:0:0:
248,260,26387,1,0,0:0:0:0:
222,272,26467,1,0,0:0:0:0:
198,287,26545,1,0,0:0:0:0:
170,294,26624,1,0,0:0:0:0:
142,291,26703,1,0,0:0:0:0:
117,279,26783,6,0,B|90:223|133:169|133:169|164:217,1,170.999994781494
161,212,27098,2,0,B|110:189|110:189|77:196|51:214|51:214|-23:195,1,170.999994781494
40,129,27414,2,0,L|32:51,3,56.9999982604981
140,24,27730,2,0,L|134:80,3,56.9999982604981
207,132,28046,6,0,B|299:110|279:182|370:160,1,170.999994781494
417,224,28362,2,0,B|437:173|412:119|412:119|403:148|361:161,1,170.999994781494
342,83,28677,2,0,L|359:8,3,56.9999982604981
238,207,28993,2,0,L|255:282,3,56.9999982604981
134,80,29309,6,0,P|121:57|115:10,1,56.9999982604981
128,112,29467,2,0,P|111:91|97:46,1,56.9999982604981
122,142,29625,2,0,P|102:125|80:82,1,56.9999982604981
115,167,29783,2,0,P|92:153|63:115,1,56.9999982604981
52,269,29941,5,0,0:0:0:0:
66,300,30019,1,0,0:0:0:0:
96,319,30098,1,0,0:0:0:0:
131,318,30177,1,0,0:0:0:0:
160,298,30256,1,0,0:0:0:0:
174,266,30335,1,0,0:0:0:0:
167,231,30414,1,0,0:0:0:0:
142,206,30493,1,0,0:0:0:0:
108,198,30572,6,0,L|76:127,1,71.25
154,26,30888,6,0,P|159:58|145:97,1,61.7499971733095
78,54,31046,1,0,0:0:0:0:
236,188,31204,6,0,L|218:104,1,56.9999982604981
313,34,31362,2,0,L|295:118,1,56.9999982604981
151,85,31520,1,0,0:0:0:0:
329,173,31677,1,0,0:0:0:0:
109,307,31835,6,0,B|78:255|107:198,1,113.999996520996
398,113,32151,2,0,B|425:166|425:166|383:291,1,170.999994781494
389,271,32467,1,0,0:0:0:0:
273,241,32625,6,0,P|299:272|312:303,1,56.9999982604981
512,308,32783,2,0,P|473:321|446:342,1,56.9999982604981
364,364,32941,2,0,L|392:272,1,56.9999982604981
329,173,33098,5,0,0:0:0:0:
204,322,33256,2,0,L|185:238,1,56.9999982604981
205,110,33414,2,0,L|224:194,1,56.9999982604981
113,294,33572,2,0,L|94:210,1,56.9999982604981
126,72,33730,6,0,P|76:43|97:137,1,213.750008153916
205,110,34046,2,0,B|246:111|280:85|280:85|326:114|326:114|366:81|414:100,1,213.750008153916
384,175,34362,6,0,B|361:243|378:294|378:294|386:269|424:248,1,170.999994781494
454,327,34677,2,0,B|396:311|396:311|349:321|349:321|281:303,1,170.999994781494
288,305,34993,1,0,0:0:0:0:
345,238,35151,6,0,L|320:148,1,56.9999982604981
230,97,35309,2,0,L|255:187,1,56.9999982604981
215,348,35467,2,0,L|190:258,1,56.9999982604981
91,171,35625,5,0,0:0:0:0:
29,296,35783,2,0,P|33:267|53:223,1,56.9999982604981
91,171,35941,2,0,P|123:154|169:150,1,56.9999982604981
288,305,36177,1,0,0:0:0:0:
379,218,36256,6,0,P|314:195|244:249,1,142.5
254,229,36572,1,0,0:0:0:0:
405,135,36730,1,0,0:0:0:0:
406,295,36888,6,0,B|421:242|421:242|405:214|405:214|418:179|418:179|400:119,1,170.999994781494
321,116,37204,2,0,P|292:67|370:95,1,170.999994781494
405,135,37520,1,0,0:0:0:0:
297,253,37677,6,0,P|289:221|296:171,1,56.9999982604981
187,47,37835,2,0,P|218:56|258:87,1,56.9999982604981
321,116,37993,1,0,0:0:0:0:
154,222,38151,5,0,0:0:0:0:
66,117,38309,2,0,P|80:155|95:173,1,56.9999982604981
289,197,38467,2,0,P|249:190|226:194,1,56.9999982604981
105,345,38625,2,0,P|130:313|138:291,1,56.9999982604981
168,132,38783,6,0,B|209:128|231:96|231:96|263:107|263:107|289:98|289:98|319:140|367:136,1,213.750008153916
362,56,39098,2,0,B|399:50|423:27|423:27|481:93|424:181,1,213.750008153916
423,308,39414,6,0,B|392:313|365:324|365:324|333:258|385:202,1,170.999994781494
371,219,39730,2,0,B|259:244|259:244|177:215,1,170.999994781494
265,160,40046,5,0,0:0:0:0:
127,266,40204,2,0,L|118:182,1,56.9999982604981
176,53,40362,2,0,L|167:137,1,56.9999982604981
191,68,40520,2,0,L|182:152,1,56.9999982604981
290,303,40677,6,0,L|281:219,1,56.9999982604981
389,77,40835,2,0,L|380:161,1,56.9999982604981
512,237,40993,2,0,P|412:212|366:278,1,170.999994781494
283,246,41309,2,0,L|297:172,1,56.9999982604981
448,286,41467,1,0,0:0:0:0:
229,310,41625,2,0,B|197:261|197:261|222:141,1,170.999994781494
167,68,41941,6,0,B|132:111|132:111|126:211,1,113.999996520996
47,302,42256,2,0,P|118:264|211:300,1,170.999994781494
229,310,42572,1,0,0:0:0:0:
50,198,42730,6,0,P|31:191|-5:160,1,56.9999982604981
128,169,42888,2,0,P|124:149|133:102,1,56.9999982604981
211,195,43046,2,0,P|226:182|271:166,1,56.9999982604981
128,351,43204,5,0,0:0:0:0:
46,177,43362,2,0,P|29:165|2:126,1,56.9999982604981
128,169,43520,2,0,P|129:148|150:106,1,56.9999982604981
202,215,43678,2,0,P|220:206|267:202,1,56.9999982604981
400,245,43835,1,0,0:0:0:0:
193,234,43993,1,0,0:0:0:0:
372,118,44151,6,0,P|435:72|395:161,1,213.750008153916
400,245,44467,6,0,B|384:301|384:301|402:357,1,113.999996520996
437,165,44783,2,0,B|377:157|377:157|337:182|337:182|268:171,1,170.999994781494
317,99,45098,1,0,0:0:0:0:
107,251,45256,2,0,L|137:188,1,56.9999982604981
121,73,45414,2,0,L|160:131,1,56.9999982604981
274,172,45572,2,0,L|204:176,1,56.9999982604981
63,146,45730,5,0,0:0:0:0:
256,44,45888,2,0,L|221:112,1,56.9999982604981
63,146,46046,2,0,B|36:94|36:94|42:31,1,113.999996520996
23,299,46362,2,0,P|65:237|166:260,1,170.999994781494
225,295,46677,2,0,L|214:344,5,28.4999991302491
239,214,46993,6,0,B|256:160|256:160|232:94,1,113.999996520996
164,164,47309,1,0,0:0:0:0:
313,65,47467,1,0,0:0:0:0:
313,65,47546,1,0,0:0:0:0:
313,65,47625,2,0,P|354:59|387:62,1,56.9999982604981
480,168,47783,2,0,P|439:174|406:171,1,56.9999982604981
325,84,47941,2,0,P|366:78|399:81,1,56.9999982604981
492,187,48099,2,0,P|451:193|418:190,1,56.9999982604981
294,170,48256,5,0,0:0:0:0:
467,70,48414,1,0,0:0:0:0:
385,260,48572,1,0,0:0:0:0:
325,84,48730,1,0,0:0:0:0:
232,324,48888,2,0,B|217:205|217:205|234:239|272:247,1,170.999994781494
294,170,49204,2,0,P|336:169|366:182,1,56.9999982604981
440,263,49362,2,0,P|398:264|368:251,1,56.9999982604981
253,240,49520,5,0,0:0:0:0:
233,231,49598,1,0,0:0:0:0:
213,224,49677,1,0,0:0:0:0:
192,221,49756,1,0,0:0:0:0:
170,219,49835,1,0,0:0:0:0:
149,221,49914,1,0,0:0:0:0:
128,225,49993,1,0,0:0:0:0:
108,232,50072,1,0,0:0:0:0:
88,240,50151,6,0,L|47:183,3,56.9999982604981
26,71,50467,2,0,L|-5:138,3,56.9999982604981
137,34,50783,5,0,0:0:0:0:
137,34,50862,1,0,0:0:0:0:
137,34,50941,2,0,P|148:78|149:123,1,71.2500027179719
200,246,51098,2,0,P|211:201|212:157,1,71.2500027179719
282,60,51256,6,0,P|292:103|289:142,1,61.7499971733095
349,235,51414,1,0,0:0:0:0:
349,235,51493,1,0,0:0:0:0:
349,235,51572,2,0,P|360:190|355:145,1,61.7499971733095
394,54,51730,2,0,P|428:34|419:120,1,185.249991519928
360,174,52046,6,0,B|321:170|294:154|294:154|260:161|219:194|219:194|190:173|143:179,1,227.999993041992
285,300,52520,2,0,L|293:244,1,56.9999982604981
209,106,52677,1,0,0:0:0:0:
169,257,52835,1,0,0:0:0:0:
65,140,52993,1,0,0:0:0:0:
278,39,53151,6,0,P|302:84|286:159,1,113.999996520996
311,250,53467,2,0,P|287:205|303:130,1,113.999996520996
459,142,53783,2,0,B|400:134|400:134|362:154|362:154|275:141,1,170.999994781494
209,106,54098,1,0,0:0:0:0:
348,76,54256,1,0,0:0:0:0:
302,222,54414,1,0,0:0:0:0:
141,163,54572,6,0,B|120:111|120:111|136:48,1,113.999996520996
209,106,54888,1,0,0:0:0:0:
28,231,55046,1,0,0:0:0:0:
193,233,55204,2,0,B|131:244|131:244|85:223|85:223|20:233,1,170.999994781494
73,301,55520,2,0,B|123:323|123:323|189:312,1,113.999996520996
364,181,55835,6,0,P|309:162|249:184,1,113.999996520996
308,246,56151,1,0,0:0:0:0:
432,235,56309,2,0,P|451:180|428:119,1,113.999996520996
364,181,56625,1,0,0:0:0:0:
452,313,56783,2,0,B|404:319|373:286|373:286|349:330|284:323,1,170.999994781494
218,344,57098,6,0,B|138:323|142:218|142:218|182:252|219:237,1,227.999993041992
254,144,57572,2,0,P|226:150|187:177,1,56.9999982604981
56,290,57730,1,0,0:0:0:0:
302,323,57888,1,0,0:0:0:0:
75,307,58046,1,0,0:0:0:0:
297,212,58204,6,0,B|333:192|339:145|339:145|378:128|432:148,1,170.999994781494
453,160,58520,1,0,0:0:0:0:
254,144,58677,1,0,0:0:0:0:
394,221,58835,6,0,P|355:141|304:52,1,170.999994781494
299,45,59151,1,0,0:0:0:0:
453,160,59309,1,0,0:0:0:0:
254,144,59467,1,0,0:0:0:0:
391,28,59625,6,0,P|416:77|449:150,1,113.999996520996
423,302,59941,1,0,0:0:0:0:
295,207,60098,1,0,0:0:0:0:
447,229,60256,2,0,B|395:223|395:223|368:244|346:273|346:273|296:285,1,170.999994781494
240,348,60572,2,0,B|213:296|213:296|219:241,1,113.999996520996
337,82,60888,6,0,P|294:82|256:102,1,71.2500027179719
75,211,61046,2,0,P|118:211|156:191,1,71.2500027179719
212,155,61204,1,0,0:0:0:0:
45,96,61362,1,0,0:0:0:0:
45,96,61441,1,0,0:0:0:0:
45,96,61520,2,0,L|32:6,1,71.2500027179719
131,123,61677,6,0,L|119:35,1,61.7499971733095
212,155,61835,6,0,L|200:69,1,52.2500015945435
296,182,61993,6,0,L|283:107,1,42.7499986953736
375,212,62151,5,0,0:0:0:0:
398,196,72256,6,0,L|385:109,1,56.9999982604981
310,28,72414,2,0,L|323:115,1,56.9999982604981
416,210,72572,1,0,0:0:0:0:
451,54,72730,6,0,L|364:67,1,56.9999982604981
258,169,72888,2,0,L|345:156,1,56.9999982604981
432,221,73046,1,0,0:0:0:0:
314,160,73204,6,0,L|253:124,1,56.9999982604981
316,294,73362,2,0,L|255:330,1,56.9999982604981
97,184,73520,6,0,L|110:271,1,56.9999982604981
185,352,73678,2,0,L|172:265,1,56.9999982604981
79,170,73836,1,0,0:0:0:0:
44,326,73994,6,0,L|131:313,1,56.9999982604981
237,211,74152,2,0,L|150:224,1,56.9999982604981
63,159,74310,1,0,0:0:0:0:
266,322,74467,2,0,L|285:284,5,28.4999991302491
353,242,74783,6,0,L|441:224,1,56.9999982604981
159,242,74941,2,0,L|71:224,1,56.9999982604981
255,188,75098,1,0,0:0:0:0:
372,264,75256,6,0,L|460:246,1,56.9999982604981
146,262,75414,2,0,L|58:244,1,56.9999982604981
257,166,75572,1,0,0:0:0:0:
154,64,75730,2,0,L|220:133,1,56.9999982604981
358,64,75888,2,0,L|292:133,1,56.9999982604981
195,237,76046,5,0,0:0:0:0:
195,237,76125,2,0,L|217:304,1,56.9999982604981
317,237,76283,1,0,0:0:0:0:
317,237,76362,2,0,L|295:304,1,56.9999982604981
257,166,76520,1,0,0:0:0:0:
257,166,76598,2,0,L|255:84,1,56.9999982604981
337,32,76756,1,0,0:0:0:0:
337,32,76835,2,0,L|335:114,1,56.9999982604981
405,149,76993,2,0,L|465:121,3,56.9999982604981
358,227,77309,6,0,P|284:202|210:277,1,170.999994781494
158,320,77625,2,0,B|147:290|129:273|129:273|147:218|147:218|126:198|117:154,1,170.999994781494
97,86,77941,2,0,L|18:66,3,56.9999982604981
224,18,78256,2,0,L|145:38,3,56.9999982604981
313,47,78572,6,0,B|288:98|312:155|312:155|326:129|385:107,1,170.999994781494
432,219,78888,2,0,B|403:222|373:198|373:198|356:217|342:224|342:224|338:268|287:293,1,170.999994781494
266,218,79204,2,0,L|189:209,3,56.9999982604981
435,143,79520,2,0,L|512:134,3,56.9999982604981
271,86,79835,6,0,L|241:30,1,56.9999982604981
263,115,79993,2,0,L|209:81,1,56.9999982604981
274,143,80151,2,0,L|210:140,1,56.9999982604981
296,158,80309,2,0,L|239:187,1,56.9999982604981
320,156,80467,5,0,0:0:0:0:
290,136,80545,1,0,0:0:0:0:
255,136,80624,1,0,0:0:0:0:
226,156,80703,1,0,0:0:0:0:
212,188,80782,1,0,0:0:0:0:
218,222,80861,1,0,0:0:0:0:
242,248,80940,1,0,0:0:0:0:
276,256,81019,1,0,0:0:0:0:
309,244,81098,6,0,B|362:272|362:272|370:358,1,142.5
451,344,81414,2,0,L|440:259,1,47.5
309,244,81572,2,0,L|298:159,1,47.5
428,140,81730,1,0,0:0:0:0:
425,124,81808,1,0,0:0:0:0:
422,108,81887,1,0,0:0:0:0:
419,93,81966,1,0,0:0:0:0:
416,78,82046,2,0,L|411:9,2,47.5
434,95,82362,6,0,L|258:80,1,123.499994346619
159,138,82677,1,0,0:0:0:0:
296,272,82835,2,0,B|323:216|310:164|310:164|265:163|233:114,1,185.249991519928
310,84,83151,1,0,0:0:0:0:
204,202,83309,2,0,P|179:213|125:209,1,61.7499971733095
38,311,83467,2,0,P|63:300|117:304,1,61.7499971733095
213,321,83625,5,0,0:0:0:0:
40,222,83783,1,0,0:0:0:0:
246,131,83941,2,0,B|292:158|286:210|286:210|317:303|311:214,1,185.249991519928
364,155,84256,1,0,0:0:0:0:
204,202,84414,1,0,0:0:0:0:
350,331,84572,2,0,P|424:335|364:266,1,185.249991519928
272,295,84888,6,0,B|225:281|225:281|152:296,1,123.499994346619
36,216,85204,1,0,0:0:0:0:
264,140,85362,2,0,B|262:14|262:14|206:77,1,185.249991519928
179,123,85677,1,0,0:0:0:0:
343,73,85835,2,0,L|345:160,1,61.7499971733095
206,258,85993,2,0,L|204:171,1,61.7499971733095
101,29,86151,6,0,L|89:146,1,61.7499971733095
17,206,86309,2,0,L|29:89,1,61.7499971733095
179,123,86467,2,0,B|273:106|260:189|356:169,1,185.249991519928
326,94,86783,1,0,0:0:0:0:
204,196,86941,1,0,0:0:0:0:
172,41,87098,2,0,P|119:68|130:189,1,185.249991519928
204,196,87414,6,0,B|219:261|219:261|192:337,1,123.499994346619
179,123,87730,1,0,0:0:0:0:
137,256,87888,2,0,P|240:250|323:275,1,185.249991519928
407,344,88204,2,0,B|413:315|413:315|391:252,1,61.7499971733095
509,197,88362,2,0,B|480:206|480:206|437:256,1,61.7499971733095
328,183,88520,2,0,B|350:202|350:202|415:215,1,61.7499971733095
491,302,88677,5,0,0:0:0:0:
317,272,88835,1,0,0:0:0:0:
433,143,88993,2,0,B|443:11|443:11|383:69,1,185.249991519928
335,87,89309,2,0,P|304:93|243:88,1,61.7499971733095
192,67,89467,1,0,0:0:0:0:
127,228,89625,2,0,P|175:172|283:212,1,185.249991519928
317,272,89941,6,0,L|465:267,1,123.499994346619
300,291,90256,1,0,0:0:0:0:
471,183,90414,1,0,0:0:0:0:
374,46,90572,2,0,L|371:119,1,61.7499971733095
369,188,90730,1,0,0:0:0:0:
481,26,90888,2,0,L|471:179,1,123.499994346619
296,252,91204,6,0,B|276:192|276:192|306:99,1,123.499994346619
198,38,91520,2,0,B|218:98|218:98|188:191,1,123.499994346619
124,243,91835,1,0,0:0:0:0:
144,235,91914,1,0,0:0:0:0:
163,228,91993,1,0,0:0:0:0:
57,180,92151,2,0,L|-5:152,1,61.7499971733095
64,310,92309,2,0,L|2:338,1,61.7499971733095
214,293,92467,6,0,B|275:278|275:278|327:299|327:299|397:283,1,185.249991519928
465,244,92783,2,0,B|476:277|476:277|469:313,1,61.7499971733095
391,207,92941,2,0,B|390:172|365:148|365:148|381:104|381:104|360:73|375:27,1,185.249991519928
448,61,93256,1,0,0:0:0:0:
296,103,93414,2,0,P|269:102|218:75,1,61.7499971733095
453,137,93572,2,0,P|480:136|531:109,1,61.7499971733095
313,208,93730,5,0,0:0:0:0:
470,303,93888,1,0,0:0:0:0:
259,363,94046,2,0,B|243:243|243:243|263:281|305:284,1,185.249991519928
369,269,94362,1,0,0:0:0:0:
161,230,94520,1,0,0:0:0:0:
296,88,94677,2,0,B|312:208|312:208|292:170|250:167,1,185.249991519928
184,153,94993,6,0,P|100:175|95:276,1,185.249991519928
100,338,95309,2,0,P|136:322|158:284,1,61.7499971733095
161,230,95467,2,0,B|200:237|230:215|230:215|277:243|277:243|302:223|342:228,1,185.249991519928
327,306,95783,1,0,0:0:0:0:
285,156,95941,2,0,L|304:77,1,61.7499971733095
418,124,96098,2,0,L|399:203,1,61.7499971733095
268,139,96256,6,0,L|287:60,1,61.7499971733095
432,144,96414,2,0,L|413:223,1,61.7499971733095
327,306,96572,2,0,P|276:240|180:263,1,185.249991519928
132,317,96888,1,0,0:0:0:0:
338,328,97046,1,0,0:0:0:0:
106,241,97204,2,0,B|64:183|115:122|115:122|130:148|163:156,1,185.249991519928
186,81,97520,6,0,B|245:64|245:64|300:81|300:81|374:63,1,185.249991519928
437,23,97835,2,0,B|450:52|450:52|447:85,1,61.7499971733095
407,254,97993,2,0,B|381:201|391:136|391:136|414:163|465:159,1,185.249991519928
447,81,98309,1,0,0:0:0:0:
306,158,98467,2,0,P|281:159|239:175,1,61.7499971733095
420,269,98625,2,0,P|445:268|487:252,1,61.7499971733095
260,306,98783,5,0,0:0:0:0:
260,306,98862,1,0,0:0:0:0:
260,306,98941,2,0,P|239:281|234:240,1,61.7499971733095
155,90,99098,2,0,P|134:115|129:156,1,61.7499971733095
54,303,99256,1,0,0:0:0:0:
90,317,99335,1,0,0:0:0:0:
129,310,99414,2,0,P|145:275|142:231,1,61.7499971733095
140,66,99572,2,0,P|119:91|114:132,1,61.7499971733095
54,185,99730,2,0,P|121:144|228:178,1,185.249991519928
295,231,100046,6,0,L|379:211,3,61.7499971733095
417,296,100362,2,0,L|396:363,3,61.7499971733095
450,213,100677,1,0,0:0:0:0:
442,183,100755,1,0,0:0:0:0:
440,152,100834,1,0,0:0:0:0:
444,121,100913,1,0,0:0:0:0:
454,92,100993,5,0,0:0:0:0:
421,61,101071,1,0,0:0:0:0:
376,50,101150,1,0,0:0:0:0:
332,63,101229,1,0,0:0:0:0:
301,97,101309,6,0,P|264:130|172:130,1,142.500005435944
48,165,101546,2,0,P|85:132|177:132,1,142.500005435944
259,196,101783,6,0,P|211:179|170:111,1,113.999996520996
89,64,102020,2,0,P|136:80|178:149,1,113.999996520996
168,220,102256,6,0,P|158:171|191:109,1,95
243,68,102493,1,0,0:0:0:0:
243,68,102572,6,0,L|372:60,1,113.999996520996
477,256,102888,2,0,P|423:199|333:213,1,170.999994781494
276,266,103204,2,0,L|189:260,1,56.9999982604981
86,212,103362,2,0,L|173:206,1,56.9999982604981
257,182,103520,1,0,0:0:0:0:
73,295,103677,1,0,0:0:0:0:
67,79,103835,6,0,B|122:51|122:51|186:58,1,113.999996520996
343,143,104151,1,0,0:0:0:0:
219,262,104309,1,0,0:0:0:0:
219,262,104388,1,0,0:0:0:0:
219,262,104467,2,0,L|223:330,1,56.9999982604981
143,195,104625,2,0,L|139:127,1,56.9999982604981
274,83,104783,2,0,B|255:141|255:141|270:191,1,113.999996520996
129,278,105098,5,0,0:0:0:0:
343,143,105256,1,0,0:0:0:0:
304,271,105414,1,0,0:0:0:0:
74,218,105572,1,0,0:0:0:0:
104,195,105651,1,0,0:0:0:0:
143,195,105730,1,0,0:0:0:0:
151,355,105888,1,0,0:0:0:0:
219,224,106046,2,0,P|225:199|219:160,1,56.9999982604981
42,82,106204,2,0,P|36:107|41:145,1,56.9999982604981
129,278,106362,5,0,0:0:0:0:
370,219,106520,1,0,0:0:0:0:
159,114,106677,5,0,0:0:0:0:
384,199,106835,1,0,0:0:0:0:
296,26,106993,5,0,0:0:0:0:
404,182,107151,1,0,0:0:0:0:
455,49,107309,6,0,P|321:16|276:37,1,170.999994781494
224,66,107625,6,0,B|183:81|183:81|75:63,1,113.999996520996
44,237,107941,2,0,B|102:224|102:224|146:240|146:240|210:225,1,170.999994781494
271,178,108256,2,0,P|286:210|285:242,1,56.9999982604981
113,360,108414,2,0,P|98:328|99:296,1,56.9999982604981
148,157,108572,1,0,0:0:0:0:
241,298,108730,1,0,0:0:0:0:
68,144,108888,6,0,P|89:101|152:75,1,113.999996520996
222,116,109125,1,0,0:0:0:0:
222,116,109204,2,0,L|294:108,1,56.9999982604981
340,169,109362,2,0,L|412:161,1,56.9999982604981
481,150,109520,1,0,0:0:0:0:
299,244,109677,1,0,0:0:0:0:
472,355,109835,1,0,0:0:0:0:
390,197,109993,1,0,0:0:0:0:
276,334,110151,5,0,0:0:0:0:
131,189,110309,1,0,0:0:0:0:
299,244,110467,1,0,0:0:0:0:
54,228,110625,1,0,0:0:0:0:
43,189,110704,1,0,0:0:0:0:
54,153,110783,1,0,0:0:0:0:
216,190,110941,1,0,0:0:0:0:
91,296,111098,2,0,P|64:304|36:303,1,56.9999982604981
229,174,111256,2,0,P|256:165|284:167,1,56.9999982604981
449,218,111414,5,0,0:0:0:0:
268,245,111572,1,0,0:0:0:0:
399,53,111730,2,0,L|385:166,1,113.999996520996
339,315,112046,6,0,L|350:237,1,76
313,99,112362,6,0,L|302:176,1,71.25
268,245,112677,6,0,B|221:224|221:224|186:230|156:249|156:249|83:239,1,170.999994781494
24,229,112993,1,0,0:0:0:0:
140,111,113151,1,0,0:0:0:0:
140,111,113230,1,0,0:0:0:0:
140,111,113309,2,0,B|134:144|134:144|138:173,1,56.9999982604981
217,308,113467,1,0,0:0:0:0:
330,149,113625,2,0,P|272:140|200:140,1,113.999996520996
386,295,113941,6,0,P|432:331|438:245,1,170.999994781494
383,216,114256,1,0,0:0:0:0:
438,89,114414,1,0,0:0:0:0:
438,89,114493,1,0,0:0:0:0:
438,89,114572,2,0,L|432:167,1,56.9999982604981
300,244,114730,2,0,L|306:166,1,56.9999982604981
459,78,114888,6,0,L|453:156,1,56.9999982604981
283,262,115046,2,0,L|289:184,1,56.9999982604981
294,55,115204,5,0,0:0:0:0:
263,281,115362,1,0,0:0:0:0:
79,89,115520,6,0,L|97:158,1,56.9999982604981
117,227,115677,2,0,L|135:296,1,56.9999982604981
218,44,115835,6,0,L|217:115,1,56.9999982604981
219,202,115992,2,0,L|218:273,1,56.9999982604981
377,46,116151,6,0,L|358:114,1,56.9999982604981
327,213,116308,2,0,L|308:281,1,56.9999982604981
466,348,116467,5,0,0:0:0:0:
483,326,116545,1,0,0:0:0:0:
490,298,116624,1,0,0:0:0:0:
484,271,116703,1,0,0:0:0:0:
466,249,116783,2,0,B|434:165|508:180|464:81,1,170.999994781494
397,134,117098,2,0,L|326:141,1,56.9999982604981
218,202,117256,2,0,L|289:209,1,56.9999982604981
375,221,117414,1,0,0:0:0:0:
226,122,117572,1,0,0:0:0:0:
235,286,117730,5,0,0:0:0:0:
232,292,117808,1,0,0:0:0:0:
230,299,117887,1,0,0:0:0:0:
227,306,117966,1,0,0:0:0:0:
225,312,118045,1,0,0:0:0:0:
222,319,118124,1,0,0:0:0:0:
220,326,118203,1,0,0:0:0:0:
217,332,118282,1,0,0:0:0:0:
215,340,118362,2,0,L|157:361,3,56.9999982604981
43,283,118677,2,0,L|101:304,3,56.9999982604981
145,240,118993,5,0,0:0:0:0:
160,216,119071,1,0,0:0:0:0:
164,188,119150,1,0,0:0:0:0:
158,160,119229,1,0,0:0:0:0:
134,136,119309,1,0,0:0:0:0:
120,111,119387,1,0,0:0:0:0:
115,83,119466,1,0,0:0:0:0:
120,55,119545,1,0,0:0:0:0:
134,30,119625,2,0,L|207:23,3,56.9999982604981
303,98,119941,2,0,L|230:90,3,56.9999982604981
403,58,120256,5,0,0:0:0:0:
403,58,120335,1,0,0:0:0:0:
403,58,120414,2,0,P|394:101|394:142,1,71.2500027179719
337,299,120572,2,0,P|328:256|328:215,1,71.2500027179719
246,92,120730,2,0,P|237:135|237:176,1,71.2500027179719
185,311,120888,5,0,0:0:0:0:
158,346,120966,1,0,0:0:0:0:
117,360,121045,1,0,0:0:0:0:
75,349,121124,1,0,0:0:0:0:
46,315,121203,1,0,0:0:0:0:
41,272,121282,1,0,0:0:0:0:
62,233,121361,1,0,0:0:0:0:
101,213,121441,1,0,0:0:0:0:
145,218,121520,6,0,P|162:172|134:111,1,113.999996520996
42,104,121756,2,0,L|182:91,1,113.999996520996
286,63,121993,2,0,L|146:76,1,113.999996520996
353,121,122230,2,0,L|493:108,1,113.999996520996
301,273,122467,2,0,P|258:237|250:182,1,113.999996520996
333,202,122704,1,0,0:0:0:0:
333,202,122783,1,0,0:0:0:0:
