osu file format v14

[General]
AudioFilename: audio.mp3
AudioLeadIn: 0
PreviewTime: 103795
Countdown: 0
SampleSet: Soft
StackLeniency: 0.7
Mode: 3
LetterboxInBreaks: 0
SpecialStyle: 0
WidescreenStoryboard: 1

[Editor]
DistanceSpacing: 1
BeatDivisor: 4
GridSize: 32
TimelineZoom: 1.8

[Metadata]
Title:Blows Up Everything
TitleUnicode:Blows Up Everything
Artist:USAO
ArtistUnicode:USAO
Creator:Shima Rin
Version:Re:MASTER
Source:maimai でらっくす
Tags:Deluxe DX Video Game Electronic Instrumental Hardcore TANO*C Syadow- Rivals_7 Tofu1222 Daeng Simatta Agayers Rhezie UOM Records USAO-017 XTREME
BeatmapID:2943157
BeatmapSetID:1429690

[Difficulty]
HPDrainRate:8.8
CircleSize:4
OverallDifficulty:8.5
ApproachRate:5
SliderMultiplier:1.4
SliderTickRate:1

[Events]
//Background and Video events
0,0,"BG.png",0,0
//Break Periods
//Storyboard Layer 0 (Background)
//Storyboard Layer 1 (Fail)
//Storyboard Layer 2 (Pass)
//Storyboard Layer 3 (Foreground)
//Storyboard Layer 4 (Overlay)
//Storyboard Sound Samples

[TimingPoints]
1098,279.06976744186,4,2,1,50,1,0
91516,-100,4,2,1,50,0,1
100446,-100,4,2,1,50,0,0
104911,-100,4,2,1,50,0,1
131702,-100,4,2,1,50,0,0

[HitObjects]
64,192,1098,5,2,0:0:0:0:
320,192,1098,1,0,0:0:0:70:push_scratch.wav
448,192,1098,1,0,0:0:0:0:
192,192,1377,1,8,0:0:0:0:
320,192,1377,1,2,0:0:0:0:
448,192,1377,1,0,0:0:0:0:
64,192,1656,1,2,0:0:0:0:
192,192,1656,1,0,0:0:0:0:
64,192,1935,1,8,0:0:0:0:
320,192,1935,1,2,0:0:0:0:
448,192,1935,1,0,0:0:0:0:
192,192,2214,1,2,0:0:0:0:
320,192,2214,1,0,0:0:0:0:
64,192,2493,1,8,0:0:0:0:
192,192,2493,1,2,0:0:0:0:
448,192,2493,1,0,0:0:0:0:
320,192,2772,1,2,0:0:0:0:
448,192,2772,1,0,0:0:0:0:
64,192,3051,1,8,0:0:0:0:
192,192,3051,1,2,0:0:0:0:
320,192,3051,1,0,0:0:0:0:
64,192,3330,1,2,0:0:0:0:
192,192,3330,1,0,0:0:0:0:
320,192,3470,1,0,0:0:0:0:
64,192,3609,1,8,0:0:0:0:
192,192,3609,1,2,0:0:0:0:
448,192,3609,1,0,0:0:0:0:
320,192,3749,1,0,0:0:0:0:
64,192,3888,1,2,0:0:0:0:
448,192,3888,1,0,0:0:0:0:
192,192,4028,1,0,0:0:0:0:
64,192,4167,1,8,0:0:0:0:
320,192,4167,1,2,0:0:0:0:
448,192,4167,1,0,0:0:0:0:
192,192,4307,1,0,0:0:0:0:
320,192,4446,1,2,0:0:0:0:
448,192,4446,1,0,0:0:0:0:
64,192,4586,1,0,0:0:0:0:
192,192,4725,1,8,0:0:0:0:
320,192,4725,1,2,0:0:0:0:
448,192,4725,1,0,0:0:0:0:
64,192,4865,1,0,0:0:0:0:
192,192,5004,1,2,0:0:0:0:
320,192,5004,1,0,0:0:0:0:
448,192,5144,1,0,0:0:0:0:
64,192,5284,1,8,0:0:0:0:
192,192,5284,1,2,0:0:0:0:
320,192,5284,1,0,0:0:0:0:
448,192,5423,1,0,0:0:0:0:
64,192,5563,1,2,0:0:0:0:
192,192,5563,1,4,0:0:0:0:
320,192,5563,1,0,0:0:0:0:
320,192,5702,1,0,0:0:0:0:
64,192,5842,1,8,0:0:0:0:
192,192,5842,128,2,5981:0:0:0:0:
448,192,5842,1,0,0:0:0:0:
320,192,5981,1,0,0:0:0:0:
192,192,6121,1,2,0:0:0:0:
448,192,6121,1,0,0:0:0:0:
192,192,6260,1,0,0:0:0:0:
64,192,6400,1,8,0:0:0:0:
320,192,6400,1,2,0:0:0:0:
448,192,6400,128,0,6539:0:0:0:0:
192,192,6539,1,0,0:0:0:0:
320,192,6679,1,2,0:0:0:0:
448,192,6679,1,0,0:0:0:0:
448,192,6818,1,0,0:0:0:0:
64,192,6958,128,8,7097:0:0:0:0:
192,192,6958,1,2,0:0:0:0:
320,192,6958,1,0,0:0:0:0:
448,192,7097,1,0,0:0:0:0:
64,192,7237,1,2,0:0:0:0:
192,192,7237,1,0,0:0:0:0:
64,192,7377,1,0,0:0:0:0:
192,192,7516,1,8,0:0:0:0:
320,192,7516,128,2,7656:0:0:0:0:
448,192,7516,1,0,0:0:0:0:
64,192,7656,1,0,0:0:0:0:
320,192,7795,1,2,0:0:0:0:
448,192,7795,1,0,0:0:0:0:
320,192,7935,1,0,0:0:0:0:
64,192,8074,1,8,0:0:0:0:
192,192,8074,128,2,8214:0:0:0:0:
448,192,8074,1,0,0:0:0:0:
320,192,8214,1,0,0:0:0:0:
64,192,8353,1,2,0:0:0:0:
192,192,8353,1,0,0:0:0:0:
192,192,8493,1,0,0:0:0:0:
64,192,8632,1,8,0:0:0:0:
320,192,8632,1,2,0:0:0:0:
448,192,8632,128,0,8772:0:0:0:0:
192,192,8772,1,0,0:0:0:0:
448,192,8911,1,0,0:0:0:0:
320,192,9051,1,0,0:0:0:0:
64,192,9191,1,0,0:0:0:50:_Db_snare.wav
192,192,9191,1,0,0:0:0:0:
448,192,9330,1,0,0:0:0:0:
320,192,9470,1,0,0:0:0:0:
64,192,9609,1,0,0:0:0:50:_Db_snare.wav
192,192,9609,1,0,0:0:0:0:
448,192,9749,1,0,0:0:0:0:
320,192,9818,1,0,0:0:0:0:
448,192,9888,1,0,0:0:0:0:
320,192,9958,1,0,0:0:0:0:
64,192,10028,1,2,0:0:0:0:
192,192,10028,1,4,0:0:0:0:
448,192,10028,1,0,0:0:0:0:
64,192,10167,1,0,0:0:0:0:
64,192,10307,1,0,0:0:0:0:
192,192,10446,1,0,0:0:0:0:
320,192,10586,1,8,0:0:0:70:Snare clap 2.wav
448,192,10586,1,0,0:0:0:0:
192,192,10725,1,0,0:0:0:0:
192,192,10865,1,0,0:0:0:0:
448,192,11004,1,0,0:0:0:0:
64,192,11144,1,2,0:0:0:0:
320,192,11144,1,0,0:0:0:0:
192,192,11284,1,0,0:0:0:0:
448,192,11423,1,0,0:0:0:0:
320,192,11493,1,0,0:0:0:0:
64,192,11563,1,2,0:0:0:0:
192,192,11563,1,0,0:0:0:0:
320,192,11632,1,0,0:0:0:0:
192,192,11702,1,8,0:0:0:70:Snare clap 2.wav
448,192,11702,128,0,11981:0:0:0:0:
64,192,11981,1,0,0:0:0:0:
64,192,12121,1,0,0:0:0:0:
192,192,12191,1,0,0:0:0:0:
320,192,12260,1,2,0:0:0:0:
448,192,12260,1,0,0:0:0:0:
448,192,12400,1,0,0:0:0:0:
448,192,12539,1,0,0:0:0:0:
320,192,12679,1,0,0:0:0:0:
64,192,12818,1,8,0:0:0:70:Snare clap 2.wav
192,192,12818,1,0,0:0:0:0:
320,192,12958,1,0,0:0:0:0:
192,192,13097,1,0,0:0:0:0:
320,192,13237,1,0,0:0:0:0:
64,192,13307,1,0,0:0:0:0:
192,192,13377,1,2,0:0:0:0:
448,192,13377,1,0,0:0:0:0:
320,192,13516,1,0,0:0:0:0:
64,192,13656,1,0,0:0:0:0:
320,192,13795,1,2,0:0:0:0:
448,192,13795,1,0,0:0:0:0:
64,192,13935,128,8,14214:0:0:0:70:Snare clap 2.wav
320,192,13935,1,0,0:0:0:0:
448,192,14214,1,0,0:0:0:0:
320,192,14284,1,0,0:0:0:0:
192,192,14353,1,0,0:0:0:0:
64,192,14493,1,2,0:0:0:0:
320,192,14493,1,0,0:0:0:0:
448,192,14493,1,0,0:0:0:0:
192,192,14632,1,0,0:0:0:0:
448,192,14632,1,0,0:0:0:0:
64,192,14772,1,0,0:0:0:30:Snare 2.wav
320,192,14772,1,0,0:0:0:0:
192,192,14911,1,0,0:0:0:30:Snare 2.wav
320,192,14911,1,0,0:0:0:0:
64,192,15051,1,2,0:0:0:0:
448,192,15051,1,0,0:0:0:0:
64,192,15191,1,0,0:0:0:30:Snare 2.wav
320,192,15191,1,0,0:0:0:0:
192,192,15330,1,0,0:0:0:30:Snare 2.wav
448,192,15330,1,0,0:0:0:0:
192,192,15470,1,0,0:0:0:30:Snare 2.wav
320,192,15470,1,0,0:0:0:0:
64,192,15609,1,2,0:0:0:0:
320,192,15609,1,0,0:0:0:0:
448,192,15609,1,0,0:0:0:0:
192,192,15749,1,0,0:0:0:30:Snare 2.wav
448,192,15749,1,0,0:0:0:0:
64,192,15888,1,0,0:0:0:30:Snare 2.wav
320,192,15888,1,0,0:0:0:0:
192,192,16028,1,0,0:0:0:30:Snare 2.wav
320,192,16028,1,0,0:0:0:0:
64,192,16167,1,2,0:0:0:0:
448,192,16167,1,0,0:0:0:30:Snare 2.wav
64,192,16307,1,0,0:0:0:30:Snare 2.wav
320,192,16307,1,0,0:0:0:0:
192,192,16446,1,0,0:0:0:30:Snare 2.wav
448,192,16446,1,0,0:0:0:0:
192,192,16586,1,0,0:0:0:30:Snare 2.wav
320,192,16586,1,0,0:0:0:0:
64,192,16725,1,2,0:0:0:0:
320,192,16725,1,0,0:0:0:0:
448,192,16725,1,0,0:0:0:0:
192,192,16795,1,0,0:0:0:30:Snare 2.wav
448,192,16865,1,0,0:0:0:30:Snare 2.wav
320,192,16935,1,0,0:0:0:30:Snare 2.wav
64,192,17004,1,2,0:0:0:0:
192,192,17004,1,0,0:0:0:0:
448,192,17074,1,0,0:0:0:30:Snare 2.wav
320,192,17144,1,0,0:0:0:30:Snare 2.wav
192,192,17214,1,0,0:0:0:30:Snare 2.wav
64,192,17284,1,2,0:0:0:0:
320,192,17284,1,0,0:0:0:0:
448,192,17284,1,0,0:0:0:0:
192,192,17353,1,0,0:0:0:30:Snare 2.wav
448,192,17423,1,0,0:0:0:30:Snare 2.wav
320,192,17493,1,0,0:0:0:30:Snare 2.wav
64,192,17563,1,2,0:0:0:0:
192,192,17563,1,0,0:0:0:0:
320,192,17632,1,0,0:0:0:30:Snare 2.wav
448,192,17632,1,0,0:0:0:0:
64,192,17702,1,0,0:0:0:30:Snare 2.wav
192,192,17702,1,0,0:0:0:0:
320,192,17772,1,0,0:0:0:30:Snare 2.wav
64,192,17842,1,2,0:0:0:0:
192,192,17842,1,0,0:0:0:0:
448,192,17842,1,0,0:0:0:0:
320,192,18400,1,0,0:0:0:0:
448,192,18446,1,0,0:0:0:0:
192,192,18679,1,0,0:0:0:0:
64,192,18725,1,0,0:0:0:0:
320,192,18818,1,2,0:0:0:0:
448,192,18818,1,0,0:0:0:0:
192,192,18888,1,2,0:0:0:0:
64,192,18958,1,2,0:0:0:0:
320,192,18958,1,4,0:0:0:0:
448,192,18958,128,0,19097:0:0:0:0:
192,192,19097,1,0,0:0:0:0:
320,192,19237,1,2,0:0:0:0:
448,192,19237,128,0,19377:0:0:0:0:
64,192,19377,1,0,0:0:0:0:
192,192,19516,128,2,19656:0:0:0:0:
320,192,19516,1,0,0:0:0:0:
448,192,19656,1,0,0:0:0:0:
192,192,19795,128,2,19935:0:0:0:0:
320,192,19795,1,0,0:0:0:0:
64,192,19935,1,0,0:0:0:0:
320,192,20074,128,2,20214:0:0:0:0:
448,192,20074,1,0,0:0:0:0:
192,192,20214,1,0,0:0:0:0:
320,192,20353,128,2,20493:0:0:0:0:
448,192,20353,1,0,0:0:0:0:
64,192,20493,1,0,0:0:0:0:
192,192,20632,1,2,0:0:0:0:
448,192,20632,1,0,0:0:0:0:
192,192,20772,1,0,0:0:0:0:
64,192,20911,1,2,0:0:0:0:
448,192,20911,128,0,21051:0:0:0:0:
320,192,21051,1,0,0:0:0:0:
64,192,21191,128,2,21330:0:0:0:0:
192,192,21191,1,0,0:0:0:0:
320,192,21330,1,0,0:0:0:0:
64,192,21470,128,2,21609:0:0:0:0:
192,192,21470,1,0,0:0:0:0:
448,192,21609,1,0,0:0:0:0:
192,192,21749,1,2,0:0:0:0:
320,192,21749,128,0,21888:0:0:0:0:
64,192,21888,1,0,0:0:0:0:
192,192,22028,1,2,0:0:0:0:
448,192,22028,1,0,0:0:0:0:
192,192,22167,1,0,0:0:0:0:
64,192,22307,1,2,0:0:0:0:
320,192,22307,128,0,22446:0:0:0:0:
448,192,22307,1,0,0:0:0:0:
192,192,22446,1,0,0:0:0:0:
64,192,22586,1,8,0:0:0:0:
192,192,22586,128,0,22725:0:0:0:0:
448,192,22586,1,0,0:0:0:0:
320,192,22725,1,0,0:0:0:0:
64,192,22865,1,2,0:0:0:0:
320,192,22865,1,0,0:0:0:0:
448,192,22865,1,0,0:0:0:0:
64,192,23004,1,2,0:0:0:0:
448,192,23004,1,0,0:0:0:0:
64,192,23144,1,0,0:0:0:80:snare070.wav
192,192,23144,1,0,0:0:0:0:
320,192,23144,128,0,23423:0:0:0:0:
64,192,23423,1,2,0:0:0:0:
192,192,23423,1,0,0:0:0:0:
448,192,23423,1,0,0:0:0:0:
192,192,23563,1,2,0:0:0:0:
320,192,23563,1,0,0:0:0:0:
64,192,23702,1,8,0:0:0:0:
320,192,23702,1,0,0:0:0:0:
448,192,23702,1,0,0:0:0:0:
192,192,23842,128,0,23981:0:0:0:0:
64,192,23981,1,2,0:0:0:0:
320,192,23981,1,0,0:0:0:0:
320,192,24121,128,0,24260:0:0:0:0:
64,192,24260,1,8,0:0:0:0:
192,192,24260,1,0,0:0:0:0:
448,192,24260,1,0,0:0:0:0:
64,192,24400,128,0,24539:0:0:0:0:
192,192,24539,1,2,0:0:0:0:
448,192,24539,1,0,0:0:0:0:
448,192,24679,128,0,24818:0:0:0:0:
64,192,24818,1,8,0:0:0:0:
192,192,24818,1,0,0:0:0:0:
320,192,24818,1,0,0:0:0:0:
192,192,24958,128,0,25097:0:0:0:0:
64,192,25097,1,2,0:0:0:0:
320,192,25097,1,0,0:0:0:0:
64,192,25237,1,0,0:0:0:0:
192,192,25377,1,8,0:0:0:0:
320,192,25377,1,2,0:0:0:0:
448,192,25377,1,0,0:0:0:0:
64,192,25446,1,2,0:0:0:0:
320,192,25516,1,2,0:0:0:0:
448,192,25516,1,0,0:0:0:0:
64,192,25586,1,2,0:0:0:0:
192,192,25586,1,0,0:0:0:0:
320,192,25656,1,2,0:0:0:0:
448,192,25656,1,0,0:0:0:0:
192,192,25795,1,2,0:0:0:0:
320,192,25795,1,0,0:0:0:0:
64,192,25935,1,8,0:0:0:0:
192,192,25935,1,0,0:0:0:0:
448,192,25935,1,0,0:0:0:0:
320,192,26074,128,0,26214:0:0:0:0:
64,192,26214,1,2,0:0:0:0:
448,192,26214,1,0,0:0:0:0:
64,192,26353,1,2,0:0:0:0:
192,192,26353,1,0,0:0:0:0:
320,192,26423,1,2,0:0:0:0:
64,192,26493,1,8,0:0:0:0:
192,192,26493,1,0,0:0:0:0:
448,192,26493,1,0,0:0:0:0:
320,192,26563,1,0,0:0:0:0:
64,192,26632,1,2,0:0:0:0:
448,192,26632,1,0,0:0:0:0:
192,192,26702,1,0,0:0:0:0:
64,192,26772,1,2,0:0:0:0:
320,192,26772,128,0,26911:0:0:0:0:
448,192,26772,1,0,0:0:0:0:
192,192,26911,1,0,0:0:0:0:
320,192,26981,1,0,0:0:0:0:
64,192,27051,1,2,0:0:0:0:
192,192,27051,128,0,27191:0:0:0:0:
448,192,27051,1,0,0:0:0:0:
320,192,27191,1,0,0:0:0:0:
64,192,27330,1,2,0:0:0:0:
192,192,27330,1,0,0:0:0:0:
448,192,27330,1,0,0:0:0:0:
64,192,27470,1,2,0:0:0:0:
448,192,27470,1,0,0:0:0:0:
192,192,27609,128,0,27888:0:0:0:80:snare070.wav
320,192,27609,1,0,0:0:0:0:
448,192,27609,1,0,0:0:0:0:
64,192,27888,1,2,0:0:0:0:
320,192,27888,1,4,0:0:0:0:
448,192,27888,1,0,0:0:0:0:
64,192,28028,1,0,0:0:0:0:
64,192,28167,1,8,0:0:0:0:
192,192,28167,1,0,0:0:0:0:
320,192,28167,128,0,28307:0:0:0:0:
448,192,28307,1,0,0:0:0:0:
64,192,28446,1,2,0:0:0:0:
192,192,28446,1,0,0:0:0:0:
320,192,28586,1,0,0:0:0:0:
64,192,28725,1,8,0:0:0:0:
192,192,28725,128,0,28865:0:0:0:0:
448,192,28725,1,0,0:0:0:0:
448,192,28865,1,0,0:0:0:0:
64,192,29004,128,2,29144:0:0:0:0:
320,192,29004,1,0,0:0:0:0:
320,192,29144,1,0,0:0:0:0:
64,192,29284,1,8,0:0:0:0:
192,192,29284,1,0,0:0:0:0:
448,192,29284,1,0,0:0:0:0:
320,192,29353,1,0,0:0:0:0:
192,192,29423,1,0,0:0:0:0:
320,192,29493,1,0,0:0:0:0:
64,192,29563,1,2,0:0:0:0:
448,192,29563,128,0,29842:0:0:0:0:
192,192,29702,1,0,0:0:0:0:
64,192,29842,1,8,0:0:0:0:
192,192,29842,1,0,0:0:0:0:
320,192,29842,1,0,0:0:0:0:
320,192,29981,1,2,0:0:0:0:
448,192,29981,1,0,0:0:0:0:
64,192,30051,1,2,0:0:0:0:
192,192,30051,1,0,0:0:0:0:
320,192,30121,1,2,0:0:0:0:
448,192,30121,128,0,30260:0:0:0:0:
64,192,30260,1,0,0:0:0:0:
192,192,30400,1,8,0:0:0:0:
320,192,30400,1,0,0:0:0:0:
448,192,30400,1,0,0:0:0:0:
64,192,30539,128,0,30679:0:0:0:0:
320,192,30679,1,2,0:0:0:0:
448,192,30679,1,0,0:0:0:0:
192,192,30818,128,0,30958:0:0:0:0:
64,192,30958,1,8,0:0:0:0:
320,192,30958,1,0,0:0:0:0:
448,192,30958,1,0,0:0:0:0:
192,192,31097,1,0,0:0:0:0:
320,192,31167,1,0,0:0:0:0:
64,192,31237,1,2,0:0:0:0:
448,192,31237,1,0,0:0:0:0:
192,192,31307,1,0,0:0:0:0:
448,192,31377,1,0,0:0:0:0:
320,192,31446,1,0,0:0:0:0:
64,192,31516,1,8,0:0:0:0:
192,192,31516,1,0,0:0:0:0:
448,192,31516,1,0,0:0:0:0:
320,192,31586,1,0,0:0:0:0:
64,192,31656,1,0,0:0:0:0:
192,192,31725,1,0,0:0:0:0:
320,192,31795,1,2,0:0:0:0:
448,192,31795,1,0,0:0:0:0:
64,192,31865,1,0,0:0:0:0:
192,192,31865,1,0,0:0:0:0:
448,192,31935,1,0,0:0:0:0:
320,192,32004,1,0,0:0:0:0:
64,192,32074,1,2,0:0:0:0:
192,192,32074,128,0,32353:0:0:0:0:
448,192,32074,1,0,0:0:0:0:
320,192,32214,1,0,0:0:0:0:
64,192,32353,1,2,0:0:0:0:
320,192,32353,1,4,0:0:0:0:
448,192,32353,1,0,0:0:0:0:
448,192,32493,1,0,0:0:0:0:
64,192,32632,1,8,0:0:0:0:
192,192,32632,1,0,0:0:0:0:
448,192,32632,1,0,0:0:0:0:
192,192,32772,128,0,32911:0:0:0:0:
64,192,32911,1,2,0:0:0:0:
320,192,32911,1,0,0:0:0:0:
320,192,33051,128,0,33191:0:0:0:0:
64,192,33191,1,8,0:0:0:0:
192,192,33191,1,0,0:0:0:0:
448,192,33191,1,0,0:0:0:0:
192,192,33330,1,0,0:0:0:0:
64,192,33470,1,2,0:0:0:0:
448,192,33470,1,0,0:0:0:0:
448,192,33609,1,0,0:0:0:0:
64,192,33749,1,8,0:0:0:0:
192,192,33749,1,0,0:0:0:0:
320,192,33749,1,0,0:0:0:0:
320,192,33888,1,0,0:0:0:0:
64,192,34028,1,2,0:0:0:0:
448,192,34028,1,0,0:0:0:0:
64,192,34167,1,0,0:0:0:0:
192,192,34307,1,8,0:0:0:0:
320,192,34307,1,0,0:0:0:0:
448,192,34307,1,0,0:0:0:0:
64,192,34446,1,2,0:0:0:0:
192,192,34446,1,0,0:0:0:0:
320,192,34516,1,2,0:0:0:0:
448,192,34516,1,0,0:0:0:0:
64,192,34586,1,2,0:0:0:0:
192,192,34586,1,0,0:0:0:0:
64,192,34725,1,0,0:0:0:0:
192,192,34865,1,8,0:0:0:0:
320,192,34865,1,0,0:0:0:0:
448,192,34865,1,0,0:0:0:0:
192,192,35004,128,0,35144:0:0:0:0:
64,192,35144,1,2,0:0:0:0:
448,192,35144,1,0,0:0:0:0:
448,192,35284,128,0,35423:0:0:0:0:
64,192,35423,1,8,0:0:0:0:
192,192,35423,1,0,0:0:0:0:
320,192,35423,1,0,0:0:0:0:
448,192,35563,1,0,0:0:0:0:
320,192,35632,1,0,0:0:0:0:
64,192,35702,1,2,0:0:0:0:
192,192,35702,128,0,35842:0:0:0:0:
448,192,35702,1,0,0:0:0:0:
320,192,35842,1,0,0:0:0:0:
64,192,35981,1,8,0:0:0:0:
192,192,35981,128,0,36121:0:0:0:0:
320,192,35981,128,0,36121:0:0:0:0:
448,192,36121,1,0,0:0:0:0:
192,192,36260,128,2,36400:0:0:0:0:
320,192,36260,128,0,36400:0:0:0:0:
448,192,36260,128,0,36400:0:0:0:0:
64,192,36400,1,0,0:0:0:0:
64,192,36539,128,0,36818:0:0:0:80:snare070.wav
320,192,36539,1,0,0:0:0:0:
192,192,36818,1,2,0:0:0:0:
320,192,36818,1,4,0:0:0:0:
448,192,36818,1,0,0:0:0:0:
192,192,36958,1,0,0:0:0:0:
64,192,37097,1,8,0:0:0:0:
320,192,37097,128,0,37237:0:0:0:0:
448,192,37097,128,0,37237:0:0:0:0:
192,192,37237,1,0,0:0:0:0:
64,192,37377,1,2,0:0:0:0:
448,192,37377,1,0,0:0:0:0:
64,192,37516,1,0,0:0:0:0:
192,192,37656,128,8,37795:0:0:0:0:
320,192,37656,128,0,37795:0:0:0:0:
448,192,37656,1,0,0:0:0:0:
64,192,37795,1,0,0:0:0:0:
192,192,37935,1,2,0:0:0:0:
448,192,37935,128,0,38074:0:0:0:0:
320,192,38074,1,0,0:0:0:0:
64,192,38214,128,8,38353:0:0:0:0:
192,192,38214,128,0,38353:0:0:0:0:
448,192,38214,1,0,0:0:0:0:
320,192,38284,1,0,0:0:0:0:
448,192,38353,1,0,0:0:0:0:
320,192,38423,1,0,0:0:0:0:
64,192,38493,1,2,0:0:0:0:
192,192,38493,128,0,38772:0:0:0:0:
320,192,38632,1,0,0:0:0:0:
64,192,38772,1,8,0:0:0:0:
320,192,38772,128,0,38911:0:0:0:0:
448,192,38772,128,0,38911:0:0:0:0:
64,192,38911,1,2,0:0:0:0:
192,192,38911,1,0,0:0:0:0:
320,192,38981,1,2,0:0:0:0:
448,192,38981,1,0,0:0:0:0:
64,192,39051,128,2,39191:0:0:0:0:
192,192,39051,1,0,0:0:0:0:
320,192,39191,1,0,0:0:0:0:
64,192,39330,128,8,39470:0:0:0:0:
192,192,39330,128,0,39470:0:0:0:0:
448,192,39330,1,0,0:0:0:0:
320,192,39470,128,0,39609:0:0:0:0:
64,192,39609,1,2,0:0:0:0:
448,192,39609,1,0,0:0:0:0:
64,192,39749,128,0,39888:0:0:0:0:
192,192,39888,128,8,40028:0:0:0:0:
320,192,39888,128,0,40028:0:0:0:0:
448,192,39888,1,0,0:0:0:0:
64,192,40028,1,0,0:0:0:0:
192,192,40097,1,0,0:0:0:0:
320,192,40167,128,2,40307:0:0:0:0:
448,192,40167,1,0,0:0:0:0:
64,192,40307,1,0,0:0:0:0:
320,192,40446,128,2,40586:0:0:0:0:
448,192,40446,1,0,0:0:0:0:
64,192,40586,1,0,0:0:0:0:
192,192,40725,1,2,0:0:0:0:
448,192,40725,128,0,41004:0:0:0:0:
64,192,40865,1,2,0:0:0:0:
320,192,40865,1,0,0:0:0:0:
192,192,40935,1,0,0:0:0:0:
64,192,41004,1,8,0:0:0:0:
320,192,41004,1,0,0:0:0:0:
448,192,41074,1,0,0:0:0:0:
64,192,41144,1,0,0:0:0:0:
448,192,41214,1,0,0:0:0:0:
64,192,41284,1,2,0:0:0:0:
192,192,41284,1,0,0:0:0:0:
320,192,41284,1,0,0:0:0:0:
192,192,41423,1,0,0:0:0:0:
192,192,41563,128,8,41702:0:0:0:0:
320,192,41563,1,2,0:0:0:0:
448,192,41563,1,0,0:0:0:0:
64,192,41702,1,0,0:0:0:0:
320,192,41842,1,2,0:0:0:0:
448,192,41842,1,0,0:0:0:0:
192,192,41981,1,0,0:0:0:0:
64,192,42121,1,2,0:0:0:0:
320,192,42121,128,8,42260:0:0:0:0:
448,192,42121,1,0,0:0:0:0:
64,192,42260,1,0,0:0:0:0:
192,192,42400,1,2,0:0:0:0:
448,192,42400,128,0,42539:0:0:0:0:
192,192,42539,1,0,0:0:0:0:
64,192,42679,1,2,0:0:0:0:
320,192,42679,1,8,0:0:0:0:
448,192,42679,1,0,0:0:0:0:
192,192,42749,1,0,0:0:0:0:
320,192,42818,1,0,0:0:0:0:
192,192,42888,1,0,0:0:0:0:
64,192,42958,128,2,43237:0:0:0:0:
448,192,42958,1,0,0:0:0:0:
320,192,43097,1,0,0:0:0:0:
192,192,43237,1,2,0:0:0:0:
320,192,43237,1,8,0:0:0:0:
448,192,43237,1,0,0:0:0:0:
64,192,43377,1,2,0:0:0:0:
192,192,43377,1,0,0:0:0:0:
320,192,43446,1,2,0:0:0:0:
448,192,43446,1,0,0:0:0:0:
64,192,43516,128,2,43656:0:0:0:0:
192,192,43516,1,0,0:0:0:0:
320,192,43656,1,0,0:0:0:0:
64,192,43795,1,2,0:0:0:0:
192,192,43795,1,8,0:0:0:0:
448,192,43795,1,0,0:0:0:0:
320,192,43935,128,0,44074:0:0:0:0:
64,192,44074,1,2,0:0:0:0:
448,192,44074,1,0,0:0:0:0:
192,192,44214,128,0,44353:0:0:0:0:
64,192,44353,1,2,0:0:0:0:
320,192,44353,1,8,0:0:0:0:
448,192,44353,1,0,0:0:0:0:
448,192,44493,1,0,0:0:0:0:
320,192,44563,1,0,0:0:0:0:
64,192,44632,128,2,44772:0:0:0:0:
192,192,44632,128,0,44772:0:0:0:0:
448,192,44772,1,0,0:0:0:60:snare070.wav
320,192,44911,128,2,45051:0:0:0:0:
448,192,44911,128,8,45051:0:0:0:0:
64,192,45051,1,0,0:0:0:0:
192,192,45191,128,2,45330:0:0:0:0:
320,192,45191,128,0,45330:0:0:0:0:
64,192,45330,1,2,0:0:0:0:
448,192,45330,1,0,0:0:0:0:
192,192,45400,1,2,0:0:0:0:
320,192,45400,1,0,0:0:0:0:
64,192,45470,128,2,45679:0:0:0:0:
448,192,45470,128,0,45679:0:0:0:60:snare070.wav
64,192,45749,1,2,0:0:0:0:
192,192,45749,1,4,0:0:0:0:
448,192,45749,1,0,0:0:0:0:
64,192,45888,1,0,0:0:0:0:
320,192,45888,1,0,0:0:0:0:
192,192,46028,1,8,0:0:0:0:
320,192,46028,1,0,0:0:0:0:
448,192,46028,1,0,0:0:0:0:
64,192,46167,1,2,0:0:0:0:
448,192,46167,1,0,0:0:0:0:
64,192,46307,1,0,0:0:0:0:
320,192,46307,1,0,0:0:0:0:
192,192,46446,1,8,0:0:0:0:
320,192,46446,1,0,0:0:0:0:
448,192,46446,1,0,0:0:0:0:
64,192,46586,1,2,0:0:0:0:
192,192,46586,1,0,0:0:0:0:
64,192,46725,1,0,0:0:0:0:
320,192,46725,1,0,0:0:0:0:
192,192,46865,1,8,0:0:0:0:
320,192,46865,1,0,0:0:0:0:
448,192,46865,1,0,0:0:0:0:
64,192,47004,1,2,0:0:0:0:
448,192,47004,1,0,0:0:0:0:
64,192,47144,1,0,0:0:0:0:
320,192,47144,1,0,0:0:0:0:
192,192,47284,1,8,0:0:0:0:
320,192,47284,1,0,0:0:0:0:
448,192,47284,1,0,0:0:0:0:
64,192,47423,1,2,0:0:0:0:
192,192,47423,1,0,0:0:0:0:
64,192,47563,1,2,0:0:0:0:
320,192,47563,1,0,0:0:0:0:
192,192,47702,1,8,0:0:0:0:
320,192,47702,1,0,0:0:0:0:
448,192,47702,1,0,0:0:0:0:
64,192,47772,1,0,0:0:0:0:
320,192,47842,1,8,0:0:0:0:
448,192,47842,1,0,0:0:0:0:
64,192,47911,1,8,0:0:0:0:
192,192,47911,1,0,0:0:0:0:
320,192,47981,1,2,0:0:0:0:
448,192,47981,1,0,0:0:0:0:
192,192,48121,1,0,0:0:0:0:
448,192,48121,1,0,0:0:0:0:
64,192,48260,1,8,0:0:0:0:
192,192,48260,1,0,0:0:0:0:
320,192,48260,1,0,0:0:0:0:
64,192,48400,1,2,0:0:0:0:
448,192,48400,1,0,0:0:0:0:
192,192,48539,1,0,0:0:0:0:
448,192,48539,1,0,0:0:0:0:
64,192,48679,1,8,0:0:0:0:
192,192,48679,1,0,0:0:0:0:
320,192,48679,1,0,0:0:0:0:
320,192,48818,1,2,0:0:0:0:
448,192,48818,1,0,0:0:0:0:
192,192,48958,1,0,0:0:0:0:
448,192,48958,1,0,0:0:0:0:
64,192,49097,1,8,0:0:0:0:
192,192,49097,1,0,0:0:0:0:
320,192,49097,1,0,0:0:0:0:
448,192,49167,1,0,0:0:0:0:
64,192,49237,1,2,0:0:0:0:
192,192,49237,1,0,0:0:0:0:
320,192,49307,1,0,0:0:0:0:
64,192,49377,1,0,0:0:0:0:
192,192,49446,1,0,0:0:0:0:
320,192,49516,1,8,0:0:0:0:
448,192,49516,1,0,0:0:0:0:
64,192,49586,1,0,0:0:0:0:
192,192,49656,1,2,0:0:0:0:
448,192,49656,128,0,49935:0:0:0:0:
192,192,49795,1,2,0:0:0:0:
320,192,49795,1,0,0:0:0:0:
64,192,49935,128,0,50214:0:0:0:0:
192,192,50214,1,2,0:0:0:0:
320,192,50214,1,4,0:0:0:0:
448,192,50214,1,0,0:0:0:0:
64,192,50353,1,0,0:0:0:0:
192,192,50353,1,0,0:0:0:0:
64,192,50493,1,8,0:0:0:0:
320,192,50493,1,0,0:0:0:0:
448,192,50493,1,0,0:0:0:0:
192,192,50632,1,2,0:0:0:0:
448,192,50632,1,0,0:0:0:0:
64,192,50772,1,0,0:0:0:0:
192,192,50772,1,0,0:0:0:0:
64,192,50911,1,8,0:0:0:0:
320,192,50911,1,0,0:0:0:0:
448,192,50911,1,0,0:0:0:0:
192,192,51051,1,2,0:0:0:0:
320,192,51051,1,0,0:0:0:0:
64,192,51191,1,0,0:0:0:0:
192,192,51191,1,0,0:0:0:0:
64,192,51330,1,8,0:0:0:0:
320,192,51330,1,0,0:0:0:0:
448,192,51330,1,0,0:0:0:0:
192,192,51470,1,2,0:0:0:0:
448,192,51470,1,0,0:0:0:0:
64,192,51609,1,0,0:0:0:0:
192,192,51609,1,0,0:0:0:0:
64,192,51749,1,8,0:0:0:0:
320,192,51749,1,0,0:0:0:0:
448,192,51749,1,0,0:0:0:0:
192,192,51888,1,2,0:0:0:0:
320,192,51888,1,0,0:0:0:0:
192,192,52028,1,2,0:0:0:0:
448,192,52028,1,0,0:0:0:0:
64,192,52167,1,8,0:0:0:0:
320,192,52167,1,0,0:0:0:0:
448,192,52167,1,0,0:0:0:0:
192,192,52237,1,0,0:0:0:0:
64,192,52307,1,8,0:0:0:0:
320,192,52307,1,0,0:0:0:0:
448,192,52377,1,8,0:0:0:0:
64,192,52446,1,2,0:0:0:0:
192,192,52446,1,0,0:0:0:0:
320,192,52446,1,0,0:0:0:0:
320,192,52586,1,0,0:0:0:0:
448,192,52586,1,0,0:0:0:0:
64,192,52725,1,8,0:0:0:0:
192,192,52725,1,0,0:0:0:0:
448,192,52725,1,0,0:0:0:0:
64,192,52865,1,2,0:0:0:0:
320,192,52865,1,0,0:0:0:0:
320,192,53004,1,0,0:0:0:0:
448,192,53004,1,0,0:0:0:0:
64,192,53144,1,8,0:0:0:0:
192,192,53144,1,0,0:0:0:0:
448,192,53144,1,0,0:0:0:0:
192,192,53284,1,2,0:0:0:0:
320,192,53284,1,0,0:0:0:0:
320,192,53423,1,0,0:0:0:0:
448,192,53423,1,0,0:0:0:0:
64,192,53563,1,8,0:0:0:0:
192,192,53563,1,0,0:0:0:0:
448,192,53563,1,0,0:0:0:0:
64,192,53702,1,2,0:0:0:0:
320,192,53702,1,0,0:0:0:0:
320,192,53842,1,0,0:0:0:0:
448,192,53842,1,0,0:0:0:0:
64,192,53981,1,8,0:0:0:0:
192,192,53981,1,0,0:0:0:0:
448,192,53981,1,0,0:0:0:0:
192,192,54121,1,2,0:0:0:0:
320,192,54121,1,0,0:0:0:0:
64,192,54260,1,2,0:0:0:0:
320,192,54260,1,0,0:0:0:0:
64,192,54400,1,0,0:0:0:70:snare070.wav
192,192,54400,1,0,0:0:0:0:
448,192,54400,1,0,0:0:0:0:
320,192,54470,1,0,0:0:0:0:
192,192,54539,1,8,0:0:0:0:
448,192,54539,1,0,0:0:0:0:
64,192,54609,1,8,0:0:0:0:
192,192,54679,1,2,0:0:0:0:
320,192,54679,1,0,0:0:0:0:
448,192,54679,1,0,0:0:0:0:
64,192,55237,128,0,56911:0:0:0:0:
192,192,56911,128,0,58028:0:0:0:0:
448,192,56911,1,0,0:0:0:0:
320,192,58028,128,0,59144:0:0:0:0:
64,192,59144,1,2,0:0:0:0:
192,192,59144,1,4,0:0:0:0:
448,192,59144,1,0,0:0:0:0:
320,192,59423,1,0,0:0:0:0:
64,192,59702,1,8,0:0:0:0:
320,192,59702,1,0,0:0:0:0:
448,192,59702,1,0,0:0:0:0:
320,192,59981,1,0,0:0:0:0:
192,192,60260,1,2,0:0:0:0:
320,192,60260,1,0,0:0:0:0:
320,192,60539,1,0,0:0:0:0:
64,192,60818,1,8,0:0:0:0:
320,192,60818,1,0,0:0:0:0:
448,192,60818,1,0,0:0:0:0:
320,192,60958,1,0,0:0:0:0:
320,192,61097,128,0,61237:0:0:0:0:
64,192,61237,1,0,0:0:0:0:
192,192,61307,1,0,0:0:0:0:
64,192,61377,1,2,0:0:0:0:
320,192,61377,1,0,0:0:0:0:
448,192,61377,1,0,0:0:0:0:
192,192,61586,1,2,0:0:0:0:
320,192,61586,1,0,0:0:0:0:
448,192,61586,1,0,0:0:0:0:
64,192,61795,1,2,0:0:0:0:
192,192,61795,1,0,0:0:0:0:
320,192,61795,1,0,0:0:0:0:
64,192,62004,1,2,0:0:0:0:
192,192,62004,1,0,0:0:0:0:
448,192,62004,1,0,0:0:0:0:
320,192,62214,1,2,0:0:0:0:
448,192,62214,1,0,0:0:0:0:
64,192,62284,1,2,0:0:0:0:
192,192,62284,1,0,0:0:0:0:
320,192,62353,1,2,0:0:0:0:
448,192,62353,1,0,0:0:0:0:
64,192,62423,1,2,0:0:0:0:
192,192,62423,1,0,0:0:0:0:
320,192,62493,1,2,0:0:0:0:
448,192,62493,1,0,0:0:0:0:
192,192,62632,1,8,0:0:0:0:
64,192,62772,1,0,0:0:0:70:_Db_snare.wav
448,192,62772,1,0,0:0:0:0:
320,192,62911,1,0,0:0:0:0:
192,192,62981,1,0,0:0:0:0:
320,192,63051,1,0,0:0:0:0:
192,192,63121,1,0,0:0:0:0:
64,192,63191,1,0,0:0:0:70:_Db_snare.wav
448,192,63191,1,0,0:0:0:0:
64,192,63330,128,8,63539:0:0:0:0:
192,192,63330,128,0,63539:0:0:0:0:
320,192,63330,1,0,0:0:0:0:
64,192,63609,1,2,0:0:0:0:
192,192,63609,1,4,0:0:0:0:
448,192,63609,128,0,64725:0:0:0:0:
64,192,63888,1,0,0:0:0:0:
320,192,64028,1,0,0:0:0:0:
192,192,64307,1,0,0:0:0:0:
64,192,64586,1,0,0:0:0:0:
192,192,64725,1,0,0:0:0:0:
320,192,64725,128,0,65842:0:0:0:0:
64,192,65004,1,0,0:0:0:0:
448,192,65144,1,0,0:0:0:0:
192,192,65423,1,0,0:0:0:0:
64,192,65702,1,0,0:0:0:0:
192,192,65842,128,0,66958:0:0:0:0:
448,192,65842,1,0,0:0:0:0:
320,192,65981,1,0,0:0:0:0:
64,192,66260,1,0,0:0:0:0:
448,192,66539,1,0,0:0:0:0:
320,192,66679,128,0,66958:0:0:0:0:
64,192,66958,128,2,68074:0:0:0:0:
448,192,66958,1,0,0:0:0:0:
192,192,68074,1,2,0:0:0:0:
320,192,68074,1,4,0:0:0:0:
448,192,68074,1,0,0:0:0:70:push_scratch.wav
64,192,68214,1,0,0:0:0:0:
320,192,68353,1,0,0:0:0:0:
64,192,68493,1,0,0:0:0:0:
320,192,68632,1,0,0:0:0:70:Snare clap 2.wav
448,192,68632,1,0,0:0:0:0:
64,192,68772,1,0,0:0:0:0:
320,192,68911,1,0,0:0:0:0:
64,192,69051,1,0,0:0:0:0:
192,192,69191,1,0,0:0:0:0:
320,192,69191,1,0,0:0:0:0:
448,192,69330,1,0,0:0:0:0:
192,192,69470,1,0,0:0:0:0:
448,192,69609,1,0,0:0:0:0:
64,192,69749,1,0,0:0:0:70:Snare clap 2.wav
192,192,69749,1,0,0:0:0:0:
448,192,69888,1,0,0:0:0:0:
192,192,70028,1,2,0:0:0:0:
320,192,70028,1,0,0:0:0:0:
448,192,70167,1,0,0:0:0:0:
192,192,70307,1,2,0:0:0:0:
320,192,70307,1,0,0:0:0:0:
64,192,70446,1,0,0:0:0:0:
320,192,70586,1,0,0:0:0:0:
64,192,70725,1,0,0:0:0:0:
320,192,70865,1,0,0:0:0:70:Snare clap 2.wav
448,192,70865,1,0,0:0:0:0:
64,192,71004,1,0,0:0:0:0:
320,192,71144,1,0,0:0:0:0:
64,192,71284,1,0,0:0:0:0:
192,192,71423,1,2,0:0:0:0:
320,192,71423,1,0,0:0:0:0:
448,192,71563,1,0,0:0:0:0:
64,192,71702,1,0,0:0:0:0:
192,192,71702,1,0,0:0:0:0:
320,192,71842,1,0,0:0:0:0:
64,192,71981,1,0,0:0:0:0:
448,192,71981,1,0,0:0:0:0:
192,192,72028,1,0,0:0:0:0:
320,192,72121,1,0,0:0:0:0:
64,192,72260,128,0,72539:0:0:0:0:
448,192,72260,1,0,0:0:0:0:
320,192,72307,1,0,0:0:0:0:
192,192,72539,1,2,0:0:0:0:
320,192,72539,1,4,0:0:0:0:
448,192,72539,1,0,0:0:0:0:
64,192,72679,1,0,0:0:0:0:
192,192,72818,1,0,0:0:0:50:Snare 3.wav
64,192,72958,1,0,0:0:0:0:
192,192,73097,1,0,0:0:0:50:Snare 3.wav
448,192,73097,1,0,0:0:0:0:
64,192,73237,1,0,0:0:0:0:
192,192,73377,1,0,0:0:0:0:
64,192,73516,1,0,0:0:0:0:
192,192,73656,1,0,0:0:0:50:Snare 3.wav
320,192,73656,1,0,0:0:0:0:
448,192,73795,1,0,0:0:0:0:
320,192,73935,1,0,0:0:0:0:
448,192,74074,1,0,0:0:0:0:
192,192,74214,1,0,0:0:0:50:Snare 3.wav
320,192,74214,1,0,0:0:0:0:
448,192,74353,1,0,0:0:0:0:
64,192,74493,1,0,0:0:0:50:Snare 3.wav
320,192,74493,1,0,0:0:0:0:
448,192,74632,1,0,0:0:0:0:
192,192,74772,1,0,0:0:0:50:Snare 3.wav
320,192,74772,1,0,0:0:0:0:
64,192,74911,1,0,0:0:0:0:
192,192,75051,1,0,0:0:0:0:
64,192,75191,1,0,0:0:0:0:
192,192,75330,1,0,0:0:0:50:Snare 3.wav
448,192,75330,1,0,0:0:0:0:
64,192,75470,1,0,0:0:0:0:
192,192,75609,1,0,0:0:0:0:
64,192,75749,1,0,0:0:0:0:
192,192,75888,1,0,0:0:0:50:Snare 3.wav
320,192,75888,1,0,0:0:0:0:
448,192,76028,1,0,0:0:0:0:
320,192,76167,1,0,0:0:0:0:
448,192,76307,1,0,0:0:0:0:
192,192,76446,1,0,0:0:0:50:Snare 3.wav
320,192,76446,1,0,0:0:0:0:
192,192,76586,1,0,0:0:0:50:Snare 3.wav
448,192,76586,1,0,0:0:0:0:
64,192,76725,1,2,0:0:0:0:
320,192,76725,1,0,0:0:0:50:Snare 3.wav
192,192,76865,1,0,0:0:0:0:
64,192,77004,1,2,0:0:0:0:
320,192,77004,1,0,0:0:0:0:
448,192,77004,1,0,0:0:0:0:
320,192,77144,1,0,0:0:0:0:
192,192,77284,1,0,0:0:0:0:
192,192,77423,1,0,0:0:0:0:
64,192,77563,1,2,0:0:0:0:
448,192,77563,1,0,0:0:0:0:
448,192,77702,1,0,0:0:0:0:
64,192,77842,1,0,0:0:0:0:
64,192,77981,1,0,0:0:0:0:
192,192,78121,1,2,0:0:0:0:
320,192,78121,1,0,0:0:0:0:
448,192,78121,1,0,0:0:0:0:
448,192,78260,1,0,0:0:0:0:
64,192,78400,1,0,0:0:0:0:
64,192,78539,1,0,0:0:0:0:
192,192,78679,1,2,0:0:0:0:
320,192,78679,1,0,0:0:0:0:
320,192,78818,1,0,0:0:0:0:
192,192,78958,1,0,0:0:0:0:
192,192,79097,1,0,0:0:0:0:
64,192,79237,1,2,0:0:0:0:
320,192,79237,1,0,0:0:0:0:
448,192,79237,1,0,0:0:0:0:
192,192,79307,1,0,0:0:0:0:
320,192,79377,1,0,0:0:0:0:
448,192,79446,1,0,0:0:0:0:
64,192,79516,1,2,0:0:0:0:
192,192,79516,1,0,0:0:0:0:
320,192,79586,1,0,0:0:0:0:
448,192,79656,1,0,0:0:0:0:
64,192,79725,1,0,0:0:0:0:
192,192,79795,1,2,0:0:0:0:
320,192,79795,1,0,0:0:0:0:
448,192,79865,1,0,0:0:0:0:
192,192,79935,1,2,0:0:0:0:
320,192,79935,1,0,0:0:0:0:
448,192,80004,1,0,0:0:0:0:
64,192,80074,1,2,0:0:0:0:
192,192,80074,1,0,0:0:0:0:
320,192,80144,1,2,0:0:0:0:
448,192,80144,1,0,0:0:0:0:
64,192,80214,1,2,0:0:0:0:
192,192,80214,1,0,0:0:0:0:
320,192,80284,1,2,0:0:0:0:
448,192,80284,1,0,0:0:0:0:
64,192,80353,1,2,0:0:0:0:
192,192,80353,1,0,0:0:0:0:
64,192,81470,1,2,0:0:0:0:
320,192,81470,1,4,0:0:0:0:
448,192,81470,1,0,0:0:0:0:
192,192,81609,1,0,0:0:0:0:
320,192,81749,1,2,0:0:0:0:
448,192,81749,1,0,0:0:0:0:
192,192,81888,128,0,82307:0:0:0:0:
64,192,81888,128,0,81958:0:0:0:0:
64,192,82028,1,8,0:0:0:0:
320,192,82028,128,0,82237:0:0:0:0:
448,192,82028,1,0,0:0:0:0:
64,192,82167,128,0,82307:0:0:0:0:
448,192,82167,128,0,82237:0:0:0:0:
320,192,82307,128,0,82377:0:0:0:0:
448,192,82307,128,0,82377:0:0:0:0:
320,192,82446,128,0,82586:0:0:0:0:
448,192,82446,128,0,82586:0:0:0:0:
64,192,82586,128,0,82725:0:0:0:0:
192,192,82586,128,0,82725:0:0:0:0:
320,192,82725,1,0,0:0:0:0:
64,192,82865,1,2,0:0:0:0:
448,192,82865,1,0,0:0:0:0:
64,192,83004,128,0,83144:0:0:0:0:
192,192,83004,128,0,83074:0:0:0:0:
192,192,83144,1,8,0:0:0:0:
320,192,83144,1,0,0:0:0:0:
448,192,83144,128,0,83702:0:0:0:0:
320,192,83284,128,0,83702:0:0:0:0:
64,192,83423,128,0,83632:0:0:0:0:
192,192,83423,128,0,83632:0:0:0:0:
64,192,83702,1,2,0:0:0:0:
192,192,83702,1,0,0:0:0:0:
64,192,83842,1,2,0:0:0:0:
192,192,83842,1,0,0:0:0:0:
64,192,83981,1,2,0:0:0:0:
192,192,83981,1,0,0:0:0:0:
320,192,84121,128,0,84191:0:0:0:0:
448,192,84121,128,0,84330:0:0:0:0:
64,192,84260,1,8,0:0:0:0:
192,192,84260,1,0,0:0:0:0:
320,192,84260,128,0,84470:0:0:0:0:
64,192,84400,1,0,0:0:0:0:
448,192,84400,128,0,84679:0:0:0:0:
192,192,84539,1,0,0:0:0:0:
320,192,84539,128,0,84679:0:0:0:0:
64,192,84679,1,2,0:0:0:0:
192,192,84679,1,0,0:0:0:0:
320,192,84749,1,2,0:0:0:0:
448,192,84749,1,0,0:0:0:0:
64,192,84818,128,2,84958:0:0:0:0:
192,192,84818,1,0,0:0:0:0:
448,192,84958,1,0,0:0:0:0:
64,192,85097,128,2,85237:0:0:0:0:
192,192,85097,128,0,85237:0:0:0:0:
448,192,85237,1,0,0:0:0:0:
64,192,85377,128,8,85516:0:0:0:0:
192,192,85377,128,0,85516:0:0:0:0:
320,192,85377,128,0,85516:0:0:0:0:
448,192,85516,1,0,0:0:0:0:
192,192,85656,128,2,85795:0:0:0:0:
448,192,85656,128,0,85795:0:0:0:0:
64,192,85795,1,2,0:0:0:0:
320,192,85795,1,0,0:0:0:0:
64,192,85935,128,2,86074:0:0:0:0:
192,192,85935,1,0,0:0:0:0:
448,192,85935,1,0,0:0:0:0:
320,192,86074,1,0,0:0:0:0:
64,192,86214,1,2,0:0:0:0:
192,192,86214,1,0,0:0:0:0:
320,192,86353,128,0,86772:0:0:0:0:
448,192,86353,128,0,86423:0:0:0:0:
64,192,86493,1,8,0:0:0:0:
192,192,86493,128,0,86702:0:0:0:0:
448,192,86493,1,0,0:0:0:0:
448,192,86632,128,0,86772:0:0:0:0:
64,192,86632,128,0,86702:0:0:0:0:
64,192,86772,128,0,86842:0:0:0:0:
192,192,86772,128,0,86842:0:0:0:0:
64,192,86911,128,0,87051:0:0:0:0:
192,192,86911,128,0,87051:0:0:0:0:
320,192,87051,128,0,87191:0:0:0:0:
448,192,87051,128,0,87191:0:0:0:0:
192,192,87191,1,0,0:0:0:0:
64,192,87330,1,2,0:0:0:0:
448,192,87330,1,0,0:0:0:0:
320,192,87470,128,0,87539:0:0:0:0:
448,192,87470,128,0,87609:0:0:0:0:
64,192,87609,128,8,88167:0:0:0:0:
192,192,87609,1,0,0:0:0:0:
320,192,87609,1,0,0:0:0:0:
192,192,87749,128,0,88167:0:0:0:0:
320,192,87888,128,0,88097:0:0:0:0:
448,192,87888,128,0,88097:0:0:0:0:
320,192,88167,1,2,0:0:0:0:
448,192,88167,1,0,0:0:0:0:
320,192,88307,1,2,0:0:0:0:
448,192,88307,1,0,0:0:0:0:
320,192,88446,1,2,0:0:0:0:
448,192,88446,1,0,0:0:0:0:
64,192,88586,128,0,88795:0:0:0:0:
192,192,88586,128,0,88656:0:0:0:0:
192,192,88725,128,8,88935:0:0:0:0:
320,192,88725,1,0,0:0:0:0:
448,192,88725,1,0,0:0:0:0:
64,192,88865,128,0,89074:0:0:0:0:
448,192,88865,1,0,0:0:0:0:
192,192,89004,128,0,89074:0:0:0:0:
320,192,89004,1,0,0:0:0:0:
448,192,89074,1,0,0:0:0:0:
64,192,89144,1,2,0:0:0:0:
192,192,89144,1,0,0:0:0:0:
320,192,89214,1,2,0:0:0:0:
64,192,89284,1,2,0:0:0:0:
192,192,89284,1,4,0:0:0:0:
448,192,89284,128,0,89563:0:0:0:0:
64,192,89563,128,0,89702:0:0:0:0:
320,192,89702,128,0,89842:0:0:0:0:
64,192,91237,1,2,0:0:0:0:
192,192,91237,1,0,0:0:0:0:
64,192,91377,1,2,0:0:0:0:
192,192,91377,1,0,0:0:0:0:
320,192,91446,1,2,0:0:0:0:
64,192,91516,1,2,0:0:0:0:
192,192,91516,1,4,0:0:0:0:
448,192,91516,128,0,91656:0:0:0:0:
320,192,91656,1,0,0:0:0:0:
64,192,91795,128,8,92074:0:0:0:0:
192,192,91795,1,0,0:0:0:0:
448,192,91795,1,0,0:0:0:0:
320,192,91935,128,0,92074:0:0:0:0:
192,192,92074,1,2,0:0:0:0:
448,192,92074,1,0,0:0:0:0:
192,192,92214,128,0,92353:0:0:0:0:
64,192,92353,1,8,0:0:0:0:
320,192,92353,1,0,0:0:0:0:
448,192,92353,1,0,0:0:0:0:
320,192,92493,128,0,92632:0:0:0:0:
64,192,92632,1,2,0:0:0:0:
448,192,92632,1,0,0:0:0:0:
192,192,92772,128,0,92911:0:0:0:0:
64,192,92911,1,8,0:0:0:0:
320,192,92911,128,0,93191:0:0:0:0:
448,192,92911,1,0,0:0:0:0:
64,192,93051,128,0,93191:0:0:0:0:
192,192,93191,1,2,0:0:0:0:
448,192,93191,1,0,0:0:0:0:
320,192,93330,128,0,93470:0:0:0:0:
64,192,93470,1,8,0:0:0:0:
192,192,93470,128,0,93749:0:0:0:0:
448,192,93470,1,0,0:0:0:0:
448,192,93609,128,0,93749:0:0:0:0:
64,192,93749,128,2,93888:0:0:0:0:
320,192,93749,1,0,0:0:0:0:
192,192,93888,1,2,0:0:0:0:
448,192,93888,1,0,0:0:0:0:
64,192,94028,1,8,0:0:0:0:
320,192,94028,1,0,0:0:0:0:
448,192,94028,128,0,94307:0:0:0:0:
192,192,94167,128,0,94307:0:0:0:0:
64,192,94307,1,2,0:0:0:0:
320,192,94307,1,0,0:0:0:0:
192,192,94446,1,2,0:0:0:0:
448,192,94446,1,0,0:0:0:0:
320,192,94516,1,2,0:0:0:0:
64,192,94586,1,8,0:0:0:0:
192,192,94586,1,0,0:0:0:0:
448,192,94586,1,0,0:0:0:0:
64,192,94725,1,2,0:0:0:0:
320,192,94725,128,0,94865:0:0:0:0:
192,192,94865,128,2,95004:0:0:0:0:
448,192,94865,1,0,0:0:0:0:
448,192,95004,1,0,0:0:0:0:
64,192,95144,1,8,0:0:0:0:
192,192,95144,1,0,0:0:0:0:
320,192,95144,128,0,95284:0:0:0:0:
64,192,95284,1,0,0:0:0:0:
192,192,95423,1,2,0:0:0:0:
320,192,95423,1,0,0:0:0:0:
448,192,95423,1,0,0:0:0:0:
192,192,95563,1,2,0:0:0:0:
320,192,95563,1,0,0:0:0:0:
448,192,95563,1,0,0:0:0:0:
64,192,95702,128,0,95842:0:0:0:0:
192,192,95702,128,0,95842:0:0:0:0:
320,192,95842,1,0,0:0:0:0:
64,192,95981,1,2,0:0:0:0:
192,192,95981,1,4,0:0:0:0:
448,192,95981,128,0,96121:0:0:0:0:
320,192,96121,1,0,0:0:0:0:
64,192,96260,128,8,96539:0:0:0:0:
192,192,96260,128,0,96400:0:0:0:0:
448,192,96260,1,0,0:0:0:0:
320,192,96400,128,0,96539:0:0:0:0:
192,192,96539,1,2,0:0:0:0:
448,192,96539,1,0,0:0:0:0:
192,192,96679,128,0,96818:0:0:0:0:
64,192,96818,1,8,0:0:0:0:
320,192,96818,128,0,96958:0:0:0:0:
448,192,96818,128,0,96958:0:0:0:0:
192,192,96958,1,0,0:0:0:0:
64,192,97097,1,2,0:0:0:0:
448,192,97097,1,0,0:0:0:0:
192,192,97237,128,0,97377:0:0:0:0:
64,192,97377,1,8,0:0:0:0:
320,192,97377,128,0,97656:0:0:0:0:
448,192,97377,128,0,97516:0:0:0:0:
64,192,97516,128,0,97656:0:0:0:0:
192,192,97656,1,2,0:0:0:0:
448,192,97656,1,0,0:0:0:0:
320,192,97795,128,0,97935:0:0:0:0:
64,192,97935,128,8,98074:0:0:0:0:
192,192,97935,128,0,98214:0:0:0:0:
448,192,97935,1,0,0:0:0:0:
448,192,98074,128,0,98214:0:0:0:0:
64,192,98214,128,2,98353:0:0:0:0:
320,192,98214,1,0,0:0:0:0:
192,192,98353,1,2,0:0:0:0:
448,192,98353,1,0,0:0:0:0:
64,192,98493,1,8,0:0:0:0:
320,192,98493,128,0,98632:0:0:0:0:
448,192,98493,128,0,98772:0:0:0:0:
192,192,98632,128,0,98772:0:0:0:0:
64,192,98772,1,2,0:0:0:0:
320,192,98772,1,0,0:0:0:0:
192,192,98911,1,2,0:0:0:0:
448,192,98911,1,0,0:0:0:0:
320,192,98981,1,2,0:0:0:0:
64,192,99051,128,8,99191:0:0:0:0:
192,192,99051,1,0,0:0:0:0:
448,192,99051,1,0,0:0:0:0:
320,192,99191,128,2,99330:0:0:0:0:
64,192,99330,128,2,99470:0:0:0:0:
192,192,99330,1,0,0:0:0:0:
448,192,99330,1,0,0:0:0:0:
320,192,99470,1,0,0:0:0:0:
192,192,99539,1,0,0:0:0:0:
64,192,99609,1,2,0:0:0:0:
320,192,99609,1,0,0:0:0:0:
448,192,99609,128,0,99749:0:0:0:0:
192,192,99749,1,0,0:0:0:0:
64,192,99888,1,2,0:0:0:0:
320,192,99888,1,0,0:0:0:0:
448,192,99888,1,0,0:0:0:0:
64,192,100028,1,2,0:0:0:0:
320,192,100028,1,0,0:0:0:0:
448,192,100028,1,0,0:0:0:0:
192,192,100167,1,0,0:0:0:70:snare070.wav
320,192,100167,1,0,0:0:0:0:
64,192,100446,1,2,0:0:0:0:
192,192,100446,1,4,0:0:0:0:
448,192,100446,1,0,0:0:0:0:
320,192,100586,1,2,0:0:0:0:
448,192,100586,1,0,0:0:0:0:
320,192,100725,1,2,0:0:0:0:
448,192,100725,1,0,0:0:0:0:
192,192,100865,1,0,0:0:0:0:
64,192,101004,1,8,0:0:0:0:
320,192,101004,1,0,0:0:0:0:
448,192,101004,1,0,0:0:0:0:
64,192,101144,1,0,0:0:0:0:
192,192,101284,1,0,0:0:0:0:
320,192,101423,1,2,0:0:0:0:
448,192,101423,1,0,0:0:0:0:
64,192,101493,1,2,0:0:0:0:
192,192,101493,1,0,0:0:0:0:
320,192,101563,1,2,0:0:0:0:
448,192,101563,1,0,0:0:0:0:
192,192,101702,1,0,0:0:0:0:
64,192,101842,1,2,0:0:0:0:
448,192,101842,1,0,0:0:0:0:
320,192,101981,1,0,0:0:0:0:
64,192,102121,1,8,0:0:0:0:
192,192,102121,1,0,0:0:0:0:
448,192,102121,1,0,0:0:0:0:
448,192,102260,1,0,0:0:0:0:
192,192,102400,1,2,0:0:0:0:
320,192,102400,1,0,0:0:0:0:
192,192,102539,1,2,0:0:0:0:
320,192,102539,1,0,0:0:0:0:
64,192,102679,1,2,0:0:0:0:
448,192,102679,1,0,0:0:0:0:
320,192,102749,1,0,0:0:0:0:
192,192,102818,1,0,0:0:0:0:
64,192,102888,1,0,0:0:0:0:
320,192,102958,1,2,0:0:0:0:
448,192,102958,1,0,0:0:0:0:
192,192,103028,1,0,0:0:0:0:
64,192,103097,1,0,0:0:0:0:
448,192,103167,1,0,0:0:0:0:
192,192,103237,1,2,0:0:0:0:
320,192,103237,1,0,0:0:0:0:
64,192,103307,1,0,0:0:0:0:
192,192,103377,1,2,0:0:0:0:
320,192,103377,1,0,0:0:0:0:
64,192,103446,1,0,0:0:0:0:
320,192,103516,1,2,0:0:0:0:
448,192,103516,1,0,0:0:0:0:
64,192,103586,1,2,0:0:0:0:
192,192,103586,1,0,0:0:0:0:
320,192,103656,1,2,0:0:0:0:
448,192,103656,1,0,0:0:0:0:
64,192,103725,1,2,0:0:0:0:
192,192,103725,1,0,0:0:0:0:
320,192,103795,1,2,0:0:0:0:
448,192,103795,1,0,0:0:0:0:
320,192,104353,1,0,0:0:0:0:
448,192,104400,1,0,0:0:0:0:
192,192,104632,1,8,0:0:0:70:Snare clap 2.wav
320,192,104632,1,0,0:0:0:0:
448,192,104632,1,0,0:0:0:0:
64,192,104679,1,0,0:0:0:0:
64,192,104911,1,2,0:0:0:0:
320,192,104911,1,4,0:0:0:0:
448,192,104911,128,0,105051:0:0:0:0:
192,192,105051,1,0,0:0:0:0:
64,192,105191,128,8,105470:0:0:0:0:
320,192,105191,1,0,0:0:0:0:
448,192,105191,1,0,0:0:0:0:
192,192,105330,128,0,105470:0:0:0:0:
320,192,105470,1,2,0:0:0:0:
448,192,105470,1,0,0:0:0:0:
320,192,105609,128,0,105749:0:0:0:0:
64,192,105749,1,8,0:0:0:0:
192,192,105749,1,0,0:0:0:0:
448,192,105749,1,0,0:0:0:0:
192,192,105888,128,0,106028:0:0:0:0:
64,192,106028,128,2,106167:0:0:0:0:
448,192,106028,1,0,0:0:0:0:
320,192,106167,1,0,0:0:0:0:
64,192,106307,1,8,0:0:0:0:
192,192,106307,1,0,0:0:0:0:
448,192,106307,128,0,106586:0:0:0:0:
320,192,106446,128,0,106586:0:0:0:0:
64,192,106586,1,2,0:0:0:0:
192,192,106586,1,0,0:0:0:0:
192,192,106725,128,0,106865:0:0:0:0:
64,192,106865,1,8,0:0:0:0:
320,192,106865,1,0,0:0:0:0:
448,192,106865,1,0,0:0:0:0:
320,192,107004,128,0,107284:0:0:0:0:
192,192,107144,1,2,0:0:0:0:
448,192,107144,128,0,107284:0:0:0:0:
64,192,107284,128,0,107423:0:0:0:0:
192,192,107423,1,8,0:0:0:0:
320,192,107423,1,0,0:0:0:0:
448,192,107423,1,0,0:0:0:0:
192,192,107563,128,0,107702:0:0:0:0:
64,192,107702,1,2,0:0:0:0:
448,192,107702,1,0,0:0:0:0:
320,192,107842,128,0,107981:0:0:0:0:
64,192,107981,1,8,0:0:0:0:
192,192,107981,1,0,0:0:0:0:
448,192,107981,1,0,0:0:0:0:
320,192,108121,1,0,0:0:0:0:
192,192,108191,1,0,0:0:0:0:
64,192,108260,128,2,108400:0:0:0:0:
320,192,108260,1,0,0:0:0:0:
448,192,108400,128,0,108539:0:0:0:0:
64,192,108539,1,8,0:0:0:0:
192,192,108539,1,0,0:0:0:0:
320,192,108539,1,0,0:0:0:0:
320,192,108679,128,0,108818:0:0:0:0:
64,192,108818,1,2,0:0:0:0:
448,192,108818,1,0,0:0:0:0:
320,192,108888,1,0,0:0:0:0:
192,192,108958,128,0,109097:0:0:0:0:
64,192,109097,1,0,0:0:0:0:
320,192,109097,128,0,109237:0:0:0:0:
448,192,109097,128,0,109237:0:0:0:0:
192,192,109167,1,0,0:0:0:0:
64,192,109237,1,0,0:0:0:0:
192,192,109307,1,0,0:0:0:0:
64,192,109377,128,2,109516:0:0:0:0:
320,192,109377,1,0,0:0:0:0:
448,192,109377,1,0,0:0:0:0:
192,192,109516,1,2,0:0:0:0:
320,192,109516,1,0,0:0:0:0:
448,192,109516,1,0,0:0:0:0:
64,192,109656,1,8,0:0:0:0:
192,192,109656,128,0,109795:0:0:0:0:
448,192,109656,128,0,109935:0:0:0:0:
320,192,109795,128,0,109935:0:0:0:0:
64,192,109935,1,2,0:0:0:0:
192,192,109935,1,0,0:0:0:0:
192,192,110074,128,0,110214:0:0:0:0:
64,192,110214,1,8,0:0:0:0:
320,192,110214,128,0,110353:0:0:0:0:
448,192,110214,1,0,0:0:0:0:
64,192,110353,1,2,0:0:0:0:
192,192,110353,1,0,0:0:0:0:
320,192,110423,1,2,0:0:0:0:
448,192,110423,1,0,0:0:0:0:
64,192,110493,128,2,110632:0:0:0:0:
192,192,110493,1,0,0:0:0:0:
320,192,110632,1,0,0:0:0:0:
64,192,110772,1,8,0:0:0:0:
192,192,110772,1,0,0:0:0:0:
448,192,110772,128,0,110911:0:0:0:0:
320,192,110842,1,0,0:0:0:0:
64,192,110911,1,0,0:0:0:0:
192,192,110981,1,0,0:0:0:0:
320,192,111051,128,2,111191:0:0:0:0:
448,192,111051,1,0,0:0:0:0:
64,192,111191,1,2,0:0:0:0:
192,192,111191,128,0,111330:0:0:0:0:
64,192,111330,128,8,111470:0:0:0:0:
320,192,111330,1,0,0:0:0:0:
448,192,111330,1,0,0:0:0:0:
320,192,111470,128,0,111609:0:0:0:0:
64,192,111609,128,2,111749:0:0:0:0:
448,192,111609,128,0,111749:0:0:0:0:
192,192,111749,128,0,111888:0:0:0:0:
64,192,111888,1,8,0:0:0:0:
320,192,111888,128,0,112028:0:0:0:0:
448,192,111888,1,0,0:0:0:0:
64,192,112028,128,0,112167:0:0:0:0:
192,192,112167,1,2,0:0:0:0:
448,192,112167,128,0,112307:0:0:0:0:
64,192,112307,128,2,112446:0:0:0:0:
320,192,112307,1,0,0:0:0:0:
192,192,112446,128,8,112586:0:0:0:0:
320,192,112446,128,0,112586:0:0:0:0:
448,192,112446,1,0,0:0:0:0:
64,192,112586,1,0,0:0:0:0:
192,192,112656,1,0,0:0:0:0:
320,192,112725,128,2,112865:0:0:0:0:
448,192,112725,128,0,112865:0:0:0:0:
64,192,112865,1,0,0:0:0:0:
192,192,112865,1,0,0:0:0:0:
64,192,113004,128,2,113144:0:0:0:0:
192,192,113004,128,0,113144:0:0:0:0:
320,192,113144,1,0,0:0:0:0:
448,192,113144,1,0,0:0:0:0:
192,192,113284,128,2,113423:0:0:0:0:
320,192,113284,128,0,113423:0:0:0:0:
64,192,113423,1,0,0:0:0:0:
448,192,113423,1,0,0:0:0:0:
320,192,113563,128,0,113702:0:0:0:70:soft-hitclap.wav
448,192,113563,128,0,113702:0:0:0:0:
64,192,113632,1,0,0:0:0:0:
192,192,113702,1,0,0:0:0:0:
320,192,113772,1,0,0:0:0:0:
64,192,113842,128,2,113981:0:0:0:0:
192,192,113842,1,4,0:0:0:0:
448,192,113842,1,0,0:0:0:0:
320,192,113981,1,0,0:0:0:0:
64,192,114121,1,8,0:0:0:0:
192,192,114121,1,0,0:0:0:0:
448,192,114121,128,0,114400:0:0:0:0:
320,192,114260,128,0,114400:0:0:0:0:
64,192,114400,1,2,0:0:0:0:
192,192,114400,1,0,0:0:0:0:
192,192,114539,128,0,114679:0:0:0:0:
64,192,114679,1,8,0:0:0:0:
320,192,114679,1,0,0:0:0:0:
448,192,114679,1,0,0:0:0:0:
320,192,114818,128,0,114958:0:0:0:0:
64,192,114958,1,2,0:0:0:0:
448,192,114958,128,0,115097:0:0:0:0:
192,192,115097,1,0,0:0:0:0:
64,192,115237,128,8,115516:0:0:0:0:
320,192,115237,1,0,0:0:0:0:
448,192,115237,1,0,0:0:0:0:
192,192,115377,128,0,115516:0:0:0:0:
320,192,115516,1,2,0:0:0:0:
448,192,115516,1,0,0:0:0:0:
192,192,115656,1,0,0:0:0:0:
320,192,115656,128,0,115795:0:0:0:0:
64,192,115795,1,8,0:0:0:0:
192,192,115795,1,0,0:0:0:0:
448,192,115795,1,0,0:0:0:0:
320,192,115935,128,0,116214:0:0:0:0:
64,192,116074,1,2,0:0:0:0:
448,192,116074,128,0,116214:0:0:0:0:
192,192,116214,128,0,116353:0:0:0:0:
64,192,116353,1,8,0:0:0:0:
320,192,116353,1,0,0:0:0:0:
448,192,116353,1,0,0:0:0:0:
320,192,116493,128,0,116632:0:0:0:0:
64,192,116632,1,2,0:0:0:0:
192,192,116632,1,0,0:0:0:0:
448,192,116772,128,0,116911:0:0:0:0:
64,192,116911,1,8,0:0:0:0:
192,192,116911,1,0,0:0:0:0:
320,192,116911,1,0,0:0:0:0:
64,192,117051,1,0,0:0:0:0:
192,192,117051,1,0,0:0:0:0:
320,192,117121,1,0,0:0:0:0:
64,192,117191,128,2,117330:0:0:0:0:
448,192,117191,1,0,0:0:0:0:
320,192,117330,128,0,117470:0:0:0:0:
64,192,117470,1,8,0:0:0:0:
192,192,117470,1,0,0:0:0:0:
448,192,117470,128,0,117609:0:0:0:0:
192,192,117609,128,0,117749:0:0:0:0:
64,192,117749,1,2,0:0:0:0:
448,192,117749,1,0,0:0:0:0:
192,192,117818,1,0,0:0:0:0:
320,192,117888,128,0,118028:0:0:0:0:
64,192,118028,128,0,118167:0:0:0:0:
192,192,118028,128,0,118167:0:0:0:0:
448,192,118028,1,0,0:0:0:0:
320,192,118097,1,0,0:0:0:0:
448,192,118167,1,0,0:0:0:0:
320,192,118237,1,0,0:0:0:0:
64,192,118307,1,2,0:0:0:0:
192,192,118307,1,0,0:0:0:0:
448,192,118307,128,0,118446:0:0:0:0:
64,192,118446,1,2,0:0:0:0:
192,192,118446,1,0,0:0:0:0:
320,192,118446,1,0,0:0:0:0:
64,192,118586,128,8,118865:0:0:0:0:
320,192,118586,1,0,0:0:0:0:
448,192,118586,1,0,0:0:0:0:
192,192,118725,128,0,118865:0:0:0:0:
320,192,118865,1,2,0:0:0:0:
448,192,118865,1,0,0:0:0:0:
320,192,119004,128,0,119144:0:0:0:0:
64,192,119144,1,8,0:0:0:0:
448,192,119144,1,0,0:0:0:0:
64,192,119284,1,2,0:0:0:0:
192,192,119284,1,0,0:0:0:0:
320,192,119353,1,2,0:0:0:0:
448,192,119353,1,0,0:0:0:0:
64,192,119423,128,2,119563:0:0:0:0:
192,192,119423,1,0,0:0:0:0:
320,192,119563,1,0,0:0:0:0:
64,192,119702,1,8,0:0:0:0:
192,192,119702,1,0,0:0:0:0:
448,192,119702,1,0,0:0:0:0:
320,192,119772,1,0,0:0:0:0:
64,192,119842,1,0,0:0:0:0:
192,192,119911,1,0,0:0:0:0:
320,192,119981,128,2,120121:0:0:0:0:
448,192,119981,1,0,0:0:0:0:
64,192,120121,1,2,0:0:0:0:
192,192,120121,128,0,120260:0:0:0:0:
64,192,120260,1,8,0:0:0:0:
320,192,120260,1,0,0:0:0:0:
448,192,120260,1,0,0:0:0:0:
192,192,120330,1,0,0:0:0:0:
448,192,120400,1,0,0:0:0:0:
320,192,120470,1,0,0:0:0:0:
64,192,120539,1,2,0:0:0:0:
192,192,120539,1,0,0:0:0:0:
448,192,120609,1,0,0:0:0:0:
320,192,120679,1,0,0:0:0:0:
192,192,120749,1,0,0:0:0:0:
64,192,120818,1,8,0:0:0:0:
320,192,120818,1,0,0:0:0:0:
448,192,120818,1,0,0:0:0:0:
192,192,120888,1,0,0:0:0:0:
448,192,120958,1,0,0:0:0:0:
320,192,121028,1,0,0:0:0:0:
64,192,121097,1,2,0:0:0:0:
192,192,121097,1,0,0:0:0:0:
448,192,121167,1,0,0:0:0:0:
64,192,121237,1,2,0:0:0:0:
192,192,121237,1,0,0:0:0:0:
320,192,121307,1,0,0:0:0:0:
64,192,121377,1,8,0:0:0:0:
192,192,121377,1,0,0:0:0:0:
448,192,121377,1,0,0:0:0:0:
320,192,121446,1,0,0:0:0:0:
192,192,121516,1,0,0:0:0:0:
64,192,121586,1,0,0:0:0:0:
320,192,121656,128,2,121795:0:0:0:0:
448,192,121656,128,0,121795:0:0:0:0:
64,192,121795,1,0,0:0:0:0:
192,192,121795,1,0,0:0:0:0:
64,192,121935,128,2,122074:0:0:0:0:
192,192,121935,128,0,122074:0:0:0:0:
320,192,122074,1,0,0:0:0:0:
448,192,122074,1,0,0:0:0:0:
192,192,122214,128,2,122353:0:0:0:0:
320,192,122214,128,0,122353:0:0:0:0:
64,192,122353,1,0,0:0:0:0:
448,192,122353,1,0,0:0:0:0:
320,192,122493,128,0,122632:0:0:0:70:Snare clap 2.wav
448,192,122493,128,0,122632:0:0:0:0:
64,192,122563,1,0,0:0:0:0:
192,192,122632,1,0,0:0:0:0:
320,192,122702,1,0,0:0:0:0:
64,192,122772,1,2,0:0:0:0:
192,192,122772,1,4,0:0:0:0:
448,192,122772,1,0,0:0:0:0:
64,192,123051,1,8,0:0:0:0:
320,192,123051,128,0,123191:0:0:0:0:
448,192,123051,128,0,123191:0:0:0:0:
192,192,123191,1,0,0:0:0:0:
64,192,123330,1,2,0:0:0:0:
448,192,123330,1,0,0:0:0:0:
320,192,123470,1,0,0:0:0:0:
64,192,123609,128,8,123749:0:0:0:0:
192,192,123609,128,0,123749:0:0:0:0:
448,192,123609,1,0,0:0:0:0:
320,192,123749,1,2,0:0:0:0:
448,192,123749,1,0,0:0:0:0:
64,192,123818,1,2,0:0:0:0:
192,192,123818,1,0,0:0:0:0:
320,192,123888,128,2,124028:0:0:0:0:
448,192,123888,1,0,0:0:0:0:
192,192,124028,1,0,0:0:0:0:
64,192,124167,1,8,0:0:0:0:
320,192,124167,128,0,124307:0:0:0:0:
448,192,124167,128,0,124307:0:0:0:0:
192,192,124237,1,0,0:0:0:0:
64,192,124307,1,0,0:0:0:0:
192,192,124377,1,0,0:0:0:0:
320,192,124446,128,2,124725:0:0:0:0:
448,192,124446,1,0,0:0:0:0:
64,192,124586,1,2,0:0:0:0:
192,192,124586,1,0,0:0:0:0:
64,192,124725,128,8,124865:0:0:0:0:
192,192,124725,128,0,124865:0:0:0:0:
448,192,124725,1,0,0:0:0:0:
320,192,124865,1,0,0:0:0:0:
192,192,124935,1,0,0:0:0:0:
64,192,125004,128,2,125144:0:0:0:0:
448,192,125004,1,0,0:0:0:0:
192,192,125144,1,0,0:0:0:0:
64,192,125284,1,8,0:0:0:0:
320,192,125284,128,0,125423:0:0:0:0:
448,192,125284,128,0,125423:0:0:0:0:
192,192,125423,128,0,125563:0:0:0:0:
64,192,125563,1,2,0:0:0:0:
448,192,125563,1,0,0:0:0:0:
192,192,125702,1,2,0:0:0:0:
320,192,125702,128,0,125842:0:0:0:0:
64,192,125842,128,8,125981:0:0:0:0:
192,192,125842,128,0,125981:0:0:0:0:
448,192,125842,1,0,0:0:0:0:
320,192,125981,1,0,0:0:0:0:
192,192,126051,1,0,0:0:0:0:
64,192,126121,1,2,0:0:0:0:
448,192,126121,128,0,126260:0:0:0:0:
320,192,126260,1,0,0:0:0:0:
64,192,126400,1,2,0:0:0:0:
192,192,126400,1,0,0:0:0:0:
320,192,126470,1,2,0:0:0:0:
448,192,126470,1,0,0:0:0:0:
64,192,126539,1,2,0:0:0:0:
192,192,126539,1,0,0:0:0:0:
320,192,126609,1,2,0:0:0:0:
448,192,126609,1,0,0:0:0:0:
64,192,126679,1,2,0:0:0:0:
192,192,126679,1,0,0:0:0:70:Snare 2.wav
448,192,126749,1,2,0:0:0:0:
192,192,126818,1,2,0:0:0:0:
320,192,126818,1,0,0:0:0:0:
64,192,126958,128,0,127097:0:0:0:0:
192,192,126958,128,0,127097:0:0:0:0:
448,192,126958,1,0,0:0:0:0:
320,192,127028,1,0,0:0:0:0:
448,192,127097,1,0,0:0:0:0:
320,192,127167,1,0,0:0:0:0:
64,192,127237,128,2,127377:0:0:0:0:
192,192,127237,1,4,0:0:0:0:
448,192,127237,1,0,0:0:0:0:
320,192,127377,1,0,0:0:0:0:
64,192,127516,128,8,127656:0:0:0:0:
192,192,127516,128,0,127656:0:0:0:0:
448,192,127516,1,0,0:0:0:0:
320,192,127656,128,0,127795:0:0:0:0:
64,192,127795,1,2,0:0:0:0:
448,192,127795,1,0,0:0:0:0:
192,192,127935,128,0,128074:0:0:0:0:
64,192,128074,1,8,0:0:0:0:
320,192,128074,128,0,128214:0:0:0:0:
448,192,128074,128,0,128214:0:0:0:0:
192,192,128214,1,0,0:0:0:0:
64,192,128353,1,2,0:0:0:0:
448,192,128353,1,0,0:0:0:0:
320,192,128493,1,0,0:0:0:0:
64,192,128632,128,8,128772:0:0:0:0:
192,192,128632,128,0,128772:0:0:0:0:
448,192,128632,1,0,0:0:0:0:
320,192,128772,1,0,0:0:0:0:
64,192,128911,1,2,0:0:0:0:
448,192,128911,1,0,0:0:0:0:
192,192,129051,128,0,129191:0:0:0:0:
64,192,129191,1,8,0:0:0:0:
320,192,129191,128,0,129330:0:0:0:0:
448,192,129191,128,0,129330:0:0:0:0:
192,192,129330,1,0,0:0:0:0:
320,192,129470,1,2,0:0:0:0:
448,192,129470,1,0,0:0:0:0:
192,192,129539,1,0,0:0:0:0:
320,192,129609,1,0,0:0:0:0:
64,192,129679,1,2,0:0:0:0:
192,192,129679,1,0,0:0:0:0:
448,192,129749,1,0,0:0:0:0:
64,192,129818,1,0,0:0:0:0:
320,192,129888,1,2,0:0:0:0:
448,192,129888,1,0,0:0:0:0:
192,192,129958,1,0,0:0:0:0:
320,192,130028,1,0,0:0:0:0:
64,192,130097,1,2,0:0:0:0:
192,192,130097,1,0,0:0:0:0:
448,192,130167,1,0,0:0:0:0:
64,192,130237,1,0,0:0:0:0:
320,192,130307,1,2,0:0:0:0:
448,192,130307,1,0,0:0:0:0:
64,192,130377,1,2,0:0:0:0:
192,192,130377,1,0,0:0:0:0:
320,192,130446,1,2,0:0:0:0:
448,192,130446,1,0,0:0:0:0:
64,192,130516,1,2,0:0:0:0:
192,192,130516,1,0,0:0:0:0:
320,192,130586,1,2,0:0:0:0:
448,192,130586,1,0,0:0:0:0:
192,192,130725,1,0,0:0:0:0:
64,192,130865,1,0,0:0:0:70:_Db_snare.wav
448,192,130865,1,0,0:0:0:0:
320,192,131004,1,0,0:0:0:0:
192,192,131144,1,0,0:0:0:0:
448,192,131144,1,0,0:0:0:0:
64,192,131191,1,0,0:0:0:0:
448,192,131284,1,0,0:0:0:0:
64,192,131423,1,8,0:0:0:0:
192,192,131423,128,0,131702:0:0:0:0:
320,192,131423,1,0,0:0:0:0:
448,192,131470,1,0,0:0:0:0:
64,192,131702,1,2,0:0:0:0:
320,192,131702,1,4,0:0:0:0:
448,192,131702,1,0,0:0:0:0:
