osu file format v14

[General]
AudioFilename: audio.mp3
AudioLeadIn: 0
PreviewTime: 103795
Countdown: 0
SampleSet: Soft
StackLeniency: 0.7
Mode: 3
LetterboxInBreaks: 0
SpecialStyle: 0
WidescreenStoryboard: 1

[Editor]
DistanceSpacing: 1
BeatDivisor: 4
GridSize: 32
TimelineZoom: 1.5

[Metadata]
Title:Blows Up Everything
TitleUnicode:Blows Up Everything
Artist:USAO
ArtistUnicode:USAO
Creator:Shima Rin
Version:Collab BASIC
Source:maimai でらっくす
Tags:Deluxe DX Video Game Electronic Instrumental Hardcore TANO*C Syadow- Rivals_7 Tofu1222 Daeng Simatta Agayers Rhezie UOM Records USAO-017 XTREME
BeatmapID:2943154
BeatmapSetID:1429690

[Difficulty]
HPDrainRate:6.5
CircleSize:4
OverallDifficulty:6.5
ApproachRate:5
SliderMultiplier:1.4
SliderTickRate:1

[Events]
//Background and Video events
0,0,"BG.png",0,0
//Break Periods
//Storyboard Layer 0 (Background)
//Storyboard Layer 1 (Fail)
//Storyboard Layer 2 (Pass)
//Storyboard Layer 3 (Foreground)
//Storyboard Layer 4 (Overlay)
//Storyboard Sound Samples
Sample,1098,0,"push_scratch.wav",70
Sample,16167,0,"Snare 2.wav",30
Sample,45470,0,"snare070.wav",60
Sample,76725,0,"Snare 3.wav",50
Sample,126679,0,"Snare 2.wav",70

[TimingPoints]
1098,279.06976744186,4,2,1,50,1,0
91516,-100,4,2,1,50,0,1
100446,-100,4,2,1,50,0,0
104911,-100,4,2,1,50,0,1
131702,-100,4,2,1,50,0,0

[HitObjects]
64,192,1098,5,2,0:0:0:0:
448,192,1377,1,10,0:0:0:0:
192,192,1656,1,2,0:0:0:0:
320,192,1935,1,10,0:0:0:0:
448,192,2214,1,2,0:0:0:0:
64,192,2493,1,10,0:0:0:0:
320,192,2772,1,2,0:0:0:0:
192,192,3051,1,10,0:0:0:0:
64,192,3330,1,2,0:0:0:0:
448,192,3609,1,10,0:0:0:0:
192,192,3888,1,2,0:0:0:0:
320,192,4167,1,10,0:0:0:0:
448,192,4446,1,2,0:0:0:0:
64,192,4725,1,10,0:0:0:0:
320,192,5004,1,2,0:0:0:0:
192,192,5284,1,10,0:0:0:0:
64,192,5563,1,6,0:0:0:0:
64,192,5842,1,10,0:0:0:0:
448,192,6121,1,2,0:0:0:0:
448,192,6400,1,10,0:0:0:0:
192,192,6679,1,2,0:0:0:0:
192,192,6958,1,10,0:0:0:0:
320,192,7237,1,2,0:0:0:0:
320,192,7516,1,10,0:0:0:0:
64,192,7795,1,2,0:0:0:0:
64,192,8074,1,10,0:0:0:0:
448,192,8353,1,2,0:0:0:0:
448,192,8632,1,10,0:0:0:0:
320,192,8911,1,0,0:0:0:0:
64,192,9191,1,0,0:0:0:50:_Db_snare.wav
448,192,9330,1,0,0:0:0:0:
192,192,9609,1,0,0:0:0:50:_Db_snare.wav
320,192,9749,1,0,0:0:0:0:
448,192,9888,1,0,0:0:0:0:
64,192,10028,1,2,0:0:0:0:
192,192,10028,1,4,0:0:0:0:
320,192,10586,1,8,0:0:0:70:Snare clap 2.wav
448,192,10586,1,0,0:0:0:0:
192,192,11144,1,2,0:0:0:0:
320,192,11423,1,0,0:0:0:0:
192,192,11563,1,2,0:0:0:0:
448,192,11702,128,8,11981:0:0:0:70:Snare clap 2.wav
64,192,11702,1,0,0:0:0:0:
320,192,12260,1,2,0:0:0:0:
64,192,12818,1,0,0:0:0:0:
192,192,12818,1,8,0:0:0:70:Snare clap 2.wav
320,192,13377,1,2,0:0:0:0:
192,192,13656,1,0,0:0:0:0:
320,192,13795,1,2,0:0:0:0:
448,192,13935,128,8,14214:0:0:0:70:Snare clap 2.wav
64,192,13935,1,0,0:0:0:0:
192,192,14214,1,0,0:0:0:0:
448,192,14493,1,2,0:0:0:0:
64,192,14493,1,0,0:0:0:0:
448,192,14772,1,0,0:0:0:30:Snare 2.wav
192,192,15051,1,2,0:0:0:0:
192,192,15330,1,0,0:0:0:30:Snare 2.wav
320,192,15609,1,2,0:0:0:0:
320,192,15888,1,0,0:0:0:30:Snare 2.wav
64,192,16167,1,2,0:0:0:0:
448,192,16307,1,0,0:0:0:30:Snare 2.wav
64,192,16446,1,0,0:0:0:30:Snare 2.wav
192,192,16725,1,2,0:0:0:0:
320,192,17004,1,2,0:0:0:0:
64,192,17284,128,2,17563:0:0:0:0:
448,192,17563,128,2,17842:0:0:0:0:
192,192,17842,1,2,0:0:0:0:
320,192,18400,1,0,0:0:0:0:
192,192,18679,1,0,0:0:0:0:
64,192,18958,1,2,0:0:0:0:
448,192,18958,1,4,0:0:0:0:
448,192,19237,1,2,0:0:0:0:
192,192,19516,1,2,0:0:0:0:
320,192,19795,1,2,0:0:0:0:
64,192,20074,1,2,0:0:0:0:
64,192,20353,1,2,0:0:0:0:
448,192,20632,1,2,0:0:0:0:
320,192,20772,1,0,0:0:0:0:
192,192,20911,1,2,0:0:0:0:
320,192,21191,1,2,0:0:0:0:
320,192,21470,1,2,0:0:0:0:
64,192,21749,1,2,0:0:0:0:
192,192,22028,1,2,0:0:0:0:
320,192,22167,1,0,0:0:0:0:
448,192,22307,1,2,0:0:0:0:
64,192,22586,1,8,0:0:0:0:
320,192,22865,1,2,0:0:0:0:
192,192,23004,1,2,0:0:0:0:
64,192,23144,128,0,23423:0:0:0:80:snare070.wav
320,192,23423,1,2,0:0:0:0:
192,192,23563,1,2,0:0:0:0:
320,192,23702,1,8,0:0:0:0:
448,192,23981,1,2,0:0:0:0:
64,192,24260,1,8,0:0:0:0:
320,192,24539,1,2,0:0:0:0:
192,192,24818,1,8,0:0:0:0:
64,192,25097,1,2,0:0:0:0:
448,192,25237,1,0,0:0:0:0:
64,192,25377,128,10,25656:0:0:0:0:
320,192,25656,1,2,0:0:0:0:
192,192,25795,1,2,0:0:0:0:
64,192,25935,1,8,0:0:0:0:
192,192,26214,1,2,0:0:0:0:
320,192,26353,1,2,0:0:0:0:
448,192,26493,128,8,26772:0:0:0:0:
64,192,26772,1,2,0:0:0:0:
192,192,27051,1,2,0:0:0:0:
448,192,27330,1,2,0:0:0:0:
320,192,27470,1,2,0:0:0:0:
192,192,27609,128,0,27888:0:0:0:80:snare070.wav
448,192,27888,1,4,0:0:0:0:
64,192,27888,1,2,0:0:0:0:
320,192,28167,1,8,0:0:0:0:
64,192,28446,1,2,0:0:0:0:
320,192,28725,1,8,0:0:0:0:
64,192,29004,1,2,0:0:0:0:
448,192,29284,128,8,29563:0:0:0:0:
64,192,29563,128,2,29842:0:0:0:0:
192,192,29842,1,8,0:0:0:0:
320,192,29981,1,2,0:0:0:0:
448,192,30121,1,2,0:0:0:0:
192,192,30400,1,8,0:0:0:0:
448,192,30679,1,2,0:0:0:0:
192,192,30958,1,8,0:0:0:0:
448,192,31237,128,2,31516:0:0:0:0:
64,192,31516,128,8,31795:0:0:0:0:
320,192,31795,128,2,32074:0:0:0:0:
192,192,32074,1,2,0:0:0:0:
64,192,32353,1,2,0:0:0:0:
448,192,32353,1,4,0:0:0:0:
320,192,32632,1,8,0:0:0:0:
64,192,32911,1,2,0:0:0:0:
320,192,33191,1,8,0:0:0:0:
448,192,33470,1,2,0:0:0:0:
192,192,33749,1,8,0:0:0:0:
448,192,34028,1,2,0:0:0:0:
192,192,34307,1,8,0:0:0:0:
320,192,34446,1,2,0:0:0:0:
64,192,34586,1,2,0:0:0:0:
448,192,34865,1,8,0:0:0:0:
64,192,35144,1,2,0:0:0:0:
448,192,35423,1,8,0:0:0:0:
192,192,35702,1,2,0:0:0:0:
64,192,35702,1,0,0:0:0:0:
448,192,35981,1,8,0:0:0:0:
320,192,35981,1,0,0:0:0:0:
192,192,36260,1,2,0:0:0:0:
64,192,36260,1,0,0:0:0:0:
448,192,36539,128,0,36818:0:0:0:80:snare070.wav
192,192,36818,128,4,37097:0:0:0:0:
320,192,36818,1,2,0:0:0:0:
448,192,37097,1,8,0:0:0:0:
64,192,37377,1,2,0:0:0:0:
448,192,37656,1,8,0:0:0:0:
192,192,37935,1,2,0:0:0:0:
448,192,38214,128,8,38493:0:0:0:0:
64,192,38493,128,2,38772:0:0:0:0:
448,192,38772,1,8,0:0:0:0:
320,192,38911,1,2,0:0:0:0:
192,192,39051,1,2,0:0:0:0:
448,192,39330,1,8,0:0:0:0:
64,192,39609,1,2,0:0:0:0:
448,192,39888,1,8,0:0:0:0:
192,192,40167,1,2,0:0:0:0:
192,192,40446,1,2,0:0:0:0:
448,192,40725,128,2,41004:0:0:0:0:
64,192,41004,128,8,41284:0:0:0:0:
192,192,41284,1,2,0:0:0:0:
448,192,41284,1,0,0:0:0:0:
448,192,41563,1,10,0:0:0:0:
64,192,41842,1,2,0:0:0:0:
64,192,42121,1,10,0:0:0:0:
320,192,42400,1,2,0:0:0:0:
320,192,42679,1,10,0:0:0:0:
192,192,42958,128,2,43237:0:0:0:0:
448,192,43237,1,10,0:0:0:0:
320,192,43377,1,2,0:0:0:0:
64,192,43516,1,2,0:0:0:0:
64,192,43795,1,10,0:0:0:0:
448,192,44074,1,2,0:0:0:0:
448,192,44353,1,10,0:0:0:0:
192,192,44632,1,2,0:0:0:0:
192,192,44911,1,10,0:0:0:0:
320,192,45191,1,2,0:0:0:0:
64,192,45470,128,2,45749:0:0:0:0:
320,192,45749,1,2,0:0:0:0:
448,192,45749,1,4,0:0:0:0:
192,192,46028,1,8,0:0:0:0:
448,192,46167,1,2,0:0:0:0:
320,192,46446,1,8,0:0:0:0:
64,192,46586,1,2,0:0:0:0:
192,192,46865,1,8,0:0:0:0:
448,192,47004,1,2,0:0:0:0:
320,192,47284,1,8,0:0:0:0:
64,192,47423,1,2,0:0:0:0:
448,192,47563,1,2,0:0:0:0:
192,192,47702,128,8,47981:0:0:0:0:
320,192,47981,1,0,0:0:0:0:
64,192,47981,1,2,0:0:0:0:
448,192,48260,1,8,0:0:0:0:
192,192,48400,1,2,0:0:0:0:
64,192,48679,1,8,0:0:0:0:
320,192,48818,1,2,0:0:0:0:
448,192,49097,1,8,0:0:0:0:
192,192,49237,1,2,0:0:0:0:
64,192,49516,1,8,0:0:0:0:
320,192,49656,1,2,0:0:0:0:
192,192,49795,1,2,0:0:0:0:
448,192,49935,128,0,50214:0:0:0:0:
192,192,50214,1,4,0:0:0:0:
64,192,50214,1,2,0:0:0:0:
320,192,50493,1,8,0:0:0:0:
192,192,50632,1,2,0:0:0:0:
64,192,50911,1,8,0:0:0:0:
448,192,51051,1,2,0:0:0:0:
320,192,51330,1,8,0:0:0:0:
192,192,51470,1,2,0:0:0:0:
64,192,51749,1,8,0:0:0:0:
448,192,51888,1,2,0:0:0:0:
192,192,52028,1,2,0:0:0:0:
320,192,52167,128,8,52446:0:0:0:0:
64,192,52446,1,2,0:0:0:0:
192,192,52446,1,0,0:0:0:0:
448,192,52725,1,8,0:0:0:0:
64,192,52865,1,2,0:0:0:0:
192,192,53144,1,8,0:0:0:0:
320,192,53284,1,2,0:0:0:0:
448,192,53563,1,8,0:0:0:0:
64,192,53702,1,2,0:0:0:0:
192,192,53981,1,8,0:0:0:0:
320,192,54121,1,2,0:0:0:0:
64,192,54260,1,2,0:0:0:0:
448,192,54400,128,0,54679:0:0:0:70:snare070.wav
192,192,54679,1,2,0:0:0:0:
320,192,54679,1,0,0:0:0:0:
64,192,55237,1,0,0:0:0:0:
320,192,55795,1,0,0:0:0:0:
448,192,56353,1,0,0:0:0:0:
64,192,56911,1,0,0:0:0:0:
192,192,57470,1,0,0:0:0:0:
448,192,58028,1,0,0:0:0:0:
320,192,58586,1,0,0:0:0:0:
192,192,59144,1,4,0:0:0:0:
64,192,59144,1,2,0:0:0:0:
448,192,59423,1,0,0:0:0:0:
64,192,59702,1,8,0:0:0:0:
448,192,59981,1,0,0:0:0:0:
192,192,60260,1,2,0:0:0:0:
448,192,60539,1,0,0:0:0:0:
64,192,60818,1,8,0:0:0:0:
320,192,60958,1,0,0:0:0:0:
448,192,61097,128,0,61377:0:0:0:0:
64,192,61377,1,2,0:0:0:0:
192,192,61586,1,2,0:0:0:0:
448,192,61795,1,2,0:0:0:0:
320,192,62004,1,2,0:0:0:0:
192,192,62214,128,2,62493:0:0:0:0:
64,192,62493,1,2,0:0:0:0:
320,192,62772,1,0,0:0:0:70:_Db_snare.wav
192,192,62911,1,0,0:0:0:0:
448,192,63191,1,0,0:0:0:70:_Db_snare.wav
64,192,63330,1,8,0:0:0:0:
192,192,63609,128,2,64725:0:0:0:0:
320,192,63609,1,4,0:0:0:0:
448,192,64725,128,0,65842:0:0:0:0:
64,192,65842,128,0,66400:0:0:0:0:
320,192,66400,128,0,66958:0:0:0:0:
192,192,66958,128,2,68074:0:0:0:0:
64,192,68074,1,6,0:0:0:0:
448,192,68074,1,0,0:0:0:70:push_scratch.wav
192,192,68353,1,0,0:0:0:0:
320,192,68632,1,0,0:0:0:70:Snare clap 2.wav
192,192,68911,1,0,0:0:0:0:
448,192,69191,1,0,0:0:0:0:
320,192,69470,1,0,0:0:0:0:
192,192,69749,1,0,0:0:0:70:Snare clap 2.wav
320,192,70028,1,2,0:0:0:0:
64,192,70307,1,2,0:0:0:0:
192,192,70586,1,0,0:0:0:0:
320,192,70865,1,0,0:0:0:70:Snare clap 2.wav
192,192,71144,1,0,0:0:0:0:
448,192,71423,1,2,0:0:0:0:
64,192,71702,1,0,0:0:0:0:
320,192,71981,1,0,0:0:0:0:
192,192,72260,1,0,0:0:0:0:
64,192,72539,1,2,0:0:0:0:
448,192,72539,1,4,0:0:0:0:
320,192,72818,1,0,0:0:0:50:Snare 3.wav
192,192,73097,1,0,0:0:0:50:Snare 3.wav
320,192,73377,1,0,0:0:0:0:
64,192,73656,1,0,0:0:0:50:Snare 3.wav
192,192,73935,1,0,0:0:0:0:
320,192,74214,1,0,0:0:0:50:Snare 3.wav
192,192,74493,1,0,0:0:0:50:Snare 3.wav
448,192,74772,1,0,0:0:0:50:Snare 3.wav
320,192,75051,1,0,0:0:0:0:
64,192,75330,1,0,0:0:0:50:Snare 3.wav
192,192,75609,1,0,0:0:0:0:
320,192,75888,1,0,0:0:0:50:Snare 3.wav
448,192,76167,1,0,0:0:0:0:
192,192,76446,1,0,0:0:0:50:Snare 3.wav
320,192,76586,1,0,0:0:0:50:Snare 3.wav
64,192,76725,1,2,0:0:0:0:
192,192,77004,128,2,77284:0:0:0:0:
448,192,77284,128,0,77563:0:0:0:0:
64,192,77563,128,2,77842:0:0:0:0:
320,192,77842,128,0,78121:0:0:0:0:
448,192,78121,128,2,78400:0:0:0:0:
64,192,78400,128,0,78679:0:0:0:0:
320,192,78679,128,2,78958:0:0:0:0:
192,192,78958,128,0,79237:0:0:0:0:
64,192,79237,1,2,0:0:0:0:
64,192,79516,1,2,0:0:0:0:
320,192,79795,1,2,0:0:0:0:
192,192,79935,1,2,0:0:0:0:
448,192,80074,128,2,80353:0:0:0:0:
64,192,80353,1,2,0:0:0:0:
192,192,81470,1,2,0:0:0:0:
448,192,81470,1,4,0:0:0:0:
448,192,81749,1,2,0:0:0:0:
64,192,82028,128,8,82307:0:0:0:0:
192,192,82307,1,0,0:0:0:0:
320,192,82446,1,0,0:0:0:0:
448,192,82586,128,0,82865:0:0:0:0:
64,192,82865,1,2,0:0:0:0:
320,192,83144,128,8,83423:0:0:0:0:
64,192,83423,128,0,83702:0:0:0:0:
448,192,83702,1,2,0:0:0:0:
320,192,83842,1,2,0:0:0:0:
192,192,83981,1,2,0:0:0:0:
448,192,84260,128,8,84539:0:0:0:0:
320,192,84539,128,0,84818:0:0:0:0:
64,192,84818,1,2,0:0:0:0:
192,192,85097,1,2,0:0:0:0:
320,192,85377,1,8,0:0:0:0:
448,192,85656,1,2,0:0:0:0:
192,192,85795,1,2,0:0:0:0:
64,192,85935,1,2,0:0:0:0:
320,192,85935,1,0,0:0:0:0:
64,192,86214,1,2,0:0:0:0:
320,192,86493,128,8,86772:0:0:0:0:
64,192,86772,1,0,0:0:0:0:
448,192,86911,1,0,0:0:0:0:
192,192,87051,128,0,87330:0:0:0:0:
320,192,87330,1,2,0:0:0:0:
64,192,87609,128,8,87888:0:0:0:0:
320,192,87888,128,0,88167:0:0:0:0:
192,192,88167,1,2,0:0:0:0:
448,192,88307,1,2,0:0:0:0:
64,192,88446,1,2,0:0:0:0:
192,192,88725,128,8,89004:0:0:0:0:
320,192,89004,128,0,89284:0:0:0:0:
64,192,89284,1,2,0:0:0:0:
448,192,89284,1,4,0:0:0:0:
192,192,91237,1,2,0:0:0:0:
320,192,91377,1,2,0:0:0:0:
64,192,91516,1,2,0:0:0:0:
448,192,91516,1,4,0:0:0:0:
192,192,91795,1,8,0:0:0:0:
448,192,91935,1,0,0:0:0:0:
64,192,92214,1,0,0:0:0:0:
320,192,92493,1,0,0:0:0:0:
192,192,92772,1,0,0:0:0:0:
320,192,92911,1,8,0:0:0:0:
448,192,93051,1,0,0:0:0:0:
64,192,93330,1,0,0:0:0:0:
320,192,93470,1,8,0:0:0:0:
192,192,93609,1,0,0:0:0:0:
448,192,93749,128,2,94028:0:0:0:0:
64,192,94028,1,8,0:0:0:0:
320,192,94167,1,0,0:0:0:0:
448,192,94446,1,2,0:0:0:0:
192,192,94586,1,8,0:0:0:0:
320,192,94725,1,2,0:0:0:0:
64,192,94865,1,2,0:0:0:0:
448,192,95144,1,8,0:0:0:0:
320,192,95423,1,2,0:0:0:0:
192,192,95563,1,2,0:0:0:0:
64,192,95702,128,0,95981:0:0:0:0:
320,192,95981,1,2,0:0:0:0:
448,192,95981,1,4,0:0:0:0:
448,192,96260,1,8,0:0:0:0:
192,192,96539,1,2,0:0:0:0:
192,192,96818,1,8,0:0:0:0:
320,192,97097,1,2,0:0:0:0:
320,192,97377,1,8,0:0:0:0:
64,192,97656,1,2,0:0:0:0:
64,192,97935,1,8,0:0:0:0:
320,192,98214,1,2,0:0:0:0:
192,192,98353,1,2,0:0:0:0:
320,192,98493,1,8,0:0:0:0:
64,192,98772,1,2,0:0:0:0:
448,192,98911,1,2,0:0:0:0:
64,192,99051,128,8,99330:0:0:0:0:
320,192,99330,1,2,0:0:0:0:
192,192,99609,1,2,0:0:0:0:
320,192,99888,1,2,0:0:0:0:
192,192,100028,1,2,0:0:0:0:
448,192,100167,128,0,100446:0:0:0:70:snare070.wav
64,192,100446,1,6,0:0:0:0:
192,192,100586,1,2,0:0:0:0:
320,192,100725,1,2,0:0:0:0:
448,192,101004,1,8,0:0:0:0:
320,192,101423,1,2,0:0:0:0:
192,192,101563,1,2,0:0:0:0:
192,192,101842,1,2,0:0:0:0:
64,192,102121,1,8,0:0:0:0:
448,192,102400,1,2,0:0:0:0:
320,192,102539,1,2,0:0:0:0:
192,192,102679,128,2,102958:0:0:0:0:
448,192,102958,128,2,103237:0:0:0:0:
64,192,103237,1,2,0:0:0:0:
192,192,103377,1,2,0:0:0:0:
320,192,103516,128,2,103795:0:0:0:0:
64,192,103795,1,2,0:0:0:0:
448,192,103795,1,0,0:0:0:0:
320,192,104353,1,0,0:0:0:0:
192,192,104632,1,8,0:0:0:70:Snare clap 2.wav
448,192,104911,1,4,0:0:0:0:
64,192,104911,1,2,0:0:0:0:
320,192,105191,1,8,0:0:0:0:
64,192,105470,1,2,0:0:0:0:
192,192,105609,1,0,0:0:0:0:
320,192,105749,1,8,0:0:0:0:
64,192,106028,1,2,0:0:0:0:
192,192,106307,1,8,0:0:0:0:
448,192,106586,1,2,0:0:0:0:
320,192,106725,1,0,0:0:0:0:
192,192,106865,1,8,0:0:0:0:
320,192,107144,1,2,0:0:0:0:
64,192,107423,1,8,0:0:0:0:
192,192,107702,1,2,0:0:0:0:
448,192,107842,1,0,0:0:0:0:
320,192,107981,1,8,0:0:0:0:
192,192,108260,1,2,0:0:0:0:
448,192,108539,1,8,0:0:0:0:
64,192,108818,1,2,0:0:0:0:
320,192,108958,1,0,0:0:0:0:
192,192,109097,128,0,109377:0:0:0:0:
448,192,109377,1,2,0:0:0:0:
64,192,109516,1,2,0:0:0:0:
320,192,109656,1,8,0:0:0:0:
192,192,109935,1,2,0:0:0:0:
64,192,110214,1,8,0:0:0:0:
448,192,110353,1,2,0:0:0:0:
192,192,110493,1,2,0:0:0:0:
320,192,110772,1,8,0:0:0:0:
448,192,111051,1,2,0:0:0:0:
64,192,111191,1,2,0:0:0:0:
320,192,111330,1,8,0:0:0:0:
192,192,111609,1,2,0:0:0:0:
448,192,111888,1,8,0:0:0:0:
192,192,112167,1,2,0:0:0:0:
320,192,112307,1,2,0:0:0:0:
448,192,112446,1,8,0:0:0:0:
320,192,112725,1,2,0:0:0:0:
64,192,113004,1,2,0:0:0:0:
320,192,113284,1,2,0:0:0:0:
64,192,113563,128,0,113842:0:0:0:70:soft-hitclap.wav
320,192,113842,1,2,0:0:0:0:
448,192,113842,1,4,0:0:0:0:
448,192,114121,1,8,0:0:0:0:
192,192,114400,1,2,0:0:0:0:
192,192,114679,1,8,0:0:0:0:
320,192,114958,1,2,0:0:0:0:
320,192,115237,1,8,0:0:0:0:
64,192,115516,1,2,0:0:0:0:
448,192,115656,1,0,0:0:0:0:
64,192,115795,1,8,0:0:0:0:
192,192,116074,1,2,0:0:0:0:
192,192,116353,1,8,0:0:0:0:
320,192,116632,1,2,0:0:0:0:
320,192,116911,1,8,0:0:0:0:
448,192,117051,1,0,0:0:0:0:
64,192,117191,1,2,0:0:0:0:
64,192,117470,1,8,0:0:0:0:
320,192,117749,128,2,118028:0:0:0:0:
192,192,118028,128,0,118307:0:0:0:0:
448,192,118307,1,2,0:0:0:0:
64,192,118446,1,2,0:0:0:0:
448,192,118586,1,8,0:0:0:0:
320,192,118865,1,2,0:0:0:0:
192,192,119144,1,8,0:0:0:0:
320,192,119284,1,2,0:0:0:0:
192,192,119423,1,2,0:0:0:0:
64,192,119702,1,8,0:0:0:0:
448,192,119981,1,2,0:0:0:0:
320,192,120121,1,2,0:0:0:0:
192,192,120260,128,8,120539:0:0:0:0:
448,192,120539,128,2,120818:0:0:0:0:
64,192,120818,128,8,121097:0:0:0:0:
192,192,121097,1,2,0:0:0:0:
448,192,121237,1,2,0:0:0:0:
320,192,121377,128,8,121656:0:0:0:0:
64,192,121656,1,2,0:0:0:0:
448,192,121935,1,2,0:0:0:0:
64,192,122214,1,2,0:0:0:0:
448,192,122493,128,0,122772:0:0:0:70:Snare clap 2.wav
192,192,122772,1,2,0:0:0:0:
320,192,122772,1,4,0:0:0:0:
64,192,123051,1,8,0:0:0:0:
448,192,123330,1,2,0:0:0:0:
64,192,123609,1,8,0:0:0:0:
192,192,123749,1,2,0:0:0:0:
320,192,123888,1,2,0:0:0:0:
64,192,124167,1,8,0:0:0:0:
448,192,124446,1,2,0:0:0:0:
64,192,124725,1,8,0:0:0:0:
320,192,125004,1,2,0:0:0:0:
64,192,125284,1,8,0:0:0:0:
448,192,125563,1,2,0:0:0:0:
320,192,125702,1,2,0:0:0:0:
64,192,125842,1,8,0:0:0:0:
192,192,126121,1,2,0:0:0:0:
448,192,126400,128,2,126679:0:0:0:0:
320,192,126679,1,2,0:0:0:0:
192,192,126818,1,2,0:0:0:0:
64,192,126958,128,0,127237:0:0:0:0:
320,192,127237,1,4,0:0:0:0:
192,192,127237,1,2,0:0:0:0:
448,192,127516,1,8,0:0:0:0:
64,192,127795,1,2,0:0:0:0:
448,192,128074,1,8,0:0:0:0:
192,192,128353,1,2,0:0:0:0:
448,192,128632,1,8,0:0:0:0:
64,192,128911,1,2,0:0:0:0:
448,192,129191,1,8,0:0:0:0:
64,192,129470,1,2,0:0:0:0:
192,192,129679,1,2,0:0:0:0:
448,192,129888,1,2,0:0:0:0:
320,192,130097,1,2,0:0:0:0:
192,192,130307,128,2,130586:0:0:0:0:
448,192,130586,1,0,0:0:0:0:
320,192,130586,1,2,0:0:0:0:
64,192,130865,1,0,0:0:0:50:_Db_snare.wav
192,192,131004,1,0,0:0:0:0:
320,192,131144,1,0,0:0:0:0:
320,192,131423,1,8,0:0:0:0:
192,192,131423,1,0,0:0:0:0:
64,192,131702,1,2,0:0:0:0:
448,192,131702,1,4,0:0:0:0:
