osu file format v14

[General]
AudioFilename: audio.ogg
AudioLeadIn: 0
PreviewTime: 198710
Countdown: 0
SampleSet: Soft
StackLeniency: 0.7
Mode: 3
LetterboxInBreaks: 0
SpecialStyle: 0
WidescreenStoryboard: 0

[Editor]
DistanceSpacing: 0.5
BeatDivisor: 4
GridSize: 8
TimelineZoom: 2

[Metadata]
Title:Big Daddy
TitleUnicode:Big Daddy
Artist:USAO
ArtistUnicode:USAO
Creator:Chrisse
Version:GG
Source:
Tags:fa featured artist electronic instrumental ANTHEM COLOR dubstep hardcore hard core hybrid mg mpg mappers' guild
BeatmapID:4389394
BeatmapSetID:2093548

[Difficulty]
HPDrainRate:8.5
CircleSize:4
OverallDifficulty:8
ApproachRate:5
SliderMultiplier:1.4
SliderTickRate:1

[Events]
//Background and Video events
0,0,"bg.jpg",0,0
//Break Periods
//Storyboard Layer 0 (Background)
//Storyboard Layer 1 (Fail)
//Storyboard Layer 2 (Pass)
//Storyboard Layer 3 (Foreground)
//Storyboard Layer 4 (Overlay)
//Storyboard Sound Samples

[TimingPoints]
1658,315.789473684211,4,2,1,50,1,0
135552,-100,4,2,1,50,0,1
136815,-100,4,2,1,50,0,0
199973,-100,4,2,1,50,0,1
218921,-100,4,2,1,50,0,0
220184,-100,4,2,1,50,0,1
239131,-100,4,2,1,50,0,0

[HitObjects]
320,192,1658,5,0,0:0:0:0:
448,192,1658,1,0,0:0:0:0:
64,192,1658,1,0,0:0:0:0:
192,192,1815,1,0,0:0:0:0:
320,192,1973,1,0,0:0:0:0:
448,192,1973,1,0,0:0:0:0:
64,192,2131,1,0,0:0:0:0:
64,192,2289,1,0,0:0:0:0:
448,192,2447,1,0,0:0:0:0:
320,192,2447,1,0,0:0:0:0:
192,192,2605,1,0,0:0:0:0:
64,192,2605,1,0,0:0:0:0:
448,192,2763,1,0,0:0:0:0:
448,192,2921,1,0,0:0:0:0:
192,192,3079,1,0,0:0:0:0:
64,192,3079,1,0,0:0:0:0:
448,192,3236,1,0,0:0:0:0:
320,192,3236,1,0,0:0:0:0:
64,192,3394,1,0,0:0:0:0:
64,192,3552,1,0,0:0:0:0:
320,192,3710,1,0,0:0:0:0:
448,192,3710,1,0,0:0:0:0:
192,192,3868,1,0,0:0:0:0:
64,192,3868,1,0,0:0:0:0:
320,192,4026,1,0,0:0:0:0:
448,192,4184,1,0,0:0:0:0:
64,192,4184,1,0,0:0:0:0:
192,192,4342,1,0,0:0:0:0:
320,192,4500,1,0,0:0:0:0:
448,192,4500,1,0,0:0:0:0:
192,192,4658,1,0,0:0:0:0:
192,192,4815,1,0,0:0:0:0:
320,192,4973,1,0,0:0:0:0:
448,192,4973,1,0,0:0:0:0:
192,192,5131,1,0,0:0:0:0:
64,192,5131,1,0,0:0:0:0:
320,192,5289,1,0,0:0:0:0:
320,192,5447,1,0,0:0:0:0:
192,192,5605,1,0,0:0:0:0:
64,192,5605,1,0,0:0:0:0:
320,192,5763,1,0,0:0:0:0:
448,192,5763,1,0,0:0:0:0:
192,192,5921,1,0,0:0:0:0:
192,192,6079,1,0,0:0:0:0:
320,192,6236,1,0,0:0:0:0:
448,192,6236,1,0,0:0:0:0:
192,192,6394,1,0,0:0:0:0:
64,192,6394,1,0,0:0:0:0:
320,192,6552,1,0,0:0:0:0:
192,192,6710,1,0,0:0:0:0:
448,192,6710,1,0,0:0:0:0:
64,192,6710,1,0,0:0:0:0:
320,192,6868,1,0,0:0:0:0:
64,192,7026,1,0,0:0:0:0:
448,192,7026,1,0,0:0:0:0:
192,192,7184,1,0,0:0:0:0:
192,192,7342,1,0,0:0:0:0:
320,192,7500,1,0,0:0:0:0:
448,192,7500,1,0,0:0:0:0:
192,192,7658,1,0,0:0:0:0:
64,192,7658,1,0,0:0:0:0:
320,192,7815,1,0,0:0:0:0:
320,192,7973,1,0,0:0:0:0:
192,192,8131,1,0,0:0:0:0:
64,192,8131,1,0,0:0:0:0:
320,192,8289,1,0,0:0:0:0:
448,192,8289,1,0,0:0:0:0:
192,192,8447,1,0,0:0:0:0:
192,192,8605,1,0,0:0:0:0:
320,192,8763,1,0,0:0:0:0:
448,192,8763,1,0,0:0:0:0:
192,192,8921,1,0,0:0:0:0:
64,192,8921,1,0,0:0:0:0:
320,192,9079,1,0,0:0:0:0:
448,192,9236,1,0,0:0:0:0:
64,192,9236,1,0,0:0:0:0:
192,192,9394,1,0,0:0:0:0:
320,192,9552,1,0,0:0:0:0:
448,192,9552,1,0,0:0:0:0:
64,192,9710,1,0,0:0:0:0:
64,192,9868,1,0,0:0:0:0:
448,192,10026,1,0,0:0:0:0:
320,192,10026,1,0,0:0:0:0:
192,192,10184,1,0,0:0:0:0:
64,192,10184,1,0,0:0:0:0:
448,192,10342,1,0,0:0:0:0:
448,192,10500,1,0,0:0:0:0:
320,192,10500,1,0,0:0:0:0:
192,192,10500,1,0,0:0:0:0:
64,192,10658,1,0,0:0:0:0:
320,192,10658,1,0,0:0:0:0:
192,192,10815,1,0,0:0:0:0:
64,192,10815,1,0,0:0:0:0:
448,192,10815,1,0,0:0:0:0:
320,192,10894,1,0,0:0:0:0:
320,192,11052,128,0,11131:0:0:0:0:
192,192,11131,1,0,0:0:0:0:
64,192,11131,128,0,11210:0:0:0:0:
320,192,11210,1,0,0:0:0:0:
448,192,11210,128,0,11289:0:0:0:0:
192,192,11289,128,0,11368:0:0:0:0:
64,192,11289,1,0,0:0:0:0:
320,192,11368,128,0,11447:0:0:0:0:
64,192,11447,128,0,11763:0:0:0:0:
192,192,11447,1,0,0:0:0:0:
448,192,11447,128,0,11605:0:0:0:0:
320,192,11605,128,0,11763:0:0:0:0:
192,192,11763,128,0,11921:0:0:0:0:
448,192,11763,1,0,0:0:0:0:
320,192,11921,128,0,12079:0:0:0:0:
192,192,12079,1,0,0:0:0:0:
448,192,12079,1,0,0:0:0:0:
64,192,12079,1,0,0:0:0:0:
192,192,12236,1,0,0:0:0:0:
320,192,12394,1,0,0:0:0:0:
448,192,12394,1,0,0:0:0:0:
64,192,12552,1,0,0:0:0:0:
448,192,12552,1,0,0:0:0:0:
320,192,12710,1,0,0:0:0:0:
64,192,12710,1,0,0:0:0:0:
192,192,12710,1,0,0:0:0:0:
320,192,12868,1,0,0:0:0:0:
192,192,13026,1,0,0:0:0:0:
64,192,13026,1,0,0:0:0:0:
64,192,13184,1,0,0:0:0:0:
448,192,13184,1,0,0:0:0:0:
192,192,13342,1,0,0:0:0:0:
320,192,13342,1,0,0:0:0:0:
448,192,13342,1,0,0:0:0:0:
192,192,13500,1,0,0:0:0:0:
448,192,13658,1,0,0:0:0:0:
320,192,13658,1,0,0:0:0:0:
192,192,13815,1,0,0:0:0:0:
64,192,13815,1,0,0:0:0:0:
320,192,13973,1,0,0:0:0:0:
64,192,13973,1,0,0:0:0:0:
448,192,13973,1,0,0:0:0:0:
320,192,14131,1,0,0:0:0:0:
192,192,14289,1,0,0:0:0:0:
64,192,14289,1,0,0:0:0:0:
448,192,14447,1,0,0:0:0:0:
64,192,14605,1,0,0:0:0:0:
320,192,14605,1,0,0:0:0:0:
448,192,14605,1,0,0:0:0:0:
192,192,14763,1,0,0:0:0:0:
448,192,14921,1,0,0:0:0:0:
320,192,14921,1,0,0:0:0:0:
192,192,15079,1,0,0:0:0:0:
64,192,15079,1,0,0:0:0:0:
448,192,15236,1,0,0:0:0:0:
320,192,15236,1,0,0:0:0:0:
64,192,15236,1,0,0:0:0:0:
448,192,15394,1,0,0:0:0:0:
192,192,15552,1,0,0:0:0:0:
64,192,15552,1,0,0:0:0:0:
448,192,15710,1,0,0:0:0:0:
192,192,15710,1,0,0:0:0:0:
64,192,15868,1,0,0:0:0:0:
320,192,15868,1,0,0:0:0:0:
448,192,15868,1,0,0:0:0:0:
192,192,16026,1,0,0:0:0:0:
448,192,16184,1,0,0:0:0:0:
320,192,16184,1,0,0:0:0:0:
64,192,16342,1,0,0:0:0:0:
192,192,16342,1,0,0:0:0:0:
320,192,16500,1,0,0:0:0:0:
448,192,16500,1,0,0:0:0:0:
64,192,16500,1,0,0:0:0:0:
192,192,16579,1,0,0:0:0:0:
448,192,16658,1,0,0:0:0:0:
320,192,16736,1,0,0:0:0:0:
448,192,16815,1,0,0:0:0:0:
64,192,16815,1,0,0:0:0:0:
192,192,16815,1,0,0:0:0:0:
320,192,16973,1,0,0:0:0:0:
64,192,17131,1,0,0:0:0:0:
192,192,17131,1,0,0:0:0:0:
448,192,17131,1,0,0:0:0:0:
192,192,17289,1,0,0:0:0:0:
448,192,17447,1,0,0:0:0:0:
320,192,17447,1,0,0:0:0:0:
64,192,17605,1,0,0:0:0:0:
320,192,17605,1,0,0:0:0:0:
448,192,17763,1,0,0:0:0:0:
64,192,17763,1,0,0:0:0:0:
192,192,17763,1,0,0:0:0:0:
192,192,17921,1,0,0:0:0:0:
320,192,17921,1,0,0:0:0:0:
320,192,18079,1,0,0:0:0:0:
448,192,18079,1,0,0:0:0:0:
192,192,18236,1,0,0:0:0:0:
64,192,18236,1,0,0:0:0:0:
192,192,18394,1,0,0:0:0:0:
448,192,18394,1,0,0:0:0:0:
320,192,18394,1,0,0:0:0:0:
64,192,18552,1,0,0:0:0:0:
448,192,18552,1,0,0:0:0:0:
192,192,18710,1,0,0:0:0:0:
320,192,18710,1,0,0:0:0:0:
448,192,18868,1,0,0:0:0:0:
320,192,18868,1,0,0:0:0:0:
64,192,19026,1,0,0:0:0:0:
448,192,19026,1,0,0:0:0:0:
192,192,19026,1,0,0:0:0:0:
64,192,19184,1,0,0:0:0:0:
320,192,19184,1,0,0:0:0:0:
192,192,19342,1,0,0:0:0:0:
64,192,19342,1,0,0:0:0:0:
320,192,19421,1,0,0:0:0:0:
448,192,19500,1,0,0:0:0:0:
192,192,19579,1,0,0:0:0:0:
448,192,19658,1,0,0:0:0:0:
64,192,19658,1,0,0:0:0:0:
320,192,19658,1,0,0:0:0:0:
192,192,19736,1,0,0:0:0:0:
64,192,19815,1,0,0:0:0:0:
320,192,19894,1,0,0:0:0:0:
448,192,19973,1,0,0:0:0:0:
192,192,19973,1,0,0:0:0:0:
64,192,20052,1,0,0:0:0:0:
320,192,20131,1,0,0:0:0:0:
448,192,20210,1,0,0:0:0:0:
320,192,20289,1,0,0:0:0:0:
192,192,20289,1,0,0:0:0:0:
64,192,20289,1,0,0:0:0:0:
448,192,20368,1,0,0:0:0:0:
192,192,20447,1,0,0:0:0:0:
320,192,20526,1,0,0:0:0:0:
64,192,20605,128,0,20763:0:0:0:0:
448,192,20605,1,0,0:0:0:0:
192,192,20605,1,0,0:0:0:0:
64,192,20921,128,0,21079:0:0:0:0:
192,192,20921,128,0,21079:0:0:0:0:
320,192,21158,128,0,21236:0:0:0:0:
192,192,21158,128,0,21236:0:0:0:0:
64,192,21158,128,0,21236:0:0:0:0:
448,192,21236,1,0,0:0:0:0:
64,192,21289,1,0,0:0:0:0:
192,192,21394,128,0,21552:0:0:0:0:
320,192,21552,128,0,21710:0:0:0:0:
448,192,21552,128,0,21710:0:0:0:0:
64,192,21868,1,0,0:0:0:0:
192,192,21868,128,0,22026:0:0:0:0:
320,192,21868,1,0,0:0:0:0:
448,192,22026,128,0,22184:0:0:0:0:
320,192,22184,1,0,0:0:0:0:
192,192,22184,128,0,22263:0:0:0:0:
64,192,22184,128,0,22421:0:0:0:0:
192,192,22342,128,0,22500:0:0:0:0:
320,192,22500,128,0,22579:0:0:0:0:
448,192,22500,128,0,22736:0:0:0:0:
64,192,22500,1,0,0:0:0:0:
320,192,22658,128,0,22815:0:0:0:0:
192,192,22815,128,0,22894:0:0:0:0:
64,192,22815,128,0,23052:0:0:0:0:
448,192,22815,1,0,0:0:0:0:
192,192,22973,128,0,23131:0:0:0:0:
64,192,23131,1,0,0:0:0:0:
320,192,23131,128,0,23210:0:0:0:0:
448,192,23131,128,0,23368:0:0:0:0:
320,192,23289,128,0,23447:0:0:0:0:
448,192,23447,1,0,0:0:0:0:
64,192,23447,128,0,23526:0:0:0:0:
192,192,23447,128,0,23526:0:0:0:0:
64,192,23605,128,0,23763:0:0:0:0:
192,192,23605,128,0,23684:0:0:0:0:
448,192,23763,128,0,23842:0:0:0:0:
320,192,23763,128,0,23921:0:0:0:0:
448,192,23921,128,0,24079:0:0:0:0:
320,192,24000,128,0,24079:0:0:0:0:
192,192,24079,128,0,24394:0:0:0:0:
64,192,24079,128,0,24236:0:0:0:0:
320,192,24236,128,0,24394:0:0:0:0:
64,192,24394,1,0,0:0:0:0:
448,192,24394,128,0,24552:0:0:0:0:
64,192,24552,128,0,24710:0:0:0:0:
448,192,24710,1,0,0:0:0:0:
192,192,24710,128,0,24789:0:0:0:0:
320,192,24710,128,0,24947:0:0:0:0:
192,192,24868,128,0,25026:0:0:0:0:
320,192,25026,1,0,0:0:0:0:
64,192,25026,128,0,25105:0:0:0:0:
448,192,25026,128,0,25263:0:0:0:0:
64,192,25184,128,0,25342:0:0:0:0:
448,192,25342,1,0,0:0:0:0:
192,192,25342,128,0,25579:0:0:0:0:
320,192,25342,128,0,25421:0:0:0:0:
320,192,25500,128,0,25658:0:0:0:0:
448,192,25658,128,0,25815:0:0:0:0:
64,192,25658,128,0,25973:0:0:0:0:
192,192,25658,128,0,25894:0:0:0:0:
448,192,25973,128,0,26131:0:0:0:0:
320,192,25973,128,0,26210:0:0:0:0:
192,192,25973,128,0,26289:0:0:0:0:
64,192,26131,1,0,0:0:0:0:
64,192,26289,128,0,26605:0:0:0:0:
448,192,26289,128,0,26447:0:0:0:0:
320,192,26289,128,0,26526:0:0:0:0:
192,192,26447,1,0,0:0:0:0:
448,192,26605,1,0,0:0:0:0:
320,192,26605,1,0,0:0:0:0:
192,192,26605,1,0,0:0:0:0:
320,192,26763,1,0,0:0:0:0:
448,192,26763,1,0,0:0:0:0:
192,192,26842,1,0,0:0:0:0:
320,192,26921,1,0,0:0:0:0:
448,192,26921,1,0,0:0:0:0:
64,192,26921,128,0,27079:0:0:0:0:
448,192,27079,128,0,27236:0:0:0:0:
320,192,27236,1,0,0:0:0:0:
192,192,27236,128,0,27473:0:0:0:0:
64,192,27236,128,0,27315:0:0:0:0:
64,192,27394,128,0,27552:0:0:0:0:
448,192,27552,128,0,27631:0:0:0:0:
320,192,27552,128,0,27789:0:0:0:0:
192,192,27552,1,0,0:0:0:0:
448,192,27710,128,0,27868:0:0:0:0:
320,192,27868,1,0,0:0:0:0:
64,192,27868,128,0,27947:0:0:0:0:
192,192,27868,128,0,28105:0:0:0:0:
64,192,28026,128,0,28184:0:0:0:0:
192,192,28184,1,0,0:0:0:0:
320,192,28184,128,0,28263:0:0:0:0:
448,192,28184,128,0,28263:0:0:0:0:
448,192,28342,128,0,28500:0:0:0:0:
320,192,28342,128,0,28421:0:0:0:0:
64,192,28500,128,0,28658:0:0:0:0:
192,192,28500,128,0,28658:0:0:0:0:
320,192,28658,128,0,28815:0:0:0:0:
448,192,28658,128,0,28815:0:0:0:0:
64,192,28815,128,0,28973:0:0:0:0:
192,192,28815,128,0,29052:0:0:0:0:
448,192,28973,128,0,29131:0:0:0:0:
320,192,28973,128,0,29052:0:0:0:0:
320,192,29131,1,0,0:0:0:0:
64,192,29131,128,0,29289:0:0:0:0:
192,192,29131,128,0,29447:0:0:0:0:
320,192,29289,128,0,29447:0:0:0:0:
64,192,29447,1,0,0:0:0:0:
448,192,29447,128,0,29605:0:0:0:0:
320,192,29526,128,0,29684:0:0:0:0:
64,192,29605,128,0,29763:0:0:0:0:
192,192,29605,128,0,29684:0:0:0:0:
192,192,29763,1,0,0:0:0:0:
448,192,29763,128,0,29921:0:0:0:0:
320,192,29763,128,0,29921:0:0:0:0:
192,192,29921,128,0,30079:0:0:0:0:
64,192,29921,128,0,30079:0:0:0:0:
448,192,30079,128,0,30236:0:0:0:0:
320,192,30079,128,0,30315:0:0:0:0:
192,192,30236,128,0,30315:0:0:0:0:
64,192,30236,128,0,30394:0:0:0:0:
192,192,30394,1,0,0:0:0:0:
448,192,30394,128,0,30552:0:0:0:0:
320,192,30394,128,0,30710:0:0:0:0:
192,192,30552,128,0,30710:0:0:0:0:
448,192,30710,1,0,0:0:0:0:
64,192,30710,128,0,30789:0:0:0:0:
320,192,30789,128,0,30868:0:0:0:0:
64,192,30868,128,0,30947:0:0:0:0:
320,192,30947,128,0,31026:0:0:0:0:
448,192,30947,1,0,0:0:0:0:
64,192,31026,1,0,0:0:0:0:
192,192,31026,128,0,31105:0:0:0:0:
448,192,31105,128,0,31184:0:0:0:0:
64,192,31184,128,0,31263:0:0:0:0:
192,192,31184,1,0,0:0:0:0:
320,192,31263,128,0,31342:0:0:0:0:
192,192,31342,128,0,31500:0:0:0:0:
320,192,31500,1,0,0:0:0:0:
448,192,31500,128,0,31579:0:0:0:0:
64,192,31579,128,0,31658:0:0:0:0:
320,192,31658,128,0,31815:0:0:0:0:
192,192,31658,128,0,31894:0:0:0:0:
448,192,31815,1,0,0:0:0:0:
320,192,31894,1,0,0:0:0:0:
192,192,31973,1,0,0:0:0:0:
64,192,31973,128,0,32289:0:0:0:0:
448,192,31973,128,0,32131:0:0:0:0:
320,192,32131,128,0,32289:0:0:0:0:
448,192,32289,1,0,0:0:0:0:
192,192,32289,128,0,32447:0:0:0:0:
448,192,32447,128,0,32605:0:0:0:0:
192,192,32605,1,0,0:0:0:0:
64,192,32605,1,0,0:0:0:0:
320,192,32684,1,0,0:0:0:0:
448,192,32763,1,0,0:0:0:0:
192,192,32842,1,0,0:0:0:0:
64,192,32921,1,0,0:0:0:0:
320,192,32921,1,0,0:0:0:0:
448,192,32921,128,0,33079:0:0:0:0:
192,192,33079,1,0,0:0:0:0:
320,192,33158,1,0,0:0:0:0:
448,192,33236,1,0,0:0:0:0:
64,192,33236,1,0,0:0:0:0:
192,192,33315,1,0,0:0:0:0:
320,192,33394,1,0,0:0:0:0:
192,192,33473,1,0,0:0:0:0:
64,192,33552,1,0,0:0:0:0:
320,192,33552,1,0,0:0:0:0:
448,192,33552,128,0,33710:0:0:0:0:
192,192,33710,128,0,33868:0:0:0:0:
64,192,33868,1,0,0:0:0:0:
448,192,33868,1,0,0:0:0:0:
320,192,34026,128,0,34184:0:0:0:0:
192,192,34184,1,0,0:0:0:0:
448,192,34184,128,0,34342:0:0:0:0:
64,192,34184,1,0,0:0:0:0:
64,192,34342,128,0,34500:0:0:0:0:
320,192,34500,1,0,0:0:0:0:
448,192,34500,1,0,0:0:0:0:
192,192,34658,128,0,34815:0:0:0:0:
64,192,34815,128,0,34973:0:0:0:0:
448,192,34815,1,0,0:0:0:0:
320,192,34815,128,0,35131:0:0:0:0:
448,192,34973,128,0,35131:0:0:0:0:
64,192,35131,1,0,0:0:0:0:
192,192,35131,1,0,0:0:0:0:
320,192,35210,1,0,0:0:0:0:
448,192,35289,1,0,0:0:0:0:
192,192,35368,1,0,0:0:0:0:
320,192,35447,1,0,0:0:0:0:
64,192,35447,1,0,0:0:0:0:
448,192,35447,128,0,35605:0:0:0:0:
192,192,35605,1,0,0:0:0:0:
320,192,35684,1,0,0:0:0:0:
448,192,35763,1,0,0:0:0:0:
64,192,35763,1,0,0:0:0:0:
192,192,35842,1,0,0:0:0:0:
320,192,35921,1,0,0:0:0:0:
192,192,36000,1,0,0:0:0:0:
320,192,36079,128,0,36236:0:0:0:0:
448,192,36079,128,0,36394:0:0:0:0:
64,192,36079,1,0,0:0:0:0:
192,192,36236,128,0,36394:0:0:0:0:
320,192,36394,1,0,0:0:0:0:
64,192,36394,128,0,36710:0:0:0:0:
192,192,36552,128,0,36710:0:0:0:0:
448,192,36710,128,0,37026:0:0:0:0:
320,192,36710,1,0,0:0:0:0:
192,192,36789,128,0,36947:0:0:0:0:
64,192,36868,128,0,36947:0:0:0:0:
64,192,37026,128,0,37342:0:0:0:0:
320,192,37026,128,0,37184:0:0:0:0:
192,192,37026,1,0,0:0:0:0:
192,192,37184,128,0,37342:0:0:0:0:
320,192,37342,1,0,0:0:0:0:
448,192,37342,128,0,37500:0:0:0:0:
64,192,37500,128,0,37658:0:0:0:0:
320,192,37658,1,0,0:0:0:0:
448,192,37658,1,0,0:0:0:0:
192,192,37736,1,0,0:0:0:0:
64,192,37815,1,0,0:0:0:0:
320,192,37894,1,0,0:0:0:0:
192,192,37973,1,0,0:0:0:0:
448,192,37973,1,0,0:0:0:0:
64,192,37973,128,0,38131:0:0:0:0:
320,192,38131,1,0,0:0:0:0:
192,192,38210,1,0,0:0:0:0:
64,192,38289,1,0,0:0:0:0:
448,192,38289,1,0,0:0:0:0:
320,192,38368,1,0,0:0:0:0:
192,192,38447,1,0,0:0:0:0:
320,192,38526,1,0,0:0:0:0:
448,192,38605,1,0,0:0:0:0:
192,192,38605,1,0,0:0:0:0:
64,192,38605,128,0,38763:0:0:0:0:
448,192,38763,128,0,38921:0:0:0:0:
192,192,38921,1,0,0:0:0:0:
64,192,38921,1,0,0:0:0:0:
192,192,39079,128,0,39236:0:0:0:0:
320,192,39236,1,0,0:0:0:0:
448,192,39236,128,0,39394:0:0:0:0:
64,192,39236,1,0,0:0:0:0:
64,192,39394,128,0,39552:0:0:0:0:
320,192,39552,1,0,0:0:0:0:
448,192,39552,1,0,0:0:0:0:
192,192,39710,128,0,39868:0:0:0:0:
64,192,39868,128,0,40026:0:0:0:0:
320,192,39868,1,0,0:0:0:0:
448,192,39868,1,0,0:0:0:0:
448,192,40026,128,0,40184:0:0:0:0:
64,192,40184,1,0,0:0:0:0:
192,192,40184,128,0,40342:0:0:0:0:
320,192,40342,1,0,0:0:0:0:
192,192,40421,1,0,0:0:0:0:
64,192,40500,1,0,0:0:0:0:
320,192,40500,1,0,0:0:0:0:
448,192,40500,128,0,40658:0:0:0:0:
192,192,40658,1,0,0:0:0:0:
320,192,40736,1,0,0:0:0:0:
192,192,40815,1,0,0:0:0:0:
64,192,40815,128,0,40973:0:0:0:0:
448,192,40973,5,0,0:0:0:0:
192,192,41052,1,0,0:0:0:0:
64,192,41052,1,0,0:0:0:0:
448,192,41131,128,0,41447:0:0:0:0:
320,192,41131,1,0,0:0:0:0:
64,192,41289,1,0,0:0:0:0:
192,192,41289,1,0,0:0:0:0:
320,192,41447,1,0,0:0:0:0:
64,192,41447,128,0,41605:0:0:0:0:
448,192,41605,128,0,41842:0:0:0:0:
192,192,41605,1,0,0:0:0:0:
320,192,41684,128,0,41842:0:0:0:0:
64,192,41763,128,0,42000:0:0:0:0:
192,192,41842,128,0,42000:0:0:0:0:
320,192,41921,128,0,42079:0:0:0:0:
448,192,42000,128,0,42079:0:0:0:0:
192,192,42079,1,0,0:0:0:0:
64,192,42079,128,0,42394:0:0:0:0:
448,192,42236,128,0,42394:0:0:0:0:
192,192,42394,128,0,42710:0:0:0:0:
320,192,42394,128,0,42473:0:0:0:0:
320,192,42552,128,0,42710:0:0:0:0:
64,192,42710,128,0,43026:0:0:0:0:
448,192,42710,1,0,0:0:0:0:
448,192,42868,128,0,43026:0:0:0:0:
192,192,43026,128,0,43342:0:0:0:0:
320,192,43026,128,0,43105:0:0:0:0:
320,192,43184,128,0,43342:0:0:0:0:
64,192,43342,128,0,43658:0:0:0:0:
448,192,43342,1,0,0:0:0:0:
448,192,43500,128,0,43658:0:0:0:0:
192,192,43658,128,0,43973:0:0:0:0:
320,192,43658,128,0,43736:0:0:0:0:
320,192,43815,128,0,43973:0:0:0:0:
64,192,43973,128,0,44289:0:0:0:0:
448,192,43973,1,0,0:0:0:0:
448,192,44131,128,0,44289:0:0:0:0:
192,192,44289,128,0,44605:0:0:0:0:
320,192,44289,128,0,44368:0:0:0:0:
320,192,44447,128,0,44526:0:0:0:0:
64,192,44526,128,0,44605:0:0:0:0:
320,192,44605,128,0,44842:0:0:0:0:
448,192,44605,128,0,44763:0:0:0:0:
192,192,44684,128,0,44921:0:0:0:0:
64,192,44763,128,0,44921:0:0:0:0:
448,192,44921,128,0,45000:0:0:0:0:
320,192,44921,128,0,45236:0:0:0:0:
448,192,45079,128,0,45236:0:0:0:0:
192,192,45236,128,0,45552:0:0:0:0:
64,192,45236,1,0,0:0:0:0:
64,192,45394,128,0,45552:0:0:0:0:
320,192,45552,128,0,45868:0:0:0:0:
448,192,45552,128,0,45631:0:0:0:0:
448,192,45710,128,0,45868:0:0:0:0:
192,192,45868,128,0,46184:0:0:0:0:
64,192,45868,1,0,0:0:0:0:
64,192,46026,128,0,46184:0:0:0:0:
448,192,46184,128,0,46263:0:0:0:0:
320,192,46184,128,0,46500:0:0:0:0:
448,192,46342,128,0,46500:0:0:0:0:
192,192,46500,128,0,46815:0:0:0:0:
64,192,46500,1,0,0:0:0:0:
64,192,46658,128,0,46815:0:0:0:0:
448,192,46815,128,0,46894:0:0:0:0:
320,192,46815,128,0,47131:0:0:0:0:
448,192,46973,128,0,47131:0:0:0:0:
192,192,47131,128,0,47289:0:0:0:0:
64,192,47131,128,0,47447:0:0:0:0:
448,192,47289,128,0,47447:0:0:0:0:
192,192,47447,128,0,47763:0:0:0:0:
320,192,47447,128,0,47526:0:0:0:0:
320,192,47605,128,0,47763:0:0:0:0:
448,192,47763,128,0,48079:0:0:0:0:
64,192,47763,1,0,0:0:0:0:
64,192,47921,128,0,48079:0:0:0:0:
192,192,48079,128,0,48394:0:0:0:0:
320,192,48079,128,0,48158:0:0:0:0:
320,192,48236,128,0,48394:0:0:0:0:
448,192,48394,128,0,48710:0:0:0:0:
64,192,48394,1,0,0:0:0:0:
64,192,48552,128,0,48710:0:0:0:0:
192,192,48710,128,0,49026:0:0:0:0:
320,192,48710,128,0,48789:0:0:0:0:
320,192,48868,128,0,49026:0:0:0:0:
64,192,49026,1,0,0:0:0:0:
448,192,49026,128,0,49342:0:0:0:0:
64,192,49184,128,0,49342:0:0:0:0:
320,192,49342,128,0,49421:0:0:0:0:
192,192,49342,128,0,49658:0:0:0:0:
320,192,49500,128,0,49579:0:0:0:0:
64,192,49579,128,0,49658:0:0:0:0:
448,192,49658,128,0,49815:0:0:0:0:
320,192,49658,128,0,49894:0:0:0:0:
192,192,49736,128,0,49973:0:0:0:0:
64,192,49815,128,0,49973:0:0:0:0:
320,192,49973,128,0,50289:0:0:0:0:
448,192,49973,128,0,50052:0:0:0:0:
448,192,50131,128,0,50289:0:0:0:0:
192,192,50289,128,0,50605:0:0:0:0:
64,192,50289,1,0,0:0:0:0:
64,192,50447,128,0,50605:0:0:0:0:
448,192,50605,128,0,50684:0:0:0:0:
320,192,50605,128,0,50842:0:0:0:0:
448,192,50763,128,0,50921:0:0:0:0:
64,192,50921,128,0,51236:0:0:0:0:
320,192,50921,128,0,51079:0:0:0:0:
192,192,50921,128,0,51079:0:0:0:0:
448,192,51079,1,0,0:0:0:0:
320,192,51236,128,0,51394:0:0:0:0:
448,192,51236,128,0,51552:0:0:0:0:
192,192,51236,128,0,51394:0:0:0:0:
64,192,51394,1,0,0:0:0:0:
64,192,51552,1,0,0:0:0:0:
320,192,51631,1,0,0:0:0:0:
448,192,51631,1,0,0:0:0:0:
192,192,51710,1,0,0:0:0:0:
448,192,51868,1,0,0:0:0:0:
64,192,51868,1,0,0:0:0:0:
320,192,51868,128,0,52184:0:0:0:0:
64,192,52184,128,0,52500:0:0:0:0:
192,192,52184,1,0,0:0:0:0:
448,192,52184,1,0,0:0:0:0:
192,192,52342,128,0,52500:0:0:0:0:
320,192,52500,128,0,52579:0:0:0:0:
320,192,52658,128,0,52815:0:0:0:0:
192,192,52815,1,0,0:0:0:0:
320,192,52973,128,0,53131:0:0:0:0:
64,192,53131,1,0,0:0:0:0:
448,192,53289,128,0,53447:0:0:0:0:
192,192,53447,1,0,0:0:0:0:
320,192,53605,128,0,53763:0:0:0:0:
64,192,53763,1,0,0:0:0:0:
448,192,53921,128,0,54079:0:0:0:0:
192,192,54079,1,0,0:0:0:0:
320,192,54236,128,0,54394:0:0:0:0:
64,192,54394,128,0,54552:0:0:0:0:
192,192,54394,1,0,0:0:0:0:
320,192,54552,128,0,54631:0:0:0:0:
448,192,54552,128,0,54631:0:0:0:0:
64,192,54631,128,0,54710:0:0:0:0:
192,192,54631,128,0,54710:0:0:0:0:
448,192,54710,128,0,55026:0:0:0:0:
320,192,54710,1,0,0:0:0:0:
320,192,54868,128,0,55026:0:0:0:0:
192,192,55026,128,0,55105:0:0:0:0:
64,192,55026,1,0,0:0:0:0:
192,192,55184,128,0,55342:0:0:0:0:
448,192,55342,1,0,0:0:0:0:
64,192,55342,1,0,0:0:0:0:
192,192,55500,128,0,55658:0:0:0:0:
448,192,55658,1,0,0:0:0:0:
320,192,55658,1,0,0:0:0:0:
64,192,55815,128,0,55973:0:0:0:0:
320,192,55973,1,0,0:0:0:0:
448,192,55973,1,0,0:0:0:0:
192,192,56131,128,0,56289:0:0:0:0:
448,192,56289,1,0,0:0:0:0:
64,192,56289,1,0,0:0:0:0:
192,192,56447,128,0,56605:0:0:0:0:
320,192,56605,1,0,0:0:0:0:
448,192,56605,1,0,0:0:0:0:
64,192,56763,128,0,56921:0:0:0:0:
448,192,56921,128,0,57079:0:0:0:0:
320,192,56921,1,0,0:0:0:0:
192,192,57079,128,0,57236:0:0:0:0:
64,192,57236,1,0,0:0:0:0:
448,192,57236,1,0,0:0:0:0:
320,192,57236,1,0,0:0:0:0:
64,192,57394,1,0,0:0:0:0:
192,192,57394,1,0,0:0:0:0:
320,192,57552,1,0,0:0:0:0:
448,192,57552,1,0,0:0:0:0:
192,192,57631,1,0,0:0:0:0:
320,192,57710,1,0,0:0:0:0:
64,192,57710,1,0,0:0:0:0:
448,192,57789,1,0,0:0:0:0:
192,192,57868,1,0,0:0:0:0:
64,192,57868,1,0,0:0:0:0:
320,192,57947,1,0,0:0:0:0:
448,192,58026,1,0,0:0:0:0:
192,192,58026,1,0,0:0:0:0:
64,192,58105,1,0,0:0:0:0:
320,192,58184,1,0,0:0:0:0:
448,192,58184,1,0,0:0:0:0:
192,192,58263,1,0,0:0:0:0:
64,192,58342,1,0,0:0:0:0:
320,192,58342,1,0,0:0:0:0:
448,192,58421,1,0,0:0:0:0:
192,192,58500,1,0,0:0:0:0:
64,192,58500,1,0,0:0:0:0:
320,192,58658,1,0,0:0:0:0:
448,192,58658,1,0,0:0:0:0:
192,192,58736,1,0,0:0:0:0:
64,192,58815,1,0,0:0:0:0:
448,192,58815,1,0,0:0:0:0:
320,192,58894,1,0,0:0:0:0:
192,192,58973,1,0,0:0:0:0:
64,192,58973,1,0,0:0:0:0:
320,192,59052,1,0,0:0:0:0:
448,192,59131,1,0,0:0:0:0:
64,192,59131,1,0,0:0:0:0:
192,192,59210,1,0,0:0:0:0:
320,192,59289,1,0,0:0:0:0:
448,192,59289,1,0,0:0:0:0:
192,192,59368,1,0,0:0:0:0:
64,192,59447,1,0,0:0:0:0:
448,192,59447,1,0,0:0:0:0:
320,192,59486,1,0,0:0:0:0:
192,192,59526,1,0,0:0:0:0:
64,192,59565,1,0,0:0:0:0:
320,192,59605,1,0,0:0:0:0:
448,192,59658,1,0,0:0:0:0:
192,192,59710,1,0,0:0:0:0:
64,192,59763,1,0,0:0:0:0:
448,192,59763,1,0,0:0:0:0:
320,192,59842,1,0,0:0:0:0:
192,192,59921,1,0,0:0:0:0:
64,192,59921,1,0,0:0:0:0:
448,192,60000,1,0,0:0:0:0:
320,192,60079,1,0,0:0:0:0:
64,192,60158,1,0,0:0:0:0:
192,192,60158,1,0,0:0:0:0:
320,192,60236,1,0,0:0:0:0:
448,192,60236,1,0,0:0:0:0:
64,192,60315,1,0,0:0:0:0:
192,192,60315,1,0,0:0:0:0:
320,192,60394,1,0,0:0:0:0:
448,192,60394,1,0,0:0:0:0:
64,192,60473,1,0,0:0:0:0:
192,192,60552,1,0,0:0:0:0:
320,192,60552,1,0,0:0:0:0:
448,192,60631,1,0,0:0:0:0:
64,192,60710,1,0,0:0:0:0:
192,192,60710,1,0,0:0:0:0:
320,192,60789,1,0,0:0:0:0:
448,192,60789,1,0,0:0:0:0:
192,192,60868,1,0,0:0:0:0:
64,192,60868,1,0,0:0:0:0:
320,192,60947,1,0,0:0:0:0:
448,192,60947,1,0,0:0:0:0:
64,192,61026,1,0,0:0:0:0:
192,192,61026,128,0,61105:0:0:0:0:
320,192,61105,128,0,61184:0:0:0:0:
448,192,61105,1,0,0:0:0:0:
192,192,61184,128,0,61263:0:0:0:0:
320,192,61263,128,0,61342:0:0:0:0:
192,192,61342,1,0,0:0:0:0:
64,192,61342,128,0,61421:0:0:0:0:
448,192,61421,128,0,61500:0:0:0:0:
192,192,61500,128,0,61579:0:0:0:0:
320,192,61579,128,0,61658:0:0:0:0:
448,192,61579,1,0,0:0:0:0:
64,192,61658,128,0,61736:0:0:0:0:
448,192,61736,128,0,61815:0:0:0:0:
192,192,61815,1,0,0:0:0:0:
64,192,61815,128,0,61973:0:0:0:0:
320,192,61894,128,0,61973:0:0:0:0:
192,192,61973,128,0,62289:0:0:0:0:
64,192,62289,1,0,0:0:0:0:
448,192,62289,128,0,62447:0:0:0:0:
320,192,62289,128,0,62605:0:0:0:0:
192,192,62447,128,0,62605:0:0:0:0:
64,192,62605,1,0,0:0:0:0:
448,192,62605,1,0,0:0:0:0:
192,192,62684,1,0,0:0:0:0:
320,192,62763,1,0,0:0:0:0:
192,192,62842,1,0,0:0:0:0:
64,192,62921,1,0,0:0:0:0:
448,192,62921,1,0,0:0:0:0:
320,192,63000,1,0,0:0:0:0:
192,192,63079,1,0,0:0:0:0:
320,192,63158,1,0,0:0:0:0:
448,192,63236,1,0,0:0:0:0:
64,192,63236,1,0,0:0:0:0:
192,192,63315,1,0,0:0:0:0:
320,192,63394,1,0,0:0:0:0:
192,192,63473,1,0,0:0:0:0:
64,192,63552,1,0,0:0:0:0:
448,192,63552,1,0,0:0:0:0:
320,192,63631,1,0,0:0:0:0:
192,192,63710,1,0,0:0:0:0:
448,192,63789,1,0,0:0:0:0:
64,192,63868,1,0,0:0:0:0:
192,192,63868,1,0,0:0:0:0:
320,192,63947,1,0,0:0:0:0:
448,192,64026,1,0,0:0:0:0:
64,192,64026,1,0,0:0:0:0:
192,192,64105,1,0,0:0:0:0:
320,192,64184,1,0,0:0:0:0:
448,192,64184,1,0,0:0:0:0:
64,192,64263,1,0,0:0:0:0:
192,192,64342,1,0,0:0:0:0:
320,192,64421,1,0,0:0:0:0:
192,192,64500,1,0,0:0:0:0:
64,192,64500,128,0,64815:0:0:0:0:
448,192,64579,128,0,64658:0:0:0:0:
320,192,64658,128,0,64736:0:0:0:0:
192,192,64736,128,0,64815:0:0:0:0:
320,192,64815,1,0,0:0:0:0:
448,192,64815,128,0,65131:0:0:0:0:
64,192,64894,128,0,64973:0:0:0:0:
192,192,64973,128,0,65052:0:0:0:0:
320,192,65052,128,0,65131:0:0:0:0:
192,192,65131,1,0,0:0:0:0:
64,192,65131,1,0,0:0:0:0:
320,192,65210,1,0,0:0:0:0:
448,192,65289,1,0,0:0:0:0:
192,192,65368,1,0,0:0:0:0:
64,192,65447,1,0,0:0:0:0:
320,192,65447,1,0,0:0:0:0:
448,192,65526,1,0,0:0:0:0:
64,192,65605,1,0,0:0:0:0:
320,192,65684,1,0,0:0:0:0:
448,192,65763,1,0,0:0:0:0:
192,192,65763,1,0,0:0:0:0:
64,192,65842,1,0,0:0:0:0:
320,192,65921,1,0,0:0:0:0:
448,192,66000,1,0,0:0:0:0:
192,192,66079,1,0,0:0:0:0:
64,192,66079,1,0,0:0:0:0:
320,192,66158,1,0,0:0:0:0:
64,192,66236,1,0,0:0:0:0:
448,192,66315,1,0,0:0:0:0:
192,192,66394,1,0,0:0:0:0:
320,192,66394,1,0,0:0:0:0:
64,192,66473,1,0,0:0:0:0:
448,192,66552,1,0,0:0:0:0:
192,192,66631,1,0,0:0:0:0:
320,192,66710,1,0,0:0:0:0:
448,192,66710,1,0,0:0:0:0:
64,192,66789,1,0,0:0:0:0:
320,192,66868,128,0,66947:0:0:0:0:
192,192,66868,128,0,67026:0:0:0:0:
64,192,66947,128,0,67026:0:0:0:0:
448,192,67026,128,0,67263:0:0:0:0:
320,192,67026,128,0,67184:0:0:0:0:
64,192,67105,128,0,67263:0:0:0:0:
192,192,67184,128,0,67342:0:0:0:0:
320,192,67263,128,0,67342:0:0:0:0:
64,192,67342,128,0,67421:0:0:0:0:
448,192,67342,128,0,67500:0:0:0:0:
192,192,67421,1,0,0:0:0:0:
320,192,67500,1,0,0:0:0:0:
64,192,67579,1,0,0:0:0:0:
192,192,67658,1,0,0:0:0:0:
320,192,67658,1,0,0:0:0:0:
448,192,67736,1,0,0:0:0:0:
192,192,67815,1,0,0:0:0:0:
64,192,67894,1,0,0:0:0:0:
320,192,67973,1,0,0:0:0:0:
448,192,67973,1,0,0:0:0:0:
192,192,68052,1,0,0:0:0:0:
320,192,68131,1,0,0:0:0:0:
64,192,68210,1,0,0:0:0:0:
192,192,68289,1,0,0:0:0:0:
448,192,68289,1,0,0:0:0:0:
320,192,68368,1,0,0:0:0:0:
64,192,68447,1,0,0:0:0:0:
448,192,68526,1,0,0:0:0:0:
64,192,68605,1,0,0:0:0:0:
192,192,68605,1,0,0:0:0:0:
320,192,68684,1,0,0:0:0:0:
192,192,68763,1,0,0:0:0:0:
448,192,68842,1,0,0:0:0:0:
64,192,68921,1,0,0:0:0:0:
320,192,68921,1,0,0:0:0:0:
192,192,69000,1,0,0:0:0:0:
448,192,69079,1,0,0:0:0:0:
320,192,69158,1,0,0:0:0:0:
192,192,69236,128,0,69473:0:0:0:0:
64,192,69236,1,0,0:0:0:0:
448,192,69394,128,0,69552:0:0:0:0:
320,192,69394,128,0,69473:0:0:0:0:
320,192,69552,1,0,0:0:0:0:
64,192,69552,128,0,69789:0:0:0:0:
192,192,69552,128,0,69631:0:0:0:0:
320,192,69710,128,0,69789:0:0:0:0:
448,192,69710,128,0,69868:0:0:0:0:
192,192,69710,128,0,69789:0:0:0:0:
192,192,69868,1,0,0:0:0:0:
64,192,69868,1,0,0:0:0:0:
448,192,69973,1,0,0:0:0:0:
320,192,70026,1,0,0:0:0:0:
192,192,70079,1,0,0:0:0:0:
64,192,70131,1,0,0:0:0:0:
448,192,70184,1,0,0:0:0:0:
320,192,70184,1,0,0:0:0:0:
192,192,70263,1,0,0:0:0:0:
448,192,70342,1,0,0:0:0:0:
64,192,70421,1,0,0:0:0:0:
192,192,70500,1,0,0:0:0:0:
320,192,70500,128,0,70658:0:0:0:0:
448,192,70658,128,0,70736:0:0:0:0:
64,192,70658,128,0,70815:0:0:0:0:
192,192,70736,128,0,70815:0:0:0:0:
448,192,70815,1,0,0:0:0:0:
320,192,70815,128,0,71131:0:0:0:0:
192,192,70894,128,0,70973:0:0:0:0:
64,192,70973,128,0,71052:0:0:0:0:
448,192,71052,128,0,71131:0:0:0:0:
64,192,71131,128,0,71447:0:0:0:0:
192,192,71131,128,0,71210:0:0:0:0:
320,192,71210,1,0,0:0:0:0:
192,192,71289,1,0,0:0:0:0:
320,192,71447,1,0,0:0:0:0:
448,192,71447,1,0,0:0:0:0:
192,192,71447,128,0,71526:0:0:0:0:
64,192,71526,1,0,0:0:0:0:
320,192,71605,128,0,71763:0:0:0:0:
192,192,71684,128,0,71842:0:0:0:0:
64,192,71763,128,0,72000:0:0:0:0:
448,192,71763,1,0,0:0:0:0:
320,192,71842,1,0,0:0:0:0:
192,192,71921,128,0,72079:0:0:0:0:
320,192,72000,128,0,72158:0:0:0:0:
64,192,72079,1,0,0:0:0:0:
448,192,72079,128,0,72315:0:0:0:0:
320,192,72236,128,0,72394:0:0:0:0:
448,192,72394,1,0,0:0:0:0:
64,192,72394,128,0,72552:0:0:0:0:
192,192,72394,128,0,72473:0:0:0:0:
320,192,72473,1,0,0:0:0:0:
192,192,72552,1,0,0:0:0:0:
64,192,72631,1,0,0:0:0:0:
320,192,72710,1,0,0:0:0:0:
448,192,72710,1,0,0:0:0:0:
192,192,72789,1,0,0:0:0:0:
448,192,72868,1,0,0:0:0:0:
64,192,72947,1,0,0:0:0:0:
192,192,73026,1,0,0:0:0:0:
320,192,73026,1,0,0:0:0:0:
448,192,73105,1,0,0:0:0:0:
64,192,73184,1,0,0:0:0:0:
320,192,73263,1,0,0:0:0:0:
192,192,73342,1,0,0:0:0:0:
64,192,73342,1,0,0:0:0:0:
448,192,73421,1,0,0:0:0:0:
192,192,73500,1,0,0:0:0:0:
320,192,73579,1,0,0:0:0:0:
448,192,73658,1,0,0:0:0:0:
64,192,73658,1,0,0:0:0:0:
192,192,73736,1,0,0:0:0:0:
448,192,73815,1,0,0:0:0:0:
320,192,73894,1,0,0:0:0:0:
192,192,73973,1,0,0:0:0:0:
64,192,73973,1,0,0:0:0:0:
448,192,74052,1,0,0:0:0:0:
64,192,74131,1,0,0:0:0:0:
320,192,74210,1,0,0:0:0:0:
192,192,74289,1,0,0:0:0:0:
448,192,74289,1,0,0:0:0:0:
64,192,74368,1,0,0:0:0:0:
320,192,74447,1,0,0:0:0:0:
192,192,74526,1,0,0:0:0:0:
320,192,74605,1,0,0:0:0:0:
448,192,74605,128,0,74921:0:0:0:0:
64,192,74684,128,0,74763:0:0:0:0:
192,192,74763,128,0,74842:0:0:0:0:
320,192,74842,128,0,74921:0:0:0:0:
192,192,74921,1,0,0:0:0:0:
64,192,74921,128,0,75236:0:0:0:0:
448,192,75000,128,0,75079:0:0:0:0:
320,192,75079,128,0,75158:0:0:0:0:
192,192,75158,128,0,75236:0:0:0:0:
320,192,75236,1,0,0:0:0:0:
448,192,75236,1,0,0:0:0:0:
64,192,75315,1,0,0:0:0:0:
192,192,75394,1,0,0:0:0:0:
448,192,75473,1,0,0:0:0:0:
320,192,75552,1,0,0:0:0:0:
192,192,75552,1,0,0:0:0:0:
64,192,75631,1,0,0:0:0:0:
448,192,75710,1,0,0:0:0:0:
192,192,75789,1,0,0:0:0:0:
320,192,75868,1,0,0:0:0:0:
448,192,75868,1,0,0:0:0:0:
64,192,75947,1,0,0:0:0:0:
192,192,76026,1,0,0:0:0:0:
448,192,76105,1,0,0:0:0:0:
320,192,76184,1,0,0:0:0:0:
64,192,76184,1,0,0:0:0:0:
192,192,76263,1,0,0:0:0:0:
448,192,76342,1,0,0:0:0:0:
320,192,76421,1,0,0:0:0:0:
64,192,76500,1,0,0:0:0:0:
192,192,76500,1,0,0:0:0:0:
448,192,76579,1,0,0:0:0:0:
64,192,76658,1,0,0:0:0:0:
192,192,76736,1,0,0:0:0:0:
448,192,76815,1,0,0:0:0:0:
320,192,76815,1,0,0:0:0:0:
64,192,76894,1,0,0:0:0:0:
448,192,76973,1,0,0:0:0:0:
320,192,77052,1,0,0:0:0:0:
64,192,77131,1,0,0:0:0:0:
192,192,77131,1,0,0:0:0:0:
448,192,77236,1,0,0:0:0:0:
320,192,77289,1,0,0:0:0:0:
64,192,77342,1,0,0:0:0:0:
192,192,77394,1,0,0:0:0:0:
448,192,77447,128,0,77763:0:0:0:0:
320,192,77447,128,0,77605:0:0:0:0:
64,192,77763,1,0,0:0:0:0:
320,192,77763,1,0,0:0:0:0:
192,192,77763,1,0,0:0:0:0:
448,192,77842,1,0,0:0:0:0:
64,192,77921,1,0,0:0:0:0:
192,192,78000,1,0,0:0:0:0:
320,192,78079,1,0,0:0:0:0:
448,192,78079,1,0,0:0:0:0:
192,192,78158,1,0,0:0:0:0:
448,192,78236,1,0,0:0:0:0:
64,192,78315,1,0,0:0:0:0:
192,192,78394,1,0,0:0:0:0:
320,192,78394,1,0,0:0:0:0:
448,192,78473,1,0,0:0:0:0:
192,192,78552,1,0,0:0:0:0:
64,192,78631,1,0,0:0:0:0:
320,192,78710,1,0,0:0:0:0:
448,192,78710,1,0,0:0:0:0:
192,192,78789,1,0,0:0:0:0:
320,192,78868,1,0,0:0:0:0:
64,192,78947,1,0,0:0:0:0:
192,192,79026,1,0,0:0:0:0:
448,192,79026,1,0,0:0:0:0:
320,192,79105,1,0,0:0:0:0:
64,192,79184,1,0,0:0:0:0:
192,192,79263,1,0,0:0:0:0:
448,192,79342,1,0,0:0:0:0:
320,192,79342,128,0,79579:0:0:0:0:
64,192,79500,128,0,79658:0:0:0:0:
192,192,79500,128,0,79579:0:0:0:0:
192,192,79658,1,0,0:0:0:0:
448,192,79658,128,0,79894:0:0:0:0:
320,192,79658,128,0,79736:0:0:0:0:
192,192,79815,128,0,79894:0:0:0:0:
64,192,79815,128,0,79973:0:0:0:0:
320,192,79815,128,0,79894:0:0:0:0:
192,192,79973,1,0,0:0:0:0:
320,192,79973,1,0,0:0:0:0:
448,192,79973,128,0,80052:0:0:0:0:
192,192,80131,128,0,80210:0:0:0:0:
64,192,80131,128,0,80210:0:0:0:0:
448,192,80289,1,0,0:0:0:0:
64,192,80289,1,0,0:0:0:0:
320,192,80289,128,0,80447:0:0:0:0:
192,192,80368,128,0,80447:0:0:0:0:
448,192,80447,128,0,80526:0:0:0:0:
320,192,80605,1,0,0:0:0:0:
192,192,80605,128,0,80684:0:0:0:0:
64,192,80605,128,0,80763:0:0:0:0:
320,192,80763,128,0,80921:0:0:0:0:
192,192,80921,1,0,0:0:0:0:
64,192,80921,1,0,0:0:0:0:
448,192,80921,1,0,0:0:0:0:
448,192,81079,128,0,81236:0:0:0:0:
320,192,81236,1,0,0:0:0:0:
192,192,81236,1,0,0:0:0:0:
64,192,81236,128,0,81315:0:0:0:0:
448,192,81315,128,0,81394:0:0:0:0:
192,192,81394,128,0,81473:0:0:0:0:
448,192,81473,1,0,0:0:0:0:
320,192,81473,128,0,81552:0:0:0:0:
192,192,81552,128,0,81631:0:0:0:0:
64,192,81552,128,0,81710:0:0:0:0:
448,192,81710,128,0,81868:0:0:0:0:
320,192,81789,128,0,81868:0:0:0:0:
64,192,81868,128,0,81947:0:0:0:0:
192,192,81868,128,0,82026:0:0:0:0:
320,192,81947,128,0,82105:0:0:0:0:
448,192,82026,128,0,82184:0:0:0:0:
320,192,82184,1,0,0:0:0:0:
64,192,82184,128,0,82421:0:0:0:0:
192,192,82184,128,0,82421:0:0:0:0:
192,192,82500,1,0,0:0:0:0:
64,192,82500,1,0,0:0:0:0:
320,192,82500,1,0,0:0:0:0:
448,192,82500,128,0,82658:0:0:0:0:
320,192,82658,1,0,0:0:0:0:
192,192,82815,128,0,82973:0:0:0:0:
64,192,82815,1,0,0:0:0:0:
448,192,82815,1,0,0:0:0:0:
320,192,82973,128,0,83131:0:0:0:0:
448,192,83131,1,0,0:0:0:0:
192,192,83131,1,0,0:0:0:0:
64,192,83289,128,0,83447:0:0:0:0:
320,192,83447,1,0,0:0:0:0:
448,192,83447,1,0,0:0:0:0:
192,192,83447,1,0,0:0:0:0:
448,192,83605,128,0,84079:0:0:0:0:
64,192,83763,1,0,0:0:0:0:
320,192,83763,128,0,83921:0:0:0:0:
192,192,83921,1,0,0:0:0:0:
320,192,84079,1,0,0:0:0:0:
192,192,84079,1,0,0:0:0:0:
64,192,84079,128,0,84236:0:0:0:0:
320,192,84236,128,0,84394:0:0:0:0:
64,192,84394,1,0,0:0:0:0:
192,192,84394,128,0,84552:0:0:0:0:
448,192,84552,128,0,84710:0:0:0:0:
320,192,84710,1,0,0:0:0:0:
192,192,84710,1,0,0:0:0:0:
64,192,84710,128,0,84868:0:0:0:0:
320,192,84868,128,0,85026:0:0:0:0:
192,192,85026,128,0,85184:0:0:0:0:
448,192,85026,1,0,0:0:0:0:
448,192,85184,128,0,85342:0:0:0:0:
320,192,85342,1,0,0:0:0:0:
192,192,85342,1,0,0:0:0:0:
64,192,85342,1,0,0:0:0:0:
64,192,85500,128,0,85658:0:0:0:0:
448,192,85658,1,0,0:0:0:0:
320,192,85658,128,0,85973:0:0:0:0:
192,192,85815,1,0,0:0:0:0:
192,192,85973,1,0,0:0:0:0:
64,192,85973,1,0,0:0:0:0:
448,192,85973,1,0,0:0:0:0:
64,192,86131,128,0,86289:0:0:0:0:
192,192,86289,128,0,86526:0:0:0:0:
320,192,86289,128,0,86368:0:0:0:0:
448,192,86289,128,0,86368:0:0:0:0:
448,192,86447,128,0,86605:0:0:0:0:
192,192,86605,128,0,86684:0:0:0:0:
64,192,86605,128,0,86684:0:0:0:0:
320,192,86605,128,0,86842:0:0:0:0:
64,192,86763,128,0,86921:0:0:0:0:
320,192,86921,128,0,87000:0:0:0:0:
192,192,86921,128,0,87000:0:0:0:0:
448,192,86921,128,0,87236:0:0:0:0:
320,192,87079,128,0,87236:0:0:0:0:
192,192,87236,1,0,0:0:0:0:
64,192,87236,1,0,0:0:0:0:
448,192,87315,1,0,0:0:0:0:
64,192,87394,1,0,0:0:0:0:
192,192,87394,1,0,0:0:0:0:
320,192,87473,1,0,0:0:0:0:
192,192,87552,1,0,0:0:0:0:
448,192,87552,1,0,0:0:0:0:
64,192,87552,128,0,87710:0:0:0:0:
320,192,87710,1,0,0:0:0:0:
448,192,87868,1,0,0:0:0:0:
64,192,87868,1,0,0:0:0:0:
320,192,87868,128,0,88026:0:0:0:0:
192,192,88026,128,0,88184:0:0:0:0:
64,192,88184,1,0,0:0:0:0:
448,192,88184,1,0,0:0:0:0:
320,192,88342,128,0,88500:0:0:0:0:
192,192,88500,1,0,0:0:0:0:
64,192,88500,1,0,0:0:0:0:
448,192,88500,1,0,0:0:0:0:
448,192,88658,128,0,88973:0:0:0:0:
192,192,88815,1,0,0:0:0:0:
64,192,88815,128,0,88973:0:0:0:0:
320,192,88973,128,0,89131:0:0:0:0:
192,192,89131,128,0,89289:0:0:0:0:
64,192,89131,1,0,0:0:0:0:
448,192,89131,1,0,0:0:0:0:
448,192,89289,128,0,89447:0:0:0:0:
192,192,89447,1,0,0:0:0:0:
64,192,89447,128,0,89605:0:0:0:0:
320,192,89605,128,0,89763:0:0:0:0:
192,192,89763,128,0,89921:0:0:0:0:
64,192,89763,1,0,0:0:0:0:
448,192,89763,1,0,0:0:0:0:
448,192,89921,128,0,90079:0:0:0:0:
64,192,90079,128,0,90236:0:0:0:0:
320,192,90079,1,0,0:0:0:0:
320,192,90236,128,0,90394:0:0:0:0:
192,192,90394,1,0,0:0:0:0:
64,192,90394,1,0,0:0:0:0:
448,192,90394,1,0,0:0:0:0:
192,192,90552,128,0,90710:0:0:0:0:
320,192,90710,1,0,0:0:0:0:
448,192,90710,128,0,90868:0:0:0:0:
64,192,90868,1,0,0:0:0:0:
448,192,91026,1,0,0:0:0:0:
192,192,91026,1,0,0:0:0:0:
64,192,91026,128,0,91184:0:0:0:0:
320,192,91184,128,0,91342:0:0:0:0:
64,192,91342,1,0,0:0:0:0:
448,192,91342,1,0,0:0:0:0:
192,192,91342,128,0,91658:0:0:0:0:
320,192,91500,1,0,0:0:0:0:
64,192,91658,1,0,0:0:0:0:
320,192,91658,1,0,0:0:0:0:
448,192,91658,1,0,0:0:0:0:
448,192,91815,1,0,0:0:0:0:
192,192,91815,1,0,0:0:0:0:
320,192,91973,128,0,92131:0:0:0:0:
64,192,92131,1,0,0:0:0:0:
192,192,92131,128,0,92289:0:0:0:0:
64,192,92289,1,0,0:0:0:0:
448,192,92289,128,0,92526:0:0:0:0:
320,192,92289,128,0,92368:0:0:0:0:
320,192,92447,128,0,92526:0:0:0:0:
192,192,92447,1,0,0:0:0:0:
192,192,92605,1,0,0:0:0:0:
320,192,92605,1,0,0:0:0:0:
448,192,92605,1,0,0:0:0:0:
64,192,92605,128,0,92763:0:0:0:0:
448,192,92763,1,0,0:0:0:0:
320,192,92921,1,0,0:0:0:0:
64,192,92921,1,0,0:0:0:0:
192,192,92921,128,0,93079:0:0:0:0:
448,192,93079,128,0,93236:0:0:0:0:
192,192,93236,1,0,0:0:0:0:
64,192,93236,1,0,0:0:0:0:
320,192,93394,128,0,93552:0:0:0:0:
64,192,93552,1,0,0:0:0:0:
192,192,93552,1,0,0:0:0:0:
448,192,93552,1,0,0:0:0:0:
64,192,93710,128,0,94184:0:0:0:0:
448,192,93868,1,0,0:0:0:0:
192,192,93868,128,0,94026:0:0:0:0:
320,192,94026,1,0,0:0:0:0:
448,192,94184,128,0,94342:0:0:0:0:
192,192,94184,1,0,0:0:0:0:
320,192,94184,1,0,0:0:0:0:
192,192,94342,128,0,94500:0:0:0:0:
320,192,94500,128,0,94658:0:0:0:0:
448,192,94500,1,0,0:0:0:0:
64,192,94658,128,0,94815:0:0:0:0:
192,192,94815,1,0,0:0:0:0:
320,192,94815,1,0,0:0:0:0:
448,192,94815,128,0,94973:0:0:0:0:
192,192,94973,128,0,95131:0:0:0:0:
64,192,95131,1,0,0:0:0:0:
320,192,95131,128,0,95289:0:0:0:0:
64,192,95289,128,0,95447:0:0:0:0:
192,192,95447,1,0,0:0:0:0:
320,192,95447,1,0,0:0:0:0:
448,192,95447,1,0,0:0:0:0:
448,192,95605,128,0,95763:0:0:0:0:
192,192,95763,128,0,95921:0:0:0:0:
64,192,95763,1,0,0:0:0:0:
320,192,95921,1,0,0:0:0:0:
448,192,96079,1,0,0:0:0:0:
64,192,96079,1,0,0:0:0:0:
320,192,96079,128,0,96236:0:0:0:0:
64,192,96236,128,0,96394:0:0:0:0:
192,192,96394,1,0,0:0:0:0:
448,192,96394,1,0,0:0:0:0:
320,192,96552,1,0,0:0:0:0:
64,192,96710,1,0,0:0:0:0:
448,192,96710,1,0,0:0:0:0:
192,192,96710,128,0,96868:0:0:0:0:
320,192,96868,128,0,97026:0:0:0:0:
64,192,97026,1,0,0:0:0:0:
448,192,97026,1,0,0:0:0:0:
192,192,97184,128,0,97342:0:0:0:0:
448,192,97342,128,0,97421:0:0:0:0:
64,192,97342,1,0,0:0:0:0:
320,192,97342,1,0,0:0:0:0:
192,192,97421,128,0,97500:0:0:0:0:
320,192,97500,128,0,97579:0:0:0:0:
64,192,97579,128,0,97658:0:0:0:0:
192,192,97658,1,0,0:0:0:0:
320,192,97658,1,0,0:0:0:0:
448,192,97658,128,0,97815:0:0:0:0:
64,192,97815,1,0,0:0:0:0:
192,192,97973,1,0,0:0:0:0:
448,192,97973,1,0,0:0:0:0:
320,192,97973,1,0,0:0:0:0:
64,192,98131,128,0,98289:0:0:0:0:
320,192,98289,1,0,0:0:0:0:
448,192,98289,1,0,0:0:0:0:
192,192,98447,128,0,98605:0:0:0:0:
448,192,98605,1,0,0:0:0:0:
64,192,98605,1,0,0:0:0:0:
320,192,98605,1,0,0:0:0:0:
320,192,98763,128,0,99079:0:0:0:0:
64,192,98921,1,0,0:0:0:0:
192,192,98921,128,0,99079:0:0:0:0:
448,192,99079,128,0,99236:0:0:0:0:
320,192,99236,1,0,0:0:0:0:
192,192,99236,1,0,0:0:0:0:
64,192,99236,128,0,99394:0:0:0:0:
320,192,99394,128,0,99552:0:0:0:0:
64,192,99552,1,0,0:0:0:0:
448,192,99552,1,0,0:0:0:0:
192,192,99710,128,0,99868:0:0:0:0:
64,192,99868,1,0,0:0:0:0:
320,192,99868,1,0,0:0:0:0:
448,192,99868,1,0,0:0:0:0:
64,192,100026,128,0,100184:0:0:0:0:
192,192,100184,1,0,0:0:0:0:
448,192,100184,1,0,0:0:0:0:
320,192,100263,5,0,0:0:0:0:
64,192,100342,1,0,0:0:0:0:
448,192,100421,1,0,0:0:0:0:
320,192,100500,1,0,0:0:0:0:
192,192,100500,1,0,0:0:0:0:
64,192,100579,1,0,0:0:0:0:
448,192,100658,1,0,0:0:0:0:
192,192,100736,1,0,0:0:0:0:
448,192,100815,1,0,0:0:0:0:
320,192,100815,1,0,0:0:0:0:
64,192,100894,1,0,0:0:0:0:
192,192,100973,1,0,0:0:0:0:
448,192,101052,1,0,0:0:0:0:
192,192,101131,1,0,0:0:0:0:
320,192,101131,1,0,0:0:0:0:
64,192,101210,1,0,0:0:0:0:
320,192,101289,1,0,0:0:0:0:
192,192,101368,1,0,0:0:0:0:
448,192,101447,128,0,101763:0:0:0:0:
64,192,101447,1,0,0:0:0:0:
320,192,101605,128,0,101763:0:0:0:0:
64,192,101763,128,0,102079:0:0:0:0:
192,192,101842,128,0,102079:0:0:0:0:
320,192,101921,1,0,0:0:0:0:
448,192,101921,1,0,0:0:0:0:
448,192,102079,128,0,102394:0:0:0:0:
320,192,102158,128,0,102394:0:0:0:0:
192,192,102236,1,0,0:0:0:0:
64,192,102236,1,0,0:0:0:0:
64,192,102394,128,0,102631:0:0:0:0:
192,192,102394,128,0,102631:0:0:0:0:
320,192,102552,128,0,102631:0:0:0:0:
448,192,102552,128,0,102631:0:0:0:0:
64,192,102710,1,0,0:0:0:0:
192,192,102710,1,0,0:0:0:0:
320,192,102710,1,0,0:0:0:0:
448,192,102710,1,0,0:0:0:0:
192,192,103026,1,0,0:0:0:0:
64,192,103026,1,0,0:0:0:0:
64,192,103500,1,0,0:0:0:0:
320,192,103658,1,0,0:0:0:0:
448,192,103658,1,0,0:0:0:0:
448,192,104131,1,0,0:0:0:0:
192,192,104289,1,0,0:0:0:0:
64,192,104289,1,0,0:0:0:0:
64,192,104763,1,0,0:0:0:0:
320,192,104921,1,0,0:0:0:0:
448,192,104921,1,0,0:0:0:0:
192,192,105236,1,0,0:0:0:0:
448,192,105552,1,0,0:0:0:0:
64,192,105552,1,0,0:0:0:0:
320,192,106026,1,0,0:0:0:0:
64,192,106184,1,0,0:0:0:0:
448,192,106184,1,0,0:0:0:0:
192,192,106658,1,0,0:0:0:0:
64,192,106815,1,0,0:0:0:0:
448,192,106815,1,0,0:0:0:0:
320,192,107289,1,0,0:0:0:0:
64,192,107447,1,0,0:0:0:0:
448,192,107447,1,0,0:0:0:0:
192,192,107763,1,0,0:0:0:0:
320,192,108079,1,0,0:0:0:0:
448,192,108079,1,0,0:0:0:0:
320,192,108552,1,0,0:0:0:0:
192,192,108710,1,0,0:0:0:0:
64,192,108710,1,0,0:0:0:0:
192,192,109184,1,0,0:0:0:0:
320,192,109342,1,0,0:0:0:0:
448,192,109342,1,0,0:0:0:0:
320,192,109815,1,0,0:0:0:0:
192,192,109973,1,0,0:0:0:0:
64,192,109973,1,0,0:0:0:0:
64,192,110289,1,0,0:0:0:0:
320,192,110605,1,0,0:0:0:0:
448,192,110605,1,0,0:0:0:0:
448,192,111079,1,0,0:0:0:0:
192,192,111236,1,0,0:0:0:0:
64,192,111236,1,0,0:0:0:0:
64,192,111710,1,0,0:0:0:0:
320,192,111868,1,0,0:0:0:0:
448,192,111868,1,0,0:0:0:0:
192,192,112026,1,0,0:0:0:0:
64,192,112184,1,0,0:0:0:0:
448,192,112342,1,0,0:0:0:0:
192,192,112500,1,0,0:0:0:0:
64,192,112500,1,0,0:0:0:0:
320,192,112579,1,0,0:0:0:0:
448,192,112658,1,0,0:0:0:0:
192,192,112736,1,0,0:0:0:0:
320,192,112815,1,0,0:0:0:0:
64,192,112815,128,0,112973:0:0:0:0:
448,192,112815,128,0,113131:0:0:0:0:
192,192,112894,128,0,113052:0:0:0:0:
320,192,112973,128,0,113131:0:0:0:0:
64,192,113131,1,0,0:0:0:0:
192,192,113131,1,0,0:0:0:0:
448,192,113289,1,0,0:0:0:0:
320,192,113447,1,0,0:0:0:0:
64,192,113605,1,0,0:0:0:0:
192,192,113605,1,0,0:0:0:0:
448,192,113763,1,0,0:0:0:0:
320,192,113763,1,0,0:0:0:0:
64,192,113921,1,0,0:0:0:0:
448,192,114079,1,0,0:0:0:0:
192,192,114236,1,0,0:0:0:0:
320,192,114236,1,0,0:0:0:0:
64,192,114394,1,0,0:0:0:0:
448,192,114394,1,0,0:0:0:0:
192,192,114552,1,0,0:0:0:0:
320,192,114710,1,0,0:0:0:0:
192,192,114868,1,0,0:0:0:0:
64,192,114868,1,0,0:0:0:0:
320,192,115026,1,0,0:0:0:0:
448,192,115026,1,0,0:0:0:0:
64,192,115184,1,0,0:0:0:0:
448,192,115342,1,0,0:0:0:0:
320,192,115342,128,0,115658:0:0:0:0:
192,192,115500,128,0,115658:0:0:0:0:
448,192,115658,1,0,0:0:0:0:
64,192,115658,1,0,0:0:0:0:
320,192,115815,128,0,115973:0:0:0:0:
192,192,115973,128,0,116131:0:0:0:0:
448,192,116131,1,0,0:0:0:0:
320,192,116131,128,0,116289:0:0:0:0:
192,192,116289,1,0,0:0:0:0:
64,192,116289,128,0,116605:0:0:0:0:
448,192,116447,128,0,116763:0:0:0:0:
320,192,116605,128,0,116763:0:0:0:0:
64,192,116763,1,0,0:0:0:0:
192,192,116763,128,0,117079:0:0:0:0:
448,192,116921,1,0,0:0:0:0:
320,192,116921,128,0,117079:0:0:0:0:
64,192,117079,128,0,117394:0:0:0:0:
192,192,117236,128,0,117394:0:0:0:0:
448,192,117394,1,0,0:0:0:0:
320,192,117394,128,0,117710:0:0:0:0:
64,192,117552,1,0,0:0:0:0:
192,192,117552,128,0,117631:0:0:0:0:
448,192,117631,128,0,117710:0:0:0:0:
64,192,117710,128,0,117789:0:0:0:0:
192,192,117789,128,0,117868:0:0:0:0:
64,192,117868,1,0,0:0:0:0:
448,192,117868,128,0,118184:0:0:0:0:
320,192,117868,1,0,0:0:0:0:
192,192,118026,1,0,0:0:0:0:
320,192,118184,1,0,0:0:0:0:
64,192,118184,1,0,0:0:0:0:
192,192,118342,1,0,0:0:0:0:
448,192,118500,1,0,0:0:0:0:
192,192,118658,1,0,0:0:0:0:
64,192,118658,1,0,0:0:0:0:
320,192,118815,1,0,0:0:0:0:
448,192,118815,1,0,0:0:0:0:
64,192,118973,1,0,0:0:0:0:
192,192,119131,1,0,0:0:0:0:
320,192,119289,1,0,0:0:0:0:
448,192,119289,1,0,0:0:0:0:
192,192,119447,1,0,0:0:0:0:
64,192,119447,1,0,0:0:0:0:
448,192,119605,1,0,0:0:0:0:
320,192,119763,1,0,0:0:0:0:
192,192,119921,1,0,0:0:0:0:
64,192,119921,1,0,0:0:0:0:
320,192,120079,1,0,0:0:0:0:
448,192,120079,1,0,0:0:0:0:
64,192,120236,1,0,0:0:0:0:
448,192,120394,1,0,0:0:0:0:
320,192,120394,1,0,0:0:0:0:
192,192,120473,1,0,0:0:0:0:
64,192,120552,1,0,0:0:0:0:
320,192,120631,1,0,0:0:0:0:
448,192,120710,1,0,0:0:0:0:
192,192,120710,1,0,0:0:0:0:
64,192,120789,1,0,0:0:0:0:
320,192,120868,1,0,0:0:0:0:
448,192,120947,1,0,0:0:0:0:
192,192,121026,1,0,0:0:0:0:
320,192,121105,1,0,0:0:0:0:
64,192,121184,1,0,0:0:0:0:
192,192,121263,1,0,0:0:0:0:
320,192,121342,1,0,0:0:0:0:
448,192,121342,1,0,0:0:0:0:
64,192,121421,1,0,0:0:0:0:
448,192,121500,1,0,0:0:0:0:
320,192,121579,1,0,0:0:0:0:
64,192,121658,1,0,0:0:0:0:
192,192,121658,1,0,0:0:0:0:
448,192,121658,128,0,121894:0:0:0:0:
320,192,121736,128,0,121973:0:0:0:0:
192,192,121815,128,0,122052:0:0:0:0:
64,192,121894,128,0,122131:0:0:0:0:
448,192,121973,128,0,122210:0:0:0:0:
320,192,122052,128,0,122289:0:0:0:0:
192,192,122131,128,0,122368:0:0:0:0:
64,192,122210,128,0,122447:0:0:0:0:
448,192,122289,128,0,122447:0:0:0:0:
320,192,122368,128,0,122526:0:0:0:0:
192,192,122447,128,0,122605:0:0:0:0:
64,192,122605,1,0,0:0:0:0:
448,192,122605,1,0,0:0:0:0:
320,192,122684,1,0,0:0:0:0:
192,192,122763,1,0,0:0:0:0:
448,192,122842,1,0,0:0:0:0:
64,192,122921,128,0,123000:0:0:0:0:
192,192,122921,128,0,123236:0:0:0:0:
320,192,122921,128,0,123079:0:0:0:0:
64,192,123079,128,0,123236:0:0:0:0:
320,192,123236,128,0,123394:0:0:0:0:
448,192,123236,128,0,123394:0:0:0:0:
192,192,123394,1,0,0:0:0:0:
64,192,123552,128,0,123631:0:0:0:0:
448,192,123552,128,0,123868:0:0:0:0:
64,192,123710,128,0,123868:0:0:0:0:
192,192,123868,128,0,124026:0:0:0:0:
320,192,123868,128,0,124026:0:0:0:0:
64,192,124026,1,0,0:0:0:0:
320,192,124184,128,0,124263:0:0:0:0:
448,192,124184,128,0,124500:0:0:0:0:
320,192,124342,128,0,124500:0:0:0:0:
192,192,124500,128,0,124658:0:0:0:0:
64,192,124500,128,0,124658:0:0:0:0:
320,192,124658,1,0,0:0:0:0:
448,192,124815,128,0,124894:0:0:0:0:
64,192,124815,128,0,125131:0:0:0:0:
448,192,124973,128,0,125131:0:0:0:0:
320,192,125131,128,0,125289:0:0:0:0:
192,192,125131,128,0,125289:0:0:0:0:
448,192,125289,1,0,0:0:0:0:
192,192,125447,128,0,125763:0:0:0:0:
64,192,125447,128,0,125526:0:0:0:0:
64,192,125605,128,0,125763:0:0:0:0:
320,192,125763,128,0,125921:0:0:0:0:
448,192,125763,128,0,125921:0:0:0:0:
192,192,125921,1,0,0:0:0:0:
64,192,126079,128,0,126158:0:0:0:0:
448,192,126079,128,0,126394:0:0:0:0:
64,192,126236,128,0,126394:0:0:0:0:
320,192,126394,128,0,126552:0:0:0:0:
192,192,126394,128,0,126552:0:0:0:0:
64,192,126552,1,0,0:0:0:0:
448,192,126710,128,0,126789:0:0:0:0:
320,192,126710,1,0,0:0:0:0:
192,192,126789,128,0,126868:0:0:0:0:
448,192,126868,128,0,126947:0:0:0:0:
192,192,126947,128,0,127026:0:0:0:0:
320,192,127026,1,0,0:0:0:0:
64,192,127026,128,0,127105:0:0:0:0:
448,192,127105,128,0,127184:0:0:0:0:
64,192,127184,128,0,127263:0:0:0:0:
448,192,127263,128,0,127342:0:0:0:0:
192,192,127342,128,0,127421:0:0:0:0:
64,192,127342,128,0,127500:0:0:0:0:
320,192,127500,128,0,127579:0:0:0:0:
192,192,127500,128,0,127658:0:0:0:0:
64,192,127658,1,0,0:0:0:0:
320,192,127658,128,0,127973:0:0:0:0:
448,192,127658,128,0,127815:0:0:0:0:
192,192,127815,128,0,127973:0:0:0:0:
64,192,127973,128,0,128131:0:0:0:0:
448,192,127973,128,0,128289:0:0:0:0:
320,192,128131,128,0,128289:0:0:0:0:
192,192,128289,128,0,128368:0:0:0:0:
64,192,128289,128,0,128368:0:0:0:0:
64,192,128447,128,0,128526:0:0:0:0:
448,192,128447,128,0,128526:0:0:0:0:
320,192,128605,128,0,128684:0:0:0:0:
448,192,128605,128,0,128684:0:0:0:0:
192,192,128763,128,0,128842:0:0:0:0:
64,192,128763,128,0,128842:0:0:0:0:
64,192,128921,128,0,129000:0:0:0:0:
320,192,128921,128,0,129000:0:0:0:0:
320,192,129079,128,0,129158:0:0:0:0:
448,192,129079,128,0,129158:0:0:0:0:
64,192,129236,128,0,129315:0:0:0:0:
448,192,129236,1,0,0:0:0:0:
192,192,129236,128,0,129315:0:0:0:0:
320,192,129315,1,0,0:0:0:0:
64,192,129394,128,0,129552:0:0:0:0:
192,192,129394,128,0,129552:0:0:0:0:
320,192,129552,128,0,129631:0:0:0:0:
448,192,129552,128,0,129631:0:0:0:0:
192,192,129710,128,0,129789:0:0:0:0:
64,192,129710,128,0,129789:0:0:0:0:
320,192,129868,128,0,129947:0:0:0:0:
448,192,129868,128,0,129947:0:0:0:0:
448,192,130026,128,0,130105:0:0:0:0:
64,192,130026,128,0,130105:0:0:0:0:
192,192,130184,128,0,130263:0:0:0:0:
64,192,130184,128,0,130263:0:0:0:0:
320,192,130342,128,0,130421:0:0:0:0:
448,192,130342,128,0,130421:0:0:0:0:
64,192,130500,1,0,0:0:0:0:
192,192,130500,128,0,130579:0:0:0:0:
320,192,130579,128,0,130658:0:0:0:0:
192,192,130658,128,0,130736:0:0:0:0:
320,192,130736,128,0,130815:0:0:0:0:
192,192,130815,128,0,130894:0:0:0:0:
320,192,130894,128,0,130973:0:0:0:0:
192,192,130973,128,0,131052:0:0:0:0:
320,192,131052,128,0,131131:0:0:0:0:
64,192,131131,128,0,131210:0:0:0:0:
448,192,131210,128,0,131289:0:0:0:0:
64,192,131289,128,0,131368:0:0:0:0:
448,192,131368,128,0,131447:0:0:0:0:
64,192,131447,128,0,131526:0:0:0:0:
448,192,131526,128,0,131605:0:0:0:0:
64,192,131605,128,0,131684:0:0:0:0:
448,192,131684,128,0,131763:0:0:0:0:
64,192,131763,1,0,0:0:0:0:
192,192,131763,128,0,131921:0:0:0:0:
320,192,131842,128,0,131921:0:0:0:0:
320,192,132079,128,0,132236:0:0:0:0:
448,192,132158,128,0,132236:0:0:0:0:
320,192,132394,128,0,132552:0:0:0:0:
192,192,132473,128,0,132552:0:0:0:0:
192,192,132710,128,0,132868:0:0:0:0:
64,192,132789,128,0,132868:0:0:0:0:
64,192,133026,1,0,0:0:0:0:
448,192,133026,128,0,133342:0:0:0:0:
320,192,133026,128,0,133184:0:0:0:0:
192,192,133342,1,0,0:0:0:0:
64,192,133342,128,0,133500:0:0:0:0:
320,192,133500,128,0,133658:0:0:0:0:
192,192,133658,1,0,0:0:0:0:
448,192,133815,128,0,133973:0:0:0:0:
320,192,133973,1,0,0:0:0:0:
64,192,133973,1,0,0:0:0:0:
192,192,134131,128,0,134289:0:0:0:0:
320,192,134210,1,0,0:0:0:0:
448,192,134289,1,0,0:0:0:0:
64,192,134289,1,0,0:0:0:0:
320,192,134368,1,0,0:0:0:0:
192,192,134368,1,0,0:0:0:0:
64,192,134526,1,0,0:0:0:0:
192,192,134526,1,0,0:0:0:0:
320,192,134605,1,0,0:0:0:0:
448,192,134605,1,0,0:0:0:0:
320,192,134763,1,0,0:0:0:0:
448,192,134763,1,0,0:0:0:0:
192,192,134842,1,0,0:0:0:0:
64,192,134842,1,0,0:0:0:0:
448,192,134921,1,0,0:0:0:0:
64,192,135000,1,0,0:0:0:0:
192,192,135079,1,0,0:0:0:0:
320,192,135079,1,0,0:0:0:0:
448,192,135158,1,0,0:0:0:0:
64,192,135236,1,0,0:0:0:0:
320,192,135315,1,0,0:0:0:0:
192,192,135394,1,0,0:0:0:0:
64,192,135394,1,0,0:0:0:0:
320,192,135473,1,0,0:0:0:0:
448,192,135552,1,0,0:0:0:0:
64,192,135552,128,0,135868:0:0:0:0:
192,192,135552,128,0,135710:0:0:0:0:
320,192,135710,128,0,135868:0:0:0:0:
448,192,135710,1,0,0:0:0:0:
448,192,135868,128,0,136184:0:0:0:0:
192,192,135868,128,0,136026:0:0:0:0:
64,192,136026,128,0,136184:0:0:0:0:
320,192,136026,1,0,0:0:0:0:
192,192,136184,128,0,136500:0:0:0:0:
320,192,136184,128,0,136342:0:0:0:0:
448,192,136342,128,0,136500:0:0:0:0:
64,192,136342,1,0,0:0:0:0:
320,192,136500,128,0,136815:0:0:0:0:
64,192,136500,128,0,136658:0:0:0:0:
192,192,136658,128,0,136815:0:0:0:0:
448,192,136658,1,0,0:0:0:0:
448,192,136815,1,0,0:0:0:0:
64,192,136815,1,0,0:0:0:0:
192,192,136934,1,0,0:0:0:0:
320,192,137013,1,0,0:0:0:0:
64,192,137092,1,0,0:0:0:0:
448,192,137171,1,0,0:0:0:0:
320,192,137250,1,0,0:0:0:0:
192,192,137329,1,0,0:0:0:0:
320,192,137447,1,0,0:0:0:0:
64,192,137526,1,0,0:0:0:0:
448,192,137605,1,0,0:0:0:0:
448,192,137723,1,0,0:0:0:0:
192,192,137881,1,0,0:0:0:0:
192,192,138026,1,0,0:0:0:0:
448,192,138079,1,0,0:0:0:0:
64,192,138079,128,0,138394:0:0:0:0:
448,192,138394,128,0,138710:0:0:0:0:
192,192,138710,128,0,138868:0:0:0:0:
320,192,138868,128,0,139026:0:0:0:0:
448,192,139026,128,0,139184:0:0:0:0:
192,192,139184,128,0,139342:0:0:0:0:
64,192,139342,128,0,139658:0:0:0:0:
320,192,139658,128,0,139894:0:0:0:0:
192,192,139894,128,0,140131:0:0:0:0:
448,192,140131,128,0,140842:0:0:0:0:
64,192,140842,128,0,141552:0:0:0:0:
64,192,141631,128,0,141789:0:0:0:0:
320,192,141789,128,0,141947:0:0:0:0:
192,192,141947,128,0,142105:0:0:0:0:
448,192,142105,128,0,142500:0:0:0:0:
64,192,142500,1,0,0:0:0:0:
192,192,142500,1,0,0:0:0:0:
320,192,142579,1,0,0:0:0:0:
448,192,142815,1,0,0:0:0:0:
320,192,142815,1,0,0:0:0:0:
192,192,142894,1,0,0:0:0:0:
192,192,143131,1,0,0:0:0:0:
64,192,143131,1,0,0:0:0:0:
320,192,143131,1,0,0:0:0:0:
448,192,143131,1,0,0:0:0:0:
192,192,144079,1,0,0:0:0:0:
320,192,144236,1,0,0:0:0:0:
64,192,144421,1,0,0:0:0:0:
448,192,145131,1,0,0:0:0:0:
192,192,145315,1,0,0:0:0:0:
320,192,145421,1,0,0:0:0:0:
192,192,145631,128,0,145710:0:0:0:0:
64,192,145631,128,0,145710:0:0:0:0:
192,192,145763,128,0,145842:0:0:0:0:
64,192,145763,128,0,145842:0:0:0:0:
64,192,145894,128,0,146000:0:0:0:0:
192,192,145894,128,0,146000:0:0:0:0:
64,192,146052,128,0,148184:0:0:0:0:
192,192,146052,128,0,146921:0:0:0:0:
320,192,146921,1,0,0:0:0:0:
448,192,146921,1,0,0:0:0:0:
192,192,147236,1,0,0:0:0:0:
320,192,147236,1,0,0:0:0:0:
448,192,147710,1,0,0:0:0:0:
192,192,147710,1,0,0:0:0:0:
320,192,147868,1,0,0:0:0:0:
448,192,147868,1,0,0:0:0:0:
448,192,148184,128,0,148342:0:0:0:0:
320,192,148342,1,0,0:0:0:0:
448,192,148500,128,0,148658:0:0:0:0:
320,192,148500,128,0,148658:0:0:0:0:
192,192,148658,1,0,0:0:0:0:
192,192,148815,128,0,148973:0:0:0:0:
320,192,148815,128,0,148973:0:0:0:0:
448,192,148815,128,0,148973:0:0:0:0:
64,192,148973,1,0,0:0:0:0:
192,192,149131,128,0,149289:0:0:0:0:
64,192,149131,128,0,149289:0:0:0:0:
320,192,149131,128,0,149289:0:0:0:0:
448,192,149131,128,0,149289:0:0:0:0:
64,192,149447,1,0,0:0:0:0:
320,192,149447,128,0,149526:0:0:0:0:
448,192,149447,128,0,149605:0:0:0:0:
192,192,149526,128,0,149684:0:0:0:0:
320,192,149605,128,0,149763:0:0:0:0:
448,192,149684,128,0,149763:0:0:0:0:
192,192,149763,128,0,150079:0:0:0:0:
64,192,149763,128,0,149921:0:0:0:0:
320,192,149921,128,0,150079:0:0:0:0:
64,192,150079,128,0,150394:0:0:0:0:
448,192,150079,128,0,150236:0:0:0:0:
192,192,150236,128,0,150394:0:0:0:0:
448,192,150394,128,0,150710:0:0:0:0:
320,192,150394,128,0,150552:0:0:0:0:
64,192,150552,128,0,150710:0:0:0:0:
192,192,150710,128,0,151026:0:0:0:0:
320,192,150710,128,0,150868:0:0:0:0:
64,192,150868,128,0,151026:0:0:0:0:
320,192,151026,128,0,151342:0:0:0:0:
448,192,151026,128,0,151184:0:0:0:0:
192,192,151184,128,0,151342:0:0:0:0:
64,192,151342,128,0,151658:0:0:0:0:
448,192,151342,128,0,151500:0:0:0:0:
320,192,151500,128,0,151658:0:0:0:0:
448,192,151658,128,0,151973:0:0:0:0:
192,192,151658,128,0,151815:0:0:0:0:
320,192,151815,128,0,151973:0:0:0:0:
192,192,151973,128,0,152210:0:0:0:0:
64,192,151973,128,0,152210:0:0:0:0:
320,192,152052,128,0,152289:0:0:0:0:
448,192,152131,128,0,152289:0:0:0:0:
192,192,152289,128,0,152605:0:0:0:0:
64,192,152289,128,0,152447:0:0:0:0:
320,192,152447,128,0,152605:0:0:0:0:
64,192,152605,128,0,152921:0:0:0:0:
448,192,152605,128,0,152763:0:0:0:0:
192,192,152763,128,0,152921:0:0:0:0:
448,192,152921,128,0,153236:0:0:0:0:
320,192,152921,128,0,153079:0:0:0:0:
64,192,153079,128,0,153236:0:0:0:0:
192,192,153236,128,0,153552:0:0:0:0:
320,192,153236,128,0,153394:0:0:0:0:
64,192,153394,128,0,153552:0:0:0:0:
320,192,153552,128,0,153868:0:0:0:0:
448,192,153552,128,0,153710:0:0:0:0:
192,192,153710,128,0,153868:0:0:0:0:
64,192,153868,128,0,154184:0:0:0:0:
448,192,153868,128,0,154026:0:0:0:0:
192,192,154026,128,0,154184:0:0:0:0:
320,192,154184,128,0,154342:0:0:0:0:
448,192,154184,128,0,154342:0:0:0:0:
192,192,154342,128,0,154500:0:0:0:0:
64,192,154342,128,0,154579:0:0:0:0:
448,192,154500,128,0,154736:0:0:0:0:
320,192,154500,128,0,154736:0:0:0:0:
192,192,154579,128,0,154815:0:0:0:0:
64,192,154658,128,0,154815:0:0:0:0:
448,192,154815,128,0,154973:0:0:0:0:
320,192,154815,128,0,155131:0:0:0:0:
192,192,154973,128,0,155131:0:0:0:0:
448,192,155131,128,0,155447:0:0:0:0:
64,192,155131,128,0,155289:0:0:0:0:
320,192,155289,128,0,155447:0:0:0:0:
192,192,155447,128,0,155763:0:0:0:0:
64,192,155447,128,0,155605:0:0:0:0:
320,192,155605,128,0,155763:0:0:0:0:
448,192,155763,128,0,156079:0:0:0:0:
64,192,155763,128,0,155921:0:0:0:0:
320,192,155921,128,0,156079:0:0:0:0:
192,192,156079,128,0,156394:0:0:0:0:
64,192,156079,128,0,156236:0:0:0:0:
448,192,156236,128,0,156394:0:0:0:0:
320,192,156394,128,0,156710:0:0:0:0:
64,192,156394,128,0,156552:0:0:0:0:
192,192,156552,128,0,156710:0:0:0:0:
448,192,156710,128,0,156868:0:0:0:0:
64,192,156710,128,0,157026:0:0:0:0:
192,192,156868,128,0,157026:0:0:0:0:
320,192,157026,128,0,157263:0:0:0:0:
448,192,157026,128,0,157263:0:0:0:0:
64,192,157184,128,0,157342:0:0:0:0:
192,192,157263,128,0,157342:0:0:0:0:
448,192,157342,128,0,157658:0:0:0:0:
320,192,157342,128,0,157500:0:0:0:0:
64,192,157500,128,0,157658:0:0:0:0:
192,192,157658,128,0,157973:0:0:0:0:
320,192,157658,128,0,157815:0:0:0:0:
448,192,157815,128,0,157973:0:0:0:0:
320,192,157973,128,0,158289:0:0:0:0:
64,192,157973,128,0,158131:0:0:0:0:
448,192,158131,128,0,158289:0:0:0:0:
192,192,158289,128,0,158526:0:0:0:0:
64,192,158289,128,0,158526:0:0:0:0:
448,192,158368,128,0,158605:0:0:0:0:
320,192,158447,128,0,158605:0:0:0:0:
64,192,158605,128,0,158763:0:0:0:0:
192,192,158684,128,0,158763:0:0:0:0:
320,192,158763,1,0,0:0:0:0:
448,192,158763,1,0,0:0:0:0:
448,192,159079,128,0,159236:0:0:0:0:
320,192,159158,128,0,159236:0:0:0:0:
192,192,159236,128,0,159394:0:0:0:0:
64,192,159236,128,0,159394:0:0:0:0:
320,192,159394,128,0,159473:0:0:0:0:
448,192,159394,128,0,159473:0:0:0:0:
192,192,159473,128,0,159552:0:0:0:0:
64,192,159552,1,0,0:0:0:0:
448,192,159552,128,0,159789:0:0:0:0:
320,192,159552,128,0,159789:0:0:0:0:
192,192,159710,128,0,159868:0:0:0:0:
64,192,159789,128,0,159868:0:0:0:0:
320,192,159868,1,0,0:0:0:0:
448,192,159868,128,0,160026:0:0:0:0:
320,192,160026,1,0,0:0:0:0:
192,192,160184,1,0,0:0:0:0:
64,192,160184,128,0,160342:0:0:0:0:
192,192,160342,1,0,0:0:0:0:
64,192,160500,1,0,0:0:0:0:
448,192,160500,1,0,0:0:0:0:
320,192,160500,128,0,160658:0:0:0:0:
448,192,160658,1,0,0:0:0:0:
192,192,160815,128,0,160973:0:0:0:0:
64,192,160815,1,0,0:0:0:0:
320,192,160868,1,0,0:0:0:0:
448,192,160921,1,0,0:0:0:0:
64,192,160973,1,0,0:0:0:0:
192,192,161131,1,0,0:0:0:0:
448,192,161131,1,0,0:0:0:0:
320,192,161131,128,0,161289:0:0:0:0:
192,192,161289,1,0,0:0:0:0:
448,192,161447,1,0,0:0:0:0:
64,192,161447,128,0,161605:0:0:0:0:
448,192,161605,1,0,0:0:0:0:
320,192,161763,1,0,0:0:0:0:
192,192,161763,1,0,0:0:0:0:
64,192,161763,1,0,0:0:0:0:
320,192,161921,1,0,0:0:0:0:
448,192,161921,1,0,0:0:0:0:
448,192,162079,1,0,0:0:0:0:
192,192,162079,128,0,162315:0:0:0:0:
64,192,162079,128,0,162315:0:0:0:0:
320,192,162236,128,0,162394:0:0:0:0:
448,192,162315,128,0,162394:0:0:0:0:
64,192,162394,128,0,162552:0:0:0:0:
192,192,162394,1,0,0:0:0:0:
192,192,162552,1,0,0:0:0:0:
320,192,162710,1,0,0:0:0:0:
448,192,162710,128,0,162868:0:0:0:0:
320,192,162868,1,0,0:0:0:0:
448,192,163026,1,0,0:0:0:0:
64,192,163026,1,0,0:0:0:0:
192,192,163026,128,0,163184:0:0:0:0:
64,192,163184,1,0,0:0:0:0:
320,192,163342,128,0,163500:0:0:0:0:
448,192,163342,1,0,0:0:0:0:
192,192,163394,1,0,0:0:0:0:
64,192,163447,1,0,0:0:0:0:
448,192,163500,1,0,0:0:0:0:
320,192,163658,1,0,0:0:0:0:
64,192,163658,1,0,0:0:0:0:
192,192,163658,128,0,163815:0:0:0:0:
320,192,163815,1,0,0:0:0:0:
64,192,163973,1,0,0:0:0:0:
448,192,163973,128,0,164131:0:0:0:0:
64,192,164131,1,0,0:0:0:0:
320,192,164131,1,0,0:0:0:0:
192,192,164289,1,0,0:0:0:0:
320,192,164289,1,0,0:0:0:0:
448,192,164289,1,0,0:0:0:0:
64,192,164447,1,0,0:0:0:0:
192,192,164447,128,0,164605:0:0:0:0:
64,192,164605,1,0,0:0:0:0:
320,192,164605,128,0,164842:0:0:0:0:
448,192,164605,128,0,164842:0:0:0:0:
192,192,164763,128,0,164921:0:0:0:0:
64,192,164842,128,0,164921:0:0:0:0:
448,192,164921,1,0,0:0:0:0:
320,192,164921,128,0,165079:0:0:0:0:
192,192,165079,128,0,165236:0:0:0:0:
64,192,165236,1,0,0:0:0:0:
448,192,165236,128,0,165394:0:0:0:0:
320,192,165394,128,0,165552:0:0:0:0:
192,192,165552,1,0,0:0:0:0:
448,192,165552,1,0,0:0:0:0:
64,192,165552,128,0,165710:0:0:0:0:
192,192,165710,1,0,0:0:0:0:
448,192,165868,128,0,166026:0:0:0:0:
320,192,165868,1,0,0:0:0:0:
192,192,165921,1,0,0:0:0:0:
64,192,165973,1,0,0:0:0:0:
320,192,166026,1,0,0:0:0:0:
192,192,166184,1,0,0:0:0:0:
64,192,166184,128,0,166342:0:0:0:0:
448,192,166184,1,0,0:0:0:0:
320,192,166342,128,0,166500:0:0:0:0:
64,192,166500,1,0,0:0:0:0:
192,192,166500,128,0,166658:0:0:0:0:
448,192,166658,128,0,166815:0:0:0:0:
192,192,166815,1,0,0:0:0:0:
64,192,166815,1,0,0:0:0:0:
320,192,166815,1,0,0:0:0:0:
64,192,166973,1,0,0:0:0:0:
192,192,166973,1,0,0:0:0:0:
64,192,167131,1,0,0:0:0:0:
320,192,167131,128,0,167368:0:0:0:0:
448,192,167131,128,0,167368:0:0:0:0:
192,192,167289,128,0,167447:0:0:0:0:
64,192,167368,128,0,167447:0:0:0:0:
320,192,167447,1,0,0:0:0:0:
448,192,167447,128,0,167605:0:0:0:0:
192,192,167605,128,0,167763:0:0:0:0:
320,192,167763,128,0,167921:0:0:0:0:
448,192,167763,1,0,0:0:0:0:
64,192,167921,128,0,168079:0:0:0:0:
192,192,168079,1,0,0:0:0:0:
320,192,168079,1,0,0:0:0:0:
448,192,168079,1,0,0:0:0:0:
448,192,168236,128,0,168394:0:0:0:0:
64,192,168394,128,0,168473:0:0:0:0:
320,192,168473,128,0,168552:0:0:0:0:
64,192,168552,128,0,168631:0:0:0:0:
320,192,168631,128,0,168710:0:0:0:0:
64,192,168710,1,0,0:0:0:0:
448,192,168710,128,0,168789:0:0:0:0:
192,192,168789,128,0,168868:0:0:0:0:
320,192,168868,128,0,168947:0:0:0:0:
64,192,168947,128,0,169026:0:0:0:0:
192,192,169026,1,0,0:0:0:0:
448,192,169026,128,0,169105:0:0:0:0:
320,192,169105,128,0,169184:0:0:0:0:
64,192,169184,128,0,169263:0:0:0:0:
192,192,169184,1,0,0:0:0:0:
448,192,169263,128,0,169342:0:0:0:0:
320,192,169263,1,0,0:0:0:0:
64,192,169342,1,0,0:0:0:0:
192,192,169342,1,0,0:0:0:0:
320,192,169421,1,0,0:0:0:0:
448,192,169421,1,0,0:0:0:0:
192,192,169500,1,0,0:0:0:0:
64,192,169500,1,0,0:0:0:0:
320,192,169579,1,0,0:0:0:0:
64,192,169658,128,0,169815:0:0:0:0:
192,192,169658,1,0,0:0:0:0:
448,192,169658,1,0,0:0:0:0:
320,192,169815,128,0,169973:0:0:0:0:
192,192,169973,1,0,0:0:0:0:
448,192,169973,1,0,0:0:0:0:
64,192,169973,1,0,0:0:0:0:
192,192,170131,1,0,0:0:0:0:
320,192,170289,1,0,0:0:0:0:
448,192,170289,1,0,0:0:0:0:
64,192,170447,1,0,0:0:0:0:
448,192,170447,1,0,0:0:0:0:
320,192,170605,1,0,0:0:0:0:
64,192,170605,1,0,0:0:0:0:
192,192,170605,1,0,0:0:0:0:
320,192,170763,1,0,0:0:0:0:
192,192,170921,1,0,0:0:0:0:
64,192,170921,1,0,0:0:0:0:
64,192,171079,1,0,0:0:0:0:
448,192,171079,1,0,0:0:0:0:
192,192,171236,1,0,0:0:0:0:
320,192,171236,1,0,0:0:0:0:
448,192,171236,1,0,0:0:0:0:
192,192,171394,1,0,0:0:0:0:
448,192,171552,1,0,0:0:0:0:
320,192,171552,1,0,0:0:0:0:
192,192,171710,1,0,0:0:0:0:
64,192,171710,1,0,0:0:0:0:
320,192,171868,1,0,0:0:0:0:
64,192,171868,1,0,0:0:0:0:
448,192,171868,1,0,0:0:0:0:
320,192,172026,1,0,0:0:0:0:
64,192,172184,1,0,0:0:0:0:
192,192,172184,128,0,172342:0:0:0:0:
448,192,172342,128,0,172500:0:0:0:0:
64,192,172500,1,0,0:0:0:0:
320,192,172500,1,0,0:0:0:0:
192,192,172500,1,0,0:0:0:0:
64,192,172658,1,0,0:0:0:0:
448,192,172815,1,0,0:0:0:0:
320,192,172815,1,0,0:0:0:0:
192,192,172973,1,0,0:0:0:0:
64,192,172973,1,0,0:0:0:0:
448,192,173131,1,0,0:0:0:0:
320,192,173131,1,0,0:0:0:0:
192,192,173131,1,0,0:0:0:0:
448,192,173289,1,0,0:0:0:0:
192,192,173447,1,0,0:0:0:0:
64,192,173447,1,0,0:0:0:0:
448,192,173605,1,0,0:0:0:0:
192,192,173605,1,0,0:0:0:0:
64,192,173763,1,0,0:0:0:0:
320,192,173763,1,0,0:0:0:0:
448,192,173763,1,0,0:0:0:0:
192,192,173921,1,0,0:0:0:0:
448,192,174079,1,0,0:0:0:0:
320,192,174079,1,0,0:0:0:0:
64,192,174236,1,0,0:0:0:0:
192,192,174236,1,0,0:0:0:0:
320,192,174394,1,0,0:0:0:0:
448,192,174394,1,0,0:0:0:0:
64,192,174394,1,0,0:0:0:0:
192,192,174473,1,0,0:0:0:0:
448,192,174552,1,0,0:0:0:0:
320,192,174631,1,0,0:0:0:0:
448,192,174710,1,0,0:0:0:0:
192,192,174710,1,0,0:0:0:0:
64,192,174710,128,0,174868:0:0:0:0:
320,192,174868,128,0,175026:0:0:0:0:
64,192,175026,1,0,0:0:0:0:
192,192,175026,1,0,0:0:0:0:
448,192,175026,1,0,0:0:0:0:
192,192,175184,1,0,0:0:0:0:
448,192,175342,1,0,0:0:0:0:
320,192,175342,1,0,0:0:0:0:
64,192,175500,1,0,0:0:0:0:
320,192,175500,1,0,0:0:0:0:
448,192,175658,1,0,0:0:0:0:
64,192,175658,1,0,0:0:0:0:
192,192,175658,1,0,0:0:0:0:
192,192,175815,1,0,0:0:0:0:
320,192,175815,1,0,0:0:0:0:
320,192,175973,1,0,0:0:0:0:
448,192,175973,1,0,0:0:0:0:
192,192,176131,1,0,0:0:0:0:
64,192,176131,1,0,0:0:0:0:
192,192,176289,1,0,0:0:0:0:
448,192,176289,1,0,0:0:0:0:
320,192,176289,1,0,0:0:0:0:
64,192,176447,1,0,0:0:0:0:
448,192,176447,1,0,0:0:0:0:
192,192,176605,1,0,0:0:0:0:
64,192,176605,1,0,0:0:0:0:
448,192,176763,1,0,0:0:0:0:
320,192,176763,1,0,0:0:0:0:
192,192,176921,1,0,0:0:0:0:
64,192,176921,1,0,0:0:0:0:
320,192,176921,1,0,0:0:0:0:
448,192,177079,1,0,0:0:0:0:
192,192,177236,128,0,177394:0:0:0:0:
64,192,177236,1,0,0:0:0:0:
320,192,177394,128,0,177552:0:0:0:0:
192,192,177552,1,0,0:0:0:0:
64,192,177552,1,0,0:0:0:0:
448,192,177552,1,0,0:0:0:0:
64,192,177710,1,0,0:0:0:0:
320,192,177868,1,0,0:0:0:0:
448,192,177868,1,0,0:0:0:0:
192,192,178026,1,0,0:0:0:0:
64,192,178184,1,0,0:0:0:0:
320,192,178184,1,0,0:0:0:0:
448,192,178184,1,0,0:0:0:0:
192,192,178342,1,0,0:0:0:0:
64,192,178342,1,0,0:0:0:0:
448,192,178500,1,0,0:0:0:0:
320,192,178500,128,0,178579:0:0:0:0:
64,192,178579,128,0,178658:0:0:0:0:
320,192,178658,128,0,178736:0:0:0:0:
64,192,178736,128,0,178815:0:0:0:0:
448,192,178736,1,0,0:0:0:0:
192,192,178815,128,0,178973:0:0:0:0:
320,192,178894,128,0,178973:0:0:0:0:
448,192,178973,128,0,179052:0:0:0:0:
64,192,178973,1,0,0:0:0:0:
192,192,179052,128,0,179131:0:0:0:0:
448,192,179131,128,0,179210:0:0:0:0:
192,192,179210,128,0,179289:0:0:0:0:
320,192,179210,1,0,0:0:0:0:
64,192,179289,128,0,179447:0:0:0:0:
320,192,179368,128,0,179447:0:0:0:0:
192,192,179447,1,0,0:0:0:0:
448,192,179526,1,0,0:0:0:0:
64,192,179605,1,0,0:0:0:0:
320,192,179684,1,0,0:0:0:0:
64,192,179763,1,0,0:0:0:0:
448,192,179763,1,0,0:0:0:0:
192,192,179763,128,0,180079:0:0:0:0:
320,192,179921,1,0,0:0:0:0:
320,192,180079,128,0,180236:0:0:0:0:
448,192,180079,1,0,0:0:0:0:
64,192,180079,1,0,0:0:0:0:
64,192,180236,128,0,180394:0:0:0:0:
448,192,180394,1,0,0:0:0:0:
320,192,180394,1,0,0:0:0:0:
192,192,180552,128,0,180710:0:0:0:0:
64,192,180710,1,0,0:0:0:0:
320,192,180710,1,0,0:0:0:0:
448,192,180710,1,0,0:0:0:0:
448,192,180868,128,0,181342:0:0:0:0:
192,192,181026,1,0,0:0:0:0:
64,192,181026,1,0,0:0:0:0:
320,192,181184,1,0,0:0:0:0:
64,192,181342,1,0,0:0:0:0:
320,192,181342,1,0,0:0:0:0:
192,192,181342,128,0,181500:0:0:0:0:
64,192,181500,128,0,181658:0:0:0:0:
320,192,181658,128,0,181815:0:0:0:0:
448,192,181658,1,0,0:0:0:0:
192,192,181815,128,0,181973:0:0:0:0:
64,192,181973,1,0,0:0:0:0:
320,192,181973,1,0,0:0:0:0:
448,192,181973,128,0,182131:0:0:0:0:
64,192,182131,128,0,182289:0:0:0:0:
320,192,182289,128,0,182447:0:0:0:0:
192,192,182289,1,0,0:0:0:0:
448,192,182447,128,0,182605:0:0:0:0:
192,192,182605,1,0,0:0:0:0:
320,192,182605,1,0,0:0:0:0:
64,192,182605,1,0,0:0:0:0:
192,192,182763,128,0,182921:0:0:0:0:
64,192,182921,128,0,183079:0:0:0:0:
448,192,182921,1,0,0:0:0:0:
320,192,183079,1,0,0:0:0:0:
192,192,183236,128,0,183394:0:0:0:0:
64,192,183236,1,0,0:0:0:0:
448,192,183236,1,0,0:0:0:0:
320,192,183394,128,0,183710:0:0:0:0:
64,192,183552,1,0,0:0:0:0:
448,192,183552,1,0,0:0:0:0:
192,192,183710,1,0,0:0:0:0:
320,192,183868,1,0,0:0:0:0:
64,192,183868,1,0,0:0:0:0:
448,192,183868,128,0,184026:0:0:0:0:
192,192,184026,128,0,184184:0:0:0:0:
320,192,184184,128,0,184342:0:0:0:0:
64,192,184184,1,0,0:0:0:0:
64,192,184342,128,0,184500:0:0:0:0:
448,192,184500,1,0,0:0:0:0:
320,192,184500,1,0,0:0:0:0:
192,192,184500,128,0,184579:0:0:0:0:
64,192,184579,128,0,184658:0:0:0:0:
320,192,184658,128,0,184736:0:0:0:0:
192,192,184736,128,0,184815:0:0:0:0:
320,192,184815,1,0,0:0:0:0:
64,192,184815,1,0,0:0:0:0:
448,192,184815,128,0,185131:0:0:0:0:
192,192,185131,128,0,185210:0:0:0:0:
320,192,185210,128,0,185447:0:0:0:0:
448,192,185447,1,0,0:0:0:0:
64,192,185447,128,0,185526:0:0:0:0:
192,192,185526,128,0,185763:0:0:0:0:
448,192,185763,128,0,185842:0:0:0:0:
320,192,185842,128,0,186079:0:0:0:0:
192,192,186079,1,0,0:0:0:0:
64,192,186079,1,0,0:0:0:0:
64,192,186236,128,0,186394:0:0:0:0:
448,192,186394,1,0,0:0:0:0:
320,192,186394,128,0,186552:0:0:0:0:
192,192,186552,128,0,186710:0:0:0:0:
64,192,186710,1,0,0:0:0:0:
448,192,186710,128,0,186789:0:0:0:0:
320,192,186789,128,0,187026:0:0:0:0:
64,192,187026,128,0,187105:0:0:0:0:
192,192,187105,128,0,187342:0:0:0:0:
64,192,187342,1,0,0:0:0:0:
448,192,187342,128,0,187421:0:0:0:0:
320,192,187421,128,0,187658:0:0:0:0:
64,192,187658,128,0,187736:0:0:0:0:
192,192,187736,128,0,187973:0:0:0:0:
320,192,187973,128,0,188052:0:0:0:0:
448,192,187973,1,0,0:0:0:0:
64,192,188052,128,0,188289:0:0:0:0:
448,192,188289,128,0,188368:0:0:0:0:
192,192,188368,128,0,188605:0:0:0:0:
64,192,188605,1,0,0:0:0:0:
320,192,188605,1,0,0:0:0:0:
192,192,188684,1,0,0:0:0:0:
448,192,188763,1,0,0:0:0:0:
64,192,188842,1,0,0:0:0:0:
320,192,188921,1,0,0:0:0:0:
448,192,188921,1,0,0:0:0:0:
64,192,189079,1,0,0:0:0:0:
320,192,189158,1,0,0:0:0:0:
192,192,189158,1,0,0:0:0:0:
448,192,189315,1,0,0:0:0:0:
192,192,189394,1,0,0:0:0:0:
64,192,189394,1,0,0:0:0:0:
448,192,189552,1,0,0:0:0:0:
64,192,189552,1,0,0:0:0:0:
320,192,189552,128,0,189868:0:0:0:0:
192,192,189868,1,0,0:0:0:0:
448,192,189868,1,0,0:0:0:0:
64,192,189868,128,0,190184:0:0:0:0:
320,192,190184,128,0,190342:0:0:0:0:
448,192,190184,1,0,0:0:0:0:
192,192,190342,128,0,190500:0:0:0:0:
64,192,190500,1,0,0:0:0:0:
448,192,190500,1,0,0:0:0:0:
320,192,190658,128,0,190815:0:0:0:0:
64,192,190815,1,0,0:0:0:0:
192,192,190815,1,0,0:0:0:0:
448,192,190973,128,0,191447:0:0:0:0:
64,192,191131,1,0,0:0:0:0:
320,192,191131,1,0,0:0:0:0:
192,192,191447,128,0,191763:0:0:0:0:
64,192,191447,1,0,0:0:0:0:
320,192,191605,128,0,191763:0:0:0:0:
64,192,191763,128,0,192079:0:0:0:0:
448,192,191763,1,0,0:0:0:0:
192,192,191921,128,0,192079:0:0:0:0:
448,192,192079,128,0,192158:0:0:0:0:
320,192,192079,128,0,192158:0:0:0:0:
64,192,192236,128,0,192315:0:0:0:0:
192,192,192236,1,0,0:0:0:0:
448,192,192315,128,0,192394:0:0:0:0:
320,192,192315,1,0,0:0:0:0:
64,192,192394,128,0,192552:0:0:0:0:
192,192,192394,1,0,0:0:0:0:
320,192,192552,128,0,192710:0:0:0:0:
448,192,192710,1,0,0:0:0:0:
64,192,192710,1,0,0:0:0:0:
192,192,192868,128,0,193026:0:0:0:0:
448,192,193026,128,0,193184:0:0:0:0:
320,192,193026,1,0,0:0:0:0:
64,192,193184,1,0,0:0:0:0:
320,192,193342,1,0,0:0:0:0:
192,192,193342,128,0,193500:0:0:0:0:
64,192,193500,128,0,193658:0:0:0:0:
320,192,193658,1,0,0:0:0:0:
448,192,193658,128,0,193815:0:0:0:0:
320,192,193815,1,0,0:0:0:0:
192,192,193973,1,0,0:0:0:0:
64,192,193973,128,0,194131:0:0:0:0:
192,192,194131,128,0,194289:0:0:0:0:
320,192,194289,128,0,194368:0:0:0:0:
448,192,194289,128,0,194605:0:0:0:0:
320,192,194447,128,0,194605:0:0:0:0:
64,192,194605,128,0,194763:0:0:0:0:
192,192,194605,128,0,194763:0:0:0:0:
320,192,194763,1,0,0:0:0:0:
448,192,194763,1,0,0:0:0:0:
192,192,194842,1,0,0:0:0:0:
64,192,194921,1,0,0:0:0:0:
320,192,194921,1,0,0:0:0:0:
448,192,194921,1,0,0:0:0:0:
64,192,195079,1,0,0:0:0:0:
192,192,195079,1,0,0:0:0:0:
192,192,195236,1,0,0:0:0:0:
320,192,195236,1,0,0:0:0:0:
448,192,195394,1,0,0:0:0:0:
320,192,195394,1,0,0:0:0:0:
192,192,195552,1,0,0:0:0:0:
64,192,195552,1,0,0:0:0:0:
320,192,195605,1,0,0:0:0:0:
448,192,195658,1,0,0:0:0:0:
192,192,195710,1,0,0:0:0:0:
64,192,195710,1,0,0:0:0:0:
320,192,195868,1,0,0:0:0:0:
448,192,195868,1,0,0:0:0:0:
192,192,195921,1,0,0:0:0:0:
64,192,195973,1,0,0:0:0:0:
448,192,196026,1,0,0:0:0:0:
320,192,196026,1,0,0:0:0:0:
192,192,196184,1,0,0:0:0:0:
64,192,196184,1,0,0:0:0:0:
64,192,196342,1,0,0:0:0:0:
192,192,196342,1,0,0:0:0:0:
320,192,196500,1,0,0:0:0:0:
448,192,196500,1,0,0:0:0:0:
192,192,196552,1,0,0:0:0:0:
64,192,196605,1,0,0:0:0:0:
320,192,196658,1,0,0:0:0:0:
448,192,196658,1,0,0:0:0:0:
192,192,196815,1,0,0:0:0:0:
64,192,196815,1,0,0:0:0:0:
320,192,196868,1,0,0:0:0:0:
448,192,196921,1,0,0:0:0:0:
192,192,196973,1,0,0:0:0:0:
64,192,196973,1,0,0:0:0:0:
320,192,197131,1,0,0:0:0:0:
448,192,197131,1,0,0:0:0:0:
192,192,197184,1,0,0:0:0:0:
64,192,197236,1,0,0:0:0:0:
320,192,197289,1,0,0:0:0:0:
448,192,197289,1,0,0:0:0:0:
192,192,197447,1,0,0:0:0:0:
64,192,197447,1,0,0:0:0:0:
448,192,197526,1,0,0:0:0:0:
320,192,197605,1,0,0:0:0:0:
192,192,197684,1,0,0:0:0:0:
64,192,197763,1,0,0:0:0:0:
192,192,197815,1,0,0:0:0:0:
448,192,197868,1,0,0:0:0:0:
320,192,197921,1,0,0:0:0:0:
64,192,198000,1,0,0:0:0:0:
448,192,198079,1,0,0:0:0:0:
192,192,198079,1,0,0:0:0:0:
320,192,198158,1,0,0:0:0:0:
192,192,198236,1,0,0:0:0:0:
64,192,198236,1,0,0:0:0:0:
320,192,198315,1,0,0:0:0:0:
448,192,198315,1,0,0:0:0:0:
64,192,198394,1,0,0:0:0:0:
192,192,198447,1,0,0:0:0:0:
448,192,198500,1,0,0:0:0:0:
320,192,198552,1,0,0:0:0:0:
64,192,198605,1,0,0:0:0:0:
192,192,198658,1,0,0:0:0:0:
320,192,198710,1,0,0:0:0:0:
448,192,198710,1,0,0:0:0:0:
192,192,198789,1,0,0:0:0:0:
64,192,198789,1,0,0:0:0:0:
192,192,198947,1,0,0:0:0:0:
64,192,198947,1,0,0:0:0:0:
320,192,199026,1,0,0:0:0:0:
448,192,199026,1,0,0:0:0:0:
320,192,199184,1,0,0:0:0:0:
448,192,199184,1,0,0:0:0:0:
192,192,199263,1,0,0:0:0:0:
64,192,199263,1,0,0:0:0:0:
64,192,199421,1,0,0:0:0:0:
192,192,199421,1,0,0:0:0:0:
448,192,199500,1,0,0:0:0:0:
320,192,199500,1,0,0:0:0:0:
192,192,199658,1,0,0:0:0:0:
64,192,199658,1,0,0:0:0:0:
448,192,199658,1,0,0:0:0:0:
448,192,199973,128,0,200210:0:0:0:0:
192,192,199973,1,0,0:0:0:0:
64,192,199973,1,0,0:0:0:0:
320,192,199973,1,0,0:0:0:0:
192,192,200131,128,0,200289:0:0:0:0:
320,192,200131,128,0,200210:0:0:0:0:
320,192,200289,1,0,0:0:0:0:
64,192,200289,1,0,0:0:0:0:
448,192,200289,128,0,200447:0:0:0:0:
192,192,200447,128,0,200605:0:0:0:0:
64,192,200447,128,0,200605:0:0:0:0:
320,192,200605,1,0,0:0:0:0:
448,192,200605,1,0,0:0:0:0:
320,192,200763,128,0,200921:0:0:0:0:
448,192,200763,128,0,200921:0:0:0:0:
192,192,200921,1,0,0:0:0:0:
64,192,200921,1,0,0:0:0:0:
192,192,201079,128,0,201236:0:0:0:0:
64,192,201079,128,0,201394:0:0:0:0:
320,192,201236,128,0,201552:0:0:0:0:
448,192,201236,1,0,0:0:0:0:
192,192,201394,128,0,201552:0:0:0:0:
64,192,201552,1,0,0:0:0:0:
448,192,201552,1,0,0:0:0:0:
320,192,201710,1,0,0:0:0:0:
192,192,201868,128,0,202026:0:0:0:0:
64,192,201868,128,0,202184:0:0:0:0:
448,192,202026,1,0,0:0:0:0:
320,192,202184,128,0,202500:0:0:0:0:
448,192,202184,1,0,0:0:0:0:
192,192,202342,128,0,202658:0:0:0:0:
64,192,202500,1,0,0:0:0:0:
448,192,202500,128,0,202815:0:0:0:0:
320,192,202658,128,0,202815:0:0:0:0:
64,192,202815,1,0,0:0:0:0:
192,192,202815,1,0,0:0:0:0:
192,192,202973,128,0,203289:0:0:0:0:
64,192,203131,128,0,203605:0:0:0:0:
448,192,203131,1,0,0:0:0:0:
320,192,203289,1,0,0:0:0:0:
192,192,203447,1,0,0:0:0:0:
448,192,203447,128,0,203763:0:0:0:0:
320,192,203605,128,0,203763:0:0:0:0:
64,192,203763,1,0,0:0:0:0:
192,192,203763,128,0,204079:0:0:0:0:
320,192,203842,128,0,204000:0:0:0:0:
64,192,203921,128,0,204079:0:0:0:0:
320,192,204079,1,0,0:0:0:0:
448,192,204079,1,0,0:0:0:0:
192,192,204158,1,0,0:0:0:0:
320,192,204236,1,0,0:0:0:0:
448,192,204315,1,0,0:0:0:0:
192,192,204394,1,0,0:0:0:0:
64,192,204394,1,0,0:0:0:0:
320,192,204473,1,0,0:0:0:0:
192,192,204552,1,0,0:0:0:0:
64,192,204631,1,0,0:0:0:0:
448,192,204710,128,0,204868:0:0:0:0:
320,192,204710,1,0,0:0:0:0:
192,192,204868,128,0,205026:0:0:0:0:
320,192,205026,1,0,0:0:0:0:
448,192,205026,1,0,0:0:0:0:
64,192,205026,128,0,205263:0:0:0:0:
320,192,205184,128,0,205342:0:0:0:0:
192,192,205184,128,0,205263:0:0:0:0:
192,192,205342,1,0,0:0:0:0:
448,192,205342,1,0,0:0:0:0:
64,192,205342,128,0,205500:0:0:0:0:
320,192,205500,128,0,205658:0:0:0:0:
448,192,205500,128,0,205658:0:0:0:0:
192,192,205658,1,0,0:0:0:0:
64,192,205658,1,0,0:0:0:0:
192,192,205815,128,0,205973:0:0:0:0:
64,192,205815,128,0,205973:0:0:0:0:
320,192,205973,1,0,0:0:0:0:
448,192,205973,1,0,0:0:0:0:
320,192,206131,128,0,206289:0:0:0:0:
448,192,206131,128,0,206447:0:0:0:0:
192,192,206289,128,0,206605:0:0:0:0:
64,192,206289,1,0,0:0:0:0:
320,192,206447,128,0,206605:0:0:0:0:
448,192,206605,1,0,0:0:0:0:
64,192,206605,1,0,0:0:0:0:
192,192,206763,1,0,0:0:0:0:
320,192,206921,128,0,207079:0:0:0:0:
448,192,206921,128,0,207236:0:0:0:0:
64,192,207079,1,0,0:0:0:0:
192,192,207236,128,0,207552:0:0:0:0:
64,192,207236,1,0,0:0:0:0:
320,192,207394,128,0,207710:0:0:0:0:
448,192,207552,1,0,0:0:0:0:
64,192,207552,128,0,207868:0:0:0:0:
192,192,207710,128,0,207868:0:0:0:0:
448,192,207868,1,0,0:0:0:0:
320,192,207868,1,0,0:0:0:0:
320,192,208026,128,0,208342:0:0:0:0:
448,192,208184,128,0,208658:0:0:0:0:
64,192,208184,1,0,0:0:0:0:
192,192,208342,1,0,0:0:0:0:
320,192,208500,1,0,0:0:0:0:
64,192,208500,128,0,208815:0:0:0:0:
192,192,208658,128,0,208815:0:0:0:0:
320,192,208815,1,0,0:0:0:0:
448,192,208815,128,0,208894:0:0:0:0:
192,192,208894,128,0,208973:0:0:0:0:
320,192,208973,128,0,209052:0:0:0:0:
448,192,209052,128,0,209131:0:0:0:0:
192,192,209131,1,0,0:0:0:0:
64,192,209131,128,0,209210:0:0:0:0:
320,192,209210,128,0,209289:0:0:0:0:
64,192,209289,128,0,209368:0:0:0:0:
320,192,209368,128,0,209447:0:0:0:0:
192,192,209447,128,0,209526:0:0:0:0:
64,192,209447,1,0,0:0:0:0:
448,192,209526,128,0,209605:0:0:0:0:
192,192,209605,128,0,209684:0:0:0:0:
448,192,209684,128,0,209763:0:0:0:0:
64,192,209763,128,0,209842:0:0:0:0:
192,192,209763,128,0,209842:0:0:0:0:
320,192,209842,128,0,209921:0:0:0:0:
448,192,209921,1,0,0:0:0:0:
64,192,209921,1,0,0:0:0:0:
192,192,210000,1,0,0:0:0:0:
320,192,210000,1,0,0:0:0:0:
448,192,210079,1,0,0:0:0:0:
64,192,210079,1,0,0:0:0:0:
192,192,210236,1,0,0:0:0:0:
320,192,210236,1,0,0:0:0:0:
64,192,210394,1,0,0:0:0:0:
192,192,210394,1,0,0:0:0:0:
448,192,210394,1,0,0:0:0:0:
320,192,210552,128,0,210710:0:0:0:0:
448,192,210552,128,0,210710:0:0:0:0:
192,192,210710,1,0,0:0:0:0:
64,192,210710,1,0,0:0:0:0:
320,192,210868,128,0,211026:0:0:0:0:
192,192,210868,128,0,211026:0:0:0:0:
64,192,211026,1,0,0:0:0:0:
448,192,211026,1,0,0:0:0:0:
192,192,211184,128,0,211342:0:0:0:0:
64,192,211184,128,0,211500:0:0:0:0:
320,192,211342,128,0,211658:0:0:0:0:
448,192,211342,1,0,0:0:0:0:
192,192,211500,128,0,211658:0:0:0:0:
448,192,211658,1,0,0:0:0:0:
64,192,211658,1,0,0:0:0:0:
192,192,211815,1,0,0:0:0:0:
320,192,211973,128,0,212131:0:0:0:0:
448,192,211973,128,0,212289:0:0:0:0:
64,192,212131,1,0,0:0:0:0:
192,192,212289,128,0,212605:0:0:0:0:
64,192,212289,1,0,0:0:0:0:
320,192,212447,128,0,212763:0:0:0:0:
448,192,212605,1,0,0:0:0:0:
64,192,212605,128,0,212921:0:0:0:0:
192,192,212763,128,0,212921:0:0:0:0:
448,192,212921,1,0,0:0:0:0:
320,192,212921,1,0,0:0:0:0:
320,192,213079,128,0,213394:0:0:0:0:
448,192,213236,128,0,213710:0:0:0:0:
64,192,213236,1,0,0:0:0:0:
192,192,213394,1,0,0:0:0:0:
320,192,213552,1,0,0:0:0:0:
64,192,213552,128,0,213868:0:0:0:0:
192,192,213710,128,0,213868:0:0:0:0:
448,192,213868,1,0,0:0:0:0:
320,192,213868,128,0,214026:0:0:0:0:
64,192,214026,128,0,214184:0:0:0:0:
192,192,214026,1,0,0:0:0:0:
320,192,214184,1,0,0:0:0:0:
448,192,214184,1,0,0:0:0:0:
192,192,214263,1,0,0:0:0:0:
448,192,214342,1,0,0:0:0:0:
64,192,214421,1,0,0:0:0:0:
192,192,214500,1,0,0:0:0:0:
320,192,214500,1,0,0:0:0:0:
448,192,214579,1,0,0:0:0:0:
64,192,214658,128,0,214736:0:0:0:0:
320,192,214736,128,0,214815:0:0:0:0:
192,192,214815,128,0,214894:0:0:0:0:
64,192,214815,1,0,0:0:0:0:
448,192,214894,128,0,214973:0:0:0:0:
320,192,214973,128,0,215052:0:0:0:0:
64,192,215052,128,0,215131:0:0:0:0:
448,192,215131,128,0,215447:0:0:0:0:
192,192,215131,1,0,0:0:0:0:
320,192,215131,128,0,215289:0:0:0:0:
192,192,215289,128,0,215447:0:0:0:0:
64,192,215447,1,0,0:0:0:0:
320,192,215447,1,0,0:0:0:0:
64,192,215605,128,0,215763:0:0:0:0:
192,192,215605,128,0,215763:0:0:0:0:
320,192,215763,1,0,0:0:0:0:
448,192,215763,1,0,0:0:0:0:
192,192,215842,1,0,0:0:0:0:
320,192,215921,128,0,216079:0:0:0:0:
64,192,215921,1,0,0:0:0:0:
448,192,216000,128,0,216079:0:0:0:0:
64,192,216079,1,0,0:0:0:0:
192,192,216079,1,0,0:0:0:0:
320,192,216236,128,0,216394:0:0:0:0:
192,192,216236,128,0,216394:0:0:0:0:
448,192,216394,1,0,0:0:0:0:
64,192,216394,1,0,0:0:0:0:
192,192,216473,1,0,0:0:0:0:
320,192,216552,128,0,216710:0:0:0:0:
192,192,216631,128,0,216710:0:0:0:0:
64,192,216710,1,0,0:0:0:0:
448,192,216710,1,0,0:0:0:0:
320,192,216868,1,0,0:0:0:0:
192,192,216868,128,0,217026:0:0:0:0:
64,192,217026,1,0,0:0:0:0:
448,192,217026,1,0,0:0:0:0:
320,192,217105,1,0,0:0:0:0:
64,192,217184,128,0,217342:0:0:0:0:
192,192,217263,128,0,217342:0:0:0:0:
320,192,217342,128,0,217500:0:0:0:0:
448,192,217342,1,0,0:0:0:0:
64,192,217500,128,0,217658:0:0:0:0:
192,192,217500,128,0,217579:0:0:0:0:
320,192,217658,128,0,217815:0:0:0:0:
448,192,217658,1,0,0:0:0:0:
192,192,217736,1,0,0:0:0:0:
64,192,217815,128,0,217973:0:0:0:0:
448,192,217894,1,0,0:0:0:0:
192,192,217973,1,0,0:0:0:0:
320,192,217973,1,0,0:0:0:0:
64,192,218052,1,0,0:0:0:0:
448,192,218131,128,0,218289:0:0:0:0:
320,192,218210,1,0,0:0:0:0:
64,192,218289,128,0,218447:0:0:0:0:
192,192,218289,1,0,0:0:0:0:
320,192,218368,1,0,0:0:0:0:
448,192,218447,1,0,0:0:0:0:
192,192,218526,1,0,0:0:0:0:
64,192,218605,1,0,0:0:0:0:
320,192,218605,128,0,218763:0:0:0:0:
448,192,218684,1,0,0:0:0:0:
192,192,218763,128,0,218921:0:0:0:0:
64,192,218842,1,0,0:0:0:0:
320,192,218921,128,0,219000:0:0:0:0:
448,192,218921,128,0,219079:0:0:0:0:
64,192,219000,128,0,219236:0:0:0:0:
192,192,219079,128,0,219236:0:0:0:0:
448,192,219236,128,0,219394:0:0:0:0:
320,192,219315,128,0,219394:0:0:0:0:
192,192,219394,1,0,0:0:0:0:
64,192,219394,1,0,0:0:0:0:
64,192,219552,128,0,219710:0:0:0:0:
320,192,219710,128,0,219868:0:0:0:0:
448,192,219789,128,0,219868:0:0:0:0:
192,192,219868,1,0,0:0:0:0:
64,192,219868,1,0,0:0:0:0:
64,192,220026,1,0,0:0:0:0:
192,192,220026,1,0,0:0:0:0:
64,192,220184,5,0,0:0:0:0:
320,192,220184,1,0,0:0:0:0:
192,192,220184,128,0,220342:0:0:0:0:
448,192,220184,128,0,220579:0:0:0:0:
320,192,220342,128,0,220579:0:0:0:0:
64,192,220500,128,0,220736:0:0:0:0:
192,192,220500,128,0,220658:0:0:0:0:
320,192,220658,128,0,220815:0:0:0:0:
448,192,220658,128,0,220973:0:0:0:0:
192,192,220815,1,0,0:0:0:0:
64,192,220815,1,0,0:0:0:0:
192,192,220973,128,0,221131:0:0:0:0:
64,192,220973,128,0,221289:0:0:0:0:
320,192,221131,1,0,0:0:0:0:
448,192,221131,1,0,0:0:0:0:
320,192,221289,128,0,221605:0:0:0:0:
448,192,221289,128,0,221447:0:0:0:0:
192,192,221447,128,0,221921:0:0:0:0:
64,192,221447,1,0,0:0:0:0:
448,192,221605,128,0,221763:0:0:0:0:
64,192,221763,128,0,222079:0:0:0:0:
320,192,221763,1,0,0:0:0:0:
320,192,221921,128,0,222079:0:0:0:0:
192,192,222079,128,0,222236:0:0:0:0:
448,192,222079,128,0,222394:0:0:0:0:
320,192,222236,128,0,222394:0:0:0:0:
192,192,222394,1,0,0:0:0:0:
64,192,222394,128,0,222710:0:0:0:0:
192,192,222552,128,0,222710:0:0:0:0:
448,192,222710,128,0,222868:0:0:0:0:
320,192,222710,128,0,223026:0:0:0:0:
64,192,222868,128,0,223184:0:0:0:0:
448,192,223026,1,0,0:0:0:0:
192,192,223026,128,0,223184:0:0:0:0:
320,192,223184,128,0,223500:0:0:0:0:
448,192,223184,128,0,223342:0:0:0:0:
192,192,223342,1,0,0:0:0:0:
64,192,223342,128,0,223658:0:0:0:0:
192,192,223500,128,0,223658:0:0:0:0:
448,192,223658,128,0,223973:0:0:0:0:
320,192,223658,1,0,0:0:0:0:
320,192,223815,128,0,223973:0:0:0:0:
192,192,223973,128,0,224289:0:0:0:0:
64,192,223973,128,0,224131:0:0:0:0:
448,192,224131,128,0,224447:0:0:0:0:
320,192,224289,128,0,224605:0:0:0:0:
64,192,224289,1,0,0:0:0:0:
64,192,224447,128,0,224763:0:0:0:0:
192,192,224605,128,0,224921:0:0:0:0:
448,192,224605,1,0,0:0:0:0:
320,192,224763,128,0,224921:0:0:0:0:
64,192,224921,1,0,0:0:0:0:
448,192,224921,128,0,225000:0:0:0:0:
320,192,225000,128,0,225079:0:0:0:0:
192,192,225079,128,0,225158:0:0:0:0:
64,192,225158,128,0,225236:0:0:0:0:
192,192,225236,128,0,225552:0:0:0:0:
320,192,225236,128,0,225315:0:0:0:0:
448,192,225236,128,0,225315:0:0:0:0:
448,192,225394,128,0,225473:0:0:0:0:
320,192,225394,128,0,225473:0:0:0:0:
448,192,225552,128,0,225789:0:0:0:0:
320,192,225552,128,0,225710:0:0:0:0:
64,192,225552,1,0,0:0:0:0:
64,192,225710,128,0,225868:0:0:0:0:
192,192,225710,128,0,226026:0:0:0:0:
320,192,225868,1,0,0:0:0:0:
448,192,225868,1,0,0:0:0:0:
448,192,226026,128,0,226184:0:0:0:0:
320,192,226026,128,0,226342:0:0:0:0:
192,192,226184,1,0,0:0:0:0:
64,192,226184,1,0,0:0:0:0:
192,192,226342,128,0,226658:0:0:0:0:
64,192,226342,128,0,226500:0:0:0:0:
320,192,226500,128,0,226973:0:0:0:0:
448,192,226500,1,0,0:0:0:0:
64,192,226658,128,0,226815:0:0:0:0:
192,192,226815,128,0,227131:0:0:0:0:
448,192,226815,1,0,0:0:0:0:
64,192,226973,128,0,227131:0:0:0:0:
448,192,227131,128,0,227289:0:0:0:0:
320,192,227131,128,0,227447:0:0:0:0:
192,192,227289,128,0,227447:0:0:0:0:
64,192,227447,1,0,0:0:0:0:
448,192,227447,128,0,227763:0:0:0:0:
320,192,227605,128,0,227763:0:0:0:0:
64,192,227763,128,0,227921:0:0:0:0:
192,192,227763,128,0,228079:0:0:0:0:
448,192,227921,128,0,228236:0:0:0:0:
64,192,228079,1,0,0:0:0:0:
320,192,228079,128,0,228236:0:0:0:0:
192,192,228236,128,0,228552:0:0:0:0:
64,192,228236,128,0,228394:0:0:0:0:
320,192,228394,1,0,0:0:0:0:
448,192,228394,128,0,228710:0:0:0:0:
320,192,228552,128,0,228710:0:0:0:0:
64,192,228710,128,0,229026:0:0:0:0:
192,192,228710,1,0,0:0:0:0:
192,192,228868,128,0,229026:0:0:0:0:
320,192,229026,128,0,229342:0:0:0:0:
448,192,229026,128,0,229184:0:0:0:0:
64,192,229184,128,0,229500:0:0:0:0:
192,192,229342,128,0,229658:0:0:0:0:
448,192,229342,128,0,229421:0:0:0:0:
448,192,229500,128,0,229815:0:0:0:0:
320,192,229658,128,0,229973:0:0:0:0:
64,192,229658,128,0,229736:0:0:0:0:
192,192,229736,128,0,229815:0:0:0:0:
64,192,229815,128,0,229973:0:0:0:0:
192,192,229973,1,0,0:0:0:0:
448,192,229973,128,0,230052:0:0:0:0:
320,192,230052,128,0,230131:0:0:0:0:
64,192,230131,128,0,230210:0:0:0:0:
192,192,230210,128,0,230289:0:0:0:0:
320,192,230289,1,0,0:0:0:0:
64,192,230289,1,0,0:0:0:0:
448,192,230289,128,0,230684:0:0:0:0:
320,192,230447,128,0,230684:0:0:0:0:
64,192,230605,128,0,230842:0:0:0:0:
192,192,230605,128,0,230763:0:0:0:0:
448,192,230763,128,0,230921:0:0:0:0:
320,192,230763,128,0,231079:0:0:0:0:
192,192,230921,1,0,0:0:0:0:
64,192,230921,1,0,0:0:0:0:
64,192,231079,128,0,231236:0:0:0:0:
192,192,231079,128,0,231394:0:0:0:0:
320,192,231236,1,0,0:0:0:0:
448,192,231236,1,0,0:0:0:0:
320,192,231394,128,0,231710:0:0:0:0:
448,192,231394,128,0,231552:0:0:0:0:
192,192,231552,128,0,232026:0:0:0:0:
64,192,231552,1,0,0:0:0:0:
448,192,231710,128,0,231868:0:0:0:0:
320,192,231868,128,0,232184:0:0:0:0:
64,192,231868,1,0,0:0:0:0:
448,192,232026,128,0,232184:0:0:0:0:
64,192,232184,128,0,232342:0:0:0:0:
192,192,232184,128,0,232500:0:0:0:0:
320,192,232342,128,0,232500:0:0:0:0:
448,192,232500,1,0,0:0:0:0:
64,192,232500,128,0,232815:0:0:0:0:
192,192,232658,128,0,232815:0:0:0:0:
448,192,232815,128,0,232973:0:0:0:0:
320,192,232815,128,0,233131:0:0:0:0:
64,192,232973,128,0,233289:0:0:0:0:
448,192,233131,1,0,0:0:0:0:
192,192,233131,128,0,233289:0:0:0:0:
320,192,233289,128,0,233605:0:0:0:0:
448,192,233289,128,0,233447:0:0:0:0:
192,192,233447,1,0,0:0:0:0:
64,192,233447,128,0,233763:0:0:0:0:
192,192,233605,128,0,233763:0:0:0:0:
448,192,233763,128,0,234079:0:0:0:0:
320,192,233763,1,0,0:0:0:0:
320,192,233921,128,0,234079:0:0:0:0:
192,192,234079,128,0,234394:0:0:0:0:
64,192,234079,128,0,234236:0:0:0:0:
448,192,234236,128,0,234552:0:0:0:0:
320,192,234394,128,0,234710:0:0:0:0:
64,192,234394,1,0,0:0:0:0:
64,192,234552,128,0,234868:0:0:0:0:
192,192,234710,128,0,235026:0:0:0:0:
448,192,234710,1,0,0:0:0:0:
320,192,234868,128,0,235026:0:0:0:0:
64,192,235026,1,0,0:0:0:0:
448,192,235026,128,0,235105:0:0:0:0:
320,192,235105,128,0,235184:0:0:0:0:
192,192,235184,128,0,235263:0:0:0:0:
64,192,235263,128,0,235342:0:0:0:0:
448,192,235342,1,0,0:0:0:0:
320,192,235342,128,0,235500:0:0:0:0:
192,192,235342,128,0,235736:0:0:0:0:
64,192,235500,128,0,235736:0:0:0:0:
448,192,235658,128,0,235894:0:0:0:0:
320,192,235658,128,0,235815:0:0:0:0:
64,192,235815,128,0,235973:0:0:0:0:
192,192,235815,128,0,236131:0:0:0:0:
320,192,235973,1,0,0:0:0:0:
448,192,235973,1,0,0:0:0:0:
448,192,236131,128,0,236289:0:0:0:0:
320,192,236131,128,0,236447:0:0:0:0:
192,192,236289,1,0,0:0:0:0:
64,192,236289,1,0,0:0:0:0:
192,192,236447,128,0,236763:0:0:0:0:
64,192,236447,128,0,236605:0:0:0:0:
320,192,236605,128,0,237079:0:0:0:0:
448,192,236605,1,0,0:0:0:0:
64,192,236763,128,0,236921:0:0:0:0:
192,192,236921,128,0,237236:0:0:0:0:
448,192,236921,1,0,0:0:0:0:
64,192,237079,128,0,237236:0:0:0:0:
448,192,237236,128,0,237394:0:0:0:0:
320,192,237236,128,0,237552:0:0:0:0:
192,192,237394,128,0,237552:0:0:0:0:
64,192,237552,1,0,0:0:0:0:
448,192,237552,128,0,237868:0:0:0:0:
320,192,237710,128,0,237868:0:0:0:0:
64,192,237868,128,0,238026:0:0:0:0:
192,192,237868,128,0,238184:0:0:0:0:
448,192,238026,128,0,238342:0:0:0:0:
64,192,238184,1,0,0:0:0:0:
320,192,238184,128,0,238342:0:0:0:0:
192,192,238342,128,0,238658:0:0:0:0:
64,192,238342,128,0,238500:0:0:0:0:
320,192,238500,1,0,0:0:0:0:
448,192,238500,128,0,238815:0:0:0:0:
320,192,238658,128,0,238815:0:0:0:0:
64,192,238815,128,0,239131:0:0:0:0:
192,192,238815,1,0,0:0:0:0:
192,192,238973,128,0,239131:0:0:0:0:
448,192,239131,1,0,0:0:0:0:
320,192,239131,1,0,0:0:0:0:
320,192,239289,128,0,239605:0:0:0:0:
192,192,239447,128,0,239763:0:0:0:0:
448,192,239605,128,0,239921:0:0:0:0:
64,192,239605,1,0,0:0:0:0:
320,192,239763,128,0,240079:0:0:0:0:
192,192,239921,128,0,240079:0:0:0:0:
448,192,240079,1,0,0:0:0:0:
64,192,240079,1,0,0:0:0:0:
64,192,240236,1,0,0:0:0:0:
448,192,240236,1,0,0:0:0:0:
64,192,240394,1,0,0:0:0:0:
192,192,240394,128,0,240552:0:0:0:0:
320,192,240394,1,0,0:0:0:0:
448,192,240552,128,0,240710:0:0:0:0:
320,192,240710,1,0,0:0:0:0:
192,192,240710,128,0,240789:0:0:0:0:
64,192,240710,128,0,240947:0:0:0:0:
192,192,240868,128,0,241026:0:0:0:0:
320,192,241026,128,0,241105:0:0:0:0:
64,192,241026,1,0,0:0:0:0:
448,192,241026,128,0,241263:0:0:0:0:
320,192,241184,128,0,241342:0:0:0:0:
192,192,241342,128,0,241421:0:0:0:0:
448,192,241342,1,0,0:0:0:0:
64,192,241342,128,0,241579:0:0:0:0:
192,192,241500,128,0,241658:0:0:0:0:
320,192,241658,128,0,241736:0:0:0:0:
64,192,241658,1,0,0:0:0:0:
448,192,241658,128,0,241894:0:0:0:0:
320,192,241815,128,0,241973:0:0:0:0:
64,192,241973,128,0,242052:0:0:0:0:
192,192,241973,128,0,242131:0:0:0:0:
448,192,241973,1,0,0:0:0:0:
64,192,242131,128,0,242289:0:0:0:0:
320,192,242210,128,0,242289:0:0:0:0:
448,192,242289,128,0,242368:0:0:0:0:
192,192,242289,128,0,242447:0:0:0:0:
448,192,242447,128,0,242605:0:0:0:0:
320,192,242526,128,0,242605:0:0:0:0:
192,192,242605,128,0,242763:0:0:0:0:
64,192,242605,128,0,242842:0:0:0:0:
320,192,242763,128,0,242921:0:0:0:0:
192,192,242842,128,0,242921:0:0:0:0:
64,192,242921,128,0,243079:0:0:0:0:
448,192,242921,128,0,243158:0:0:0:0:
320,192,243079,128,0,243236:0:0:0:0:
192,192,243236,128,0,243315:0:0:0:0:
448,192,243236,1,0,0:0:0:0:
64,192,243236,128,0,243473:0:0:0:0:
192,192,243394,128,0,243552:0:0:0:0:
320,192,243552,128,0,243631:0:0:0:0:
64,192,243552,1,0,0:0:0:0:
448,192,243552,128,0,243789:0:0:0:0:
320,192,243710,128,0,243868:0:0:0:0:
192,192,243868,128,0,243947:0:0:0:0:
448,192,243868,1,0,0:0:0:0:
64,192,243868,128,0,244105:0:0:0:0:
192,192,244026,128,0,244184:0:0:0:0:
320,192,244184,128,0,244263:0:0:0:0:
448,192,244184,128,0,244421:0:0:0:0:
64,192,244184,1,0,0:0:0:0:
320,192,244342,128,0,244500:0:0:0:0:
192,192,244421,128,0,244500:0:0:0:0:
448,192,244500,1,0,0:0:0:0:
64,192,244500,1,0,0:0:0:0:
192,192,244658,128,0,244815:0:0:0:0:
64,192,244658,128,0,244815:0:0:0:0:
448,192,244815,1,0,0:0:0:0:
320,192,244815,128,0,245052:0:0:0:0:
448,192,244973,128,0,245131:0:0:0:0:
192,192,245131,1,0,0:0:0:0:
320,192,245131,1,0,0:0:0:0:
64,192,245131,128,0,245368:0:0:0:0:
320,192,245289,128,0,245447:0:0:0:0:
192,192,245368,128,0,245447:0:0:0:0:
448,192,245447,128,0,245526:0:0:0:0:
64,192,245447,128,0,245526:0:0:0:0:
448,192,245605,128,0,245763:0:0:0:0:
192,192,245605,128,0,245684:0:0:0:0:
192,192,245763,1,0,0:0:0:0:
320,192,245763,1,0,0:0:0:0:
64,192,245763,1,0,0:0:0:0:
448,192,245842,1,0,0:0:0:0:
64,192,245921,1,0,0:0:0:0:
192,192,246000,1,0,0:0:0:0:
320,192,246079,1,0,0:0:0:0:
448,192,246079,1,0,0:0:0:0:
64,192,246158,1,0,0:0:0:0:
320,192,246236,1,0,0:0:0:0:
448,192,246315,1,0,0:0:0:0:
192,192,246394,1,0,0:0:0:0:
64,192,246394,1,0,0:0:0:0:
320,192,246473,1,0,0:0:0:0:
64,192,246552,1,0,0:0:0:0:
192,192,246631,1,0,0:0:0:0:
320,192,246710,1,0,0:0:0:0:
448,192,246710,1,0,0:0:0:0:
192,192,246789,1,0,0:0:0:0:
448,192,246868,1,0,0:0:0:0:
320,192,246947,1,0,0:0:0:0:
64,192,247026,1,0,0:0:0:0:
192,192,247026,1,0,0:0:0:0:
448,192,247105,1,0,0:0:0:0:
64,192,247184,1,0,0:0:0:0:
192,192,247263,1,0,0:0:0:0:
320,192,247342,1,0,0:0:0:0:
448,192,247342,1,0,0:0:0:0:
64,192,247421,1,0,0:0:0:0:
192,192,247500,1,0,0:0:0:0:
320,192,247579,1,0,0:0:0:0:
64,192,247658,1,0,0:0:0:0:
448,192,247658,1,0,0:0:0:0:
192,192,247658,1,0,0:0:0:0:
320,192,247736,1,0,0:0:0:0:
64,192,247815,1,0,0:0:0:0:
448,192,247894,1,0,0:0:0:0:
192,192,247973,1,0,0:0:0:0:
320,192,247973,1,0,0:0:0:0:
64,192,248052,1,0,0:0:0:0:
448,192,248131,1,0,0:0:0:0:
64,192,248210,1,0,0:0:0:0:
320,192,248289,1,0,0:0:0:0:
448,192,248289,1,0,0:0:0:0:
192,192,248368,1,0,0:0:0:0:
320,192,248447,1,0,0:0:0:0:
64,192,248526,1,0,0:0:0:0:
320,192,248605,1,0,0:0:0:0:
448,192,248605,1,0,0:0:0:0:
192,192,248684,1,0,0:0:0:0:
448,192,248763,1,0,0:0:0:0:
320,192,248842,1,0,0:0:0:0:
192,192,248921,1,0,0:0:0:0:
448,192,248921,1,0,0:0:0:0:
64,192,248921,1,0,0:0:0:0:
320,192,249000,1,0,0:0:0:0:
64,192,249079,1,0,0:0:0:0:
192,192,249158,1,0,0:0:0:0:
320,192,249236,1,0,0:0:0:0:
448,192,249236,1,0,0:0:0:0:
64,192,249236,1,0,0:0:0:0:
192,192,249394,1,0,0:0:0:0:
64,192,249473,1,0,0:0:0:0:
448,192,249473,1,0,0:0:0:0:
64,192,249710,1,0,0:0:0:0:
448,192,249710,1,0,0:0:0:0:
448,192,249947,1,0,0:0:0:0:
64,192,249947,1,0,0:0:0:0:
320,192,250184,1,0,0:0:0:0:
192,192,250184,1,0,0:0:0:0:
64,192,250184,1,0,0:0:0:0:
448,192,250184,1,0,0:0:0:0:
192,192,250500,128,0,250658:0:0:0:0:
64,192,250500,128,0,250658:0:0:0:0:
448,192,250658,128,0,250736:0:0:0:0:
320,192,250815,1,0,0:0:0:0:
448,192,250815,1,0,0:0:0:0:
64,192,250815,1,0,0:0:0:0:
192,192,250973,1,0,0:0:0:0:
192,192,251131,1,0,0:0:0:0:
320,192,251131,1,0,0:0:0:0:
320,192,251289,1,0,0:0:0:0:
64,192,251289,1,0,0:0:0:0:
64,192,251447,1,0,0:0:0:0:
448,192,251447,1,0,0:0:0:0:
192,192,251447,1,0,0:0:0:0:
320,192,251605,1,0,0:0:0:0:
192,192,251763,1,0,0:0:0:0:
64,192,251763,1,0,0:0:0:0:
64,192,251921,1,0,0:0:0:0:
320,192,251921,1,0,0:0:0:0:
192,192,252079,1,0,0:0:0:0:
320,192,252079,1,0,0:0:0:0:
448,192,252079,1,0,0:0:0:0:
64,192,252236,1,0,0:0:0:0:
448,192,252394,1,0,0:0:0:0:
320,192,252394,1,0,0:0:0:0:
192,192,252552,1,0,0:0:0:0:
448,192,252552,1,0,0:0:0:0:
320,192,252710,1,0,0:0:0:0:
192,192,252710,1,0,0:0:0:0:
64,192,252710,1,0,0:0:0:0:
448,192,252868,1,0,0:0:0:0:
64,192,253026,1,0,0:0:0:0:
320,192,253026,1,0,0:0:0:0:
192,192,253184,1,0,0:0:0:0:
192,192,253342,1,0,0:0:0:0:
320,192,253342,1,0,0:0:0:0:
448,192,253342,1,0,0:0:0:0:
64,192,253500,1,0,0:0:0:0:
64,192,253658,1,0,0:0:0:0:
320,192,253658,1,0,0:0:0:0:
192,192,253815,1,0,0:0:0:0:
320,192,253815,1,0,0:0:0:0:
448,192,253973,1,0,0:0:0:0:
192,192,253973,1,0,0:0:0:0:
64,192,253973,1,0,0:0:0:0:
320,192,254131,1,0,0:0:0:0:
448,192,254289,1,0,0:0:0:0:
192,192,254289,1,0,0:0:0:0:
320,192,254447,1,0,0:0:0:0:
192,192,254447,1,0,0:0:0:0:
64,192,254605,1,0,0:0:0:0:
320,192,254605,1,0,0:0:0:0:
448,192,254605,1,0,0:0:0:0:
448,192,254763,1,0,0:0:0:0:
192,192,254921,1,0,0:0:0:0:
64,192,254921,1,0,0:0:0:0:
192,192,255079,1,0,0:0:0:0:
448,192,255079,1,0,0:0:0:0:
448,192,255236,1,0,0:0:0:0:
320,192,255236,1,0,0:0:0:0:
64,192,255236,1,0,0:0:0:0:
192,192,255394,1,0,0:0:0:0:
192,192,255552,1,0,0:0:0:0:
64,192,255552,1,0,0:0:0:0:
320,192,255552,128,0,255710:0:0:0:0:
448,192,255552,128,0,255710:0:0:0:0:
64,192,255710,128,0,255789:0:0:0:0:
64,192,255868,1,0,0:0:0:0:
320,192,255868,1,0,0:0:0:0:
192,192,255868,1,0,0:0:0:0:
192,192,256026,1,0,0:0:0:0:
320,192,256184,1,0,0:0:0:0:
448,192,256184,1,0,0:0:0:0:
64,192,256342,1,0,0:0:0:0:
448,192,256342,1,0,0:0:0:0:
320,192,256500,1,0,0:0:0:0:
64,192,256500,1,0,0:0:0:0:
192,192,256500,1,0,0:0:0:0:
320,192,256658,1,0,0:0:0:0:
64,192,256815,1,0,0:0:0:0:
192,192,256815,1,0,0:0:0:0:
64,192,256973,1,0,0:0:0:0:
448,192,256973,1,0,0:0:0:0:
448,192,257131,1,0,0:0:0:0:
320,192,257131,1,0,0:0:0:0:
192,192,257131,1,0,0:0:0:0:
192,192,257289,1,0,0:0:0:0:
320,192,257447,1,0,0:0:0:0:
448,192,257447,1,0,0:0:0:0:
64,192,257605,1,0,0:0:0:0:
448,192,257605,1,0,0:0:0:0:
320,192,257763,1,0,0:0:0:0:
192,192,257763,1,0,0:0:0:0:
64,192,257763,1,0,0:0:0:0:
320,192,257921,1,0,0:0:0:0:
192,192,258079,1,0,0:0:0:0:
64,192,258079,1,0,0:0:0:0:
192,192,258236,1,0,0:0:0:0:
448,192,258394,1,0,0:0:0:0:
320,192,258394,1,0,0:0:0:0:
64,192,258394,1,0,0:0:0:0:
320,192,258552,1,0,0:0:0:0:
448,192,258710,1,0,0:0:0:0:
192,192,258710,1,0,0:0:0:0:
320,192,258868,1,0,0:0:0:0:
192,192,258868,1,0,0:0:0:0:
64,192,259026,1,0,0:0:0:0:
320,192,259026,1,0,0:0:0:0:
448,192,259026,1,0,0:0:0:0:
192,192,259184,1,0,0:0:0:0:
448,192,259342,128,0,259658:0:0:0:0:
192,192,259342,1,0,0:0:0:0:
64,192,259342,1,0,0:0:0:0:
320,192,259421,128,0,259579:0:0:0:0:
64,192,259658,128,0,259973:0:0:0:0:
192,192,259736,128,0,259894:0:0:0:0:
448,192,259973,128,0,260289:0:0:0:0:
320,192,260052,128,0,260210:0:0:0:0:
64,192,260289,128,0,260605:0:0:0:0:
192,192,260368,128,0,260526:0:0:0:0:
192,192,260605,1,0,0:0:0:0:
448,192,260605,128,0,260763:0:0:0:0:
320,192,260605,128,0,260763:0:0:0:0:
192,192,260763,128,0,260842:0:0:0:0:
192,192,260921,1,0,0:0:0:0:
320,192,260921,1,0,0:0:0:0:
448,192,260921,1,0,0:0:0:0:
320,192,261236,1,0,0:0:0:0:
448,192,261236,1,0,0:0:0:0:
64,192,261394,1,0,0:0:0:0:
320,192,261394,1,0,0:0:0:0:
192,192,261552,1,0,0:0:0:0:
64,192,261552,1,0,0:0:0:0:
448,192,261552,1,0,0:0:0:0:
192,192,261868,1,0,0:0:0:0:
64,192,261868,1,0,0:0:0:0:
192,192,262026,1,0,0:0:0:0:
448,192,262026,1,0,0:0:0:0:
448,192,262184,1,0,0:0:0:0:
320,192,262184,1,0,0:0:0:0:
64,192,262184,1,0,0:0:0:0:
192,192,262500,1,0,0:0:0:0:
320,192,262500,1,0,0:0:0:0:
448,192,262658,1,0,0:0:0:0:
320,192,262658,1,0,0:0:0:0:
64,192,262815,1,0,0:0:0:0:
448,192,262815,1,0,0:0:0:0:
192,192,262815,1,0,0:0:0:0:
320,192,263131,1,0,0:0:0:0:
192,192,263131,1,0,0:0:0:0:
320,192,263447,1,0,0:0:0:0:
448,192,263447,1,0,0:0:0:0:
64,192,263447,1,0,0:0:0:0:
448,192,263763,1,0,0:0:0:0:
64,192,263763,1,0,0:0:0:0:
448,192,263921,1,0,0:0:0:0:
192,192,263921,1,0,0:0:0:0:
192,192,264079,1,0,0:0:0:0:
64,192,264079,1,0,0:0:0:0:
320,192,264079,1,0,0:0:0:0:
448,192,264394,1,0,0:0:0:0:
64,192,264394,1,0,0:0:0:0:
320,192,264552,1,0,0:0:0:0:
64,192,264552,1,0,0:0:0:0:
192,192,264710,1,0,0:0:0:0:
320,192,264710,1,0,0:0:0:0:
448,192,264710,1,0,0:0:0:0:
192,192,265026,1,0,0:0:0:0:
320,192,265026,1,0,0:0:0:0:
192,192,265184,1,0,0:0:0:0:
64,192,265184,1,0,0:0:0:0:
448,192,265342,1,0,0:0:0:0:
64,192,265342,1,0,0:0:0:0:
320,192,265342,1,0,0:0:0:0:
192,192,265658,1,0,0:0:0:0:
64,192,265658,1,0,0:0:0:0:
320,192,265658,128,0,265815:0:0:0:0:
448,192,265658,128,0,265815:0:0:0:0:
192,192,265815,128,0,265894:0:0:0:0:
64,192,265973,1,0,0:0:0:0:
192,192,265973,1,0,0:0:0:0:
448,192,265973,1,0,0:0:0:0:
320,192,266289,1,0,0:0:0:0:
64,192,266289,1,0,0:0:0:0:
192,192,266447,1,0,0:0:0:0:
320,192,266447,1,0,0:0:0:0:
448,192,266605,1,0,0:0:0:0:
192,192,266605,1,0,0:0:0:0:
64,192,266605,1,0,0:0:0:0:
448,192,266921,1,0,0:0:0:0:
192,192,266921,1,0,0:0:0:0:
320,192,267079,1,0,0:0:0:0:
192,192,267079,1,0,0:0:0:0:
64,192,267236,1,0,0:0:0:0:
320,192,267236,1,0,0:0:0:0:
448,192,267236,1,0,0:0:0:0:
192,192,267552,1,0,0:0:0:0:
64,192,267552,1,0,0:0:0:0:
192,192,267710,1,0,0:0:0:0:
448,192,267710,1,0,0:0:0:0:
448,192,267868,1,0,0:0:0:0:
320,192,267868,1,0,0:0:0:0:
64,192,267868,1,0,0:0:0:0:
192,192,268184,1,0,0:0:0:0:
320,192,268184,1,0,0:0:0:0:
448,192,268500,1,0,0:0:0:0:
64,192,268500,1,0,0:0:0:0:
192,192,268500,1,0,0:0:0:0:
448,192,268815,1,0,0:0:0:0:
320,192,268815,1,0,0:0:0:0:
64,192,268973,1,0,0:0:0:0:
320,192,268973,1,0,0:0:0:0:
192,192,269131,1,0,0:0:0:0:
64,192,269131,1,0,0:0:0:0:
448,192,269131,1,0,0:0:0:0:
64,192,269447,128,0,269763:0:0:0:0:
320,192,269447,1,0,0:0:0:0:
192,192,269605,128,0,269763:0:0:0:0:
