osu file format v14

[General]
AudioFilename: audio.mp3
AudioLeadIn: 0
PreviewTime: -1
Countdown: 1
SampleSet: Soft
StackLeniency: 0.7
Mode: 0
LetterboxInBreaks: 0
WidescreenStoryboard: 0

[Editor]
Bookmarks: 9880,19727,29573,39419,49265,59111,68957,78804,88650,98496,108342,118188,128034,137880,147727,160114,172501,184888,197275,209662,222049,234436
DistanceSpacing: 1
BeatDivisor: 4
GridSize: 4
TimelineZoom: 2

[Metadata]
Title:Aeropolis
TitleUnicode:Aeropolis
Artist:USAO
ArtistUnicode:USAO
Creator:RLC
Version:ay
Source:
Tags:
BeatmapID:1107363
BeatmapSetID:521333

[Difficulty]
HPDrainRate:6
CircleSize:4
OverallDifficulty:8
ApproachRate:9.4
SliderMultiplier:1.92
SliderTickRate:1

[Events]
//Background and Video events
0,0,"d.jpg",0,0
//Break Periods
2,19927,29033
//Storyboard Layer 0 (Background)
//Storyboard Layer 1 (Fail)
//Storyboard Layer 2 (Pass)
//Storyboard Layer 3 (Foreground)
//Storyboard Sound Samples

[TimingPoints]
35,307.692307692308,4,1,0,40,1,0
35,-100,4,1,0,40,0,0
958,-133.333333333333,4,1,0,40,0,0
1881,-100,4,1,0,40,0,0
3419,-133.333333333333,4,1,0,40,0,0
4342,-100,4,1,0,40,0,0
5419,-133.333333333333,4,1,0,40,0,0
7111,-100,4,1,0,40,0,0
8035,-133.333333333333,4,1,0,40,0,0
9881,-100,4,1,0,40,0,0
10804,-133.333333333333,4,1,0,40,0,0
11727,-100,4,1,0,40,0,0
12342,-133.333333333333,4,1,0,40,0,0
12958,-100,4,1,0,40,0,0
13265,-133.333333333333,4,1,0,40,0,0
14188,-100,4,1,0,40,0,0
19111,-100,4,1,0,40,0,0
29573,-200,4,2,0,60,0,0
39419,-166.666666666667,4,2,0,60,0,0
49265,-117.647058823529,4,2,0,60,0,0
57881,-117.647058823529,4,1,0,60,0,0
59111,-111.111111111111,4,1,0,60,0,0
77573,-166.666666666667,4,1,0,60,0,0
78496,-200,4,1,0,60,0,0
78804,-111.111111111111,4,1,0,60,0,0
88035,-100,4,1,0,60,0,0
88650,-66.6666666666667,4,1,0,60,0,1
88958,-100,4,1,0,60,0,1
89727,-66.6666666666667,4,1,0,60,0,1
90496,-100,4,1,0,60,0,0
91111,-66.6666666666667,4,1,0,60,0,1
92958,-100,4,1,0,60,0,0
93265,-66.6666666666667,4,1,0,60,0,0
93573,-66.6666666666667,4,1,0,60,0,1
95419,-100,4,1,0,60,0,0
96035,-66.6666666666667,4,1,0,60,0,1
97881,-100,4,1,0,60,0,0
98496,-66.6666666666667,4,1,0,60,0,1
100342,-50,4,1,0,60,0,0
100650,-66.6666666666667,4,1,0,60,0,0
100958,-66.6666666666667,4,1,0,60,0,1
102804,-133.333333333333,4,1,0,60,0,0
102958,-100,4,1,0,60,0,0
103111,-66.6666666666667,4,1,0,60,0,0
103265,-57.1428571428571,4,1,0,60,0,0
103419,-66.6666666666667,4,1,0,60,0,1
105265,-50,4,1,0,60,0,0
105573,-66.6666666666667,4,1,0,60,0,0
105881,-100,4,1,0,60,0,1
106496,-50,4,1,0,60,0,1
106804,-66.6666666666667,4,1,0,60,0,1
107727,-100,4,1,0,60,0,0
108342,-66.6666666666667,4,1,0,60,0,1
108650,-100,4,1,0,60,0,1
108958,-66.6666666666667,4,1,0,60,0,1
110188,-100,4,1,0,60,0,1
110804,-66.6666666666667,4,1,0,60,0,1
112958,-100,4,1,0,60,0,0
113265,-66.6666666666667,4,1,0,60,0,1
113881,-100,4,1,0,60,0,1
117573,-100,4,1,0,60,0,0
118188,-66.6666666666667,4,1,0,60,0,1
120035,-100,4,1,0,60,0,1
120650,-66.6666666666667,4,1,0,60,0,1
121881,-80,4,1,0,60,0,1
122804,-71.4285714285714,4,1,0,60,0,0
123111,-66.6666666666667,4,1,0,60,0,1
123727,-100,4,1,0,60,0,1
127727,-66.6666666666667,4,1,0,60,0,1
128035,-100,4,1,0,60,0,0
146496,-200,4,1,0,60,0,0
146958,-300,4,1,0,60,0,0
147727,387.096774193548,4,1,0,60,1,0
147727,-200,4,2,0,60,0,0
160114,-133.333333333333,4,2,0,60,0,0
172501,-117.647058823529,4,1,0,60,0,0
195726,-117.647058823529,4,1,0,6,0,0
195920,-117.647058823529,4,1,0,60,0,0
197275,-66.6666666666667,4,1,0,60,0,1
197662,-133.333333333333,4,1,0,60,0,1
198049,-66.6666666666667,4,1,0,60,0,1
198823,-133.333333333333,4,1,0,60,0,1
199597,-66.6666666666667,4,1,0,60,0,1
200372,-133.333333333333,4,1,0,60,0,1
201146,-66.6666666666667,4,1,0,60,0,1
201920,-50,4,1,0,60,0,1
202307,-133.333333333333,4,1,0,60,0,1
203081,-200,4,1,0,60,0,0
203468,-66.6666666666667,4,1,0,60,0,1
203856,-133.333333333333,4,1,0,60,0,1
205017,-66.6666666666667,4,1,0,60,0,1
205791,-133.333333333333,4,1,0,60,0,1
206565,-66.6666666666667,4,1,0,60,0,1
206952,-133.333333333333,4,1,0,60,0,1
207339,-50,4,1,0,60,0,1
207726,-133.333333333333,4,1,0,60,0,1
208694,-166.666666666667,4,1,0,60,0,1
209275,-100,4,1,0,5,0,0
209662,-66.6666666666667,4,1,0,60,0,1
210049,-200,4,1,0,60,0,1
210436,-66.6666666666667,4,1,0,60,0,1
211597,-133.333333333333,4,1,0,60,0,1
211985,-66.6666666666667,4,1,0,60,0,1
212178,-80,4,1,0,60,0,1
212372,-100,4,1,0,60,0,1
212565,-133.333333333333,4,1,0,60,0,1
212759,-66.6666666666667,4,1,0,60,0,1
213533,-66.6666666666667,4,1,0,60,0,1
215081,-133.333333333333,4,1,0,60,0,1
215275,-100,4,1,0,60,0,1
215468,-80,4,1,0,60,0,1
215662,-66.6666666666667,4,1,0,60,0,1
215856,-50,4,1,0,60,0,1
216436,-80,4,1,0,60,0,1
216630,-66.6666666666667,4,1,0,60,0,1
217791,-133.333333333333,4,1,0,60,0,1
218178,-100,4,1,0,60,0,1
218952,-66.6666666666667,4,1,0,60,0,1
220888,-83.3333333333333,4,1,0,60,0,1
221275,-125,4,1,0,60,0,0
221565,-100,4,1,0,60,0,0
221856,-50,4,1,0,60,0,0
222049,-57.1428571428571,4,1,0,60,0,1
222436,-100,4,1,0,60,0,1
222823,-66.6666666666667,4,1,0,60,0,1
223597,-100,4,1,0,60,0,1
223985,-57.1428571428571,4,1,0,60,0,1
224759,-80,4,1,0,60,0,1
225146,-57.1428571428571,4,1,0,60,0,1
225920,-66.6666666666667,4,1,0,60,0,1
226694,-100,4,1,0,60,0,1
227081,-66.6666666666667,4,1,0,60,0,1
227856,-66.6666666666667,4,1,0,60,0,0
228243,-57.1428571428571,4,1,0,60,0,1
228630,-80,4,1,0,60,0,1
229017,-100,4,1,0,60,0,1
231339,-66.6666666666667,4,1,0,60,0,1
231726,-100,4,1,0,60,0,1
233662,-66.6666666666667,4,1,0,60,0,0
234436,-57.1428571428571,4,1,0,60,0,1
234823,-100,4,1,0,60,0,1
235210,-66.6666666666667,4,1,0,60,0,1
236372,-57.1428571428571,4,1,0,60,0,1
236759,-66.6666666666667,4,1,0,60,0,1
239468,-57.1428571428571,4,1,0,60,0,1
239856,-66.6666666666667,4,1,0,60,0,1
240243,-100,4,1,0,60,0,0
240630,-57.1428571428571,4,1,0,60,0,1
241404,-66.6666666666667,4,1,0,60,0,1
243339,-100,4,1,0,60,0,1
243726,-66.6666666666667,4,1,0,60,0,1
244501,-80,4,1,0,60,0,1
245275,-100,4,1,0,60,0,1
246823,-100,4,1,0,60,0,0
271597,-133.333333333333,4,2,0,60,0,0
283985,-200,4,2,0,60,0,0
289791,-400,4,2,0,60,0,0

[HitObjects]
383,122,35,6,0,L|392:338,1,192
392,329,650,1,0,0:0:0:0:
288,102,958,2,0,B|325:103|362:89|362:89|391:108|421:119|421:119|452:105|508:112,1,216.000008239746
302,355,1573,2,0,B|275:308|275:308|295:237,1,108.000004119873
297,234,1881,6,0,L|183:253,1,96
391,218,2188,2,0,L|277:237,1,96
121,271,2496,6,0,B|137:134|137:134|165:196,1,192
196,298,2958,1,0,0:0:0:0:
42,276,3111,1,0,0:0:0:0:
322,265,3419,2,0,B|285:266|251:252|251:252|213:278|213:278|163:260|163:260|138:269|100:274,1,216.000008239746
299,80,4035,2,0,B|323:118|323:118|309:182,1,108.000004119873
309,179,4342,2,0,L|414:190,1,96
310,359,4650,2,0,L|415:370,1,96
483,286,4958,6,0,L|267:265,1,192
328,74,5419,1,0,0:0:0:0:
328,74,5573,2,0,L|334:160,1,72.0000027465821
454,174,5881,2,0,B|477:106|477:106|443:30,1,144.000005493164
291,267,6496,1,0,0:0:0:0:
254,81,6804,2,0,L|370:97,1,108.000004119873
177,100,7111,6,0,L|285:116,1,96
410,74,7419,6,0,B|461:41|461:41|444:177,1,192
350,257,7881,1,0,0:0:0:0:
344,160,8035,2,0,L|349:244,1,72.0000027465821
262,358,8342,2,0,B|226:317|226:317|251:214,1,144.000005493164
248,230,8804,1,0,0:0:0:0:
80,289,8958,2,0,L|174:280,1,72.0000027465821
80,95,9265,2,0,L|174:104,1,72.0000027465821
168,191,9573,6,0,B|110:175|119:215|42:189,1,108.000004119873
80,95,9881,5,0,0:0:0:0:
151,282,10035,1,0,0:0:0:0:
151,282,10111,1,0,0:0:0:0:
151,282,10188,2,0,B|139:331|139:331|154:381,1,96
321,188,10496,2,0,B|333:237|333:237|318:287,1,96
46,138,10804,6,0,P|116:124|189:117,1,144.000005493164
423,312,11419,1,0,0:0:0:0:
367,55,11727,6,0,B|331:96|331:96|359:209,1,144
298,269,12035,1,0,0:0:0:0:
31,100,12342,6,0,L|156:116,1,108.000004119873
138,113,12650,1,0,0:0:0:0:
250,74,12804,1,0,0:0:0:0:
358,38,12958,2,0,B|393:16|393:16|365:127,1,144
373,213,13265,6,0,B|317:204|317:204|294:176|294:176|231:167,1,144.000005493164
35,335,13881,1,0,0:0:0:0:
71,47,14188,6,0,L|94:192,1,144
181,230,14496,2,0,P|207:223|243:168,1,96
144,336,14804,1,0,0:0:0:0:
181,230,14958,1,0,0:0:0:0:
53,342,15111,6,0,B|96:324|96:324|144:336,1,96
403,243,15419,2,0,B|357:259|357:259|258:239,1,144
195,175,15727,5,0,0:0:0:0:
263,240,15881,1,0,0:0:0:0:
282,150,16035,1,0,0:0:0:0:
80,317,16342,5,0,0:0:0:0:
453,355,16650,5,0,0:0:0:0:
218,59,16958,6,0,L|231:165,1,96
449,233,17265,5,0,0:0:0:0:
411,202,17419,1,0,0:0:0:0:
362,199,17573,5,0,0:0:0:0:
319,222,17727,1,0,0:0:0:0:
289,258,17881,5,0,0:0:0:0:
242,268,18035,1,0,0:0:0:0:
194,260,18188,5,0,0:0:0:0:
158,227,18342,1,0,0:0:0:0:
158,227,18496,5,0,0:0:0:0:
194,260,18573,1,0,0:0:0:0:
242,268,18650,1,0,0:0:0:0:
289,258,18727,1,0,0:0:0:0:
319,222,18804,1,0,0:0:0:0:
362,199,18881,1,0,0:0:0:0:
411,202,18958,1,0,0:0:0:0:
449,233,19035,1,0,0:0:0:0:
460,280,19111,6,0,P|423:272|425:130,1,192
74,312,19727,1,0,0:0:0:0:
48,243,29573,5,0,0:0:0:0:
151,311,29727,2,0,L|91:303,2,48
161,213,30342,2,0,L|101:205,2,48
226,270,30804,1,0,0:0:0:0:
274,181,30958,2,0,P|304:170|338:166,1,48
436,187,31265,2,0,P|439:143|456:78,1,96
350,13,31727,2,0,P|362:54|365:78,1,48
353,143,32035,5,0,0:0:0:0:
232,171,32188,2,0,L|278:161,2,48
477,111,32804,2,0,L|430:120,2,48
353,143,33265,2,0,L|366:248,1,96
397,310,33727,1,0,0:0:0:0:
312,316,33881,2,0,L|303:370,1,48
489,248,34188,2,0,L|425:235,1,48
244,174,34496,5,0,0:0:0:0:
194,292,34650,2,0,L|190:245,2,48
140,99,35265,2,0,L|135:146,2,48
244,174,35727,1,0,0:0:0:0:
194,292,35881,2,0,L|190:245,1,48
58,143,36188,2,0,B|42:190|42:190|63:241,1,96
59,232,36650,2,0,L|114:225,2,48
253,201,37112,5,0,0:0:0:0:
175,306,37265,1,0,0:0:0:0:
181,154,37419,2,0,L|281:164,1,96
168,133,37881,1,0,0:0:0:0:
184,258,38035,2,0,L|284:268,1,96
171,237,38497,1,0,0:0:0:0:
188,356,38650,2,0,L|246:364,1,48
390,283,38958,5,0,0:0:0:0:
308,310,39111,1,0,0:0:0:0:
451,340,39265,1,0,0:0:0:0:
415,186,39419,6,0,P|380:174|316:214,1,115.199996484375
238,150,39881,1,0,0:0:0:0:
128,339,40188,2,0,L|69:354,2,57.5999982421876
317,211,40804,1,0,0:0:0:0:
199,155,40958,2,0,L|210:230,1,57.5999982421876
86,177,41265,2,0,B|75:110|75:110|91:72|91:72|82:9,1,172.799994726563
195,42,41881,6,0,P|225:39|274:111,1,115.199996484375
378,51,42342,1,0,0:0:0:0:
254,246,42650,2,0,L|195:254,2,57.5999982421876
453,296,43111,1,0,0:0:0:0:
376,214,43265,2,0,B|355:256|355:256|356:331,1,115.199996484375
113,211,43727,2,0,P|118:135|205:113,1,172.799994726563
175,177,44342,6,0,L|42:154,1,115.199996484375
321,79,44804,2,0,L|454:56,1,115.199996484375
459,259,45265,2,0,P|425:250|410:228,1,57.5999982421876
201,39,45573,6,0,B|218:83|218:83|214:164,1,115.199996484375
121,279,46035,2,0,P|88:276|59:187,1,115.199996484375
322,136,46496,2,0,L|318:193,1,57.5999982421876
30,85,46804,6,0,B|89:77|89:77|139:108,1,115.199996484375
207,338,47265,2,0,L|217:200,1,115.199996484375
325,89,47727,6,0,B|387:68|379:123|434:104,1,115.199996484375
215,223,48188,2,0,P|181:228|131:151,1,115.199996484375
380,95,48650,6,0,L|366:267,1,172.799994726563
365,267,49265,6,0,L|272:280,1,81.6000015563965
144,300,49573,1,0,0:0:0:0:
276,172,49727,1,0,0:0:0:0:
163,100,49881,2,0,L|172:207,1,81.6000015563965
279,337,50188,2,0,B|251:293|251:293|266:211,1,122.400002334595
271,203,50496,2,0,L|178:217,1,81.6000015563965
59,58,50804,2,0,L|152:65,1,81.6000015563965
274,100,51111,2,0,B|216:107|216:107|185:142|185:142|120:151,1,163.200003112793
141,65,51573,1,0,0:0:0:0:
155,318,51727,6,0,L|166:237,2,81.6000015563965
57,170,52188,2,0,B|95:154|95:154|136:159,1,81.6000015563965
15,262,52496,1,0,0:0:0:0:
199,234,52650,2,0,L|328:219,1,122.400002334595
340,218,52958,6,0,L|331:310,1,81.6000015563965
180,231,53265,2,0,L|189:139,1,81.6000015563965
357,203,53573,2,0,L|341:355,1,122.400002334595
341,350,53881,1,0,0:0:0:0:
444,275,54035,1,0,0:0:0:0:
259,266,54188,6,0,B|174:258|188:306|91:294,1,163.200003112793
117,126,54650,2,0,P|124:175|126:215,1,81.6000015563965
37,177,54958,1,0,0:0:0:0:
175,49,55111,2,0,P|204:86|220:124,1,81.6000015563965
297,222,55419,6,0,P|368:226|449:154,1,163.200003112793
439,173,55881,1,0,0:0:0:0:
333,44,56035,2,0,L|344:134,1,81.6000015563965
428,74,56342,1,0,0:0:0:0:
243,104,56496,1,0,0:0:0:0:
352,205,56650,6,0,L|341:115,1,81.6000015563965
333,44,56958,1,0,0:0:0:0:
331,35,57111,1,0,0:0:0:0:
69,120,57265,1,0,0:0:0:0:
182,40,57419,1,0,0:0:0:0:
174,125,57573,1,0,0:0:0:0:
166,210,57727,1,0,0:0:0:0:
443,120,57881,5,0,0:0:0:0:
69,120,58035,1,0,0:0:0:0:
69,120,58111,1,0,0:0:0:0:
69,120,58188,1,0,0:0:0:0:
366,239,58342,2,0,L|376:296,1,40.8000007781983
146,239,58496,2,0,L|136:296,1,40.8000007781983
256,136,58650,1,0,0:0:0:0:
256,271,58804,1,0,0:0:0:0:
256,284,58881,1,0,0:0:0:0:
256,296,58958,2,0,L|256:339,1,40.8000007781983
75,275,59111,6,0,P|96:249|163:244,1,86.3999973632813
388,316,59419,2,0,L|389:215,1,86.3999973632813
299,38,59727,1,0,0:0:0:0:
472,127,59881,1,0,0:0:0:0:
299,38,60035,2,0,P|257:44|228:74,1,86.3999973632813
49,221,60342,5,0,0:0:0:0:
143,243,60496,1,0,0:0:0:0:
237,266,60650,1,0,0:0:0:0:
40,183,60804,1,0,0:0:0:0:
225,350,60958,2,0,B|239:313|239:313|237:266,1,86.3999973632813
409,80,61265,2,0,B|402:127|402:127|413:165,1,86.3999973632813
237,266,61573,5,0,0:0:0:0:
427,321,61727,1,0,0:0:0:0:
283,81,61881,2,0,P|248:85|209:126,1,86.3999973632813
63,292,62188,2,0,L|167:301,1,86.3999973632813
450,212,62496,2,0,B|386:205|386:205|359:174|359:174|285:167,1,172.799994726563
203,88,62958,5,0,0:0:0:0:
314,353,63111,2,0,P|296:320|304:267,1,86.3999973632813
149,201,63419,1,0,0:0:0:0:
344,86,63573,1,0,0:0:0:0:
149,201,63727,2,0,L|47:184,1,86.3999973632813
271,323,64035,6,0,L|178:341,1,86.3999973632813
330,179,64342,1,0,0:0:0:0:
447,294,64496,1,0,0:0:0:0:
207,228,64650,2,0,P|194:200|205:141,1,86.3999973632813
126,355,64958,2,0,P|91:332|66:277,1,86.3999973632813
406,268,65265,5,0,0:0:0:0:
306,249,65419,1,0,0:0:0:0:
207,228,65573,1,0,0:0:0:0:
422,226,65727,1,0,0:0:0:0:
218,311,65881,2,0,B|203:272|203:272|207:226,1,86.3999973632813
411,37,66188,2,0,B|426:78|426:78|422:122,1,86.3999973632813
83,169,66496,6,0,P|90:120|209:85,1,172.799994726563
387,281,66958,1,0,0:0:0:0:
220,231,67111,2,0,P|211:271|231:328,1,86.3999973632813
481,159,67419,6,0,B|366:146|366:146|326:103,1,172.799994726563
104,317,67881,1,0,0:0:0:0:
296,259,68035,2,0,L|306:355,1,86.3999973632813
66,123,68342,2,0,L|60:218,1,86.3999973632813
335,34,68650,2,0,L|344:145,1,86.3999973632813
196,346,68958,6,0,B|186:293|186:293|207:231|207:231|196:162,1,172.799994726563
70,362,69419,1,0,0:0:0:0:
24,212,69573,2,0,L|129:228,1,86.3999973632813
220,66,69881,2,0,B|160:75|160:75|123:116|123:116|57:126,1,172.799994726563
326,41,70342,5,0,0:0:0:0:
221,160,70496,1,0,0:0:0:0:
370,200,70650,1,0,0:0:0:0:
107,239,70804,5,0,0:0:0:0:
309,134,70958,1,0,0:0:0:0:
157,96,71111,1,0,0:0:0:0:
205,246,71265,1,0,0:0:0:0:
240,78,71419,5,0,0:0:0:0:
370,200,71573,2,0,L|464:185,1,86.3999973632813
349,88,71881,1,0,0:0:0:0:
275,306,72035,2,0,L|264:197,1,86.3999973632813
8,274,72342,2,0,B|95:242|88:313|190:267,1,172.799994726563
129,194,72804,5,0,0:0:0:0:
45,353,72958,1,0,0:0:0:0:
113,183,73111,1,0,0:0:0:0:
36,245,73265,5,0,0:0:0:0:
221,201,73419,1,0,0:0:0:0:
139,287,73573,1,0,0:0:0:0:
178,93,73727,1,0,0:0:0:0:
96,170,73881,6,0,B|153:181|153:181|187:230|187:230|244:243,1,172.799994726563
8,202,74342,1,0,0:0:0:0:
263,68,74496,2,0,L|251:160,1,86.3999973632813
341,348,74804,2,0,B|384:296|384:296|368:185,1,172.799994726563
443,360,75265,1,0,0:0:0:0:
289,272,75419,1,0,0:0:0:0:
465,258,75573,1,0,0:0:0:0:
212,180,75727,5,0,0:0:0:0:
356,345,75881,1,0,0:0:0:0:
311,189,76035,1,0,0:0:0:0:
243,364,76188,1,0,0:0:0:0:
405,199,76342,6,0,L|419:103,2,86.3999973632813
338,54,76804,1,0,0:0:0:0:
489,234,76958,2,0,B|385:205|385:205|320:243,1,172.799994726563
401,302,77419,1,0,0:0:0:0:
247,292,77573,6,0,L|234:157,2,115.199996484375
214,156,78496,6,0,L|223:237,1,72
136,284,78804,6,0,P|90:277|63:237,1,86.3999973632813
329,185,79111,1,0,0:0:0:0:
136,284,79265,1,0,0:0:0:0:
398,358,79419,2,0,P|398:313|404:271,1,86.3999973632813
235,58,79727,2,0,P|233:121|223:198,1,129.599996044922
133,135,80035,6,0,P|96:131|53:153,1,86.3999973632813
341,192,80342,1,0,0:0:0:0:
193,28,80496,1,0,0:0:0:0:
113,245,80650,2,0,B|98:343|98:343|147:327,1,129.599996044922
208,285,80958,1,0,0:0:0:0:
487,198,81265,6,0,L|328:174,1,129.599996044922
358,178,81573,1,0,0:0:0:0:
468,72,81727,1,0,0:0:0:0:
237,95,81881,2,0,B|220:131|220:131|242:229,1,129.599996044922
263,309,82188,1,0,0:0:0:0:
98,124,82496,5,0,0:0:0:0:
98,124,82650,1,0,0:0:0:0:
358,178,82804,1,0,0:0:0:0:
149,298,82958,1,0,0:0:0:0:
288,52,83111,2,0,P|374:59|462:90,1,172.799994726563
455,86,83727,6,0,P|458:140|439:169,1,86.3999973632813
227,135,84035,1,0,0:0:0:0:
380,292,84188,1,0,0:0:0:0:
336,92,84342,1,0,0:0:0:0:
154,269,84496,1,0,0:0:0:0:
228,38,84650,1,0,0:0:0:0:
289,206,84804,1,0,0:0:0:0:
106,102,84958,6,0,L|58:92,2,43.1999986816407
381,72,85265,2,0,P|374:117|372:176,1,86.3999973632813
154,288,85573,1,0,0:0:0:0:
371,157,85727,1,0,0:0:0:0:
88,177,85881,1,0,0:0:0:0:
416,254,86035,1,0,0:0:0:0:
264,36,86188,5,0,0:0:0:0:
255,59,86264,1,0,0:0:0:0:
250,83,86341,1,0,0:0:0:0:
254,107,86418,1,0,0:0:0:0:
264,129,86495,1,0,0:0:0:0:
269,154,86572,1,0,0:0:0:0:
266,178,86649,1,0,0:0:0:0:
260,202,86726,1,0,0:0:0:0:
190,159,86804,5,0,0:0:0:0:
216,133,86880,1,0,0:0:0:0:
251,122,86957,1,0,0:0:0:0:
287,127,87034,1,0,0:0:0:0:
318,148,87111,1,0,0:0:0:0:
336,180,87188,1,0,0:0:0:0:
339,216,87265,1,0,0:0:0:0:
325,250,87342,1,0,0:0:0:0:
256,302,87419,6,0,L|257:340,7,21.5999993408203
170,268,87727,2,0,L|171:306,7,21.5999993408203
83,318,88035,5,0,0:0:0:0:
429,318,88188,1,0,0:0:0:0:
429,318,88265,1,0,0:0:0:0:
429,318,88342,2,0,L|429:267,1,48
256,88,88496,2,0,L|256:135,1,48
29,200,88650,6,0,B|85:200|124:184|156:151|156:151|140:198|151:241,1,216.000008239746
240,290,88958,2,0,B|255:243|255:243|233:181,1,96
239,199,89188,1,0,0:0:0:0:
239,199,89265,1,0,0:0:0:0:
75,283,89419,1,0,0:0:0:0:
328,336,89573,1,0,0:0:0:0:
156,155,89727,2,0,L|150:69,1,72.0000027465821
285,11,89881,6,0,B|248:72|248:72|275:149,1,144.000005493164
414,97,90111,1,0,0:0:0:0:
414,97,90188,2,0,P|363:92|335:76,1,72.0000027465821
222,247,90342,2,0,P|255:233|291:233,1,72.0000027465821
453,181,90496,5,0,0:0:0:0:
272,140,90650,1,0,0:0:0:0:
453,199,90804,2,0,L|455:258,1,48
272,154,90958,2,0,L|274:213,1,48
374,372,91111,6,0,B|366:221|366:221|352:264|312:290,1,216.000008239746
207,350,91419,2,0,B|242:340|237:363|290:349,1,72.0000027465821
459,340,91573,1,0,0:0:0:0:
283,193,91727,2,0,B|308:139|308:139|406:132|406:132|446:190,1,216.000008239746
493,262,92035,2,0,B|469:274|469:274|410:261,1,72.0000027465821
283,193,92188,2,0,B|259:181|259:181|200:194,1,72.0000027465821
129,365,92342,5,0,0:0:0:0:
78,136,92496,1,0,0:0:0:0:
255,271,92650,1,0,0:0:0:0:
25,221,92804,1,0,0:0:0:0:
25,221,92881,1,0,0:0:0:0:
25,221,92958,6,0,L|110:208,1,48
167,197,93111,2,0,L|252:184,1,48
301,285,93265,6,0,L|216:296,1,72.0000027465821
138,309,93419,2,0,L|53:320,1,72.0000027465821
369,224,93573,6,0,P|441:203|411:305,1,216.000008239746
301,285,93881,2,0,B|274:216|274:216|314:142,1,144.000005493164
307,154,94111,1,0,0:0:0:0:
307,154,94188,1,0,0:0:0:0:
215,341,94342,1,0,0:0:0:0:
369,224,94496,1,0,0:0:0:0:
228,90,94650,1,0,0:0:0:0:
310,355,94804,6,0,P|308:317|296:273,1,72.0000027465821
170,193,94958,1,0,0:0:0:0:
170,193,95035,1,0,0:0:0:0:
170,193,95111,2,0,P|208:191|252:179,1,72.0000027465821
389,60,95265,2,0,P|354:51|318:50,1,72.0000027465821
123,60,95419,5,0,0:0:0:0:
342,193,95573,1,0,0:0:0:0:
389,60,95727,5,0,0:0:0:0:
170,193,95881,1,0,0:0:0:0:
247,67,96035,6,0,B|292:25|292:25|273:185,1,216.000008239746
292,275,96342,2,0,L|220:267,1,72.0000027465821
165,106,96496,1,0,0:0:0:0:
369,184,96650,2,0,B|334:188|303:168|303:168|265:192|265:192|225:175|225:175|195:190|159:194,1,216.000008239746
169,192,96958,1,0,0:0:0:0:
439,316,97111,1,0,0:0:0:0:
439,316,97188,1,0,0:0:0:0:
439,316,97265,6,0,P|440:267|448:236,1,72.0000027465821
357,29,97419,2,0,P|363:64|363:100,1,72.0000027465821
209,201,97573,1,0,0:0:0:0:
155,29,97727,2,0,P|148:64|148:100,1,72.0000027465821
303,201,97881,1,0,0:0:0:0:
96,251,98035,5,0,0:0:0:0:
96,251,98111,1,0,0:0:0:0:
96,251,98188,2,0,L|102:314,1,48
416,251,98342,2,0,L|410:314,1,48
260,155,98496,6,0,B|246:109|250:69|250:69|227:111|228:162|260:217,1,216.000008239746
224,302,98804,2,0,B|303:330|289:265|365:300,1,144.000005493164
459,214,99035,5,0,0:0:0:0:
459,214,99111,2,0,L|446:129,1,72.0000027465821
418,103,99265,2,0,L|428:174,1,72.0000027465821
310,188,99419,2,0,P|278:185|234:140,1,72.0000027465821
163,58,99573,2,0,P|131:57|82:93,1,72.0000027465821
62,242,99727,1,0,0:0:0:0:
113,32,99881,6,0,P|80:46|51:94,1,72.0000027465821
62,344,100035,2,0,B|119:331|119:331|138:299|138:299|213:281,1,144.000005493164
404,281,100342,6,0,B|455:260|455:260|418:331,1,96
308,189,100496,2,0,B|257:168|257:168|293:239,1,96
423,238,100650,6,0,B|461:225|461:225|510:250,1,72.0000027465821
287,145,100804,2,0,B|249:132|249:132|200:157,1,72.0000027465821
422,237,100958,6,0,B|444:83|444:83|407:130,1,216.000008239746
287,145,101265,2,0,B|265:42|265:42|301:75,1,144.000005493164
278,304,101573,6,0,B|238:314|197:302|221:259|148:266|124:292|124:292|145:283|173:290,1,216.000008239746
264,204,101881,2,0,P|279:188|332:199,1,72.0000027465821
406,130,102035,2,0,P|442:143|446:197,1,72.0000027465821
385,353,102188,5,0,0:0:0:0:
156,173,102342,1,0,0:0:0:0:
453,172,102496,1,0,0:0:0:0:
211,312,102650,5,0,0:0:0:0:
211,312,102727,1,0,0:0:0:0:
211,312,102804,2,0,L|216:244,1,36.0000013732911
135,202,102958,6,0,P|140:173|151:155,1,48
189,57,103111,6,0,P|220:58|255:85,1,72.0000027465821
367,85,103265,6,0,P|377:141|342:187,1,84.0000008010864
445,312,103419,6,0,B|417:314|368:278|368:278|356:319|356:319|324:285|263:287,1,216.000008239746
191,345,103727,2,0,P|156:351|101:271,1,144.000005493164
142,179,103958,5,0,0:0:0:0:
142,179,104035,2,0,P|128:141|125:103,1,72.0000027465821
163,37,104188,2,0,P|157:72|161:108,1,72.0000027465821
296,242,104342,2,0,P|321:241|361:213,1,72.0000027465821
389,41,104496,2,0,P|425:44|454:65,1,72.0000027465821
458,320,104650,5,0,0:0:0:0:
457,24,104804,2,0,P|485:45|499:78,1,72.0000027465821
359,215,104958,2,0,B|414:219|414:219|440:199|440:199|495:205,1,144.000005493164
193,142,105265,6,0,P|161:134|178:174,1,96
298,70,105419,2,0,P|330:62|313:102,1,96
156,103,105573,6,0,P|123:112|97:153,1,72.0000027465821
320,25,105727,2,0,P|354:33|376:62,1,72.0000027465821
170,0,105881,6,0,L|197:168,1,144
279,184,106188,2,0,L|267:297,1,96
207,354,106419,5,0,0:0:0:0:
207,354,106496,2,0,B|169:335|150:307|150:307|146:361|146:361|97:326|97:326|95:355|95:355|64:333|17:350,1,288
28,346,106804,6,0,P|25:297|48:254,1,72.0000027465821
146,136,106958,2,0,P|166:181|163:224,1,72.0000027465821
296,297,107111,2,0,P|372:282|455:263,1,144.000005493164
256,276,107419,6,0,P|332:261|415:242,1,144.000005493164
438,149,107650,1,0,0:0:0:0:
438,149,107727,6,0,B|396:126|396:126|379:68,1,96
148,208,108035,1,0,0:0:0:0:
256,36,108188,1,0,0:0:0:0:
461,314,108342,6,0,B|399:292|399:292|366:318|366:318|326:292|326:292|249:324,1,216.000008239746
176,330,108650,6,0,L|281:314,1,96
402,100,108958,6,0,B|346:66|346:66|367:221,1,216.000008239746
366,215,109265,2,0,P|329:211|291:211,1,72.0000027465821
256,39,109419,1,0,0:0:0:0:
402,100,109573,6,0,B|367:101|342:83|342:83|313:101|292:132|292:132|250:114|194:124,1,216.000008239746
181,256,109881,2,0,P|257:290|220:201,1,216.000008239746
181,256,110188,2,0,L|168:370,1,96
77,178,110496,2,0,L|81:232,1,48
66,191,110650,2,0,L|70:245,1,48
74,82,110804,6,0,B|121:77|163:110|173:166|173:166|205:139|240:138,1,216.000008239746
399,198,111111,2,0,P|356:187|321:188,1,72.0000027465821
240,228,111265,1,0,0:0:0:0:
319,333,111419,2,0,B|330:186|330:186|276:242,1,216.000008239746
144,300,111727,2,0,L|153:216,1,72.0000027465821
142,147,111881,2,0,L|151:231,1,72.0000027465821
85,360,112035,6,0,B|45:321|45:321|66:216,1,144.000005493164
175,64,112342,2,0,P|95:62|163:138,1,216.000008239746
243,131,112650,2,0,L|314:141,1,72.0000027465821
476,175,112804,1,0,0:0:0:0:
370,77,112958,6,0,B|410:57|410:57|392:165,1,144
167,277,113265,6,0,B|225:272|273:248|300:221|300:221|284:266|293:304,1,216.000008239746
507,278,113573,2,0,B|465:274|437:248|437:248|408:271|350:271,1,144.000005493164
375,269,113804,1,0,0:0:0:0:
375,269,113881,2,0,L|382:202,1,48
324,106,114035,2,0,L|330:173,1,48
459,130,114188,2,0,L|402:137,1,48
226,29,114342,2,0,L|283:36,1,48
402,55,114496,6,0,B|360:66|360:66|326:117|326:117|261:138,1,144
268,138,114804,1,0,0:0:0:0:
132,98,114958,2,0,L|138:156,1,48
119,111,115111,2,0,L|125:169,1,48
138,239,115265,1,0,0:0:0:0:
105,19,115419,1,0,0:0:0:0:
273,194,115573,1,0,0:0:0:0:
273,194,115650,1,0,0:0:0:0:
273,194,115727,6,0,L|217:203,1,48
103,269,115881,2,0,L|159:278,1,48
305,334,116035,2,0,L|191:356,1,96
441,227,116342,1,0,0:0:0:0:
317,78,116496,2,0,L|321:126,1,48
470,56,116650,2,0,L|465:104,1,48
344,154,116804,2,0,L|348:202,1,48
441,227,116958,5,0,0:0:0:0:
71,157,117111,1,0,0:0:0:0:
273,326,117265,1,0,0:0:0:0:
239,58,117419,2,0,L|246:131,1,48
256,192,117573,1,0,0:0:0:0:
133,284,117727,1,0,0:0:0:0:
133,284,117804,1,0,0:0:0:0:
133,284,117881,2,0,P|106:292|80:291,1,48
379,100,118035,2,0,P|406:92|432:93,1,48
259,58,118188,6,0,B|251:104|240:124|240:124|268:156|287:212|287:212|212:192,1,216.000008239746
118,302,118496,2,0,P|94:305|46:217,1,144.000005493164
177,242,118727,1,0,0:0:0:0:
177,242,118804,2,0,B|208:276|200:322|200:322|237:282|244:174,1,216.000008239746
229,132,119111,2,0,P|242:167|238:213,1,72.0000027465821
118,302,119265,1,0,0:0:0:0:
229,132,119419,6,0,B|311:150|311:150|340:194|340:194|435:215,1,216.000008239746
425,102,119727,2,0,B|447:17|447:17|404:57,1,144.000005493164
209,286,120035,6,0,B|124:254|149:325|59:295,1,144
79,160,120342,2,0,L|90:207,1,48
91,122,120496,2,0,L|101:168,1,48
217,378,120650,6,0,P|261:370|293:268,1,144.000005493164
266,191,120881,1,0,0:0:0:0:
266,191,120958,1,0,0:0:0:0:
419,287,121111,1,0,0:0:0:0:
136,223,121265,2,0,B|114:77|114:77|173:118,1,216.000008239746
136,223,121573,2,0,P|104:223|75:182,1,72.0000027465821
236,299,121727,2,0,P|268:299|297:258,1,72.0000027465821
480,165,121881,6,0,B|434:151|392:168|392:168|371:129|298:120,1,180
238,55,122188,2,0,P|199:51|174:124,1,120
480,165,122496,2,0,L|492:92,1,60
373,226,122650,2,0,L|385:153,1,60
412,41,122804,6,0,B|394:8|353:17|356:67|391:87|391:87|377:124|377:124|388:150|388:150|378:180,1,201.599993847656
273,271,123111,6,0,B|198:280|134:307|134:307|158:276|152:222,1,216.000008239746
52,245,123419,2,0,P|26:229|29:260,3,72.0000027465821
56,197,123727,6,0,L|52:245,1,48
161,80,123881,2,0,L|173:145,1,48
273,271,124035,2,0,L|388:276,1,96
390,261,124342,6,0,L|294:256,1,96
390,261,124650,1,0,0:0:0:0:
169,127,124804,1,0,0:0:0:0:
434,82,124958,2,0,L|440:34,1,48
328,144,125111,2,0,L|318:97,1,48
184,28,125265,2,0,P|141:25|85:77,1,96
72,36,125573,6,0,P|111:9|158:11,1,96
72,36,125881,1,0,0:0:0:0:
243,222,126035,1,0,0:0:0:0:
1,162,126188,1,0,0:0:0:0:
114,279,126342,2,0,L|123:210,1,48
259,70,126496,2,0,L|265:117,1,48
92,305,126650,2,0,L|101:236,1,48
343,218,126804,5,0,0:0:0:0:
142,119,126958,1,0,0:0:0:0:
378,17,127111,2,0,P|414:38|433:93,1,96
219,317,127419,1,0,0:0:0:0:
287,89,127573,2,0,L|296:136,1,48
436,240,127727,1,0,0:0:0:0:
436,240,127804,1,0,0:0:0:0:
436,240,127881,2,0,L|421:317,1,72.0000027465821
242,236,128035,6,0,L|353:225,1,96
42,194,128342,1,0,0:0:0:0:
153,337,128496,2,0,L|138:249,1,48
114,113,128650,1,0,0:0:0:0:
271,19,128804,5,0,0:0:0:0:
188,164,128958,1,0,0:0:0:0:
52,49,129111,1,0,0:0:0:0:
275,97,129265,6,0,P|280:147|282:206,1,96
199,298,129573,1,0,0:0:0:0:
387,258,129727,1,0,0:0:0:0:
294,370,129881,2,0,P|296:322|300:274,1,96
425,174,130188,1,0,0:0:0:0:
481,323,130342,1,0,0:0:0:0:
282,253,130496,6,0,B|176:223|208:306|84:278,1,192
243,337,130958,1,0,0:0:0:0:
360,189,131111,2,0,P|382:250|379:305,1,96
253,170,131419,1,0,0:0:0:0:
320,352,131573,1,0,0:0:0:0:
185,273,131727,6,0,L|304:248,1,96
423,129,132035,1,0,0:0:0:0:
193,62,132188,1,0,0:0:0:0:
315,37,132342,2,0,L|307:145,1,96
222,313,132650,1,0,0:0:0:0:
213,207,132804,1,0,0:0:0:0:
305,243,132958,5,0,0:0:0:0:
136,269,133111,2,0,L|40:282,1,96
273,142,133419,1,0,0:0:0:0:
140,79,133573,2,0,B|116:124|116:124|125:167,1,96
290,331,133881,2,0,B|314:286|314:286|305:243,1,96
414,121,134188,6,0,L|249:142,1,144
241,144,134496,2,0,P|246:88|237:30,1,96
49,253,134804,2,0,L|153:235,1,96
247,271,135111,1,0,0:0:0:0:
151,97,135265,1,0,0:0:0:0:
309,195,135419,6,0,B|270:240|270:240|276:313|276:313|235:367,1,192
370,270,135881,1,0,0:0:0:0:
111,168,136035,2,0,L|156:274,1,96
230,68,136342,2,0,L|213:184,1,96
17,141,136650,6,0,P|96:134|163:97,1,144
230,68,136958,1,0,0:0:0:0:
148,256,137111,1,0,0:0:0:0:
311,172,137265,2,0,L|175:187,1,96
117,341,137573,1,0,0:0:0:0:
197,185,137727,1,0,0:0:0:0:
310,309,137881,6,0,L|423:322,1,96
497,157,138188,2,0,P|475:122|421:102,1,96
204,31,138496,1,0,0:0:0:0:
261,216,138650,1,0,0:0:0:0:
128,126,138804,1,0,0:0:0:0:
317,76,138958,1,0,0:0:0:0:
137,249,139111,6,0,B|89:249|89:249|45:219,1,96
229,129,139419,1,0,0:0:0:0:
65,32,139573,1,0,0:0:0:0:
362,53,139727,2,0,P|356:105|354:169,1,96
397,309,140035,1,0,0:0:0:0:
209,136,140188,1,0,0:0:0:0:
112,254,140342,6,0,B|197:218|172:271|257:243,1,144
251,244,140650,1,0,0:0:0:0:
34,153,140804,1,0,0:0:0:0:
201,40,140958,2,0,P|230:51|265:125,1,96
157,344,141265,1,0,0:0:0:0:
362,208,141419,1,0,0:0:0:0:
157,150,141573,5,0,0:0:0:0:
256,272,141727,1,0,0:0:0:0:
48,338,141881,2,0,L|61:242,1,96
318,112,142188,2,0,B|326:192|326:192|348:229|348:229|357:304,1,192
140,132,142650,1,0,0:0:0:0:
149,294,142804,6,0,P|178:302|245:279,1,96
414,126,143111,1,0,0:0:0:0:
414,126,143265,1,0,0:0:0:0:
247,38,143419,2,0,L|262:159,1,96
362,325,143727,1,0,0:0:0:0:
177,227,143881,1,0,0:0:0:0:
364,175,144035,6,0,P|406:177|447:224,1,96
150,94,144342,2,0,P|108:96|67:143,1,96
129,333,144650,1,0,0:0:0:0:
243,193,144804,1,0,0:0:0:0:
38,91,144958,2,0,L|56:241,1,144
55,233,145265,5,0,0:0:0:0:
212,340,145419,2,0,P|242:340|298:303,1,96
389,94,145727,1,0,0:0:0:0:
267,163,145881,2,0,L|259:105,2,48
496,185,146188,2,0,L|479:300,1,96
273,313,146496,6,0,P|249:316|218:301,1,48
359,237,146804,1,0,0:0:0:0:
211,199,146958,6,0,B|135:210|176:240|94:247,1,128
95,246,147727,6,0,P|91:187|84:137,2,96
175,66,148694,2,0,L|169:132,1,48
246,207,149081,2,0,L|252:141,1,48
403,145,150436,1,0,0:0:0:0:
370,372,150823,6,0,B|333:311|403:218|469:324|369:371|294:322|311:242|365:222|365:222|328:206|316:151,1,336
329,92,152372,2,0,P|287:101|231:108,1,96
234,107,152952,2,0,P|238:152|242:219,1,96
244,287,153533,1,0,0:0:0:0:
24,236,153920,6,0,B|154:198|111:327|254:284,1,240
321,137,155081,2,0,L|315:195,1,48
207,211,155468,2,0,B|195:78|195:78|253:128,1,192
239,116,157017,6,0,L|133:137,1,96
372,112,157791,2,0,L|363:49,1,48
399,153,158178,2,0,L|402:89,1,48
372,233,158565,1,0,0:0:0:0:
444,271,158759,2,0,P|482:278|506:273,2,48
315,298,159339,2,0,P|297:316|224:347,1,96
44,301,160114,6,0,P|39:250|122:209,1,144.000005493164
254,73,160888,1,0,0:0:0:0:
254,73,161081,2,0,L|263:148,1,72.0000027465821
148,82,161468,1,0,0:0:0:0:
366,109,161662,6,0,L|464:100,1,72.0000027465821
334,317,162049,2,0,B|281:307|281:307|258:274|258:274|196:263,1,144.000005493164
91,87,162823,2,0,L|85:171,1,72.0000027465821
42,333,163210,6,0,P|71:316|116:317,1,72.0000027465821
227,170,163597,2,0,P|255:178|293:221,1,72.0000027465821
377,346,163985,1,0,0:0:0:0:
108,211,164372,2,0,L|117:50,1,144.000005493164
440,56,165146,5,0,0:0:0:0:
334,143,165339,2,0,P|267:143|234:62,1,144.000005493164
428,265,165920,2,0,L|422:348,1,72.0000027465821
261,277,166307,5,0,0:0:0:0:
65,214,166694,2,0,P|97:191|143:192,1,72.0000027465821
407,159,167081,1,0,0:0:0:0:
266,37,167275,2,0,L|262:116,1,72.0000027465821
142,331,167662,1,0,0:0:0:0:
265,262,167856,6,0,L|401:278,1,108.000004119873
446,210,168243,2,0,P|449:177|431:135,1,72.0000027465821
266,37,168630,1,0,0:0:0:0:
106,317,169017,2,0,L|189:327,1,72.0000027465821
349,184,169404,5,0,0:0:0:0:
91,59,169791,2,0,P|84:94|93:128,1,72.0000027465821
42,285,170178,1,0,0:0:0:0:
264,347,170565,2,0,L|242:203,1,144.000005493164
242,204,171146,5,0,0:0:0:0:
316,81,171339,2,0,P|348:83|383:117,1,72.0000027465821
168,35,171726,2,0,P|123:56|111:104,1,72.0000027465821
102,301,172114,6,0,L|99:318,6,18.0000006866455
84,285,172501,6,0,P|150:277|238:264,1,122.400002334595
283,220,172888,1,0,0:0:0:0:
198,363,173081,1,0,0:0:0:0:
378,312,173275,2,0,P|327:308|284:307,1,81.6000015563965
132,160,173662,2,0,P|183:164|226:165,1,81.6000015563965
455,99,174049,6,0,P|400:106|334:156,1,122.400002334595
280,196,174436,2,0,P|267:154|269:106,1,81.6000015563965
60,310,174823,2,0,P|112:313|226:241,1,163.200003112793
267,116,175404,1,0,0:0:0:0:
53,228,175597,6,0,L|61:324,1,81.6000015563965
191,129,175985,2,0,L|183:33,1,81.6000015563965
24,98,176372,1,0,0:0:0:0:
296,240,176759,2,0,L|160:260,1,122.400002334595
174,257,177146,5,0,0:0:0:0:
396,272,177339,2,0,P|404:328|408:388,1,81.6000015563965
428,132,177726,1,0,0:0:0:0:
182,266,177920,2,0,P|187:200|199:112,1,122.400002334595
285,147,178307,1,0,0:0:0:0:
99,308,178501,1,0,0:0:0:0:
278,243,178694,6,0,B|194:200|200:258|100:204,1,163.200003112793
413,327,179275,2,0,P|450:312|488:282,1,81.6000015563965
218,321,179662,1,0,0:0:0:0:
335,130,179856,2,0,P|379:164|403:257,1,122.400002334595
316,116,180243,6,0,P|351:85|391:74,1,81.6000015563965
225,218,180630,1,0,0:0:0:0:
230,44,180823,1,0,0:0:0:0:
12,117,181017,2,0,P|49:142|149:145,1,122.400002334595
293,99,181404,1,0,0:0:0:0:
148,143,181597,1,0,0:0:0:0:
319,93,181791,6,0,L|426:77,1,81.6000015563965
219,58,182178,1,0,0:0:0:0:
168,239,182372,2,0,L|61:223,1,81.6000015563965
319,93,182759,1,0,0:0:0:0:
268,297,182952,2,0,L|251:166,1,122.400002334595
252,175,183339,5,0,0:0:0:0:
447,320,183533,2,0,P|401:312|354:311,1,81.6000015563965
345,143,183920,1,0,0:0:0:0:
74,276,184114,2,0,P|133:276|214:247,1,122.400002334595
248,123,184501,1,0,0:0:0:0:
276,373,184694,1,0,0:0:0:0:
92,183,184888,6,0,P|44:186|-1:198,1,81.6000015563965
235,259,185275,1,0,0:0:0:0:
346,95,185468,2,0,P|367:128|368:171,1,81.6000015563965
147,48,185856,1,0,0:0:0:0:
114,276,186049,2,0,P|159:274|253:252,1,122.400002334595
327,322,186436,6,0,P|377:312|431:326,1,81.6000015563965
200,139,186823,1,0,0:0:0:0:
454,88,187017,2,0,L|444:179,1,81.6000015563965
454,88,187597,1,0,0:0:0:0:
359,277,187791,1,0,0:0:0:0:
200,139,187985,6,0,P|155:137|119:166,1,81.6000015563965
38,71,188372,1,0,0:0:0:0:
199,263,188565,1,0,0:0:0:0:
43,331,188759,2,0,P|47:286|55:228,1,81.6000015563965
274,72,189146,2,0,P|281:132|287:198,1,122.400002334595
232,275,189533,5,0,0:0:0:0:
454,207,189726,2,0,L|439:289,1,81.6000015563965
168,143,190114,1,0,0:0:0:0:
272,34,190307,2,0,B|367:26|332:90|427:82,1,163.200003112793
292,343,190888,1,0,0:0:0:0:
471,188,191081,5,0,0:0:0:0:
202,239,191275,1,0,0:0:0:0:
420,363,191468,2,0,L|409:278,1,81.6000015563965
130,308,191856,1,0,0:0:0:0:
279,135,192049,1,0,0:0:0:0:
46,73,192243,2,0,L|56:153,1,81.6000015563965
269,267,192630,5,0,0:0:0:0:
25,350,192823,1,0,0:0:0:0:
184,128,193017,1,0,0:0:0:0:
368,340,193210,1,0,0:0:0:0:
137,262,193404,5,0,0:0:0:0:
375,140,193597,1,0,0:0:0:0:
57,138,193791,1,0,0:0:0:0:
448,298,193985,1,0,0:0:0:0:
248,348,194178,5,0,0:0:0:0:
257,325,194275,1,0,0:0:0:0:
262,301,194372,1,0,0:0:0:0:
258,277,194468,1,0,0:0:0:0:
248,255,194565,1,0,0:0:0:0:
243,230,194662,1,0,0:0:0:0:
246,206,194759,1,0,0:0:0:0:
252,182,194856,1,0,0:0:0:0:
322,225,194952,5,0,0:0:0:0:
296,251,195049,1,0,0:0:0:0:
261,262,195146,1,0,0:0:0:0:
225,257,195243,1,0,0:0:0:0:
194,236,195339,1,0,0:0:0:0:
176,204,195436,1,0,0:0:0:0:
173,168,195533,1,0,0:0:0:0:
187,134,195630,1,0,0:0:0:0:
258,82,195726,5,0,0:0:0:0:
421,313,196501,5,0,0:0:0:0:
104,252,196694,1,0,0:0:0:0:
104,252,196791,1,0,0:0:0:0:
104,252,196888,2,0,L|156:243,1,40.8000007781983
163,96,197081,2,0,L|213:109,1,40.8000007781983
333,231,197275,6,0,B|292:196|292:196|316:95,1,144.000005493164
388,162,197565,1,0,0:0:0:0:
297,338,197662,2,0,L|188:354,1,108.000004119873
112,368,198049,6,0,B|98:333|98:333|113:277,1,72.0000027465821
230,119,198243,2,0,L|240:212,1,72.0000027465821
401,258,198436,2,0,B|366:238|366:238|327:247,1,72.0000027465821
85,139,198630,2,0,L|172:155,1,72.0000027465821
330,132,198823,5,0,0:0:0:0:
330,132,198920,1,0,0:0:0:0:
330,132,199017,2,0,L|335:78,1,36.0000013732911
188,298,199210,2,0,L|196:388,1,72.0000027465821
252,207,199501,1,0,0:0:0:0:
187,277,199597,6,0,B|147:290|147:290|104:281,1,72.0000027465821
333,205,199791,2,0,B|373:218|373:218|416:209,1,72.0000027465821
142,118,199985,2,0,L|151:203,1,72.0000027465821
368,297,200178,2,0,L|359:382,1,72.0000027465821
382,133,200372,6,0,P|433:131|480:146,1,72.0000027465821
333,205,200662,1,0,0:0:0:0:
297,89,200759,2,0,L|244:78,1,36.0000013732911
109,157,200952,1,0,0:0:0:0:
109,157,201049,1,0,0:0:0:0:
109,157,201146,6,0,B|145:163|145:163|187:142,1,72.0000027465821
392,293,201339,2,0,L|376:376,1,72.0000027465821
276,153,201533,2,0,L|260:70,1,72.0000027465821
441,206,201726,2,0,B|409:190|409:190|373:196,1,72.0000027465821
41,272,201920,6,0,B|90:264|90:264|137:284|137:284|192:276,1,144
259,226,202114,2,0,P|267:288|259:340,1,96
170,349,202307,6,0,L|181:266,1,72.0000027465821
208,108,202597,1,0,0:0:0:0:
183,257,202694,1,0,0:0:0:0:
124,174,202791,1,0,0:0:0:0:
265,194,202888,1,0,0:0:0:0:
32,163,203081,2,0,L|109:171,1,72
293,169,203468,6,0,B|249:220|249:220|268:328,1,144.000005493164
348,298,203759,1,0,0:0:0:0:
187,344,203856,2,0,L|115:334,1,72.0000027465821
378,190,204243,1,0,0:0:0:0:
378,190,204339,1,0,0:0:0:0:
378,190,204436,2,0,L|424:184,1,36.0000013732911
255,108,204630,2,0,L|261:192,1,72.0000027465821
248,26,204920,1,0,0:0:0:0:
396,68,205017,6,0,B|370:64|370:64|345:74|345:74|304:66,1,72.0000027465821
21,175,205210,2,0,B|47:171|47:171|72:181|72:181|113:173,1,72.0000027465821
248,26,205404,2,0,L|244:116,1,72.0000027465821
216,347,205597,2,0,B|235:316|235:316|224:272,1,72.0000027465821
172,139,205791,6,0,L|183:225,1,72.0000027465821
287,224,206081,1,0,0:0:0:0:
79,228,206178,2,0,L|90:314,1,72.0000027465821
49,140,206468,1,0,0:0:0:0:
49,140,206565,6,0,B|85:131|85:131|135:153,1,72.0000027465821
355,219,206759,2,0,B|319:210|319:210|269:232,1,72.0000027465821
197,328,206952,6,0,L|196:249,1,72.0000027465821
191,161,207243,1,0,0:0:0:0:
64,262,207339,6,0,B|92:260|114:249|114:249|151:272|151:272|189:252|231:256,1,144
271,294,207533,2,0,B|285:248|285:248|260:198,1,96
272,133,207726,6,0,L|261:219,1,72.0000027465821
184,151,208017,1,0,0:0:0:0:
357,102,208114,1,0,0:0:0:0:
348,182,208210,1,0,0:0:0:0:
339,262,208307,1,0,0:0:0:0:
100,142,208501,5,0,0:0:0:0:
424,298,208694,2,0,L|438:146,1,143.999995605469
447,66,209275,2,0,L|446:78,12,12
351,72,209662,6,0,P|301:65|250:138,1,144.000005493164
279,238,209952,1,0,0:0:0:0:
120,317,210049,2,0,L|193:326,1,72
223,306,210436,6,0,L|151:297,1,72
76,214,210630,2,0,P|71:182|93:139,1,72.0000027465821
308,59,210823,2,0,P|322:91|317:126,1,72.0000027465821
0,79,211017,2,0,P|28:52|82:47,1,72.0000027465821
361,224,211210,5,0,0:0:0:0:
94,304,211404,1,0,0:0:0:0:
122,279,211501,1,0,0:0:0:0:
195,203,211597,2,0,L|187:131,1,72.0000027465821
187,131,211985,6,0,L|101:122,1,72.0000027465821
274,321,212178,6,0,L|214:313,1,60
352,53,212372,6,0,L|400:60,1,48
460,282,212565,6,0,L|412:275,1,36.0000013732911
274,321,212759,6,0,B|240:261|251:191|282:162|357:161|331:235|324:267|216:187|235:152,1,288.000010986329
308,81,213243,1,0,0:0:0:0:
308,81,213339,1,0,0:0:0:0:
30,219,213533,6,0,B|28:240|6:258|6:258|59:237|59:237|79:250|79:250|107:232|107:232|138:219|184:239,1,216.000008239746
234,153,213920,2,0,P|238:128|206:81,1,72.0000027465821
71,33,214114,2,0,P|51:62|54:98,1,72.0000027465821
351,101,214307,2,0,L|422:91,1,72.0000027465821
364,306,214501,2,0,L|292:296,1,72.0000027465821
141,134,214694,5,0,0:0:0:0:
63,327,214888,1,0,0:0:0:0:
106,310,214985,1,0,0:0:0:0:
194,276,215081,6,0,L|202:343,1,36.0000013732911
339,176,215275,6,0,L|348:248,1,48
120,91,215468,6,0,L|131:173,1,60
411,16,215662,6,0,L|423:105,1,72.0000027465821
480,354,215856,6,0,B|420:348|351:317|351:317|390:316|420:273,1,192
225,207,216146,2,0,B|237:229|276:230|276:230|207:261|149:267,1,192
52,188,216436,2,0,P|42:157|52:120,1,60
52,188,216630,6,0,P|30:228|40:282,1,72.0000027465821
171,42,216823,2,0,P|174:78|194:108,1,72.0000027465821
230,275,217017,2,0,P|267:277|321:256,1,72.0000027465821
405,65,217210,2,0,P|370:55|334:57,1,72.0000027465821
143,207,217404,5,0,0:0:0:0:
385,285,217597,1,0,0:0:0:0:
355,290,217694,1,0,0:0:0:0:
252,254,217791,6,0,L|262:341,1,72.0000027465821
143,338,218081,1,0,0:0:0:0:
97,211,218178,6,0,L|162:203,1,48
428,247,218372,2,0,L|380:252,1,48
68,246,218565,6,0,L|133:238,1,48
463,275,218759,2,0,L|415:280,1,48
239,331,218952,6,0,B|256:290|258:246|214:189|214:189|248:195|277:233,1,216.000008239746
145,278,219339,2,0,P|137:266|140:308,1,144.000005493164
214,189,219630,1,0,0:0:0:0:
130,128,219726,6,0,P|98:125|108:155,3,72.0000027465821
379,250,220114,1,0,0:0:0:0:
232,59,220307,5,0,0:0:0:0:
232,59,220404,1,0,0:0:0:0:
335,34,220501,6,0,L|329:123,1,72.0000027465821
350,137,220694,2,0,L|354:65,1,72.0000027465821
450,270,220888,6,0,P|420:303|332:296,1,115.199996484375
270,218,221178,1,0,0:0:0:0:
78,327,221275,6,0,L|27:339,2,38.4
184,342,221565,2,0,L|163:214,1,96
168,247,221856,6,0,P|192:225|200:269,1,96
44,170,222049,6,0,B|87:164|87:164|109:152|109:152|139:166|139:166|161:153|161:153|214:148,1,168.000001602173
281,97,222339,1,0,0:0:0:0:
281,97,222436,2,0,B|293:144|293:144|280:209,1,96
268,274,222726,1,0,0:0:0:0:
415,309,222823,2,0,P|451:278|349:257,1,216.000008239746
334,334,223210,2,0,L|340:377,2,36.0000013732911
275,177,223404,2,0,P|228:184|199:203,1,72.0000027465821
61,298,223597,6,0,L|212:284,1,144
177,167,223985,2,0,B|245:136|245:136|220:318,1,252.000002403259
94,200,224372,2,0,L|83:108,2,84.0000008010864
0,174,224662,1,0,0:0:0:0:
175,84,224759,2,0,L|191:232,1,120
429,284,225146,6,0,B|393:283|364:270|364:270|328:309|328:309|289:308|247:319,1,168.000001602173
295,147,225436,1,0,0:0:0:0:
295,147,225533,2,0,L|288:238,1,84.0000008010864
179,336,225726,1,0,0:0:0:0:
391,110,225920,2,0,P|450:103|406:199,1,216.000008239746
311,74,226307,2,0,P|308:126|314:159,1,72.0000027465821
231,251,226501,2,0,P|234:199|228:166,1,72.0000027465821
14,226,226694,6,0,L|163:210,1,144
363,190,227081,2,0,B|249:154|278:249|152:209,1,216.000008239746
195,59,227468,1,0,0:0:0:0:
195,59,227565,1,0,0:0:0:0:
195,59,227662,2,0,B|199:88|199:88|195:107|195:107|201:139,1,72.0000027465821
275,302,227856,2,0,B|284:210|284:210|280:246|280:246|292:138,1,216.000008239746
104,92,228243,6,0,B|47:137|47:137|76:265,1,168.000001602173
36,326,228533,1,0,0:0:0:0:
36,326,228630,2,0,L|174:308,1,120
197,183,229017,6,0,L|142:172,1,48
361,114,229210,2,0,L|398:71,1,48
253,89,229404,2,0,L|238:48,2,24
334,283,229597,2,0,L|351:336,1,48
302,202,229791,6,0,L|201:217,1,96
121,232,230081,1,0,0:0:0:0:
253,89,230178,2,0,L|354:74,1,96
178,49,230468,1,0,0:0:0:0:
207,216,230565,2,0,L|216:279,2,48
168,39,230856,1,0,0:0:0:0:
195,205,230952,2,0,L|213:317,1,96
360,284,231243,1,0,0:0:0:0:
360,284,231339,6,0,B|327:262|314:220|314:220|295:387,1,216.000008239746
401,204,231726,2,0,P|442:197|467:196,1,48
346,130,231920,1,0,0:0:0:0:
315,219,232017,1,0,0:0:0:0:
254,147,232114,1,0,0:0:0:0:
254,147,232210,2,0,P|213:155|147:153,1,96
65,63,232501,2,0,P|82:94|89:120,1,48
51,236,232694,2,0,P|69:205|88:186,1,48
168,251,232888,6,0,L|181:355,1,96
90,317,233178,1,0,0:0:0:0:
238,187,233275,2,0,L|232:133,1,48
341,329,233468,2,0,L|347:383,1,48
389,155,233662,6,0,P|354:120|367:177,1,144.000005493164
468,134,233952,1,0,0:0:0:0:
464,214,234049,6,0,B|430:216|403:197|403:197|375:236|375:236|334:218|334:218|303:239|264:242,1,216.000008239746
155,150,234436,6,0,B|193:117|193:117|164:273,1,168.000001602173
217,356,234726,1,0,0:0:0:0:
217,356,234823,2,0,B|184:345|164:312|164:312|136:340|69:350,1,144
0,160,235210,6,0,B|71:149|71:149|126:183|126:183|233:171,1,216.000008239746
269,90,235597,2,0,P|272:111|275:125,2,36.0000013732911
172,35,235791,2,0,P|167:77|160:118,1,72.0000027465821
39,244,235985,6,0,B|101:210|101:210|188:237,1,144.000005493164
256,267,236275,1,0,0:0:0:0:
243,277,236372,2,0,P|335:276|263:195,1,252.000002403259
417,295,236759,6,0,B|453:172|375:204|415:57,1,216.000008239746
488,38,237146,2,0,P|496:88|486:117,1,72.0000027465821
322,98,237339,2,0,P|325:47|341:21,1,72.0000027465821
511,234,237533,6,0,B|459:229|424:173|424:173|388:234|288:237,1,216.000008239746
413,366,237920,2,0,L|417:281,1,72.0000027465821
505,133,238114,1,0,0:0:0:0:
266,194,238307,6,0,P|219:210|264:127,1,216.000008239746
342,51,238694,2,0,P|330:93|332:134,1,72.0000027465821
151,161,238888,2,0,P|149:125|138:90,1,72.0000027465821
231,30,239081,6,0,L|243:192,1,144.000005493164
247,312,239372,1,0,0:0:0:0:
263,305,239468,2,0,B|328:268|328:268|111:310,1,252.000002403259
68,348,239856,6,0,B|56:314|56:314|62:257,1,72.0000027465821
254,235,240049,2,0,B|266:269|266:269|260:326,1,72.0000027465821
145,191,240243,6,0,B|151:138|151:138|149:154|149:154|152:128|152:128|150:146|150:146|153:107,1,144
214,41,240630,6,0,B|137:13|137:13|67:64,1,168.000001602173
83,181,240920,2,0,B|160:209|160:209|230:158,1,168.000001602173
299,88,241210,2,0,L|429:103,1,84.0000008010864
477,42,241404,6,0,P|469:84|469:133,1,72.0000027465821
350,255,241597,2,0,P|348:219|340:183,1,72.0000027465821
465,202,241791,2,0,L|514:197,2,36.0000013732911
374,79,241985,1,0,0:0:0:0:
480,297,242178,6,0,L|326:276,1,144.000005493164
258,174,242468,2,0,B|276:252|227:228|252:338,1,144.000005493164
161,355,242759,2,0,P|150:317|150:277,1,72.0000027465821
160,188,242952,6,0,L|80:174,1,72.0000027465821
337,277,243146,2,0,L|417:263,1,72.0000027465821
202,84,243339,2,0,B|269:63|269:63|354:114,1,144
507,118,243726,6,0,B|438:126|438:126|391:183|391:183|288:194,1,216.000008239746
189,81,244114,2,0,P|190:122|196:193,1,72.0000027465821
212,360,244307,2,0,P|210:318|205:248,1,72.0000027465821
283,177,244501,6,0,L|362:155,1,60
125,268,244694,2,0,L|70:292,1,60
287,263,244888,6,0,L|367:282,1,60
115,188,245081,2,0,L|53:171,1,60
199,131,245275,6,0,P|196:87|197:26,1,96
197,36,245565,1,0,0:0:0:0:
197,36,245662,1,0,0:0:0:0:
275,84,245856,1,0,0:0:0:0:
117,91,246049,5,0,0:0:0:0:
198,153,246146,2,0,L|203:224,2,48
289,56,246436,5,0,0:0:0:0:
106,194,246630,1,0,0:0:0:0:
214,288,246823,6,0,L|307:219,1,96,0|0,2:0|2:0,2:0:0:0:
430,340,247210,2,0,L|323:293,1,96
367,127,247597,2,0,L|380:242,1,96
302,273,247985,5,0,0:0:0:0:
460,157,248179,1,0,0:0:0:0:
284,159,248372,5,0,0:0:0:0:
461,253,248565,1,0,0:0:0:0:
403,79,248759,2,0,P|451:61|510:72,1,96
334,251,249146,6,0,P|266:264|176:171,1,192
294,57,249726,1,0,0:0:0:0:
99,86,249920,6,0,P|146:92|215:94,1,96
284,159,250307,1,0,0:0:0:0:
94,230,250501,2,0,L|89:167,1,48
319,266,250694,6,0,P|271:268|223:274,1,96
140,355,251081,1,0,0:0:0:0:
179,188,251275,1,0,0:0:0:0:
254,364,251468,5,0,0:0:0:0:
34,301,251662,1,0,0:0:0:0:
179,188,251856,2,0,L|187:295,1,96
101,130,252243,6,0,P|40:127|-2:152,1,96
273,221,252630,2,0,P|320:226|397:171,1,144
479,109,253017,6,0,P|478:162|478:225,1,96
415,271,253404,1,0,0:0:0:0:
390,80,253597,1,0,0:0:0:0:
271,125,253791,6,0,P|272:173|273:221,1,96
184,250,254178,1,0,0:0:0:0:
209,59,254371,1,0,0:0:0:0:
367,176,254565,5,0,0:0:0:0:
181,154,254759,1,0,0:0:0:0:
282,343,254952,2,0,P|281:296|274:222,1,96
4,212,255339,6,0,B|101:193|69:280|190:248,1,192
271,125,255920,1,0,0:0:0:0:
144,75,256114,6,0,P|146:150|145:189,1,96
30,291,256501,1,0,0:0:0:0:
193,264,256694,2,0,P|161:269|125:270,1,48
58,195,256888,6,0,P|60:120|59:81,1,96
0,43,257275,1,0,0:0:0:0:
141,136,257468,1,0,0:0:0:0:
56,212,257662,5,0,0:0:0:0:
121,25,257856,1,0,0:0:0:0:
237,171,258049,2,0,P|231:124|231:76,1,96
311,306,258436,6,0,B|232:253|232:253|122:295,1,192
145,158,259017,1,0,0:0:0:0:
312,209,259210,6,0,P|362:204|435:199,1,96
402,30,259597,2,0,P|381:75|349:141,1,96
512,197,259984,2,0,P|482:156|441:95,1,96
421,212,260372,5,0,0:0:0:0:
500,28,260565,1,0,0:0:0:0:
281,81,260759,5,0,0:0:0:0:
456,118,260952,1,0,0:0:0:0:
337,277,261146,2,0,P|333:226|325:169,1,96
64,103,261533,6,0,B|124:113|124:113|167:158|167:158|254:172,1,192
77,202,262114,1,0,0:0:0:0:
211,64,262307,6,0,L|319:77,1,96
394,88,262694,1,0,0:0:0:0:
235,168,262888,2,0,L|229:239,1,48
269,310,263081,6,0,L|161:297,1,96
86,286,263468,1,0,0:0:0:0:
140,210,263662,1,0,0:0:0:0:
124,372,263856,5,0,0:0:0:0:
50,193,264049,1,0,0:0:0:0:
230,215,264243,2,0,L|227:114,1,96
299,58,264630,6,0,P|346:45|415:63,1,96
139,118,265017,2,0,P|92:131|2:86,1,144
130,22,265404,6,0,L|139:126,1,96
110,207,265791,1,0,0:0:0:0:
223,101,265985,1,0,0:0:0:0:
218,370,266178,6,0,L|227:265,1,96
198,185,266565,1,0,0:0:0:0:
311,291,266759,1,0,0:0:0:0:
144,317,266952,5,0,0:0:0:0:
290,196,267146,1,0,0:0:0:0:
126,215,267339,2,0,P|65:215|14:209,1,96
268,111,267726,6,0,B|369:92|334:184|471:142,1,192
407,64,268307,1,0,0:0:0:0:
290,196,268501,6,0,P|292:247|298:301,1,96
372,350,268888,1,0,0:0:0:0:
203,260,269081,2,0,L|210:325,1,48
387,261,269275,6,0,P|391:213|393:165,1,96
322,93,269662,1,0,0:0:0:0:
484,210,269856,1,0,0:0:0:0:
288,198,270049,5,0,0:0:0:0:
480,107,270243,1,0,0:0:0:0:
243,33,270436,2,0,P|228:101|239:140,1,96
415,288,270823,5,0,0:0:0:0:
266,205,271017,1,0,0:0:0:0:
435,184,271210,1,0,0:0:0:0:
311,301,271404,1,0,0:0:0:0:
343,133,271597,5,0,0:0:0:0:
343,133,271791,1,0,0:0:0:0:
311,301,271985,2,0,P|260:310|235:309,1,72.0000027465821
150,45,272372,5,0,0:0:0:0:
150,45,272566,1,0,0:0:0:0:
182,213,272760,2,0,P|233:222|258:221,1,72.0000027465821
226,123,273146,5,0,0:0:0:0:
226,123,273339,1,0,0:0:0:0:
108,295,273533,2,0,P|103:244|102:211,1,72.0000027465821
27,53,273920,5,0,0:0:0:0:
27,53,274114,1,0,0:0:0:0:
105,120,274307,2,0,P|103:155|99:191,1,72.0000027465821
32,270,274694,5,0,0:0:0:0:
32,270,274888,1,0,0:0:0:0:
192,232,275081,2,0,L|274:244,1,72.0000027465821
308,353,275468,5,0,0:0:0:0:
308,353,275662,1,0,0:0:0:0:
185,319,275855,2,0,L|103:331,1,72.0000027465821
226,123,276243,5,0,0:0:0:0:
226,123,276436,1,0,0:0:0:0:
349,277,276630,2,0,P|353:230|350:180,1,72.0000027465821
342,76,277017,5,0,0:0:0:0:
342,76,277210,1,0,0:0:0:0:
455,245,277404,2,0,P|468:177|468:110,1,108.000004119873
469,138,277791,5,0,0:0:0:0:
469,138,278178,2,0,L|384:147,1,72.0000027465821
358,272,278565,5,0,0:0:0:0:
358,272,278952,2,0,L|272:263,1,72.0000027465821
274,159,279339,5,0,0:0:0:0:
274,159,279726,2,0,L|188:167,1,72.0000027465821
140,223,280114,5,0,0:0:0:0:
140,223,280501,2,0,L|54:214,1,72.0000027465821
0,154,280888,5,0,0:0:0:0:
0,154,281275,2,0,P|2:110|15:77,1,72.0000027465821
66,318,281662,5,0,0:0:0:0:
66,318,282049,2,0,P|26:338|-8:343,1,72.0000027465821
176,179,282436,5,0,0:0:0:0:
176,179,282823,2,0,P|213:202|235:230,1,72.0000027465821
370,355,283210,5,0,0:0:0:0:
370,355,283597,1,0,0:0:0:0:
370,355,283985,5,0,0:0:0:0:
455,245,284372,1,0,0:0:0:0:
455,245,285146,1,0,0:0:0:0:
455,245,285920,1,0,0:0:0:0:
455,245,286694,1,0,0:0:0:0:
455,245,287468,1,0,0:0:0:0:
455,245,288243,1,0,0:0:0:0:
455,245,289017,1,0,0:0:0:0:
455,245,289791,2,0,L|452:196,1,48
443,79,290565,5,0,0:0:0:0:
443,79,291339,1,0,0:0:0:0:
443,79,292114,1,0,0:0:0:0:
443,79,292888,1,0,0:0:0:0:
443,79,293662,1,0,0:0:0:0:
443,79,294436,1,0,0:0:0:0:
443,79,295210,1,0,0:0:0:0:
407,250,295597,2,0,L|412:286,1,36
347,172,295985,6,0,L|339:120,1,48
