osu file format v14

[General]
AudioFilename: audio.mp3
AudioLeadIn: 0
PreviewTime: 100535
Countdown: 0
SampleSet: Soft
StackLeniency: 0.7
Mode: 0
LetterboxInBreaks: 0
WidescreenStoryboard: 0

[Editor]
DistanceSpacing: 1
BeatDivisor: 4
GridSize: 32
TimelineZoom: 3.1

[Metadata]
Title:Mobius
TitleUnicode:Mobius
Artist:USAO & Camellia
ArtistUnicode:USAO & Camellia
Creator:Iugia
Version:The 4th Place of Existence
Source:
Tags:
BeatmapID:3691055
BeatmapSetID:1800394

[Difficulty]
HPDrainRate:4
CircleSize:4
OverallDifficulty:9.3
ApproachRate:9.8
SliderMultiplier:2.2
SliderTickRate:1

[Events]
//Background and Video events
0,0,"109951167359553579.jpg",0,0
//Break Periods
2,43353,46456
2,47918,48934
2,80918,88587
//Storyboard Layer 0 (Background)
//Storyboard Layer 1 (Fail)
//Storyboard Layer 2 (Pass)
//Storyboard Layer 3 (Foreground)
//Storyboard Layer 4 (Overlay)
//Storyboard Sound Samples

[TimingPoints]
1414,260.869565217391,4,2,0,50,1,0
1414,-250,4,2,0,50,0,0
7804,-285.714285714286,4,2,0,50,0,0
8804,-285.714285714286,4,2,0,5,0,0
8891,-285.714285714286,4,2,0,50,0,0
9760,-500,4,2,0,50,0,0
9891,-125,4,2,0,70,0,0
11065,-71.4285714285714,4,2,0,70,0,0
11195,-500,4,2,0,70,0,0
11391,-500,4,2,0,5,0,0
11456,-62.5,4,2,0,75,0,0
11782,-62.5,4,2,0,5,0,0
11847,-100,4,2,0,60,0,0
13934,-83.3333333333333,4,2,0,60,0,0
14130,-83.3333333333333,4,2,0,5,0,0
14195,-83.3333333333333,4,2,0,60,0,0
14391,-83.3333333333333,4,2,0,5,0,0
14456,-83.3333333333333,4,2,0,60,0,0
14652,-83.3333333333333,4,2,0,5,0,0
14717,-83.3333333333333,4,2,0,60,0,0
15499,-62.5,4,2,0,60,0,0
15695,-62.5,4,2,0,5,0,0
15760,-55.5555555555556,4,2,0,60,0,0
16021,-83.3333333333333,4,2,0,65,0,0
19152,-166.666666666667,4,2,0,55,0,0
19673,-83.3333333333333,4,2,0,55,0,0
19869,-83.3333333333333,4,2,0,5,0,0
19934,-83.3333333333333,4,2,0,65,0,0
20195,-142.857142857143,4,2,0,60,0,0
20978,-500,4,2,0,60,0,0
21173,-500,4,2,0,5,0,0
21239,-142.857142857143,4,2,0,60,0,0
24108,-71.4285714285714,4,2,0,60,0,0
24304,-71.4285714285714,4,2,0,5,0,0
24369,-41.6666666666667,4,2,0,75,0,0
24891,-100,4,2,0,65,0,0
25412,-83.3333333333333,4,2,0,65,0,0
25934,-71.4285714285714,4,2,0,65,0,0
26195,-500,4,2,0,65,0,0
26391,-500,4,2,0,5,0,0
26456,-62.5,4,2,0,60,0,0
26717,-90.9090909090909,4,2,0,60,0,0
28282,-76.9230769230769,4,2,0,60,0,0
28804,-90.9090909090909,4,2,0,60,0,0
30108,-62.5,4,2,0,60,0,0
30499,-125,4,2,0,60,0,0
30630,-62.5,4,2,0,60,0,0
30891,-90.9090909090909,4,2,0,60,0,0
32456,-76.9230769230769,4,2,0,60,0,0
32978,-90.9090909090909,4,2,0,60,0,0
33760,-50,4,2,0,65,0,0
33956,-50,4,2,0,5,0,0
34021,-50,4,2,0,65,0,0
34217,-50,4,2,0,5,0,0
34282,-50,4,2,0,65,0,0
34478,-50,4,2,0,5,0,0
34543,-50,4,2,0,65,0,0
34739,-50,4,2,0,5,0,0
34804,-125,4,2,0,60,0,0
37934,-83.3333333333333,4,2,0,60,0,0
41978,-250,4,2,0,60,0,0
42826,-250,4,2,0,5,0,0
42891,-250,4,2,0,60,0,0
49412,-100,4,2,0,60,0,0
51239,-500,4,2,0,60,0,0
51434,-500,4,2,0,5,0,0
51499,-83.3333333333333,4,2,0,60,0,0
51695,-83.3333333333333,4,2,0,5,0,0
51760,-83.3333333333333,4,2,0,60,0,0
52086,-83.3333333333333,4,2,0,5,0,0
52152,-83.3333333333333,4,2,0,60,0,0
52282,-166.666666666667,4,2,0,60,0,0
53586,-83.3333333333333,4,2,0,60,0,0
53782,-83.3333333333333,4,2,0,5,0,0
53847,-83.3333333333333,4,2,0,60,0,0
54173,-83.3333333333333,4,2,0,5,0,0
54238,-83.3333333333333,4,2,0,60,0,0
54369,-166.666666666667,4,2,0,60,0,0
55673,-83.3333333333333,4,2,0,60,0,0
55869,-83.3333333333333,4,2,0,5,0,0
55934,-83.3333333333333,4,2,0,60,0,0
56195,-166.666666666667,4,2,0,60,0,0
56717,-83.3333333333333,4,2,0,60,0,0
56912,-83.3333333333333,4,2,0,5,0,0
56978,-83.3333333333333,4,2,0,60,0,0
57239,-166.666666666667,4,2,0,60,0,0
58804,-125,4,2,0,60,0,0
59586,-500.000000000003,4,2,0,60,0,0
59782,-500.000000000003,4,2,0,5,0,0
59847,-71.4285714285715,4,2,0,60,0,0
60043,-71.4285714285715,4,2,0,5,0,0
60108,-250,4,2,0,60,0,0
60304,-250,4,2,0,5,0,0
60369,-71.4285714285714,4,2,0,60,0,0
60565,-71.4285714285714,4,2,0,5,0,0
60630,-250,4,2,0,60,0,0
60826,-250,4,2,0,5,0,0
60891,-71.4285714285714,4,2,0,60,0,0
61086,-71.4285714285714,4,2,0,5,0,0
61152,-250,4,2,0,60,0,0
61347,-250,4,2,0,5,0,0
61412,-71.4285714285714,4,2,0,60,0,0
61608,-71.4285714285714,4,2,0,5,0,0
61673,-71.4285714285714,4,2,0,60,0,0
61934,-125,4,2,0,60,0,0
62978,-166.666666666667,4,2,0,60,0,0
63173,-166.666666666667,4,2,0,5,0,0
63239,-83.3333333333333,4,2,0,60,0,0
63434,-83.3333333333333,4,2,0,5,0,0
63499,-62.5,4,2,0,60,0,0
63695,-62.5,4,2,0,5,0,0
63760,-62.5,4,2,0,60,0,0
64021,-50,4,2,0,70,0,1
64217,-50,4,2,0,5,0,1
64282,-50,4,2,0,70,0,1
64478,-50,4,2,0,5,0,1
64543,-50,4,2,0,70,0,1
64739,-50,4,2,0,5,0,1
64804,-50,4,2,0,70,0,1
64999,-50,4,2,0,5,0,1
65064,-50,4,2,0,70,0,1
65260,-50,4,2,0,5,0,1
65325,-50,4,2,0,70,0,1
65521,-50,4,2,0,5,0,1
65586,-50,4,2,0,70,0,1
65847,-41.6666666666667,4,2,0,70,0,1
66304,-41.6666666666667,4,2,0,5,0,1
66369,-41.6666666666667,4,2,0,70,0,1
66565,-41.6666666666667,4,2,0,5,0,1
66630,-41.6666666666667,4,2,0,70,0,1
66826,-41.6666666666667,4,2,0,5,0,1
66891,-41.6666666666667,4,2,0,70,0,1
67086,-41.6666666666667,4,2,0,5,0,1
67152,-62.5,4,2,0,65,0,0
67673,-125,4,2,0,65,0,0
68195,-50,4,2,0,70,0,1
68912,-50,4,2,0,5,0,1
68978,-50,4,2,0,70,0,1
69434,-50,4,2,0,5,0,1
69500,-50,4,2,0,70,0,1
69695,-50,4,2,0,5,0,1
69761,-50,4,2,0,70,0,1
70152,-20.8333333333333,4,2,0,70,0,1
70282,-41.6666666666667,4,2,0,70,0,1
70543,-20.8333333333333,4,2,0,70,0,1
70673,-41.6666666666667,4,2,0,70,0,1
70999,-41.6666666666667,4,2,0,5,0,1
71065,-41.6666666666667,4,2,0,70,0,1
71260,-41.6666666666667,4,2,0,5,0,1
71326,-166.666666666667,4,2,0,60,0,0
71456,-166.666666666667,4,2,0,5,0,0
71521,-166.666666666667,4,2,0,60,0,0
71652,-166.666666666667,4,2,0,5,0,0
71717,-166.666666666667,4,2,0,60,0,0
71847,-166.666666666667,4,2,0,60,0,0
72043,-166.666666666667,4,2,0,5,0,0
72108,-166.666666666667,4,2,0,60,0,0
72369,-45.4545454545455,4,2,0,70,0,1
72565,-45.4545454545455,4,2,0,5,0,1
72630,-45.4545454545455,4,2,0,70,0,1
72826,-45.4545454545455,4,2,0,5,0,1
72891,-45.4545454545455,4,2,0,70,0,1
73086,-45.4545454545455,4,2,0,5,0,1
73151,-45.4545454545455,4,2,0,70,0,1
73347,-45.4545454545455,4,2,0,5,0,1
73412,-45.4545454545455,4,2,0,70,0,1
73608,-45.4545454545455,4,2,0,5,0,1
73673,-45.4545454545455,4,2,0,70,0,1
73869,-45.4545454545455,4,2,0,5,0,1
73934,-45.4545454545455,4,2,0,70,0,1
73967,-45.4545454545455,4,2,0,5,0,1
74065,-45.4545454545455,4,2,0,70,0,1
74097,-45.4545454545455,4,2,0,5,0,1
74130,-45.4545454545455,4,2,0,70,0,1
74162,-45.4545454545455,4,2,0,5,0,1
74195,-45.4545454545455,4,2,0,70,0,1
74228,-45.4545454545455,4,2,0,5,0,1
74326,-45.4545454545455,4,2,0,70,0,1
74652,-45.4545454545455,4,2,0,5,0,1
74717,-45.4545454545455,4,2,0,70,0,1
74912,-45.4545454545455,4,2,0,5,0,1
74977,-45.4545454545455,4,2,0,70,0,1
75402,-45.4545454545455,4,2,0,5,0,1
75435,-45.4545454545455,4,2,0,70,0,1
75467,-45.4545454545455,4,2,0,5,0,1
75500,-45.4545454545455,4,2,0,70,0,0
75793,-45.4545454545455,4,2,0,5,0,0
75826,-45.4545454545455,4,2,0,70,0,0
75858,-45.4545454545455,4,2,0,5,0,0
75891,-45.4545454545455,4,2,0,70,0,0
75923,-45.4545454545455,4,2,0,5,0,0
76021,-45.4545454545455,4,2,0,70,0,0
76543,-50,4,2,0,70,0,1
77260,-50,4,2,0,5,0,1
77326,-50,4,2,0,70,0,1
77782,-50,4,2,0,5,0,1
77847,-50,4,2,0,70,0,1
78043,-50,4,2,0,5,0,1
78108,-50,4,2,0,70,0,1
78630,-62.5,4,2,0,70,0,1
78826,-62.5,4,2,0,5,0,1
78891,-50,4,2,0,70,0,1
78956,-50,4,2,0,5,0,1
79021,-62.5,4,2,0,70,0,1
79217,-62.5,4,2,0,5,0,1
79282,-50,4,2,0,70,0,1
79347,-50,4,2,0,5,0,1
79412,-62.5,4,2,0,70,0,1
79608,-62.5,4,2,0,5,0,1
79673,-62.5,4,2,0,70,0,1
80456,-250,4,2,0,70,0,1
80717,-250,4,2,0,70,0,0
89065,-166.666666666667,4,2,0,60,0,0
91804,-166.666666666667,4,2,0,5,0,0
91870,-166.666666666667,4,2,0,60,0,0
91999,-166.666666666667,4,2,0,5,0,0
92065,-166.666666666667,4,2,0,60,0,0
93239,-71.4285714285714,4,2,0,65,0,0
94543,-125,4,2,0,65,0,0
95326,-71.4285714285714,4,2,0,65,0,0
97347,-71.4285714285714,4,2,0,5,0,0
97412,-71.4285714285714,4,2,0,65,0,0
101065,-166.666666666667,4,2,0,65,0,0
101326,-500,4,2,0,65,0,0
101521,-500,4,2,0,5,0,0
101586,-71.4285714285714,4,2,0,75,0,1
109673,-250,4,2,0,75,0,0
109934,-71.4285714285714,4,2,0,75,0,1
114108,-71.4285714285714,4,2,0,70,0,0
115478,-71.4285714285714,4,2,0,5,0,0
115543,-100,4,2,0,70,0,0
115934,-500,4,2,0,70,0,0
116130,-500,4,2,0,5,0,0
116195,-66.6666666666667,4,2,0,70,0,0
116586,-62.5,4,2,0,70,0,0
116978,-58.8235294117647,4,2,0,70,0,0
117369,-55.5555555555556,4,2,0,70,0,0
117760,-52.6315789473684,4,2,0,70,0,0
118217,-52.6315789473684,4,2,0,5,0,0
118282,-100,4,2,0,65,0,0
120369,-500,4,2,0,65,0,0
120565,-500,4,2,0,5,0,0
120630,-125,4,2,0,65,0,0
121152,-500,4,2,0,65,0,0
121347,-500,4,2,0,5,0,0
121412,-125,4,2,0,65,0,0
121608,-125,4,2,0,5,0,0
121673,-125,4,2,0,65,0,0
121869,-125,4,2,0,5,0,0
121934,-125,4,2,0,65,0,0
122130,-125,4,2,0,5,0,0
122195,-500,4,2,0,65,0,0
122391,-500,4,2,0,5,0,0
122456,-83.3333333333333,4,2,0,70,0,0
122521,-83.3333333333333,4,2,0,5,0,0
122586,-83.3333333333333,4,2,0,70,0,0
122652,-83.3333333333333,4,2,0,5,0,0
122717,-83.3333333333333,4,2,0,70,0,0
122782,-83.3333333333333,4,2,0,5,0,0
122847,-83.3333333333333,4,2,0,70,0,0
122912,-83.3333333333333,4,2,0,5,0,0
122977,-83.3333333333333,4,2,0,70,0,0
123043,-83.3333333333333,4,2,0,5,0,0
123108,-83.3333333333333,4,2,0,70,0,0
123173,-83.3333333333333,4,2,0,5,0,0
123238,-83.3333333333333,4,2,0,70,0,0
123304,-83.3333333333333,4,2,0,5,0,0
123369,-83.3333333333333,4,2,0,70,0,0
123565,-83.3333333333333,4,2,0,5,0,0
123630,-83.3333333333333,4,2,0,70,0,0
123695,-83.3333333333333,4,2,0,5,0,0
123760,-83.3333333333333,4,2,0,70,0,0
123826,-83.3333333333333,4,2,0,5,0,0
123891,-83.3333333333333,4,2,0,70,0,0
123956,-83.3333333333333,4,2,0,5,0,0
124021,-83.3333333333333,4,2,0,70,0,0
124739,-83.3333333333333,4,2,0,5,0,0
124804,-83.3333333333333,4,2,0,70,0,0
124869,-83.3333333333333,4,2,0,5,0,0
124934,-83.3333333333333,4,2,0,70,0,0
125130,-83.3333333333333,4,2,0,5,0,0
125195,-83.3333333333333,4,2,0,70,0,0
125260,-83.3333333333333,4,2,0,5,0,0
125325,-83.3333333333333,4,2,0,70,0,0
128456,-500,4,2,0,65,0,0
128652,-500,4,2,0,5,0,0
128717,-100,4,2,0,65,0,0
128847,-250,4,2,0,65,0,0
129173,-250,4,2,0,5,0,0
129239,-100,4,2,0,65,0,0
129369,-250,4,2,0,65,0,0
129695,-250,4,2,0,5,0,0
129760,-100,4,2,0,65,0,0
129890,-250,4,2,0,65,0,0
130216,-250,4,2,0,5,0,0
130282,-100,4,2,0,65,0,0
130804,-83.3333333333333,4,2,0,65,0,0
130934,-250,4,2,0,65,0,0
131260,-250,4,2,0,5,0,0
131326,-83.3333333333333,4,2,0,65,0,0
131456,-250,4,2,0,65,0,0
131782,-250,4,2,0,5,0,0
131847,-83.3333333333333,4,2,0,65,0,0
134456,-55.5555555555556,4,2,0,65,0,0
134586,-55.5555555555556,4,2,0,5,0,0
134652,-55.5555555555556,4,2,0,65,0,0
134782,-55.5555555555556,4,2,0,5,0,0
134847,-41.6666666666667,4,2,0,65,0,0
134912,-41.6666666666667,4,2,0,5,0,0
135239,-454.545454545455,4,2,0,65,0,0
135304,-454.545454545455,4,2,0,15,0,0

[Colours]
Combo1 : 168,28,249
Combo2 : 255,203,47
Combo3 : 32,244,255
Combo4 : 255,45,134

[HitObjects]
70,384,1414,6,0,P|41:376|11:374,1,44
44,293,1674,2,0,P|72:300|102:302,1,44
149,356,1935,1,0,0:0:0:0:
195,240,2066,2,0,P|170:254|165:284,1,44,0|0,0:0|0:0,0:0:0:0:
97,218,2327,1,0,0:0:0:0:
189,115,3468,5,0,0:0:0:0:
189,115,3500,5,0,0:0:0:0:
24,17,4544,5,0,0:0:0:0:
70,120,5587,5,0,0:0:0:0:
148,46,5718,1,0,0:0:0:0:
232,124,5848,2,0,L|171:111,1,44,0|0,0:0|0:0,0:0:0:0:
189,199,6109,1,0,0:0:0:0:
308,32,6240,2,0,L|313:82,1,44,0|0,0:0|0:0,0:0:0:0:
229,39,6500,1,0,0:0:0:0:
323,162,7718,5,0,0:0:0:0:
323,162,7761,5,0,0:0:0:0:
323,162,7805,6,0,B|358:143|349:103|338:109|331:74|369:59|369:59|495:90|495:90|471:93|458:112,1,295.166657658895,0|0,0:0|0:0,0:0:0:0:
451,187,8892,5,0,0:0:0:0:
503,243,8979,5,0,0:0:0:0:
490,308,9066,5,0,0:0:0:0:
440,334,9153,1,0,0:0:0:0:
394,324,9240,1,0,0:0:0:0:
366,293,9327,1,0,0:0:0:0:
331,285,9413,1,0,0:0:0:0:
304,300,9500,1,0,0:0:0:0:
292,323,9587,1,0,0:0:0:0:
274,334,9674,1,0,0:0:0:0:
258,334,9761,6,0,L|259:316,1,11,0|0,0:0|0:0,0:0:0:0:
139,245,9892,5,0,0:0:0:0:
147,288,9957,1,0,0:0:0:0:
156,331,10022,2,0,L|165:379,1,44,0|0,0:0|0:0,0:0:0:0:
29,257,10153,1,0,0:0:0:0:
76,39,10283,5,0,0:0:0:0:
68,82,10348,1,0,0:0:0:0:
59,125,10413,2,0,L|50:173,1,44,0|0,0:0|0:0,0:0:0:0:
186,51,10544,1,0,0:0:0:0:
223,194,10674,6,0,L|272:178,1,44,0|0,0:0|0:0,0:0:0:0:
229,203,10805,2,0,L|278:187,1,44,0|0,0:0|0:0,0:0:0:0:
145,135,10935,1,0,0:0:0:0:
74,378,11066,6,0,B|39:365|39:365|34:366|34:366|0:353,1,76.9999976501466,0|0,0:0|0:0,0:0:0:0:
139,245,11196,6,0,L|146:282,1,33,0|0,0:0|0:0,0:0:0:0:
166,384,11457,6,0,B|252:369|252:369|261:376|261:376|339:362|339:362|383:303|383:303|332:248|332:248|274:263|274:263|309:261|326:290,1,440
493,338,11848,6,0,L|457:167,1,165,0|0,0:0|0:0,0:0:0:0:
286,128,12109,6,0,L|341:143,1,55,0|0,0:0|0:0,0:0:0:0:
512,191,12240,2,0,L|458:176,1,55,0|0,0:0|0:0,0:0:0:0:
352,38,12370,6,0,L|385:199,1,165,0|0,0:0|0:0,0:0:0:0:
512,31,12631,6,0,L|457:46,1,55,0|0,0:0|0:0,0:0:0:0:
385,199,12761,2,0,L|331:184,1,55,0|0,0:0|0:0,0:0:0:0:
206,105,12892,6,0,L|36:151,1,165,0|0,0:0|0:0,0:0:0:0:
207,182,13153,6,0,L|286:160,1,55,0|0,0:0|0:0,0:0:0:0:
53,67,13283,2,0,L|0:81,1,55,0|0,0:0|0:0,0:0:0:0:
109,4,13413,5,0,0:0:0:0:
48,225,13544,5,0,0:0:0:0:
48,225,13609,1,0,0:0:0:0:
48,225,13674,2,0,B|19:231|19:231|-11:204,1,55,0|0,0:0|0:0,0:0:0:0:
206,105,13805,2,0,B|224:88|224:88|253:94,1,55,0|0,0:0|0:0,0:0:0:0:
154,292,13935,6,0,B|133:201|133:201|138:188|138:188|117:81,1,197.99999395752,0|0,0:0|0:0,0:0:0:0:
62,352,14196,6,0,B|25:345|25:345|79:327|79:327|125:376|125:376|177:360,1,197.99999395752,0|0,0:0|0:0,0:0:0:0:
406,320,14457,6,0,B|390:287|390:287|329:268|329:268|318:274|318:274|213:243,1,197.99999395752
254,347,14718,1,0,0:0:0:0:
508,372,14848,6,0,L|493:300,1,65.9999979858399,0|0,0:0|0:0,0:0:0:0:
385,204,14979,1,0,0:0:0:0:
385,204,15109,2,0,L|400:132,1,65.9999979858399
512,21,15240,5,0,0:0:0:0:
512,69,15305,1,0,0:0:0:0:
480,106,15370,1,0,0:0:0:0:
433,114,15435,1,0,0:0:0:0:
391,89,15500,6,0,B|355:19|254:22|198:105|291:164|322:126,1,264,0|0,0:0|0:0,0:0:0:0:
354,15,15761,6,0,B|350:68|350:68|341:80|341:80|349:97|349:97|345:149|345:149|349:158|349:158|339:292|339:292|356:317,1,296.99999093628,0|0,0:0|0:0,0:0:0:0:
446,375,16022,6,0,P|474:365|523:361,1,65.9999979858399,0|0,0:0|0:0,0:0:0:0:
491,276,16153,2,0,P|463:286|414:290,1,65.9999979858399,0|0,0:0|0:0,0:0:0:0:
311,369,16283,6,0,B|245:390|214:334|234:329|203:276|146:289,1,197.99999395752,0|0,0:0|0:0,0:0:0:0:
31,383,16544,6,0,P|18:352|21:319,1,65.9999979858399,0|0,0:0|0:0,0:0:0:0:
113,309,16674,2,0,P|125:339|122:372,1,65.9999979858399,0|0,0:0|0:0,0:0:0:0:
47,223,16805,6,0,P|121:257|93:165,1,197.99999395752,0|0,0:0|0:0,0:0:0:0:
69,26,17066,6,0,P|37:24|-2:19,1,65.9999979858399,0|0,0:0|0:0,0:0:0:0:
99,146,17196,2,0,P|131:144|170:139,1,65.9999979858399,0|0,0:0|0:0,0:0:0:0:
199,16,17327,6,0,B|265:-5|296:51|276:56|307:109|364:96,1,197.99999395752,0|0,0:0|0:0,0:0:0:0:
508,7,17587,6,0,P|474:26|473:66,1,65.9999979858399,0|0,0:0|0:0,0:0:0:0:
385,78,17718,2,0,P|384:116|418:137,1,65.9999979858399,0|0,0:0|0:0,0:0:0:0:
512,230,17848,6,0,P|426:214|301:197,1,197.99999395752,0|0,0:0|0:0,0:0:0:0:
284,178,18109,6,0,P|333:184|381:193,1,65.9999979858399,0|0,0:0|0:0,0:0:0:0:
363,283,18240,2,0,P|330:277|297:273,1,65.9999979858399,0|0,0:0|0:0,0:0:0:0:
444,260,18370,5,0,0:0:0:0:
454,308,18435,1,0,0:0:0:0:
465,356,18500,1,0,0:0:0:0:
349,187,18631,1,0,0:0:0:0:
269,372,18761,1,0,0:0:0:0:
402,133,18892,1,0,0:0:0:0:
369,362,19022,1,0,0:0:0:0:
297,273,19153,6,0,B|266:279|266:279|263:282|263:282|216:292,1,65.9999979858399,0|0,0:0|0:0,0:0:0:0:
230,306,19413,1,0,0:0:0:0:
175,218,19544,1,0,0:0:0:0:
214,381,19674,6,0,B|201:319|201:319|184:295|184:295|194:270|194:270|179:174,1,197.99999395752,0|0,0:0|0:0,0:0:0:0:
138,131,19935,6,0,B|164:109|164:109|217:121,1,65.9999979858399,0|0,0:0|0:0,0:0:0:0:
130,356,20066,2,0,B|98:363|98:363|72:341,1,65.9999979858399,0|0,0:0|0:0,0:0:0:0:
23,172,20196,6,0,L|10:270,1,76.9999976501466,0|0,0:0|0:0,0:0:0:0:
85,270,20457,2,0,L|96:194,1,76.9999976501466,0|0,0:0|0:0,0:0:0:0:
69,21,20718,6,0,P|32:18|11:55,1,76.9999976501466,0|0,0:0|0:0,0:0:0:0:
70,86,20979,2,0,L|53:49,1,33,0|0,0:0|0:0,0:0:0:0:
182,192,21240,6,0,L|268:170,1,76.9999976501466,0|0,0:0|0:0,0:0:0:0:
300,243,21500,2,0,L|225:262,1,76.9999976501466,0|0,0:0|0:0,0:0:0:0:
343,79,21761,6,0,P|338:114|334:167,1,76.9999976501466,0|0,0:0|0:0,0:0:0:0:
259,58,22022,1,0,0:0:0:0:
471,7,22153,1,0,0:0:0:0:
471,7,22218,1,0,0:0:0:0:
471,7,22283,5,0,0:0:0:0:
445,218,22413,1,0,0:0:0:0:
343,79,22544,1,0,0:0:0:0:
388,302,22674,1,0,0:0:0:0:
486,146,22805,1,0,0:0:0:0:
486,146,22870,1,0,0:0:0:0:
486,146,22935,2,0,L|519:152,2,19.2499994125366,0|0|0,0:0|0:0|0:0,0:0:0:0:
312,370,23066,5,0,0:0:0:0:
349,362,23131,1,0,0:0:0:0:
387,355,23196,1,0,0:0:0:0:
425,348,23261,1,0,0:0:0:0:
471,349,23326,5,0,0:0:0:0:
471,349,23587,5,0,0:0:0:0:
471,349,23848,5,0,0:0:0:0:
433,342,23913,1,0,0:0:0:0:
396,335,23979,1,0,0:0:0:0:
324,278,24109,6,0,B|310:201|310:201|305:197|305:197|294:116|294:116|354:61,1,230.99999295044,0|0,0:0|0:0,0:0:0:0:
444,24,24370,6,0,B|512:143|512:143|359:119|359:119|354:123|354:123|201:97|201:97|139:144,1,527.999983886719,0|0,0:0|0:0,0:0:0:0:
155,171,24696,5,0,0:0:0:0:
162,214,24761,1,0,0:0:0:0:
169,257,24826,1,0,0:0:0:0:
177,301,24892,2,0,L|185:238,1,55,0|0,0:0|0:0,0:0:0:0:
67,330,25022,2,0,L|73:384,1,55,0|0,0:0|0:0,0:0:0:0:
226,363,25153,2,0,L|200:163,1,165,0|0,0:0|0:0,0:0:0:0:
229,122,25413,6,0,L|299:134,1,65.9999979858399,0|0,0:0|0:0,0:0:0:0:
259,31,25544,2,0,L|193:19,1,65.9999979858399,0|0,0:0|0:0,0:0:0:0:
61,250,25674,2,0,B|108:204|108:204|65:74,1,197.99999395752,0|0,0:0|0:0,0:0:0:0:
3,30,25935,6,0,B|26:-1|26:-1|74:1,1,76.9999976501466,0|0,0:0|0:0,0:0:0:0:
66,329,26066,2,0,B|27:330|27:330|4:299,1,76.9999976501466,0|0,0:0|0:0,0:0:0:0:
32,169,26196,6,0,L|67:175,1,33,0|0,0:0|0:0,0:0:0:0:
150,91,26457,6,0,B|216:76|216:76|244:134|244:134|242:140|242:140|269:199|269:199|351:183,1,264,0|0,0:0|0:0,0:0:0:0:
483,291,26718,2,0,B|442:253|442:253|471:131,1,181.500005538941,0|0,0:0|0:0,0:0:0:0:
501,25,26979,6,0,L|431:36,1,60.5000018463135,0|0,0:0|0:0,0:0:0:0:
317,111,27109,2,0,L|387:122,1,60.5000018463135,0|0,0:0|0:0,0:0:0:0:
377,0,27240,6,0,L|416:201,1,181.500005538941,0|0,0:0|0:0,0:0:0:0:
504,364,27500,6,0,P|483:343|453:343,1,60.5000018463135,0|0,0:0|0:0,0:0:0:0:
402,223,27631,2,0,P|373:230|358:256,1,60.5000018463135,0|0,0:0|0:0,0:0:0:0:
302,366,27761,6,0,P|213:344|122:326,1,181.500005538941,0|0,0:0|0:0,0:0:0:0:
17,381,28022,1,0,0:0:0:0:
186,263,28153,5,0,0:0:0:0:
186,263,28218,1,0,0:0:0:0:
186,263,28283,2,0,B|205:189|160:160|154:179|100:149|112:79,1,214.49999018097,0|0,0:0|0:0,0:0:0:0:
1,32,28544,6,0,P|30:23|76:12,1,71.4999967269899,0|0,0:0|0:0,0:0:0:0:
188,96,28674,2,0,P|222:104|257:115,1,71.4999967269899,0|0,0:0|0:0,0:0:0:0:
92,216,28805,6,0,P|169:186|275:167,1,181.500005538941,0|0,0:0|0:0,0:0:0:0:
308,238,29066,6,0,P|343:216|348:178,1,60.5000018463135,0|0,0:0|0:0,0:0:0:0:
431,187,29196,2,0,P|429:145|399:122,1,60.5000018463135,0|0,0:0|0:0,0:0:0:0:
431,33,29327,6,0,P|339:39|342:124,1,181.500005538941,0|0,0:0|0:0,0:0:0:0:
512,153,29587,5,0,0:0:0:0:
396,257,29718,1,0,0:0:0:0:
452,355,29848,1,0,0:0:0:0:
452,355,29913,1,0,0:0:0:0:
452,355,29979,1,0,0:0:0:0:
512,310,30109,6,0,B|484:246|394:217|326:274|326:274|347:295|342:332,1,264,0|0,0:0|0:0,0:0:0:0:
280,350,30370,5,0,0:0:0:0:
234,336,30435,1,0,0:0:0:0:
207,373,30500,2,0,L|156:359,1,44,0|0,0:0|0:0,0:0:0:0:
19,382,30631,6,0,B|81:331|81:331|87:334|87:334|74:257|74:257|68:255|68:255|51:153,1,264,0|0,0:0|0:0,0:0:0:0:
28,67,30892,2,0,B|5:21|5:21|136:58,1,181.500005538941,0|0,0:0|0:0,0:0:0:0:
155,178,31153,6,0,B|186:183|186:183|229:156,1,60.5000018463135,0|0,0:0|0:0,0:0:0:0:
339,47,31283,2,0,B|314:31|314:31|283:36,1,60.5000018463135,0|0,0:0|0:0,0:0:0:0:
270,219,31413,6,0,B|253:131|253:131|247:127|247:127|231:34,1,181.500005538941,0|0,0:0|0:0,0:0:0:0:
429,18,31674,6,0,L|417:92,1,60.5000018463135,0|0,0:0|0:0,0:0:0:0:
496,102,31805,2,0,L|505:42,1,60.5000018463135,0|0,0:0|0:0,0:0:0:0:
365,211,31935,6,0,B|413:216|438:170|438:170|444:226|508:244,1,181.500005538941,0|0,0:0|0:0,0:0:0:0:
418,284,32196,1,0,0:0:0:0:
322,123,32327,5,0,0:0:0:0:
322,123,32392,1,0,0:0:0:0:
322,123,32457,2,0,P|349:194|354:332,1,214.49999018097,0|0,0:0|0:0,0:0:0:0:
512,384,32718,6,0,P|487:363|441:376,1,71.4999967269899,0|0,0:0|0:0,0:0:0:0:
418,284,32848,2,0,P|387:295|375:341,1,71.4999967269899,0|0,0:0|0:0,0:0:0:0:
275,317,32979,6,0,L|287:377,1,60.5000018463135,0|0,0:0|0:0,0:0:0:0:
201,325,33109,2,0,L|212:384,1,60.5000018463135,0|0,0:0|0:0,0:0:0:0:
99,171,33240,6,0,L|87:230,1,60.5000018463135,0|0,0:0|0:0,0:0:0:0:
24,163,33370,2,0,L|13:223,1,60.5000018463135,0|0,0:0|0:0,0:0:0:0:
63,373,33500,6,0,L|-14:388,1,60.5000018463135,0|0,0:0|0:0,0:0:0:0:
213,228,33631,2,0,L|272:239,1,60.5000018463135,0|0,0:0|0:0,0:0:0:0:
46,84,33761,6,0,B|92:57|97:0|97:0|140:248,1,330,0|0,0:0|0:0,0:0:0:0:
258,55,34022,2,0,B|243:12|291:-23|368:5|352:112|255:144|255:144|298:135|325:175,1,330,0|0,0:0|0:0,0:0:0:0:
434,265,34283,2,0,B|487:305|547:237|499:177|449:190|449:190|499:177|505:103|441:76|411:140,1,330,0|0,0:0|0:0,0:0:0:0:
427,23,34544,6,0,P|465:172|486:357,1,330,0|0,0:0|0:0,0:0:0:0:
338,319,34805,5,0,0:0:0:0:
325,301,34870,1,0,0:0:0:0:
323,279,34935,1,0,0:0:0:0:
333,260,35000,1,0,0:0:0:0:
352,248,35066,1,0,0:0:0:0:
373,248,35131,1,0,0:0:0:0:
392,260,35196,2,0,P|404:283|392:316,1,44,0|0,0:0|0:0,0:0:0:0:
286,370,35327,5,0,0:0:0:0:
235,384,35392,1,0,0:0:0:0:
198,359,35457,1,0,0:0:0:0:
192,324,35522,1,0,0:0:0:0:
180,300,35587,1,0,0:0:0:0:
164,291,35653,1,0,0:0:0:0:
152,298,35718,2,0,P|128:313|96:303,1,44,0|0,0:0|0:0,0:0:0:0:
0,384,35848,5,0,0:0:0:0:
29,330,35913,1,0,0:0:0:0:
51,281,35979,1,0,0:0:0:0:
64,239,36044,1,0,0:0:0:0:
73,204,36109,1,0,0:0:0:0:
77,177,36174,1,0,0:0:0:0:
80,160,36240,2,0,P|83:129|81:97,1,44,0|0,0:0|0:0,0:0:0:0:
9,72,36370,5,0,0:0:0:0:
52,28,36435,1,0,0:0:0:0:
104,25,36500,1,0,0:0:0:0:
141,49,36566,1,0,0:0:0:0:
161,135,36631,5,0,0:0:0:0:
202,169,36696,1,0,0:0:0:0:
256,173,36761,1,0,0:0:0:0:
303,146,36827,1,0,0:0:0:0:
326,97,36892,6,0,L|268:91,2,44,0|0|0,0:0|0:0|0:0,0:0:0:0:
468,197,37087,2,0,L|526:190,2,44,0|0|0,0:0|0:0|0:0,0:0:0:0:
424,0,37283,5,0,0:0:0:0:
416,43,37348,1,0,0:0:0:0:
408,86,37413,2,0,L|416:135,5,44,0|0|0|0|0|0,0:0|0:0|0:0|0:0|0:0|0:0,0:0:0:0:
493,91,37805,5,0,0:0:0:0:
430,353,37935,2,0,B|458:389|518:375|540:296|475:246|386:250|355:312,2,263.99999194336,0|0|0,0:0|0:0|0:0,0:0:0:0:
313,374,38587,1,0,0:0:0:0:
313,374,38653,1,0,0:0:0:0:
313,374,38718,2,0,L|340:160,1,197.99999395752,0|0,0:0|0:0,0:0:0:0:
493,91,38979,5,0,0:0:0:0:
426,150,39109,1,0,0:0:0:0:
331,29,39240,2,0,L|136:84,1,197.99999395752,0|0,0:0|0:0,0:0:0:0:
0,18,39500,6,0,L|80:40,1,65.9999979858399,0|0,0:0|0:0,0:0:0:0:
221,209,39631,2,0,L|200:127,1,65.9999979858399,0|0,0:0|0:0,0:0:0:0:
143,3,39761,6,0,L|110:218,1,197.99999395752,0|0,0:0|0:0,0:0:0:0:
65,365,40022,6,0,L|-3:380,1,65.9999979858399,0|0,0:0|0:0,0:0:0:0:
221,209,40153,2,0,L|241:127,1,65.9999979858399,0|0,0:0|0:0,0:0:0:0:
28,260,40283,6,0,L|237:304,1,197.99999395752,0|0,0:0|0:0,0:0:0:0:
262,374,40544,1,0,0:0:0:0:
351,248,40674,1,0,0:0:0:0:
382,239,40739,1,0,0:0:0:0:
414,230,40804,1,0,0:0:0:0:
312,146,40935,1,0,0:0:0:0:
512,3,41066,6,0,L|498:71,1,65.9999979858399,0|0,0:0|0:0,0:0:0:0:
436,284,41196,2,0,L|422:216,1,65.9999979858399,0|0,0:0|0:0,0:0:0:0:
240,72,41327,6,0,L|433:130,1,197.99999395752,0|0,0:0|0:0,0:0:0:0:
509,227,41587,5,0,0:0:0:0:
409,40,41718,1,0,0:0:0:0:
301,283,41848,1,0,0:0:0:0:
507,149,41979,6,0,B|424:119|360:191|385:271|385:271|427:268|451:306,1,286,0|0,0:0|0:0,0:0:0:0:
504,363,42892,2,0,P|506:338|512:317,1,44,0|0,0:0|0:0,0:0:0:0:
391,349,43153,5,0,0:0:0:0:
391,349,46935,5,0,0:0:0:0:
387,327,47000,1,0,0:0:0:0:
383,305,47065,1,0,0:0:0:0:
380,283,47130,1,0,0:0:0:0:
376,262,47195,1,0,0:0:0:0:
373,240,47261,1,0,0:0:0:0:
303,202,47326,5,0,0:0:0:0:
460,118,47718,5,0,0:0:0:0:
492,27,49413,5,0,0:0:0:0:
438,19,49479,1,0,0:0:0:0:
389,42,49544,1,0,0:0:0:0:
361,88,49609,1,0,0:0:0:0:
365,142,49674,2,0,P|372:168|397:197,1,55,0|0,0:0|0:0,0:0:0:0:
477,235,49805,6,0,L|484:171,3,55,0|0|0|0,0:0|0:0|0:0|0:0,0:0:0:0:
326,243,50066,2,0,L|333:307,1,55,0|0,0:0|0:0,0:0:0:0:
512,357,50196,5,0,0:0:0:0:
460,338,50261,1,0,0:0:0:0:
406,327,50326,1,0,0:0:0:0:
351,323,50391,1,0,0:0:0:0:
296,327,50457,2,0,P|257:333|220:344,1,55,0|0,0:0|0:0,0:0:0:0:
221,243,50587,6,0,P|185:259|152:279,3,55,0|0|0|0,0:0|0:0|0:0|0:0,0:0:0:0:
0,367,50848,6,0,P|29:370|59:350,1,55,0|0,0:0|0:0,0:0:0:0:
105,221,50979,2,0,P|87:244|89:280,1,55,0|0,0:0|0:0,0:0:0:0:
178,384,51109,2,0,P|166:356|133:340,1,55,0|0,0:0|0:0,0:0:0:0:
3,254,51240,6,0,P|7:271|10:286,1,33,0|0,0:0|0:0,0:0:0:0:
15,35,51500,6,0,P|106:36|117:138,1,197.99999395752,0|0,0:0|0:0,0:0:0:0:
90,145,51761,1,0,0:0:0:0:
221,243,51892,6,0,B|228:147|228:147|233:142|233:142|242:38,1,197.99999395752,0|0,0:0|0:0,0:0:0:0:
273,17,52153,1,0,0:0:0:0:
440,114,52283,6,0,P|475:113|517:93,1,65.9999979858399,0|0,0:0|0:0,0:0:0:0:
485,19,52544,2,0,P|450:20|408:40,1,65.9999979858399,0|0,0:0|0:0,0:0:0:0:
303,185,52805,6,0,P|268:184|226:164,1,65.9999979858399,0|0,0:0|0:0,0:0:0:0:
258,90,53066,2,0,P|293:91|335:111,1,65.9999979858399,0|0,0:0|0:0,0:0:0:0:
448,215,53327,6,0,L|460:288,1,65.9999979858399,0|0,0:0|0:0,0:0:0:0:
502,363,53587,6,0,B|459:360|459:360|439:248|439:248|394:245,1,197.99999395752,0|0,0:0|0:0,0:0:0:0:
388,260,53848,1,0,0:0:0:0:
166,372,53979,6,0,B|259:357|259:357|270:362|270:362|366:343,1,197.99999395752,0|0,0:0|0:0,0:0:0:0:
373,360,54240,1,0,0:0:0:0:
225,180,54370,6,0,L|216:245,1,65.9999979858399,0|0,0:0|0:0,0:0:0:0:
294,250,54631,2,0,L|303:185,1,65.9999979858399,0|0,0:0|0:0,0:0:0:0:
22,92,54892,6,0,L|13:26,1,65.9999979858399,0|0,0:0|0:0,0:0:0:0:
91,22,55153,2,0,L|99:87,1,65.9999979858399,0|0,0:0|0:0,0:0:0:0:
10,213,55413,6,0,B|31:188|31:188|70:192,1,65.9999979858399,0|0,0:0|0:0,0:0:0:0:
137,174,55674,6,0,B|154:230|105:270|102:250|49:290|79:371,1,197.99999395752,0|0,0:0|0:0,0:0:0:0:
91,366,55935,1,0,0:0:0:0:
91,366,56196,6,0,P|55:372|16:337,1,65.9999979858399,0|0,0:0|0:0,0:0:0:0:
105,286,56457,2,0,P|75:272|43:278,1,65.9999979858399,0|0,0:0|0:0,0:0:0:0:
194,335,56718,6,0,B|275:322|275:322|303:347|303:347|386:334,1,197.99999395752,0|0,0:0|0:0,0:0:0:0:
467,318,56979,1,0,0:0:0:0:
467,318,57240,6,0,B|497:331|497:331|463:330,1,65.9999979858399,0|0,0:0|0:0,0:0:0:0:
331,260,57500,1,0,0:0:0:0:
500,139,57631,1,0,0:0:0:0:
500,139,57696,1,0,0:0:0:0:
500,139,57761,1,0,0:0:0:0:
455,30,57892,2,0,L|445:83,1,32.99999899292,0|0,0:0|0:0,0:0:0:0:
473,224,58022,5,0,0:0:0:0:
457,218,58087,1,0,0:0:0:0:
442,212,58152,1,0,0:0:0:0:
426,206,58217,1,0,0:0:0:0:
411,201,58283,2,0,L|370:187,1,32.99999899292,0|0,0:0|0:0,0:0:0:0:
352,101,58414,2,0,L|311:115,1,32.99999899292,0|0,0:0|0:0,0:0:0:0:
235,167,58544,5,0,0:0:0:0:
237,150,58609,1,0,0:0:0:0:
240,134,58674,1,0,0:0:0:0:
242,118,58739,1,0,0:0:0:0:
245,101,58805,6,0,L|248:79,2,22,0|0|0,0:0|0:0|0:0,0:0:0:0:
144,124,58935,6,0,L|147:146,2,22,0|0|0,0:0|0:0|0:0,0:0:0:0:
93,47,59066,6,0,L|115:50,2,22,0|0|0,0:0|0:0|0:0,0:0:0:0:
314,169,59196,6,0,L|292:172,2,22,0|0|0,0:0|0:0|0:0,0:0:0:0:
70,183,59327,6,0,L|73:161,2,22,0|0|0,0:0|0:0|0:0,0:0:0:0:
312,28,59457,6,0,L|315:50,2,22,0|0|0,0:0|0:0|0:0,0:0:0:0:
172,236,59587,6,0,L|170:272,1,33,0|0,0:0|0:0,0:0:0:0:
15,383,59848,6,0,B|75:391|75:391|120:293|120:293|182:299,1,230.99999295044,0|0,0:0|0:0,0:0:0:0:
258,328,60109,2,0,B|292:328|292:328|251:307,1,66,0|0,0:0|0:0,0:0:0:0:
374,381,60370,6,0,B|352:301|414:271|415:293|483:256|459:188,1,230.99999295044,0|0,0:0|0:0,0:0:0:0:
414,119,60631,2,0,B|413:104|392:96|392:96|420:102|431:119,1,66,0|0,0:0|0:0,0:0:0:0:
486,368,60892,6,0,P|371:331|244:311,1,230.99999295044,0|0,0:0|0:0,0:0:0:0:
172,236,61153,2,0,P|208:224|249:217,1,66,0|0,0:0|0:0,0:0:0:0:
323,229,61413,6,0,B|355:184|355:113|286:84|286:84|309:106|304:159,1,230.99999295044,0|0,0:0|0:0,0:0:0:0:
231,136,61674,1,0,0:0:0:0:
166,13,61805,1,0,0:0:0:0:
166,13,61870,1,0,0:0:0:0:
166,13,61935,6,0,L|177:71,1,44,0|0,0:0|0:0,0:0:0:0:
102,117,62066,2,0,L|93:73,1,44,0|0,0:0|0:0,0:0:0:0:
231,136,62196,6,0,L|181:130,1,44,0|0,0:0|0:0,0:0:0:0:
33,5,62327,2,0,L|83:-1,1,44,0|0,0:0|0:0,0:0:0:0:
74,200,62457,5,0,0:0:0:0:
74,200,62522,1,0,0:0:0:0:
74,200,62587,2,0,L|42:203,2,22,0|0|0,0:0|0:0|0:0,0:0:0:0:
159,213,62718,5,0,0:0:0:0:
155,245,62783,1,0,0:0:0:0:
151,278,62848,1,0,0:0:0:0:
147,311,62913,1,0,0:0:0:0:
143,344,62979,6,0,P|96:339|53:385,1,98.9999969787599,0|0,0:0|0:0,0:0:0:0:
155,245,63240,6,0,B|225:236|253:301|231:299|261:362|329:343,1,197.99999395752,0|0,0:0|0:0,0:0:0:0:
452,276,63500,6,0,B|508:264|535:324|513:386|398:392|363:290,1,264,0|0,0:0|0:0,0:0:0:0:
371,271,63761,5,0,0:0:0:0:
455,18,63892,1,0,0:0:0:0:
455,18,63957,1,0,0:0:0:0:
455,18,64022,6,0,B|463:72|512:106|512:106|276:50,1,330,0|0,0:0|0:0,0:0:0:0:
143,110,64283,2,0,B|115:67|73:71|73:71|143:-13|243:-1|243:-1|216:20|219:70,1,330,0|0,0:0|0:0,0:0:0:0:
327,243,64544,6,0,B|345:281|295:333|246:315|203:237|261:183|270:191|279:199|341:142|287:50,1,330,0|0,0:0|0:0,0:0:0:0:
406,193,64805,2,0,B|441:209|474:170|474:170|340:156|198:111,1,330,0|0,0:0|0:0,0:0:0:0:
26,312,65066,6,0,B|14:326|13:352|13:352|-19:290|44:204|170:248|165:340|104:390,1,330,0|0,0:0|0:0,0:0:0:0:
121,372,65327,2,0,B|76:288|159:219|173:246|251:168|186:68,1,330,0|0,0:0|0:0,0:0:0:0:
0,2,65587,5,0,0:0:0:0:
119,140,65718,1,0,0:0:0:0:
119,140,65783,1,0,0:0:0:0:
119,140,65848,6,0,B|65:145|65:145|53:163|53:163|-17:169,1,131.99999597168,0|0,0:0|0:0,0:0:0:0:
222,269,65979,2,0,B|284:257|284:257|277:180,1,131.99999597168,0|0,0:0|0:0,0:0:0:0:
81,64,66109,6,0,B|94:57|94:57|143:72|143:72|164:187|164:187|158:194|158:194|181:333|181:333|235:343|235:343|259:322,1,395.999987915039,0|0,0:0|0:0,0:0:0:0:
47,343,66370,6,0,B|38:364|4:369|4:369|98:382|98:382|118:304|118:304|115:302|115:302|145:212|145:212|198:198|198:198|210:181,1,395.999987915039,0|0,0:0|0:0,0:0:0:0:
400,274,66631,6,0,B|423:281|423:281|438:294|438:294|457:289|457:289|476:294|476:294|486:297|542:350|471:379|458:376|458:376|374:352|374:352|368:356|368:356|255:325,1,395.999987915039,0|0,0:0|0:0,0:0:0:0:
296,0,66892,6,0,B|303:17|287:23|287:23|249:33|249:33|236:37|219:83|257:119|270:116|270:116|344:91|344:91|348:95|348:95|420:72|420:72|459:83|453:127,1,395.999987915039,0|0,0:0|0:0,0:0:0:0:
435,196,67153,6,0,B|479:205|479:205|519:162,1,88,0|0,0:0|0:0,0:0:0:0:
471,50,67283,2,0,B|427:41|427:41|387:84,1,88,0|0,0:0|0:0,0:0:0:0:
308,184,67413,5,0,0:0:0:0:
317,227,67478,1,0,0:0:0:0:
326,270,67543,1,0,0:0:0:0:
405,350,67674,6,0,L|472:328,1,44,0|0,0:0|0:0,0:0:0:0:
250,259,67805,2,0,L|208:272,1,44,0|0,0:0|0:0,0:0:0:0:
355,86,67935,6,0,L|422:64,1,44,0|0,0:0|0:0,0:0:0:0:
251,268,68066,2,0,L|209:281,1,44,0|0,0:0|0:0,0:0:0:0:
4,277,68196,6,0,P|16:324|27:403,1,110,0|0,0:0|0:0,0:0:0:0:
137,359,68327,1,0,0:0:0:0:
137,359,68392,1,0,0:0:0:0:
137,359,68457,2,0,P|125:312|114:233,1,110,0|0,0:0|0:0,0:0:0:0:
50,204,68587,1,0,0:0:0:0:
89,9,68718,6,0,B|42:15|1:76|1:76|126:50|228:105,1,330,0|0,0:0|0:0,0:0:0:0:
309,105,68979,2,0,B|332:64|284:7|216:30|204:138|283:184,1,220,0|0,0:0|0:0,0:0:0:0:
279,369,69174,5,0,0:0:0:0:
279,369,69240,2,0,B|188:318|188:318|278:304|278:304|305:315|305:315|328:295|328:295|418:278,1,330,0|0,0:0|0:0,0:0:0:0:
512,366,69500,2,0,B|435:348|435:348|429:305|429:305|440:274|440:274|423:252|423:252|415:188|415:188|321:171,1,330,0|0,0:0|0:0,0:0:0:0:
494,11,69761,6,0,B|483:61|483:61|485:68|485:68|470:135,1,110,0|0,0:0|0:0,0:0:0:0:
327,258,69892,2,0,B|316:208|316:208|318:201|318:201|303:134,1,110,0|0,0:0|0:0,0:0:0:0:
502,12,70022,2,0,B|491:62|491:62|493:69|493:69|478:136,1,110,0|0,0:0|0:0,0:0:0:0:
379,55,70153,6,0,B|361:86|361:86|393:105|393:105|411:73|411:73|379:55,1,131.99999597168,0|0,0:0|0:0,0:0:0:0:
341,52,70218,6,0,B|323:21|323:21|355:2|355:2|373:34|373:34|341:52,1,131.99999597168,0|0,0:0|0:0,0:0:0:0:
333,76,70283,6,0,B|284:71|284:71|265:90|265:90|247:88|247:88|237:82|237:82|226:85|226:85|191:81,1,131.99999597168,0|0,0:0|0:0,0:0:0:0:
44,60,70413,6,0,B|35:62|22:57|22:57|28:39|23:12|23:12|37:34|56:38|56:38|53:51|43:60,1,131.99999597168,0|0,0:0|0:0,0:0:0:0:
83,173,70544,6,0,B|40:171|34:134|34:134|75:132|83:173,1,131.99999597168,0|0,0:0|0:0,0:0:0:0:
114,182,70609,6,0,B|136:145|171:159|171:159|152:195|113:182,1,131.99999597168,0|0,0:0|0:0,0:0:0:0:
100,203,70674,6,0,B|73:227|91:263|91:263|128:275|132:319,1,131.99999597168,0|0,0:0|0:0,0:0:0:0:
4,364,70805,6,0,B|38:370|38:370|56:365|56:365|74:375|74:375|110:377|110:377|138:304|138:304|143:303|143:303|174:230|174:230|258:239|258:239|216:257,1,395.999987915039,0|0,0:0|0:0,0:0:0:0:
491,262,71066,6,0,B|495:284|495:284|502:294|502:294|499:306|499:306|501:323|501:323|503:334|471:374|434:344|432:333|432:333|423:272|423:272|419:269|419:269|412:207|412:207|411:197|368:164|343:205|345:218|345:218|347:235|347:235|352:222,1,395.999987915039,0|0,0:0|0:0,0:0:0:0:
360,366,71327,6,0,P|327:373|305:340,1,65.9999979858399,0|0,0:0|0:0,0:0:0:0:
241,384,71522,2,0,P|218:358|236:323,1,65.9999979858399,0|0,0:0|0:0,0:0:0:0:
222,254,71718,1,0,0:0:0:0:
304,272,71848,6,0,P|294:223|286:150,1,98.9999969787599,0|0,0:0|0:0,0:0:0:0:
259,75,72109,5,0,0:0:0:0:
341,99,72240,1,0,0:0:0:0:
451,52,72370,6,0,B|463:6|389:-49|326:15|383:115|388:107|392:98|460:129|440:203|440:203|432:172|397:160,1,363.000011077881,0|0,0:0|0:0,0:0:0:0:
512,148,72631,2,0,P|363:183|162:274,1,363.000011077881,0|0,0:0|0:0,0:0:0:0:
1,346,72892,6,0,B|12:413|98:401|135:340|105:278|52:270|53:277|54:283|3:288|-21:213|30:150|93:185|91:232,1,363.000011077881,0|0,0:0|0:0,0:0:0:0:
171,268,73153,2,0,B|239:195|197:81|107:68|107:68|169:108|154:187,1,363.000011077881,0|0,0:0|0:0,0:0:0:0:
0,127,73413,6,0,B|93:182|157:87|136:77|209:-22|325:55,1,363.000011077881,0|0,0:0|0:0,0:0:0:0:
0,26,73674,2,0,P|176:80|350:151,1,363.000011077881,0|0,0:0|0:0,0:0:0:0:
508,325,73935,6,0,L|494:388,1,60.5000018463135,0|0,0:0|0:0,0:0:0:0:
327,296,74066,6,0,L|313:233,1,60.5000018463135,0|0,0:0|0:0,0:0:0:0:
327,296,74131,6,0,L|388:315,1,60.5000018463135,0|0,0:0|0:0,0:0:0:0:
327,296,74196,6,0,L|279:339,1,60.5000018463135,0|0,0:0|0:0,0:0:0:0:
418,215,74327,6,0,P|476:184|471:132,1,121.000003692627,0|0,0:0|0:0,0:0:0:0:
410,16,74457,6,0,B|443:30|443:30|455:43|455:43|475:43|475:43|502:54|502:54|380:89|380:89|374:85|374:85|289:112|289:112|278:151,1,363.000011077881,0|0,0:0|0:0,0:0:0:0:
188,208,74718,6,0,B|151:148|151:148|243:178|243:178|262:197|262:197|287:191|287:191|368:213|368:213|304:240,1,363.000011077881,0|0,0:0|0:0,0:0:0:0:
212,319,74979,6,0,B|217:381|217:381|244:321,1,121.000003692627,0|0,0:0|0:0,0:0:0:0:
3,269,75109,6,0,B|8:206|8:206|35:266,1,121.000003692627,0|0,0:0|0:0,0:0:0:0:
68,346,75240,6,0,B|70:323|70:323|139:303|139:303|146:257,1,121.000003692627,0|0,0:0|0:0,0:0:0:0:
177,76,75370,6,0,L|240:86,1,60.5000018463135,0|0,0:0|0:0,0:0:0:0:
181,48,75435,6,0,L|244:58,1,60.5000018463135,0|0,0:0|0:0,0:0:0:0:
185,20,75500,6,0,B|276:35|276:35|247:49,1,121.000003692627,0|0,0:0|0:0,0:0:0:0:
91,199,75631,2,0,B|0:184|0:184|29:170,1,121.000003692627,0|0,0:0|0:0,0:0:0:0:
44,63,75761,6,0,L|30:0,1,60.5000018463135,0|0,0:0|0:0,0:0:0:0:
44,63,75826,6,0,L|105:82,1,60.5000018463135,0|0,0:0|0:0,0:0:0:0:
44,63,75891,6,0,L|-3:106,1,60.5000018463135,0|0,0:0|0:0,0:0:0:0:
269,180,76022,5,0,0:0:0:0:
309,201,76087,1,0,0:0:0:0:
353,195,76153,1,0,0:0:0:0:
385,163,76218,1,0,0:0:0:0:
392,119,76283,5,0,0:0:0:0:
367,98,76348,5,0,0:0:0:0:
382,41,76413,5,0,0:0:0:0:
435,16,76479,5,0,0:0:0:0:
502,54,76544,6,0,L|482:185,1,110,0|0,0:0|0:0,0:0:0:0:
444,324,76674,1,0,0:0:0:0:
444,324,76740,1,0,0:0:0:0:
444,324,76805,6,0,B|433:337|433:337|445:374|445:374|471:344|471:344|465:328,1,110,0|0,0:0|0:0,0:0:0:0:
287,289,76935,2,0,B|276:275|276:275|288:238|288:238|314:268|314:268|308:285,1,110,0|0,0:0|0:0,0:0:0:0:
512,257,77066,6,0,B|414:213|357:330|392:320|342:424|211:357,1,330,0|0,0:0|0:0,0:0:0:0:
6,259,77327,2,0,P|-9:300|32:349,1,110,0|0,0:0|0:0,0:0:0:0:
161,226,77457,2,0,P|197:264|183:315,1,110,0|0,0:0|0:0,0:0:0:0:
107,384,77587,6,0,P|80:205|47:56,1,330,0|0,0:0|0:0,0:0:0:0:
73,12,77848,2,0,B|13:31|0:91|0:91|101:50|231:48,1,330,0|0,0:0|0:0,0:0:0:0:
262,131,78109,6,0,P|202:129|140:137,1,110,0|0,0:0|0:0,0:0:0:0:
215,32,78240,2,0,P|275:30|337:38,1,110,0|0,0:0|0:0,0:0:0:0:
495,111,78370,6,0,P|510:61|462:20,1,110,0|0,0:0|0:0,0:0:0:0:
347,122,78500,2,0,P|332:172|380:213,1,110,0|0,0:0|0:0,0:0:0:0:
397,1,78631,6,0,P|420:114|448:272,1,264,0|0,0:0|0:0,0:0:0:0:
461,333,78892,2,0,B|447:365|473:381|473:381|487:356|461:333,1,110,0|0,0:0|0:0,0:0:0:0:
401,2,79022,6,0,P|424:115|452:273,1,264,0|0,0:0|0:0,0:0:0:0:
465,336,79283,2,0,B|451:368|477:384|477:384|491:359|465:336,1,110,0|0,0:0|0:0,0:0:0:0:
405,4,79413,6,0,P|428:117|456:275,1,264,0|0,0:0|0:0,0:0:0:0:
386,335,79674,5,0,0:0:0:0:
324,370,79740,1,0,0:0:0:0:
268,344,79805,1,0,0:0:0:0:
249,294,79870,1,0,0:0:0:0:
221,259,79935,1,0,0:0:0:0:
177,254,80000,1,0,0:0:0:0:
145,270,80066,1,0,0:0:0:0:
131,302,80131,1,0,0:0:0:0:
138,327,80196,1,0,0:0:0:0:
160,341,80261,1,0,0:0:0:0:
177,340,80327,1,0,0:0:0:0:
189,327,80392,1,0,0:0:0:0:
190,318,80457,2,0,P|185:295|186:281,3,22,0|0|0|0,0:0|0:0|0:0|0:0,0:0:0:0:
291,218,80718,5,0,0:0:0:0:
484,363,89066,6,0,P|504:338|485:290,1,65.9999979858399,0|0,0:0|0:0,0:0:0:0:
413,346,89327,2,0,P|409:314|429:288,1,65.9999979858399,0|0,0:0|0:0,0:0:0:0:
345,98,89587,6,0,P|365:122|346:170,1,65.9999979858399,0|0,0:0|0:0,0:0:0:0:
274,115,89848,2,0,P|270:146|290:172,1,65.9999979858399,0|0,0:0|0:0,0:0:0:0:
341,245,90109,6,0,L|247:264,1,65.9999979858399,0|0,0:0|0:0,0:0:0:0:
443,110,90370,2,0,L|537:129,1,65.9999979858399,0|0,0:0|0:0,0:0:0:0:
289,33,90566,5,0,0:0:0:0:
289,33,90631,2,0,L|195:52,1,65.9999979858399,0|0,0:0|0:0,0:0:0:0:
146,150,90892,1,0,0:0:0:0:
15,22,91022,5,0,0:0:0:0:
15,22,91087,1,0,0:0:0:0:
15,22,91153,2,0,P|50:42|51:83,1,65.9999979858399,0|0,0:0|0:0,0:0:0:0:
142,57,91413,1,0,0:0:0:0:
6,171,91544,5,0,0:0:0:0:
6,171,91609,1,0,0:0:0:0:
6,171,91674,2,0,L|81:157,1,65.9999979858399,0|0,0:0|0:0,0:0:0:0:
116,228,91870,2,0,L|52:240,1,65.9999979858399,0|0,0:0|0:0,0:0:0:0:
146,150,92066,1,0,0:0:0:0:
0,377,92196,5,0,0:0:0:0:
0,377,92261,1,0,0:0:0:0:
0,377,92327,2,0,L|12:327,1,32.99999899292,0|0,0:0|0:0,0:0:0:0:
91,324,92457,5,0,0:0:0:0:
91,324,92522,1,0,0:0:0:0:
91,324,92587,2,0,L|79:274,1,32.99999899292,0|0,0:0|0:0,0:0:0:0:
207,377,92718,5,0,0:0:0:0:
207,377,92783,1,0,0:0:0:0:
207,377,92848,2,0,L|219:327,1,32.99999899292,0|0,0:0|0:0,0:0:0:0:
291,250,92979,5,0,0:0:0:0:
291,250,93044,1,0,0:0:0:0:
291,250,93109,2,0,L|303:300,1,32.99999899292,0|0,0:0|0:0,0:0:0:0:
459,381,93240,6,0,B|455:339|484:314|484:314|433:283|394:323|394:323|374:286|373:233|429:201,1,307.999990600586
479,139,93631,2,0,B|508:188|506:233|506:233|402:164|306:148,1,307.999990600586,0|0,0:0|0:0,0:0:0:0:
180,28,94022,2,0,B|151:77|153:122|153:122|257:53|353:37,1,307.999990600586,0|0,0:0|0:0,0:0:0:0:
459,17,94413,2,0,P|449:42|451:14,1,76.9999976501466,0|0,0:0|0:0,0:0:0:0:
469,6,94544,6,0,P|446:63|451:0,2,176,0|0|0,0:0|0:0|0:0,0:0:0:0:
270,87,95327,6,0,B|241:34|175:26|125:69|125:69|119:131|62:141|62:141|79:135|85:109,1,307.999990600586,0|0,0:0|0:0,0:0:0:0:
14,0,95718,2,0,P|35:122|53:307,1,307.999990600586,0|0,0:0|0:0,0:0:0:0:
221,292,96109,2,0,P|215:167|129:263,1,307.999990600586,0|0,0:0|0:0,0:0:0:0:
145,347,96500,2,0,B|233:387|292:309|263:304|325:202|441:263,1,307.999990600586,0|0,0:0|0:0,0:0:0:0:
512,291,96892,2,0,B|524:343|524:343|527:358|503:416|450:377|447:362|447:362|422:252|422:252|413:243|413:243|381:86|381:86|415:139|488:113,1,538.999983551026,0|0,0:0|0:0,0:0:0:0:
509,11,97413,6,0,P|471:16|444:57,1,76.9999976501466,0|0,0:0|0:0,0:0:0:0:
442,38,97544,2,0,P|466:9|504:4,1,76.9999976501466,0|0,0:0|0:0,0:0:0:0:
369,0,97674,6,0,P|354:35|376:79,1,76.9999976501466,0|0,0:0|0:0,0:0:0:0:
359,71,97805,2,0,P|346:35|361:0,1,76.9999976501466,0|0,0:0|0:0,0:0:0:0:
457,120,97935,6,0,L|446:205,1,76.9999976501466,0|0,0:0|0:0,0:0:0:0:
420,267,98066,2,0,B|438:280|438:280|468:271,2,38.4999988250733,0|0|0,0:0|0:0|0:0,0:0:0:0:
360,368,98196,5,0,0:0:0:0:
353,330,98261,1,0,0:0:0:0:
347,292,98326,1,0,0:0:0:0:
339,254,98391,1,0,0:0:0:0:
332,216,98457,6,0,P|293:223|248:190,1,76.9999976501466,0|0,0:0|0:0,0:0:0:0:
208,267,98587,2,0,P|182:236|188:181,1,76.9999976501466,0|0,0:0|0:0,0:0:0:0:
166,0,98718,6,0,P|191:30|185:85,1,76.9999976501466,0|0,0:0|0:0,0:0:0:0:
272,81,98848,2,0,P|258:119|207:141,1,76.9999976501466,0|0,0:0|0:0,0:0:0:0:
141,128,98979,6,0,L|52:114,1,76.9999976501466,0|0,0:0|0:0,0:0:0:0:
2,25,99109,2,0,L|40:19,2,38.4999988250733,0|0|0,0:0|0:0|0:0,0:0:0:0:
48,199,99240,5,0,0:0:0:0:
41,236,99305,1,0,0:0:0:0:
34,274,99370,1,0,0:0:0:0:
27,312,99435,1,0,0:0:0:0:
20,350,99500,5,0,0:0:0:0:
57,342,99565,1,0,0:0:0:0:
95,335,99630,1,0,0:0:0:0:
133,328,99695,1,0,0:0:0:0:
171,320,99760,1,0,0:0:0:0:
209,313,99826,1,0,0:0:0:0:
246,306,99892,2,0,L|326:288,1,76.9999976501466,0|0,0:0|0:0,0:0:0:0:
373,163,100022,6,0,L|389:262,1,76.9999976501466,0|0,0:0|0:0,0:0:0:0:
387,326,100153,2,0,B|408:331|408:331|429:314,2,38.4999988250733,0|0|0,0:0|0:0|0:0,0:0:0:0:
512,220,100283,6,0,L|495:319,1,76.9999976501466,0|0,0:0|0:0,0:0:0:0:
497,384,100414,2,0,B|475:389|475:389|454:372,2,38.4999988250733,0|0|0,0:0|0:0|0:0,0:0:0:0:
299,213,100544,5,0,0:0:0:0:
299,213,100805,5,0,0:0:0:0:
299,213,101066,6,0,L|220:230,1,65.9999979858399,0|0,0:0|0:0,0:0:0:0:
382,36,101327,6,0,L|421:44,1,33,0|0,0:0|0:0,0:0:0:0:
487,99,101587,6,0,B|511:66|511:66|498:-1,1,76.9999976501466,0|0,0:0|0:0,0:0:0:0:
365,122,101718,1,0,0:0:0:0:
365,122,101783,1,0,0:0:0:0:
365,122,101848,2,0,B|358:157|358:157|382:190,1,76.9999976501466,0|0,0:0|0:0,0:0:0:0:
478,193,101979,2,0,L|468:277,1,76.9999976501466,0|0,0:0|0:0,0:0:0:0:
512,359,102109,6,0,B|487:343|487:343|434:360,1,76.9999976501466,0|0,0:0|0:0,0:0:0:0:
262,310,102240,1,0,0:0:0:0:
262,310,102305,1,0,0:0:0:0:
262,310,102370,2,0,P|273:344|284:396,1,76.9999976501466
337,279,102500,2,0,P|345:320|359:365,1,76.9999976501466
192,363,102631,6,0,L|88:345,1,76.9999976501466,0|0,0:0|0:0,0:0:0:0:
6,294,102761,1,0,0:0:0:0:
6,294,102827,1,0,0:0:0:0:
6,294,102892,2,0,P|22:332|31:382,1,76.9999976501466,0|0,0:0|0:0,0:0:0:0:
146,192,103022,2,0,P|130:230|121:280,1,76.9999976501466,0|0,0:0|0:0,0:0:0:0:
52,211,103153,6,0,P|36:171|67:131,1,76.9999976501466,0|0,0:0|0:0,0:0:0:0:
100,0,103283,2,0,P|134:17|143:53,1,76.9999976501466,0|0,0:0|0:0,0:0:0:0:
0,87,103413,2,0,P|26:60|64:62,1,76.9999976501466,0|0,0:0|0:0,0:0:0:0:
205,123,103544,5,0,0:0:0:0:
242,115,103609,1,0,0:0:0:0:
280,107,103674,2,0,L|270:202,1,76.9999976501466,0|0,0:0|0:0,0:0:0:0:
360,240,103805,1,0,0:0:0:0:
360,240,103870,2,0,L|350:145,1,76.9999976501466,0|0,0:0|0:0,0:0:0:0:
506,28,104000,1,0,0:0:0:0:
506,28,104065,2,0,L|496:123,1,76.9999976501466,0|0,0:0|0:0,0:0:0:0:
450,175,104196,5,0,0:0:0:0:
450,175,104261,2,0,P|478:203|523:189,1,76.9999976501466,0|0,0:0|0:0,0:0:0:0:
407,24,104392,1,0,0:0:0:0:
407,24,104457,2,0,P|369:20|344:47,1,76.9999976501466,0|0,0:0|0:0,0:0:0:0:
447,185,104587,2,0,P|475:213|520:199,1,76.9999976501466,0|0,0:0|0:0,0:0:0:0:
271,183,104718,6,0,L|279:259,1,76.9999976501466,0|0,0:0|0:0,0:0:0:0:
430,271,104848,2,0,L|359:239,1,76.9999976501466,0|0,0:0|0:0,0:0:0:0:
274,364,104979,2,0,L|336:318,1,76.9999976501466,0|0,0:0|0:0,0:0:0:0:
489,351,105109,5,0,0:0:0:0:
489,351,105174,1,0,0:0:0:0:
489,351,105240,1,0,0:0:0:0:
454,367,105305,1,0,0:0:0:0:
416,365,105370,1,0,0:0:0:0:
384,345,105435,1,0,0:0:0:0:
366,311,105500,1,0,0:0:0:0:
347,268,105566,1,0,0:0:0:0:
301,240,105631,5,0,0:0:0:0:
239,245,105696,1,0,0:0:0:0:
194,298,105761,2,0,P|164:330|106:324,1,76.9999976501466
21,309,105892,1,0,0:0:0:0:
21,309,105957,1,0,0:0:0:0:
21,309,106022,2,0,L|4:407,1,76.9999976501466,0|0,0:0|0:0,0:0:0:0:
131,250,106153,2,0,L|114:152,1,76.9999976501466
0,0,106283,6,0,P|17:26|74:24,1,76.9999976501466
121,96,106413,1,0,0:0:0:0:
121,96,106479,1,0,0:0:0:0:
121,96,106544,2,0,P|152:94|178:43,1,76.9999976501466
269,4,106674,2,0,P|264:45|261:93,1,76.9999976501466
512,13,106805,6,0,L|427:-2,1,76.9999976501466
346,64,106935,1,0,0:0:0:0:
346,64,107000,1,0,0:0:0:0:
346,64,107066,2,0,L|421:77,1,76.9999976501466
447,163,107196,2,0,L|362:148,1,76.9999976501466
214,153,107327,6,0,B|203:171|203:171|221:249,1,76.9999976501466,0|0,0:0|0:0,0:0:0:0:
365,272,107457,2,0,B|354:253|354:253|277:230,1,76.9999976501466,0|0,0:0|0:0,0:0:0:0:
185,344,107587,2,0,B|206:343|206:343|265:288,1,76.9999976501466,0|0,0:0|0:0,0:0:0:0:
459,384,107718,5,0,0:0:0:0:
464,345,107783,1,0,0:0:0:0:
469,307,107848,2,0,L|483:209,1,76.9999976501466
496,78,107979,5,0,0:0:0:0:
496,78,108044,2,0,P|463:69|412:82,1,76.9999976501466
357,20,108174,1,0,0:0:0:0:
357,20,108239,2,0,P|332:44|318:94,1,76.9999976501466
357,215,108370,5,0,0:0:0:0:
357,215,108435,2,0,P|324:224|273:211,1,76.9999976501466
218,273,108566,1,0,0:0:0:0:
218,273,108631,2,0,P|193:248|179:198,1,76.9999976501466
97,131,108761,2,0,L|86:222,1,76.9999976501466
77,353,108892,5,0,0:0:0:0:
93,368,108957,1,0,0:0:0:0:
121,378,109022,1,0,0:0:0:0:
158,371,109087,1,0,0:0:0:0:
187,334,109153,1,0,0:0:0:0:
184,280,109218,1,0,0:0:0:0:
131,247,109283,5,0,0:0:0:0:
71,261,109348,5,0,0:0:0:0:
12,223,109413,5,0,0:0:0:0:
4,145,109479,5,0,0:0:0:0:
59,91,109544,5,0,0:0:0:0:
133,107,109609,5,0,0:0:0:0:
164,176,109674,6,0,L|158:214,3,22
15,11,109935,6,0,P|32:39|77:37,1,76.9999976501466
79,142,110066,1,0,0:0:0:0:
79,142,110131,1,0,0:0:0:0:
79,142,110196,2,0,P|111:142|132:102,1,76.9999976501466
239,26,110327,2,0,P|202:25|146:12,1,76.9999976501466
249,145,110457,6,0,P|286:144|342:131,1,76.9999976501466
403,17,110587,1,0,0:0:0:0:
403,17,110653,1,0,0:0:0:0:
403,17,110718,2,0,L|414:101,1,76.9999976501466
486,0,110849,2,0,L|497:84,1,76.9999976501466
446,215,110979,6,0,B|483:209|483:209|512:236,1,76.9999976501466
340,167,111109,1,0,0:0:0:0:
340,203,111174,2,0,B|317:174|317:174|326:136,1,76.9999976501466
351,315,111305,1,0,0:0:0:0:
384,301,111370,2,0,B|370:336|370:336|333:348,1,76.9999976501466
205,374,111500,6,0,L|219:289,1,76.9999976501466
177,255,111631,1,0,0:0:0:0:
157,250,111696,2,0,L|223:304,1,76.9999976501466
278,291,111827,1,0,0:0:0:0:
288,272,111892,2,0,L|207:302,1,76.9999976501466
0,350,112022,6,0,P|26:376|78:370,1,76.9999976501466
28,280,112153,1,0,0:0:0:0:
28,280,112218,1,0,0:0:0:0:
28,280,112283,2,0,P|65:280|92:307,1,76.9999976501466
233,201,112413,2,0,P|225:172|220:117,1,76.9999976501466
268,32,112544,6,0,P|235:16|193:23,1,76.9999976501466
85,124,112674,1,0,0:0:0:0:
85,124,112740,1,0,0:0:0:0:
85,124,112805,2,0,P|52:140|10:133,1,76.9999976501466
2,32,112935,2,0,P|35:16|77:23,1,76.9999976501466
167,190,113066,6,0,P|198:212|240:189,1,76.9999976501466
274,282,113196,1,0,0:0:0:0:
297,295,113261,2,0,P|331:279|332:231,1,76.9999976501466
430,248,113392,1,0,0:0:0:0:
452,234,113457,2,0,P|455:196|414:171,1,76.9999976501466
335,81,113587,5,0,0:0:0:0:
341,118,113653,1,0,0:0:0:0:
348,156,113718,1,0,0:0:0:0:
492,5,113848,5,0,0:0:0:0:
486,42,113913,1,0,0:0:0:0:
479,80,113979,1,0,0:0:0:0:
442,352,114109,6,0,B|466:375|499:368|499:368|430:416|385:345|392:341|398:337|352:264|278:311,1,307.999990600586
122,302,114500,2,0,B|118:271|80:244|80:244|167:166|254:236|254:236|229:244|217:278,1,307.999990600586
198,371,114892,2,0,P|166:165|133:45,1,307.999990600586
37,114,115283,2,0,B|100:158|170:126|178:68|167:68|181:34|221:30,1,230.99999295044
332,54,115544,6,0,L|339:-11,1,55
248,107,115674,2,0,L|255:172,1,55
254,109,115805,2,0,L|261:174,1,55
373,144,115935,6,0,P|353:140|333:138,1,33
350,382,116196,6,0,B|305:292|389:234|394:247|401:260|498:197|458:101,1,330.000012588501
499,345,116587,2,0,P|296:266|157:235,1,352
97,384,116979,2,0,B|92:334|126:304|126:304|66:267|19:315|19:315|-3:271|-4:208|61:170,1,374.000007133484
146,76,117370,2,0,B|157:53|149:28|149:28|204:77|154:202|7:190|-20:62|49:12,1,395.999987915039
235,134,117761,2,0,B|285:171|351:121|351:121|449:48|297:-113|233:99|351:121|351:121|400:132|452:186|450:293|360:321|311:252|345:206,1,731.499980466843
453,99,118283,5,0,0:0:0:0:
476,85,118348,1,0,0:0:0:0:
504,84,118413,1,0,0:0:0:0:
341,198,118544,1,0,0:0:0:0:
315,60,118674,5,0,0:0:0:0:
314,33,118739,1,0,0:0:0:0:
327,9,118804,1,0,0:0:0:0:
344,206,118935,1,0,0:0:0:0:
497,173,119066,6,0,B|490:221|490:221|493:226|493:226|486:285,1,110
509,378,119327,5,0,0:0:0:0:
491,357,119392,1,0,0:0:0:0:
464,356,119457,1,0,0:0:0:0:
409,276,119587,1,0,0:0:0:0:
409,276,119718,5,0,0:0:0:0:
382,281,119783,1,0,0:0:0:0:
368,303,119848,1,0,0:0:0:0:
308,363,119979,1,0,0:0:0:0:
308,363,120109,6,0,P|246:349|192:343,1,110
27,379,120370,6,0,L|36:345,1,33
139,256,120631,6,0,P|161:246|198:238,3,44
101,177,120892,2,0,P|79:167|42:159,3,44
52,272,121153,6,0,L|61:238,1,33
174,64,121413,6,0,P|245:61|243:-13,1,132,0|0,0:0|0:0,0:0:0:0:
152,70,121674,2,0,P|118:133|184:168,1,132,0|0,0:0|0:0,0:0:0:0:
157,47,121935,2,0,P|118:-13|55:25,1,132
8,90,122196,6,0,L|48:82,1,33
240,135,122457,6,0,L|256:209,1,65.9999979858399
308,65,122587,2,0,L|324:139,1,65.9999979858399
400,137,122718,2,0,L|416:211,1,65.9999979858399
442,11,122848,2,0,L|458:85,1,65.9999979858399
447,362,122979,6,0,L|531:372,1,65.9999979858399
402,277,123109,2,0,L|486:287,1,65.9999979858399
307,377,123240,2,0,L|391:387,1,65.9999979858399
319,207,123370,5,0,0:0:0:0:
286,203,123435,1,0,0:0:0:0:
253,199,123500,2,0,P|223:211|208:253,1,65.9999979858399
135,223,123631,2,0,P|130:254|159:288,1,65.9999979858399
208,383,123761,2,0,P|174:367|144:366,1,65.9999979858399
0,296,123892,2,0,P|34:280|64:279,1,65.9999979858399
56,384,124022,6,0,L|50:349,2,32.99999899292
135,223,124153,2,0,L|141:188,2,32.99999899292
9,173,124283,2,0,L|15:208,2,32.99999899292
140,230,124413,2,0,L|146:195,2,32.99999899292
85,10,124544,5,0,0:0:0:0:
53,20,124609,1,0,0:0:0:0:
22,30,124674,2,0,L|36:106,1,65.9999979858399
120,101,124805,2,0,L|106:177,1,65.9999979858399
191,47,124935,6,0,L|198:85,2,32.99999899292
279,167,125066,6,0,L|204:155,1,65.9999979858399
282,82,125196,2,0,L|348:93,1,65.9999979858399
418,0,125327,5,0,0:0:0:0:
423,32,125392,1,0,0:0:0:0:
429,65,125457,1,0,0:0:0:0:
434,97,125522,1,0,0:0:0:0:
440,130,125587,6,0,L|449:88,2,32.99999899292
368,203,125718,6,0,L|359:161,2,32.99999899292
511,206,125848,6,0,L|469:201,1,32.99999899292
506,238,125913,2,0,L|464:233,1,32.99999899292
501,271,125979,2,0,L|459:266,1,32.99999899292
497,304,126044,2,0,L|455:299,1,32.99999899292
492,336,126109,2,0,L|450:331,2,32.99999899292
372,288,126240,6,0,L|378:320,2,32.99999899292
297,367,126370,6,0,L|303:341,12,16.49999949646
277,257,126631,5,0,0:0:0:0:
235,232,126696,1,0,0:0:0:0:
187,239,126761,1,0,0:0:0:0:
154,275,126827,1,0,0:0:0:0:
152,323,126892,1,0,0:0:0:0:
128,365,126957,1,0,0:0:0:0:
84,384,127022,1,0,0:0:0:0:
38,370,127087,1,0,0:0:0:0:
11,329,127153,1,0,0:0:0:0:
12,280,127218,1,0,0:0:0:0:
45,243,127283,1,0,0:0:0:0:
90,223,127348,1,0,0:0:0:0:
112,179,127413,1,0,0:0:0:0:
105,130,127479,1,0,0:0:0:0:
69,99,127544,6,0,P|46:93|29:96,2,32.99999899292
199,139,127674,5,0,0:0:0:0:
243,159,127740,1,0,0:0:0:0:
290,149,127805,1,0,0:0:0:0:
322,112,127870,1,0,0:0:0:0:
324,63,127935,1,0,0:0:0:0:
346,19,128000,1,0,0:0:0:0:
391,0,128066,1,0,0:0:0:0:
437,10,128131,1,0,0:0:0:0:
469,46,128196,6,0,L|463:85,2,32.99999899292
403,146,128327,2,0,L|397:113,2,32.99999899292
237,0,128457,6,0,L|240:36,1,33
268,351,128718,6,0,L|262:287,1,55
155,168,128848,2,0,P|118:134|66:153,1,110
268,351,129240,6,0,L|262:287,1,55
347,151,129370,2,0,P|377:112|432:121,1,110
453,270,129761,6,0,P|471:287|497:278,1,55
245,96,129892,2,0,L|257:223,1,110
71,304,130283,6,0,P|56:323|28:319,1,55
255,206,130414,2,0,L|261:269,1,55
192,384,130544,5,0,0:0:0:0:
204,345,130609,1,0,0:0:0:0:
238,322,130674,1,0,0:0:0:0:
278,324,130740,1,0,0:0:0:0:
310,349,130805,6,0,P|279:358|242:339,1,65.9999979858399
139,318,130935,2,0,L|161:196,1,110
32,160,131327,6,0,P|63:168|100:149,1,65.9999979858399
203,128,131457,2,0,L|181:6,1,110
390,99,131848,6,0,L|478:116,1,65.9999979858399
491,32,131979,2,0,L|426:19,1,65.9999979858399
288,96,132109,5,0,0:0:0:0:
290,112,132174,1,0,0:0:0:0:
293,128,132239,1,0,0:0:0:0:
296,144,132304,1,0,0:0:0:0:
299,160,132370,2,0,L|311:234,1,65.9999979858399
509,235,132500,2,0,P|483:211|445:219,1,65.9999979858399
375,325,132631,5,0,0:0:0:0:
360,346,132696,1,0,0:0:0:0:
324,363,132761,1,0,0:0:0:0:
273,346,132827,1,0,0:0:0:0:
250,284,132892,5,0,0:0:0:0:
207,260,132957,1,0,0:0:0:0:
159,269,133022,1,0,0:0:0:0:
126,305,133087,1,0,0:0:0:0:
122,353,133153,2,0,L|190:339,1,65.9999979858399
247,170,133283,5,0,0:0:0:0:
289,146,133348,1,0,0:0:0:0:
337,155,133413,1,0,0:0:0:0:
370,191,133479,1,0,0:0:0:0:
374,239,133544,2,0,L|306:224,1,65.9999979858399
25,175,133674,5,0,0:0:0:0:
0,133,133740,1,0,0:0:0:0:
3,84,133805,1,0,0:0:0:0:
33,45,133870,1,0,0:0:0:0:
79,31,133935,2,0,P|117:37|142:65,1,65.9999979858399
309,224,134066,5,0,0:0:0:0:
285,266,134131,1,0,0:0:0:0:
241,288,134196,1,0,0:0:0:0:
192,282,134261,1,0,0:0:0:0:
157,249,134327,2,0,P|143:213|154:177,1,65.9999979858399
211,37,134457,6,0,B|269:17|298:78|283:78|321:143|392:104,1,197.99999395752
491,18,134653,6,0,P|456:116|442:219,1,197.99999395752
446,320,134848,6,0,B|469:339|453:381|453:381|423:349|444:321,1,131.99999597168
446,320,135240,6,0,B|496:341|554:297|525:206|381:198|360:320|360:320|278:235|191:310|198:317|203:325|202:406|55:443|-30:307|51:180|156:213|156:213|95:180|112:121|119:123|125:124|142:38|82:-4|15:12|15:12|18:150|138:162|210:107|206:100|201:91|279:44|329:98|329:98|416:178|247:338|211:96|329:98|329:98|424:95|412:27|412:27|364:38|370:87,1,2032.80006203613
