osu file format v14

[General]
AudioFilename: audio.mp3
AudioLeadIn: 0
PreviewTime: 57298
Countdown: 0
SampleSet: Soft
StackLeniency: 0.5
Mode: 0
LetterboxInBreaks: 0
WidescreenStoryboard: 1

[Editor]
Bookmarks: 19881,26940,36205,38705,47970,56352,57381,66793
DistanceSpacing: 1.3
BeatDivisor: 4
GridSize: 32
TimelineZoom: 2.699999

[Metadata]
Title:Black Swallowtail (TV Size)
TitleUnicode:Black Swallowtail (TV Size)
Artist:UROBOROS
ArtistUnicode:UROBOROS
Creator:Mir
Version:Hard
Source:六花の勇者
Tags:rokka no yuusha opening 2 Braves of the Six Flowers lasse flezlin
BeatmapID:1665717
BeatmapSetID:792964

[Difficulty]
HPDrainRate:4
CircleSize:3.5
OverallDifficulty:6
ApproachRate:7.5
SliderMultiplier:1.4
SliderTickRate:1

[Events]
//Background and Video events
0,0,"rokka_no_yuusha_wallpaper_by_dtsyr-d9bbn4d.jpg",0,0
//Break Periods
//Storyboard Layer 0 (Background)
//Storyboard Layer 1 (Fail)
//Storyboard Layer 2 (Pass)
//Storyboard Layer 3 (Foreground)
//Storyboard Sound Samples

[TimingPoints]
9283,294.117647058824,4,2,1,70,1,0
9283,-100,4,2,1,70,0,0
16710,-100,4,2,1,5,0,0
16783,-100,4,2,1,70,0,0
16857,-100,4,2,1,5,0,0
16930,-100,4,2,1,70,0,0
17151,-100,4,2,1,5,0,0
17224,-100,4,2,1,70,0,0
18768,-100,4,2,1,5,0,0
18842,-100,4,2,1,70,0,0
19724,-111.111111111111,4,2,1,60,0,0
19945,-111.111111111111,4,2,1,5,0,0
20018,-111.111111111111,4,2,1,60,0,0
21121,-111.111111111111,4,2,1,5,0,0
21194,-111.111111111111,4,2,1,60,0,0
22298,-111.111111111111,4,2,1,5,0,0
22371,-111.111111111111,4,2,1,60,0,0
23474,-111.111111111111,4,2,1,5,0,0
23547,-111.111111111111,4,2,1,60,0,0
24651,-111.111111111111,4,2,1,5,0,0
24724,-111.111111111111,4,2,1,60,0,0
25533,-111.111111111111,4,2,1,5,0,0
25606,-111.111111111111,4,2,1,60,0,0
25827,-111.111111111111,4,2,1,5,0,0
25900,-111.111111111111,4,2,1,60,0,0
29357,-111.111111111111,4,2,1,5,0,0
29430,-111.111111111111,4,2,1,60,0,0
30533,-111.111111111111,4,2,1,5,0,0
30606,-111.111111111111,4,2,1,60,0,0
31710,-111.111111111111,4,2,1,5,0,0
31783,-111.111111111111,4,2,1,60,0,0
32886,-111.111111111111,4,2,1,5,0,0
32959,-111.111111111111,4,2,1,60,0,0
34062,-111.111111111111,4,2,1,5,0,0
34135,-111.111111111111,4,2,1,60,0,0
34945,-111.111111111111,4,2,1,5,0,0
35018,-111.111111111111,4,2,1,60,0,0
35239,-111.111111111111,4,2,1,5,0,0
35312,-111.111111111111,4,2,1,60,0,0
38253,-111.111111111111,4,2,1,60,0,0
38254,-111.111111111111,4,2,1,50,0,0
42812,-111.111111111111,4,2,1,50,0,0
43989,-111.111111111111,4,2,1,70,0,0
49871,-100,4,2,1,70,0,0
50312,-100,4,2,1,70,0,0
52151,-100,4,2,1,5,0,0
52224,-100,4,2,1,60,0,0
56047,-100,4,2,1,60,0,0
56048,-100,4,2,1,70,0,0
56085,-100,4,2,1,5,0,0
56341,-100,4,2,1,5,0,0
56342,-100,4,2,1,70,0,0
56856,-100,4,2,1,70,0,0
56857,-100,4,2,1,5,0,0
56930,-100,4,2,1,70,0,0
57004,-100,4,2,1,5,0,0
57371,-100,4,2,1,80,0,1
65753,-100,4,2,1,80,0,1
65827,-100,4,2,1,5,0,1
65901,-100,4,2,1,80,0,1
66415,-100,4,2,1,5,0,1
66488,-100,4,2,1,80,0,0
66783,-100,4,2,1,80,0,1
70385,-100,4,2,1,80,0,1
70459,-100,4,2,1,80,0,1
71709,-100,4,2,1,80,0,1
71783,-100,4,2,1,80,0,1
76341,-100,4,2,1,70,0,0
82592,-100,4,2,1,5,0,0
82665,-100,4,2,1,70,0,0
82739,-100,4,2,1,5,0,0
82812,-100,4,2,1,70,0,0
83033,-100,4,2,1,5,0,0
83106,-100,4,2,1,70,0,0
84651,-100,4,2,1,5,0,0
84724,-100,4,2,1,70,0,0
89283,-100,4,2,2,5,0,0

[Colours]
Combo1 : 249,149,164
Combo2 : 250,222,165
Combo3 : 214,132,244

[HitObjects]
175,159,9282,6,0,L|217:157,5,35,8|8|8|8|8|8,0:0|0:0|0:0|0:0|0:0|0:0,0:0:0:0:
250,127,9724,2,0,L|284:128,5,35,8|8|4|4|4|4,0:0|0:0|0:3|0:3|0:3|0:3,0:0:0:0:
322,160,10165,6,0,L|356:158,3,35,8|8|8|8,0:0|0:0|0:0|0:0,0:0:0:0:
389,121,10459,6,0,L|400:273,1,140,6|8,3:2|0:2,0:0:0:0:
350,329,10900,1,0,0:0:0:0:
350,329,11047,2,0,L|271:320,1,70,0|0,3:2|3:2,0:0:0:0:
213,270,11341,2,0,L|143:277,1,70,8|0,0:2|0:0,0:0:0:0:
67,242,11635,6,0,P|61:287|73:331,2,70,0|0|8,3:2|3:2|0:2,0:0:0:0:
130,186,12077,2,0,P|134:107|121:22,1,140,2|0,0:0|3:2,0:0:0:0:
204,14,12518,1,10,0:2:0:0:
204,14,12665,1,2,0:0:0:0:
268,67,12812,6,0,P|332:85|416:51,1,140,0|8,3:2|0:2,0:0:0:0:
467,13,13253,1,0,0:0:0:0:
467,13,13400,2,0,P|486:53|486:96,1,70,0|0,3:2|3:2,0:0:0:0:
506,160,13694,2,0,P|491:201|460:232,1,70,8|2,0:2|0:0,0:0:0:0:
398,256,13988,5,2,3:2:0:0:
333,202,14135,2,0,L|323:152,2,35,8|8|8,0:2|0:2|0:2,0:0:0:0:
285,271,14430,1,8,0:2:0:0:
285,271,14503,1,8,0:2:0:0:
285,271,14577,2,0,L|275:321,3,35,12|12|12|12,0:3|0:3|0:3|0:3,0:0:0:0:
244,331,14871,2,0,L|254:381,3,35,4|4|4|4,0:3|0:3|0:3|0:3,0:0:0:0:
208,371,15165,6,0,B|153:359|153:359|125:367|125:367|50:353,1,140,6|8,3:2|0:2,0:0:0:0:
20,290,15606,1,0,0:0:0:0:
20,290,15753,2,0,P|18:243|31:196,1,70,0|0,3:2|3:2,0:0:0:0:
0,139,16047,2,0,P|31:104|74:80,1,70,8|0,0:2|0:0,0:0:0:0:
132,72,16341,5,0,3:2:0:0:
294,115,16635,1,10,0:2:0:0:
228,168,16783,2,0,L|244:254,1,70,2|0,0:0|3:2,0:0:0:0:
322,255,17077,2,0,L|306:341,1,70,2|8,3:2|0:2,0:0:0:0:
383,362,17371,1,2,0:0:0:0:
383,362,17518,6,0,P|455:362|504:297,1,140,4|8,3:2|0:2,0:0:0:0:
466,237,17959,1,0,0:0:0:0:
466,237,18106,2,0,P|451:175|451:150,1,70,0|0,3:2|3:2,0:0:0:0:
472,87,18400,1,8,0:2:0:0:
472,87,18547,6,0,L|308:72,1,140,6|0,3:2|3:2,0:0:0:0:
249,64,18988,1,0,3:2:0:0:
249,64,19135,1,0,3:2:0:0:
165,53,19283,1,0,3:2:0:0:
165,53,19430,1,0,3:2:0:0:
81,44,19577,1,8,0:2:0:0:
81,44,19724,6,0,B|50:92|50:92|73:177,1,125.999996154785,4|2,3:2|3:2,0:0:0:0:
105,238,20165,2,0,L|98:310,1,62.9999980773926,10|2,0:2|0:0,0:0:0:0:
39,365,20459,1,2,0:0:0:0:
39,365,20606,1,2,3:2:0:0:
197,287,20900,6,0,L|344:273,1,125.999996154785,10|2,0:2|3:2,0:0:0:0:
378,206,21341,2,0,P|402:240|409:280,1,62.9999980773926,10|2,0:2|0:0,0:0:0:0:
494,272,21635,2,0,P|483:301|464:326,1,62.9999980773926,2|2,3:2|3:2,0:0:0:0:
377,343,21930,1,10,0:2:0:0:
377,343,22077,6,0,B|337:365|337:365|243:374,1,125.999996154785,6|2,3:2|3:2,0:0:0:0:
194,310,22518,2,0,P|182:261|177:235,1,62.9999980773926,10|2,0:2|0:0,0:0:0:0:
216,168,22812,1,2,0:0:0:0:
216,168,22959,1,2,3:2:0:0:
336,39,23253,6,0,L|189:32,1,125.999996154785,10|2,0:2|3:2,0:0:0:0:
122,20,23694,2,0,P|96:58|89:83,1,62.9999980773926,10|2,0:2|0:0,0:0:0:0:
4,91,23988,2,0,P|15:120|35:144,1,62.9999980773926,2|2,3:2|3:2,0:0:0:0:
122,161,24283,1,10,0:2:0:0:
122,161,24430,6,0,B|140:210|140:210|118:291,1,125.999996154785,6|2,3:2|3:2,0:0:0:0:
132,368,24871,2,0,P|86:363|52:344,1,62.9999980773926,10|2,0:2|0:0,0:0:0:0:
203,311,25165,2,0,P|232:300|264:299,2,62.9999980773926,2|2|0,0:0|3:2|0:0,0:0:0:0:
120,281,25606,6,0,B|102:232|102:232|124:151,1,125.999996154785,10|2,0:2|3:2,0:0:0:0:
144,75,26047,2,0,P|97:76|65:88,1,62.9999980773926,10|2,0:2|0:0,0:0:0:0:
208,139,26341,2,0,P|238:145|270:144,2,62.9999980773926,2|2|8,3:2|3:2|0:2,0:0:0:0:
463,42,26930,6,0,L|448:129,1,62.9999980773926,12|0,0:2|3:2,0:0:0:0:
361,104,27224,1,0,3:2:0:0:
361,104,27371,2,0,L|376:191,1,62.9999980773926,12|0,0:2|3:2,0:0:0:0:
478,185,27665,1,0,3:2:0:0:
478,185,27812,6,0,L|463:272,1,62.9999980773926,12|0,0:2|3:2,0:0:0:0:
368,259,28106,1,0,3:2:0:0:
368,259,28253,2,0,L|383:346,1,62.9999980773926,12|0,0:2|3:2,0:0:0:0:
478,185,28547,1,0,3:2:0:0:
478,185,28694,6,0,L|488:122,2,62.9999980773926,12|4|0,0:2|3:2|0:0,0:0:0:0:
360,215,29135,6,0,L|216:206,1,125.999996154785,6|2,3:2|3:2,0:0:0:0:
170,144,29577,2,0,P|145:191|144:224,1,62.9999980773926,10|2,0:2|0:0,0:0:0:0:
188,275,29871,1,2,0:0:0:0:
188,275,30018,1,2,3:2:0:0:
264,116,30312,6,0,B|310:108|310:108|345:115|345:115|412:107,1,125.999996154785,10|2,0:2|3:2,0:0:0:0:
467,71,30753,2,0,B|484:102|484:102|483:146,1,62.9999980773926,10|2,0:2|0:0,0:0:0:0:
421,192,31047,2,0,B|404:223|404:223|405:267,1,62.9999980773926,2|2,3:2|3:2,0:0:0:0:
466,312,31341,1,10,0:2:0:0:
466,312,31488,6,0,L|324:291,1,125.999996154785,6|2,3:2|3:2,0:0:0:0:
269,225,31930,2,0,P|242:278|236:309,1,62.9999980773926,10|2,0:2|0:0,0:0:0:0:
286,373,32224,1,2,0:0:0:0:
286,373,32371,1,2,3:2:0:0:
164,245,32665,6,0,B|101:232|101:232|37:268,1,125.999996154785,10|2,0:2|3:2,0:0:0:0:
29,348,33106,2,0,L|114:333,1,62.9999980773926,10|2,0:2|0:0,0:0:0:0:
179,333,33400,2,0,L|264:318,1,62.9999980773926,2|2,3:2|3:2,0:0:0:0:
333,275,33694,1,10,0:2:0:0:
333,275,33841,6,0,B|346:215|346:215|329:124,1,125.999996154785,6|2,3:2|3:2,0:0:0:0:
395,86,34283,2,0,L|468:72,1,62.9999980773926,10|2,0:2|0:0,0:0:0:0:
303,67,34577,2,0,L|234:80,2,62.9999980773926,2|2|0,3:2|3:2|0:0,0:0:0:0:
334,151,35018,6,0,B|321:211|321:211|335:288,1,125.999996154785,14|2,0:2|3:2,0:0:0:0:
370,361,35460,2,0,L|443:347,1,62.9999980773926,10|2,0:2|0:0,0:0:0:0:
275,348,35754,2,0,L|206:361,2,62.9999980773926,2|2|8,3:2|3:2|0:2,0:0:0:0:
332,274,36194,1,0,3:2:0:0:
256,212,36341,6,0,P|222:195|171:178,2,62.9999980773926,12|0|0,0:2|3:2|3:2,0:0:0:0:
336,174,36783,2,0,P|323:137|299:89,2,62.9999980773926,12|0|0,0:2|3:2|3:2,0:0:0:0:
407,226,37224,2,0,P|424:192|441:141,2,62.9999980773926,12|0|0,0:2|3:2|3:2,0:0:0:0:
416,313,37665,2,0,P|452:300|500:276,2,62.9999980773926,12|0|0,0:2|3:2|3:2,0:0:0:0:
332,274,38106,5,14,0:2:0:0:
264,331,38253,2,0,P|192:342|121:323,1,125.999996154785,6|0,3:2|0:0,0:0:0:0:
74,272,38694,5,2,3:2:0:0:
74,272,39135,1,2,0:0:0:0:
242,194,39577,1,2,0:0:0:0:
242,194,40018,1,2,0:0:0:0:
92,62,40459,6,0,P|85:106|82:147,1,62.9999980773926,10|0,0:2|0:0,0:0:0:0:
139,192,40753,2,0,P|146:236|149:277,1,62.9999980773926,10|0,0:2|0:0,0:0:0:0:
127,340,41047,5,2,3:2:0:0:
127,340,41488,1,2,0:0:0:0:
268,209,41930,1,2,0:0:0:0:
268,209,42371,1,2,0:0:0:0:
463,331,42812,6,0,P|475:279|475:247,1,62.9999980773926,8|0,0:2|3:2,0:0:0:0:
488,182,43106,2,0,P|484:150|475:120,1,62.9999980773926,8|0,0:2|3:2,0:0:0:0:
396,80,43400,6,0,L|339:75,5,31.4999990386963,8|4|4|4|4|4,0:2|0:3|0:3|0:3|0:3|0:3,0:0:0:0:
333,108,43841,2,0,L|301:110,5,31.4999990386963,8|4|4|4|4|4,0:2|0:3|0:3|0:3|0:3|0:3,0:0:0:0:
262,89,44283,6,0,L|205:84,7,31.4999990386963,8|4|4|4|4|4|4|4,0:2|0:3|0:3|0:3|0:3|0:3|0:3|0:3,0:0:0:0:
191,107,44871,1,0,3:2:0:0:
117,58,45018,1,0,3:2:0:0:
117,58,45091,1,0,3:2:0:0:
117,58,45165,6,0,L|59:63,3,31.4999990386963,12|8|8|8,0:2|0:0|0:2|0:0,0:0:0:0:
80,104,45459,2,0,L|22:109,3,31.4999990386963,8|8|8|8,0:2|0:0|0:0|0:0,0:0:0:0:
52,150,45753,6,0,L|59:234,1,62.9999980773926,4|8,3:2|0:2,0:0:0:0:
71,299,46047,2,0,P|137:288|181:298,1,94.499997116089,0|8,3:2|0:2,0:0:0:0:
195,323,46341,2,0,L|262:313,1,62.9999980773926,8|0,0:2|3:2,0:0:0:0:
336,273,46635,2,0,P|345:313|345:330,2,31.4999990386963,0|0|0,3:2|3:0|3:2,0:0:0:0:
389,202,46930,6,0,P|398:162|398:145,2,31.4999990386963,8|8|8,3:2|0:2|0:2,0:0:0:0:
311,160,47224,2,0,P|302:120|302:103,2,31.4999990386963,8|8|8,3:2|0:0|0:2,0:0:0:0:
234,204,47518,1,10,0:2:0:0:
168,144,47665,2,0,L|81:140,1,62.9999980773926,2|8,3:2|0:2,0:0:0:0:
248,94,47959,6,0,B|297:82|297:82|401:102,1,125.999996154785,6|0,3:2|3:2,0:0:0:0:
457,113,48400,2,0,P|456:173|451:192,1,62.9999980773926,8|0,0:2|0:0,0:0:0:0:
483,259,48694,1,0,3:2:0:0:
483,259,48841,2,0,L|396:270,1,62.9999980773926,0|8,3:2|0:2,0:0:0:0:
341,244,49135,6,0,B|317:190|317:190|331:114,2,125.999996154785,0|0|0,3:2|3:2|0:0,0:0:0:0:
292,321,49871,2,0,P|231:319|204:312,1,70,2|0,3:2|3:2,0:0:0:0:
169,243,50165,1,8,0:2:0:0:
96,298,50312,6,0,P|78:257|116:163,1,140,4|0,3:2|3:2,0:0:0:0:
196,153,50753,2,0,P|174:112|141:89,1,70,8|0,0:2|0:0,0:0:0:0:
66,81,51047,1,0,3:2:0:0:
66,81,51194,2,0,L|78:6,1,70,0|8,3:2|0:2,0:0:0:0:
167,4,51488,6,0,B|221:7|221:7|249:21|249:21|322:25,1,140,0|0,3:2|3:2,0:0:0:0:
391,0,51930,2,0,P|389:49|365:95,1,70,8|0,0:2|0:0,0:0:0:0:
301,109,52224,2,0,P|300:143|309:177,2,70,0|0|8,3:2|3:2|0:2,0:0:0:0:
303,23,52665,1,0,3:2:0:0:
219,60,52812,6,0,L|172:54,5,35,12|8|8|0|8|8,3:2|0:0|0:2|0:0|3:2|0:2,0:0:0:0:
145,31,53253,2,0,L|110:35,5,35,8|8|8|8|8|8,0:2|0:2|3:2|0:2|0:2|0:2,0:0:0:0:
68,16,53694,1,8,3:2:0:0:
48,196,53988,6,0,L|66:260,3,35,8|8|8|8,3:2|0:2|0:2|0:2,0:0:0:0:
72,273,54283,1,8,0:2:0:0:
151,228,54430,2,0,L|160:194,2,35,8|8|8,3:2|0:2|0:2,0:0:0:0:
198,305,54724,2,0,L|207:338,2,35,8|8|8,0:2|0:2|0:2,0:0:0:0:
255,234,55018,5,8,3:2:0:0:
255,234,55312,1,2,3:2:0:0:
315,301,55459,2,0,P|366:297|411:287,1,70,2|2,3:2|3:2,0:0:0:0:
456,238,55753,1,2,3:2:0:0:
470,148,55900,1,2,3:2:0:0:
383,182,56047,1,10,0:2:0:0:
383,182,56341,6,0,P|250:166|245:62,1,245,2|0,3:2|0:0,0:0:0:0:
272,43,56930,1,10,0:2:0:0:
272,43,57371,6,0,P|197:65|116:32,1,140,4|2,3:2|0:2,0:0:0:0:
53,18,57812,2,0,P|52:72|61:98,1,70,8|2,0:2|0:2,0:0:0:0:
125,145,58106,2,0,P|126:199|117:225,1,70,0|2,3:2|0:2,0:0:0:0:
63,283,58400,1,8,0:2:0:0:
226,363,58694,5,0,3:2:0:0:
276,287,58841,2,0,P|321:268|354:264,1,70,2|8,0:2|0:2,0:0:0:0:
356,174,59135,2,0,P|390:181|421:196,1,70,2|0,0:2|3:2,0:0:0:0:
478,268,59430,2,0,L|456:360,1,70,2|8,0:2|0:2,0:0:0:0:
380,376,59724,6,0,B|326:370|326:370|298:386|298:386|217:380,1,140,4|2,3:2|0:2,0:0:0:0:
172,326,60165,2,0,P|160:282|156:242,1,70,8|2,0:2|0:2,0:0:0:0:
70,229,60459,2,0,P|75:194|85:160,1,70,0|2,3:2|0:2,0:0:0:0:
133,83,60753,1,8,0:2:0:0:
299,157,61047,6,0,P|365:169|425:113,1,140,0|8,3:2|0:2,0:0:0:0:
466,48,61488,2,0,L|376:41,1,70,2|0,0:2|3:2,0:0:0:0:
305,28,61783,2,0,L|215:21,1,70,2|8,0:2|0:2,0:0:0:0:
144,20,62077,6,0,B|116:76|116:76|138:171,1,140,4|0,3:2|3:2,0:0:0:0:
195,217,62518,2,0,P|229:218|262:230,1,70,8|0,0:2|3:2,0:0:0:0:
311,307,62812,2,0,P|345:305|378:293,1,70,8|0,0:2|3:2,0:0:0:0:
429,218,63106,2,0,P|463:219|496:231,1,70,8|0,0:2|3:2,0:0:0:0:
363,137,63400,6,0,L|352:50,1,70,8|0,0:2|3:2,0:0:0:0:
274,24,63694,2,0,L|265:93,1,70,8|0,0:2|3:2,0:0:0:0:
187,139,63988,2,0,L|176:52,1,70,8|0,0:2|3:2,0:0:0:0:
98,26,64283,1,8,0:2:0:0:
98,26,64430,1,0,3:2:0:0:
34,90,64577,6,0,L|21:149,3,35,8|8|8|8,0:2|0:2|0:2|0:2,0:0:0:0:
58,157,64871,2,0,L|71:216,3,35,8|8|8|8,0:3|0:3|0:3|0:3,0:0:0:0:
41,230,65165,2,0,L|28:289,3,35,12|12|4|4,0:3|0:3|0:3|0:3,0:0:0:0:
65,297,65459,2,0,L|78:356,3,35,4|4|4|4,0:3|0:3|0:3|0:3,0:0:0:0:
110,306,65753,6,0,L|204:298,1,70,12|0,0:2|3:2,0:0:0:0:
434,203,66341,2,0,L|340:195,1,70,12|0,0:2|3:2,0:0:0:0:
206,105,66783,6,0,L|345:89,1,140,4|2,3:2|0:2,0:0:0:0:
397,15,67224,2,0,P|430:57|439:94,1,70,8|2,0:2|0:2,0:0:0:0:
509,124,67518,2,0,P|494:155|470:181,1,70,0|2,3:2|0:2,0:0:0:0:
380,168,67812,1,8,0:2:0:0:
260,305,68106,5,0,3:2:0:0:
178,263,68253,2,0,P|221:223|258:210,1,70,2|8,0:2|0:2,0:0:0:0:
318,242,68547,2,0,L|404:264,1,70,2|0,0:2|3:2,0:0:0:0:
444,328,68841,2,0,L|511:310,1,70,2|8,0:2|0:2,0:0:0:0:
512,218,69135,6,0,B|517:175|517:175|469:63,1,140,4|2,3:2|0:2,0:0:0:0:
395,47,69577,2,0,P|336:48|308:58,1,70,8|2,0:2|0:2,0:0:0:0:
258,112,69871,2,0,P|199:111|171:101,1,70,0|2,3:2|0:2,0:0:0:0:
132,36,70165,1,8,0:2:0:0:
45,195,70459,5,0,3:2:0:0:
113,254,70606,2,0,L|190:235,1,70,2|8,0:2|0:2,0:0:0:0:
267,208,70900,2,0,L|407:244,1,140,2|2,0:2|0:2,0:0:0:0:
489,270,71341,1,8,0:2:0:0:
432,340,71488,6,0,B|374:359|374:359|275:333,1,140,4|0,3:2|3:2,0:0:0:0:
208,359,71930,2,0,P|210:310|222:281,1,70,8|0,0:2|3:2,0:0:0:0:
126,290,72224,2,0,P|140:243|159:218,1,70,8|0,0:2|3:2,0:0:0:0:
66,195,72518,2,0,P|92:153|117:134,1,70,8|0,0:2|3:2,0:0:0:0:
157,63,72812,6,0,L|256:78,1,70,8|0,0:2|3:2,0:0:0:0:
256,159,73106,2,0,L|325:148,1,70,8|0,0:2|0:0,0:0:0:0:
342,59,73400,2,0,L|441:74,1,70,8|0,0:2|0:0,0:0:0:0:
457,147,73694,1,8,0:2:0:0:
329,276,73988,6,0,L|262:287,5,35,8|8|8|8|8|8,3:2|0:2|0:2|0:2|0:2|0:2,0:0:0:0:
262,298,74430,2,0,L|195:287,5,35,8|8|8|8|8|8,3:2|0:2|0:2|0:2|0:2|0:2,0:0:0:0:
203,266,74871,2,0,L|136:277,5,35,8|8|8|8|8|8,3:2|0:2|0:2|0:2|0:2|0:2,0:0:0:0:
138,290,75313,2,0,L|71:279,5,35,8|0|8|0|8|0,3:2|0:0|0:2|0:0|0:2|0:0,0:0:0:0:
76,262,75753,6,0,B|69:238|69:238|73:208,4,35,8|8|8|8|0,3:3|0:3|0:3|0:3|0:0,0:0:0:0:
87,146,76194,1,0,3:0:0:0:
87,146,76268,1,0,3:0:0:0:
87,146,76341,6,0,L|246:129,1,140,6|8,3:2|0:2,0:0:0:0:
306,175,76783,1,0,0:0:0:0:
306,175,76930,2,0,P|326:116|327:86,1,70,0|0,3:2|3:2,0:0:0:0:
397,51,77224,2,0,P|417:110|418:140,1,70,8|0,0:2|0:0,0:0:0:0:
491,170,77518,6,0,P|511:111|512:81,2,70,0|0|8,3:2|3:2|0:2,0:0:0:0:
408,207,77959,2,0,B|383:257|383:257|402:350,1,140,2|0,0:0|3:2,0:0:0:0:
310,356,78400,1,10,0:2:0:0:
310,356,78547,1,2,0:0:0:0:
241,294,78694,6,0,P|175:272|108:290,1,140,0|8,3:2|0:2,0:0:0:0:
39,349,79135,1,0,0:0:0:0:
39,349,79282,2,0,P|20:309|20:266,1,70,0|0,3:2|3:2,0:0:0:0:
0,202,79576,2,0,P|15:161|46:130,1,70,8|0,0:2|0:0,0:0:0:0:
119,116,79870,5,2,3:2:0:0:
200,75,80017,2,0,L|190:25,2,35,8|8|8,0:2|0:2|0:2,0:0:0:0:
227,162,80312,1,8,0:2:0:0:
227,162,80385,1,8,0:2:0:0:
227,162,80459,2,0,L|237:212,3,35,12|12|12|12,0:3|0:3|0:3|0:3,0:0:0:0:
268,222,80753,2,0,L|258:272,3,35,4|4|4|4,0:3|0:3|0:3|0:3,0:0:0:0:
304,262,81047,6,0,B|462:244,1,140,6|8,3:2|0:2,0:0:0:0:
487,167,81488,1,0,0:0:0:0:
487,167,81635,2,0,L|401:158,1,70,0|0,3:2|3:2,0:0:0:0:
367,82,81930,2,0,L|281:73,1,70,8|0,0:2|0:0,0:0:0:0:
207,74,82223,5,0,3:2:0:0:
71,195,82517,1,10,0:2:0:0:
156,226,82665,2,0,L|172:312,1,70,2|0,0:0|3:2,0:0:0:0:
259,286,82959,2,0,L|243:372,1,70,2|8,0:0|0:0,0:0:0:0:
335,370,83253,1,2,0:0:0:0:
335,370,83400,6,0,P|407:370|456:305,1,140,6|8,3:2|0:2,0:0:0:0:
391,254,83841,1,0,0:0:0:0:
391,254,83988,2,0,P|376:192|376:167,1,70,0|0,3:2|3:2,0:0:0:0:
285,194,84282,1,8,0:2:0:0:
285,194,84429,6,0,B|231:183|231:183|198:191|198:191|121:179,1,140,6|0,3:2|3:2,0:0:0:0:
114,98,84870,1,0,3:2:0:0:
114,98,85017,1,0,3:2:0:0:
198,87,85165,1,0,3:2:0:0:
198,87,85312,1,0,3:2:0:0:
282,78,85459,1,8,0:0:0:0:
363,67,85606,5,4,3:2:0:0:
