osu file format v14

[General]
AudioFilename: audio.mp3
AudioLeadIn: 0
PreviewTime: 64702
Countdown: 0
SampleSet: None
StackLeniency: 0.7
Mode: 0
LetterboxInBreaks: 0
WidescreenStoryboard: 0

[Editor]
DistanceSpacing: 1
BeatDivisor: 4
GridSize: 4
TimelineZoom: 1.9

[Metadata]
Title:Black Swallowtail
TitleUnicode:Black Swallowtail
Artist:UROBOROS
ArtistUnicode:UROBOROS
Creator:M o c h a
Version:No Escape
Source:六花の勇者
Tags:rokka no yuusha
BeatmapID:1107219
BeatmapSetID:521249

[Difficulty]
HPDrainRate:6
CircleSize:4
OverallDifficulty:9
ApproachRate:9.6
SliderMultiplier:1.5
SliderTickRate:1

[Events]
//Background and Video events
0,0,"Qv0g3O7.jpg",0,0
//Break Periods
2,178505,191178
//Storyboard Layer 0 (Background)
//Storyboard Layer 1 (Fail)
//Storyboard Layer 2 (Pass)
//Storyboard Layer 3 (Foreground)
//Storyboard Sound Samples

[TimingPoints]
18011,294.117647058824,4,3,0,100,1,0
66099,-100,4,3,0,100,0,1
85069,-100,4,3,0,100,0,0
94628,-133.333333333333,4,3,0,100,0,0
103893,-100,4,3,0,100,0,0
131981,-100,4,3,0,100,0,1
150952,-100,4,3,0,100,0,0
207275,-100,4,3,0,100,0,1
216834,-100,4,3,0,100,0,0

[HitObjects]
256,192,10952,12,0,17716,0:0:0:0:
377,73,18010,5,0,0:0:0:0:
401,100,18083,1,0,0:0:0:0:
426,128,18157,1,0,0:0:0:0:
395,240,18304,2,0,L|351:237,1,37.5
245,77,18451,1,0,0:0:0:0:
269,104,18524,1,0,0:0:0:0:
294,132,18598,1,0,0:0:0:0:
239,255,18745,2,0,L|221:207,1,37.5
90,210,18892,1,0,0:0:0:0:
71,242,18965,1,0,0:0:0:0:
69,279,19039,1,0,0:0:0:0:
80,314,19112,1,0,0:0:0:0:
110,336,19186,6,0,L|265:355,1,150
350,232,19627,1,0,0:0:0:0:
225,219,19774,1,0,0:0:0:0:
258,354,19921,2,0,L|336:302,1,75
350,232,20215,1,0,0:0:0:0:
274,105,20362,5,0,0:0:0:0:
156,187,20510,2,0,L|223:218,1,75
367,318,20804,2,0,P|424:282|414:177,1,150
356,103,21246,1,0,0:0:0:0:
243,157,21393,1,0,0:0:0:0:
350,232,21540,5,0,0:0:0:0:
447,123,21686,2,0,L|408:56,1,75
243,157,21980,1,0,0:0:0:0:
349,297,22128,1,0,0:0:0:0:
432,204,22274,2,0,L|356:173,1,75
284,235,22568,1,0,0:0:0:0:
322,92,22715,5,0,0:0:0:0:
190,94,22863,1,0,0:0:0:0:
164,121,22937,1,0,0:0:0:0:
136,145,23010,1,0,0:0:0:0:
284,235,23157,1,0,0:0:0:0:
270,200,23230,1,0,0:0:0:0:
252,166,23304,1,0,0:0:0:0:
107,248,23451,1,0,0:0:0:0:
137,269,23524,1,0,0:0:0:0:
168,289,23598,1,0,0:0:0:0:
283,334,23745,1,0,0:0:0:0:
252,166,23892,5,0,0:0:0:0:
160,214,24039,2,0,L|169:304,1,75
308,245,24333,1,0,0:0:0:0:
333,80,24480,1,0,0:0:0:0:
187,127,24627,2,0,L|260:170,1,75
333,80,24921,1,0,0:0:0:0:
136,60,25068,5,0,0:0:0:0:
251,165,25215,2,0,L|248:75,1,75
133,175,25510,2,0,L|126:269,1,75
244,341,25804,2,0,P|283:349|328:337,1,75
409,264,26098,1,0,0:0:0:0:
257,176,26245,5,0,0:0:0:0:
282,263,26392,2,0,P|313:245|334:209,1,75
297,52,26686,1,0,0:0:0:0:
184,59,26833,1,0,0:0:0:0:
185,160,26980,2,0,P|221:176|264:174,1,75
407,28,27275,6,0,L|297:52,1,112.5
273,87,27568,1,0,0:0:0:0:
256,273,27715,1,0,0:0:0:0:
359,177,27862,1,0,0:0:0:0:
185,160,28010,1,0,0:0:0:0:
335,251,28157,1,0,0:0:0:0:
361,95,28304,1,0,0:0:0:0:
179,82,28451,1,0,0:0:0:0:
335,251,28745,5,0,0:0:0:0:
238,224,28892,2,0,L|239:319,1,75
335,251,29186,1,0,0:0:0:0:
273,148,29333,1,0,0:0:0:0:
345,87,29480,2,0,L|421:71,1,75
227,54,29775,6,0,P|188:89|182:178,1,112.5
180,180,30068,1,0,0:0:0:0:
307,214,30215,2,0,L|267:138,1,75
106,164,30510,2,0,P|106:204|152:247,1,75
307,214,30804,6,0,P|253:230|226:280,1,112.5
230,314,31098,1,0,0:0:0:0:
392,313,31245,1,0,0:0:0:0:
382,147,31392,1,0,0:0:0:0:
258,156,31539,2,0,L|307:214,1,75
179,215,31833,1,0,0:0:0:0:
204,72,31981,1,0,0:0:0:0:
348,79,32128,6,0,L|388:159,1,75
343,256,32421,1,0,0:0:0:0:
179,215,32568,1,0,0:0:0:0:
306,144,32715,1,0,0:0:0:0:
432,226,32863,1,0,0:0:0:0:
278,327,33010,1,0,0:0:0:0:
343,256,33157,6,0,L|356:329,1,75
306,144,33452,1,0,0:0:0:0:
426,164,33598,2,0,L|393:88,1,75
231,144,33892,2,0,L|316:143,1,75
243,261,34186,1,0,0:0:0:0:
128,134,34334,6,0,L|172:73,1,75
305,143,34627,1,0,0:0:0:0:
174,290,34774,2,0,L|258:254,1,75
231,144,35068,2,0,L|175:214,1,75
128,134,35362,1,0,0:0:0:0:
242,260,35511,1,0,0:0:0:0:
329,79,35658,6,0,L|259:54,1,75
242,260,35951,1,0,0:0:0:0:
293,106,36098,2,0,L|223:81,1,75
242,260,36392,1,0,0:0:0:0:
258,138,36539,2,0,L|188:112,1,75
242,260,36833,5,0,0:0:0:0:
224,172,36980,2,0,L|154:145,1,75
367,170,37274,1,0,0:0:0:0:
242,260,37421,1,0,0:0:0:0:
96,228,37569,2,0,P|108:276|152:340,1,112.5
141,329,37862,1,0,0:0:0:0:
367,170,38158,5,0,0:0:0:0:
403,244,38304,2,0,P|400:284|375:324,1,75
242,260,38598,1,0,0:0:0:0:
189,165,38745,1,0,0:0:0:0:
223,72,38892,2,0,L|299:56,1,75
292,162,39187,6,0,P|279:210|229:270,1,112.5
95,158,39480,1,0,0:0:0:0:
158,237,39627,2,0,L|89:268,1,75
162,108,39922,2,0,L|259:102,1,75
405,141,40216,6,0,P|407:195|384:268,1,112.5
365,278,40510,1,0,0:0:0:0:
299,159,40657,1,0,0:0:0:0:
262,285,40804,1,0,0:0:0:0:
158,237,40951,2,0,L|99:167,1,75
228,156,41245,1,0,0:0:0:0:
232,32,41393,1,0,0:0:0:0:
56,76,41540,2,0,L|152:92,1,75
158,237,41833,1,0,0:0:0:0:
334,238,41980,1,0,0:0:0:0:
228,156,42127,1,0,0:0:0:0:
273,299,42274,1,0,0:0:0:0:
416,186,42422,1,0,0:0:0:0:
311,166,42569,6,0,L|337:249,1,75
273,299,42863,1,0,0:0:0:0:
415,185,43010,2,0,L|389:113,1,75
210,82,43304,2,0,L|284:81,1,75
222,207,43598,1,0,0:0:0:0:
130,165,43745,6,0,L|92:262,1,75
284,81,44039,1,0,0:0:0:0:
331,235,44186,2,0,L|413:185,1,75
222,207,44480,2,0,L|194:304,1,75
279,337,44774,1,0,0:0:0:0:
146,174,44921,1,0,0:0:0:0:
284,81,45069,6,0,L|376:76,1,75
433,31,45362,1,0,0:0:0:0:
313,270,45510,2,0,L|268:357,1,75
358,365,45804,1,0,0:0:0:0:
146,174,45951,2,0,L|201:99,1,75
121,66,46245,5,0,0:0:0:0:
354,176,46392,2,0,L|365:264,1,75
280,288,46686,1,0,0:0:0:0:
438,74,46833,1,0,0:0:0:0:
129,153,47127,1,0,0:0:0:0:
305,56,47421,6,0,L|358:137,1,75
239,152,47715,1,0,0:0:0:0:
376,247,47863,2,0,L|459:212,1,75
425,132,48157,1,0,0:0:0:0:
280,231,48304,2,0,L|188:246,1,75
239,152,48598,5,0,0:0:0:0:
312,43,48745,2,0,L|389:27,1,75
425,132,49039,1,0,0:0:0:0:
218,70,49186,2,0,L|138:59,1,75
165,241,49480,2,0,L|227:171,1,75
103,136,49774,6,0,L|29:173,1,75
41,64,50068,1,0,0:0:0:0:
165,241,50215,2,0,L|251:279,1,75
191,337,50510,1,0,0:0:0:0:
288,173,50657,2,0,L|209:185,1,75
233,74,50951,5,0,0:0:0:0:
329,265,51098,2,0,L|421:238,1,75
377,143,51392,1,0,0:0:0:0:
233,271,51539,2,0,L|284:340,1,75
223,148,51833,2,0,L|233:70,1,75
60,172,52127,5,0,0:0:0:0:
60,214,52201,1,0,0:0:0:0:
68,254,52274,1,0,0:0:0:0:
86,291,52348,1,0,0:0:0:0:
119,315,52422,2,0,L|159:256,1,37.5
337,174,52569,1,0,0:0:0:0:
317,210,52643,1,0,0:0:0:0:
285,236,52716,1,0,0:0:0:0:
244,246,52790,1,0,0:0:0:0:
202,244,52863,2,0,L|168:200,1,37.5
274,64,53010,1,0,0:0:0:0:
310,45,53083,1,0,0:0:0:0:
351,43,53157,1,0,0:0:0:0:
389,57,53230,1,0,0:0:0:0:
422,87,53304,5,0,0:0:0:0:
431,130,53377,1,0,0:0:0:0:
428,175,53451,1,0,0:0:0:0:
393,203,53524,1,0,0:0:0:0:
352,204,53598,1,0,0:0:0:0:
309,217,53671,1,0,0:0:0:0:
278,250,53745,1,0,0:0:0:0:
265,292,53818,1,0,0:0:0:0:
243,331,53892,2,0,L|232:256,1,75
169,27,54186,2,0,L|171:106,1,75
169,247,54481,5,0,0:0:0:0:
166,292,54555,1,0,0:0:0:0:
135,324,54628,1,0,0:0:0:0:
91,335,54702,1,0,0:0:0:0:
50,317,54775,1,0,0:0:0:0:
24,279,54849,1,0,0:0:0:0:
17,234,54923,5,0,0:0:0:0:
42,197,54996,1,0,0:0:0:0:
80,172,55070,1,0,0:0:0:0:
124,166,55143,1,0,0:0:0:0:
164,186,55217,1,0,0:0:0:0:
206,198,55290,1,0,0:0:0:0:
251,196,55364,1,0,0:0:0:0:
290,175,55437,1,0,0:0:0:0:
319,140,55511,1,0,0:0:0:0:
333,97,55584,1,0,0:0:0:0:
330,51,55658,6,0,L|324:4,8,37.5
392,186,56392,1,0,0:0:0:0:
191,107,56686,6,0,P|154:125|124:159,1,75
280,231,56980,1,0,0:0:0:0:
221,32,57127,1,0,0:0:0:0:
477,130,57274,1,0,0:0:0:0:
134,100,57421,1,0,0:0:0:0:
452,240,57568,2,0,L|513:308,1,75
226,283,57863,6,0,L|298:212,1,75
326,46,58157,2,0,P|360:66|406:116,1,75
332,304,58451,1,0,0:0:0:0:
183,161,58598,2,0,P|196:127|222:96,1,75
332,304,58892,1,0,0:0:0:0:
484,264,59039,6,0,L|435:350,1,75
354,121,59333,1,0,0:0:0:0:
240,271,59480,1,0,0:0:0:0:
186,33,59627,1,0,0:0:0:0:
332,304,59774,1,0,0:0:0:0:
98,89,59921,2,0,L|9:130,1,75
213,369,60216,6,0,P|294:355|336:275,1,150
259,99,60657,2,0,P|230:127|210:185,1,75
240,271,60951,1,0,0:0:0:0:
398,146,61098,1,0,0:0:0:0:
399,284,61245,1,0,0:0:0:0:
259,99,61393,1,0,0:0:0:0:
115,156,61540,5,0,0:0:0:0:
129,198,61613,1,0,0:0:0:0:
163,227,61687,1,0,0:0:0:0:
207,236,61761,1,0,0:0:0:0:
249,223,61834,1,0,0:0:0:0:
284,194,61908,1,0,0:0:0:0:
325,176,61981,1,0,0:0:0:0:
369,169,62055,1,0,0:0:0:0:
409,187,62128,1,0,0:0:0:0:
437,222,62202,1,0,0:0:0:0:
437,266,62275,1,0,0:0:0:0:
416,306,62349,1,0,0:0:0:0:
377,327,62422,1,0,0:0:0:0:
331,329,62496,1,0,0:0:0:0:
288,318,62569,2,0,L|255:277,1,37.5
268,64,62716,6,0,L|226:117,1,37.5
158,215,62863,2,0,L|219:179,1,37.5
98,105,63010,2,0,L|41:130,1,37.5
160,299,63157,2,0,L|201:334,1,37.5
334,167,63304,2,0,L|287:169,1,37.5
128,48,63451,1,0,0:0:0:0:
91,41,63524,1,0,0:0:0:0:
54,52,63598,1,0,0:0:0:0:
23,73,63671,1,0,0:0:0:0:
1,103,63745,6,0,L|23:240,1,112.5
35,248,64040,1,0,0:0:0:0:
227,355,64187,1,0,0:0:0:0:
128,48,64334,1,0,0:0:0:0:
48,335,64481,1,0,0:0:0:0:
368,239,64628,1,0,0:0:0:0:
42,135,64775,1,0,0:0:0:0:
387,270,65068,2,0,B|345:261|345:261|289:278|289:278|208:259,1,150
157,108,65657,2,0,B|222:121|222:121|275:85|337:107,1,187.5
366,243,66098,6,0,P|440:233|513:206,1,150
411,61,66539,2,0,L|427:164,1,75
291,202,66833,1,0,0:0:0:0:
241,59,66980,1,0,0:0:0:0:
123,221,67127,1,0,0:0:0:0:
263,308,67274,1,0,0:0:0:0:
128,111,67421,5,0,0:0:0:0:
328,137,67568,2,0,L|283:215,1,75
122,345,67863,2,0,B|174:348|174:348|276:301,1,150
192,162,68304,1,0,0:0:0:0:
419,95,68451,6,0,B|432:145|432:145|414:187|414:187|417:245,1,150
178,276,68892,2,0,L|246:234,1,75
221,53,69186,1,0,0:0:0:0:
107,191,69333,1,0,0:0:0:0:
338,120,69480,1,0,0:0:0:0:
370,268,69627,1,0,0:0:0:0:
215,164,69775,5,0,0:0:0:0:
480,178,69921,2,0,P|495:140|490:91,1,75
352,29,70215,2,0,L|274:49,1,75
101,83,70510,2,0,L|145:165,1,75
140,344,70804,6,0,P|214:363|302:320,1,150
336,57,71245,1,0,0:0:0:0:
319,303,71392,1,0,0:0:0:0:
205,45,71539,1,0,0:0:0:0:
205,287,71686,1,0,0:0:0:0:
74,33,71833,1,0,0:0:0:0:
69,267,71981,1,0,0:0:0:0:
143,20,72127,5,0,0:0:0:0:
126,315,72274,1,0,0:0:0:0:
268,30,72421,1,0,0:0:0:0:
263,339,72568,1,0,0:0:0:0:
405,38,72715,1,0,0:0:0:0:
390,351,72862,1,0,0:0:0:0:
512,40,73010,1,0,0:0:0:0:
508,350,73157,1,0,0:0:0:0:
279,133,73304,5,0,0:0:0:0:
236,146,73377,1,0,0:0:0:0:
188,141,73451,1,0,0:0:0:0:
144,126,73524,1,0,0:0:0:0:
112,93,73598,2,0,L|139:55,1,37.5
397,87,73745,5,0,0:0:0:0:
376,126,73818,1,0,0:0:0:0:
365,170,73892,1,0,0:0:0:0:
368,214,73965,1,0,0:0:0:0:
397,248,74039,2,0,L|439:247,1,37.5
218,266,74186,1,0,0:0:0:0:
240,305,74260,1,0,0:0:0:0:
274,333,74334,2,0,L|319:291,1,37.5
94,150,74480,5,0,0:0:0:0:
42,331,74628,2,0,L|219:265,1,187.5
350,189,75068,1,0,0:0:0:0:
145,50,75216,2,0,L|92:155,1,112.5
130,250,75510,6,0,L|278:206,1,150
270,45,75951,2,0,L|298:127,1,75
457,242,76245,1,0,0:0:0:0:
436,81,76392,1,0,0:0:0:0:
319,258,76539,1,0,0:0:0:0:
497,174,76686,1,0,0:0:0:0:
294,115,76833,5,0,0:0:0:0:
169,193,76980,2,0,L|136:264,1,75
91,70,77274,2,0,B|153:68|183:26|250:15,1,150
169,193,77715,1,0,0:0:0:0:
400,81,77863,6,0,B|418:132|418:132|409:181|409:181|425:247,1,150
258,311,78304,2,0,L|339:271,1,75
231,144,78598,1,0,0:0:0:0:
71,81,78745,1,0,0:0:0:0:
95,245,78892,1,0,0:0:0:0:
255,35,79039,1,0,0:0:0:0:
329,175,79186,5,0,0:0:0:0:
183,322,79333,2,0,L|257:310,1,75
159,206,79627,2,0,L|81:253,1,75
329,175,79921,2,0,L|428:161,1,75
167,50,80216,6,0,P|88:70|52:161,1,150
101,317,80657,1,0,0:0:0:0:
199,73,80804,1,0,0:0:0:0:
195,356,80951,1,0,0:0:0:0:
282,64,81098,1,0,0:0:0:0:
305,364,81245,1,0,0:0:0:0:
374,49,81392,1,0,0:0:0:0:
404,349,81539,5,0,0:0:0:0:
267,131,81686,1,0,0:0:0:0:
490,271,81833,1,0,0:0:0:0:
237,229,81980,1,0,0:0:0:0:
501,155,82127,1,0,0:0:0:0:
307,313,82274,1,0,0:0:0:0:
444,79,82421,1,0,0:0:0:0:
404,349,82568,1,0,0:0:0:0:
336,74,82716,6,0,L|283:28,1,37.5
105,125,82862,1,0,0:0:0:0:
109,170,82936,1,0,0:0:0:0:
134,207,83010,1,0,0:0:0:0:
167,237,83083,1,0,0:0:0:0:
210,249,83157,1,0,0:0:0:0:
254,245,83230,1,0,0:0:0:0:
289,216,83304,1,0,0:0:0:0:
312,178,83377,1,0,0:0:0:0:
348,151,83451,1,0,0:0:0:0:
392,147,83524,1,0,0:0:0:0:
433,164,83598,1,0,0:0:0:0:
458,200,83671,1,0,0:0:0:0:
463,244,83745,1,0,0:0:0:0:
455,288,83818,1,0,0:0:0:0:
415,310,83892,6,0,L|394:252,1,37.5
306,64,84039,1,0,0:0:0:0:
263,50,84112,1,0,0:0:0:0:
220,64,84186,1,0,0:0:0:0:
186,94,84260,1,0,0:0:0:0:
175,137,84333,1,0,0:0:0:0:
192,178,84407,1,0,0:0:0:0:
225,207,84480,1,0,0:0:0:0:
269,215,84554,1,0,0:0:0:0:
309,234,84627,1,0,0:0:0:0:
329,274,84701,1,0,0:0:0:0:
333,318,84774,1,0,0:0:0:0:
315,359,84848,1,0,0:0:0:0:
275,379,84921,1,0,0:0:0:0:
110,237,85068,5,0,0:0:0:0:
205,314,85215,2,0,L|110:362,1,75
31,266,85510,1,0,0:0:0:0:
78,124,85657,1,0,0:0:0:0:
219,171,85804,2,0,L|240:261,1,75
110,237,86098,1,0,0:0:0:0:
295,173,86245,5,0,0:0:0:0:
157,58,86393,2,0,L|74:31,1,75
110,237,86687,2,0,P|152:298|233:337,1,150
382,254,87128,1,0,0:0:0:0:
313,99,87275,1,0,0:0:0:0:
221,225,87422,5,0,0:0:0:0:
420,167,87569,2,0,L|429:93,1,75
211,135,87863,1,0,0:0:0:0:
335,190,88010,1,0,0:0:0:0:
310,21,88157,2,0,L|232:39,1,75
116,113,88451,1,0,0:0:0:0:
272,225,88599,5,0,0:0:0:0:
211,135,88745,1,0,0:0:0:0:
191,167,88819,1,0,0:0:0:0:
169,197,88893,1,0,0:0:0:0:
306,290,89040,1,0,0:0:0:0:
288,258,89114,1,0,0:0:0:0:
272,225,89187,1,0,0:0:0:0:
76,237,89334,1,0,0:0:0:0:
97,267,89407,1,0,0:0:0:0:
118,297,89481,1,0,0:0:0:0:
207,369,89628,1,0,0:0:0:0:
169,197,89775,5,0,0:0:0:0:
347,227,89922,2,0,L|294:307,1,75
217,276,90216,1,0,0:0:0:0:
395,304,90363,1,0,0:0:0:0:
321,134,90510,2,0,L|402:115,1,75
435,212,90804,1,0,0:0:0:0:
359,25,90951,5,0,0:0:0:0:
229,106,91098,2,0,L|216:188,1,75
49,252,91393,2,0,L|124:250,1,75
297,338,91687,2,0,L|223:342,1,75
138,326,91981,1,0,0:0:0:0:
273,234,92128,5,0,0:0:0:0:
133,110,92275,2,0,L|78:181,1,75
138,326,92569,1,0,0:0:0:0:
368,327,92716,1,0,0:0:0:0:
237,130,92863,2,0,L|178:206,1,75
258,351,93158,6,0,L|392:323,1,112.5
403,304,93451,1,0,0:0:0:0:
308,103,93598,1,0,0:0:0:0:
226,258,93745,1,0,0:0:0:0:
415,213,93893,1,0,0:0:0:0:
223,146,94040,1,0,0:0:0:0:
312,298,94187,1,0,0:0:0:0:
391,133,94334,1,0,0:0:0:0:
30,135,94775,6,0,P|80:163|158:158,1,112.500004291535
232,95,95363,1,0,0:0:0:0:
376,275,95658,6,0,P|412:221|397:154,1,112.500004291535
291,212,96099,2,0,L|196:288,1,112.500004291535
62,220,96540,2,0,L|109:221,1,28.1250010728836
114,117,96687,1,0,0:0:0:0:
223,176,96834,1,0,0:0:0:0:
292,81,96981,1,0,0:0:0:0:
408,175,97128,2,0,P|459:150|479:90,1,112.500004291535
223,176,97716,6,0,L|327:133,1,112.500004291535
161,84,98305,1,0,0:0:0:0:
131,230,98452,2,0,P|161:272|227:277,1,112.500004291535
343,228,99040,1,0,0:0:0:0:
343,228,99187,6,0,L|452:276,2,112.500004291535
261,101,100069,1,0,0:0:0:0:
83,166,100363,2,0,L|66:285,2,112.500004291535
261,101,101246,1,0,0:0:0:0:
281,271,101393,1,0,0:0:0:0:
346,198,101540,6,0,B|295:172|257:190|257:190|196:187,1,140.625005364418
56,218,101981,2,0,B|107:244|107:244|145:226|192:228,1,140.625005364418
343,292,102422,2,0,B|286:297|286:297|245:280|245:280|198:274,1,140.625005364418
53,330,102863,2,0,B|111:298|149:331|200:318,1,140.625005364418
261,101,103305,1,0,0:0:0:0:
373,357,103452,2,0,L|220:334,1,140.625005364418
261,101,104041,5,0,0:0:0:0:
172,171,104187,2,0,P|175:211|200:251,1,75
314,216,104481,1,0,0:0:0:0:
168,57,104628,1,0,0:0:0:0:
261,101,104775,2,0,L|337:85,1,75
416,207,105070,6,0,L|392:301,1,75
275,319,105363,1,0,0:0:0:0:
122,272,105510,2,0,L|191:241,1,75
261,101,105805,2,0,L|186:105,1,75
95,202,106099,6,0,L|127:285,1,75
108,122,106393,1,0,0:0:0:0:
291,239,106540,2,0,L|247:310,1,75
261,101,106834,2,0,P|299:102|355:130,1,75
273,205,107128,1,0,0:0:0:0:
414,106,107275,1,0,0:0:0:0:
212,31,107422,6,0,L|155:82,1,75
133,210,107716,1,0,0:0:0:0:
273,205,107863,2,0,L|358:202,1,75
315,294,108157,1,0,0:0:0:0:
261,118,108305,1,0,0:0:0:0:
133,210,108452,6,0,L|159:293,1,75
315,294,108746,1,0,0:0:0:0:
347,202,108893,2,0,L|296:147,1,75
101,87,109187,2,0,L|175:86,1,75
215,195,109481,1,0,0:0:0:0:
105,279,109628,6,0,L|133:210,1,75
317,83,109922,1,0,0:0:0:0:
347,202,110069,2,0,L|429:152,1,75
215,195,110363,2,0,L|187:292,1,75
280,317,110657,1,0,0:0:0:0:
138,168,110804,1,0,0:0:0:0:
284,81,110952,6,0,L|373:60,1,75
411,162,111245,1,0,0:0:0:0:
280,317,111393,2,0,L|203:335,1,75
118,261,111687,1,0,0:0:0:0:
327,164,111834,2,0,L|317:246,1,75
394,288,112128,5,0,0:0:0:0:
150,174,112275,2,0,L|141:100,1,75
76,192,112569,1,0,0:0:0:0:
326,311,112716,1,0,0:0:0:0:
422,100,113010,1,0,0:0:0:0:
76,192,113304,6,0,L|129:273,1,75
213,164,113598,1,0,0:0:0:0:
303,248,113746,2,0,L|386:213,1,75
307,76,114040,1,0,0:0:0:0:
213,164,114187,2,0,L|121:179,1,75
230,270,114481,5,0,0:0:0:0:
307,76,114628,2,0,L|384:60,1,75
360,200,114922,1,0,0:0:0:0:
200,70,115069,2,0,L|120:59,1,75
230,270,115363,2,0,L|264:187,1,75
107,153,115658,6,0,L|70:153,1,37.5
118,270,115805,1,0,0:0:0:0:
137,301,115878,1,0,0:0:0:0:
158,332,115952,1,0,0:0:0:0:
258,200,116099,2,0,L|207:200,1,37.5
332,300,116246,1,0,0:0:0:0:
363,280,116319,1,0,0:0:0:0:
395,260,116393,1,0,0:0:0:0:
350,115,116540,6,0,L|341:182,1,37.5
209,68,116687,1,0,0:0:0:0:
171,71,116761,1,0,0:0:0:0:
134,75,116834,1,0,0:0:0:0:
142,210,116981,2,0,L|158:159,1,37.5
80,298,117128,1,0,0:0:0:0:
113,315,117202,1,0,0:0:0:0:
146,330,117275,1,0,0:0:0:0:
316,294,117422,6,0,L|290:219,1,75
409,120,117716,2,0,L|404:218,1,75
181,98,118011,6,0,L|282:80,1,75
316,296,118305,1,0,0:0:0:0:
210,127,118452,2,0,L|295:117,1,75
316,296,118746,1,0,0:0:0:0:
241,158,118893,2,0,L|334:152,1,75
316,296,119187,1,0,0:0:0:0:
269,187,119334,2,0,L|347:199,1,75
316,296,119628,5,0,0:0:0:0:
195,252,119775,2,0,L|161:325,1,75
316,296,120069,1,0,0:0:0:0:
140,209,120216,2,0,L|136:312,1,75
316,296,120511,1,0,0:0:0:0:
80,181,120658,2,0,L|103:286,1,75
316,296,120952,5,0,0:0:0:0:
24,150,121099,1,0,0:0:0:0:
62,338,121246,1,0,0:0:0:0:
228,105,121393,1,0,0:0:0:0:
316,296,121540,5,0,0:0:0:0:
435,209,121687,2,0,L|368:188,1,37.5
241,202,121834,2,0,L|287:176,1,37.5
376,56,121981,2,0,L|350:104,1,37.5
110,102,122128,1,0,0:0:0:0:
142,82,122202,1,0,0:0:0:0:
176,67,122275,1,0,0:0:0:0:
213,67,122349,1,0,0:0:0:0:
247,80,122422,2,0,L|230:143,1,37.5
215,292,122569,2,0,L|178:300,1,37.5
207,191,122716,5,0,0:0:0:0:
87,355,122863,1,0,0:0:0:0:
312,255,123011,1,0,0:0:0:0:
42,220,123158,1,0,0:0:0:0:
279,360,123305,1,0,0:0:0:0:
114,126,123452,2,0,L|17:102,1,75
279,360,123746,6,0,P|335:368|389:331,1,112.5
389,287,124040,1,0,0:0:0:0:
301,166,124187,1,0,0:0:0:0:
234,282,124334,1,0,0:0:0:0:
356,227,124481,1,0,0:0:0:0:
212,193,124628,1,0,0:0:0:0:
317,282,124775,1,0,0:0:0:0:
375,151,124922,5,0,0:0:0:0:
234,282,125069,1,0,0:0:0:0:
303,97,125216,1,0,0:0:0:0:
286,327,125363,1,0,0:0:0:0:
439,195,125511,1,0,0:0:0:0:
171,238,125658,1,0,0:0:0:0:
271,80,125805,2,0,L|289:-14,1,75
127,147,126099,6,0,P|100:197|97:256,1,112.5
117,292,126393,1,0,0:0:0:0:
285,292,126540,1,0,0:0:0:0:
194,230,126687,1,0,0:0:0:0:
210,353,126834,1,0,0:0:0:0:
357,234,126981,1,0,0:0:0:0:
165,140,127128,1,0,0:0:0:0:
398,135,127275,1,0,0:0:0:0:
136,46,127422,6,0,L|197:35,1,37.5
209,49,127569,1,0,0:0:0:0:
239,71,127643,1,0,0:0:0:0:
251,105,127716,1,0,0:0:0:0:
254,142,127790,1,0,0:0:0:0:
245,178,127863,1,0,0:0:0:0:
222,208,127937,1,0,0:0:0:0:
187,222,128011,1,0,0:0:0:0:
150,227,128084,1,0,0:0:0:0:
113,235,128158,1,0,0:0:0:0:
93,266,128231,1,0,0:0:0:0:
96,303,128305,1,0,0:0:0:0:
120,331,128378,1,0,0:0:0:0:
153,348,128452,1,0,0:0:0:0:
189,356,128525,1,0,0:0:0:0:
224,344,128599,6,0,L|250:308,1,37.5
357,205,128746,2,0,L|380:264,1,37.5
222,208,128893,2,0,L|216:155,1,37.5
440,134,129040,1,0,0:0:0:0:
460,178,129113,1,0,0:0:0:0:
462,226,129187,1,0,0:0:0:0:
453,274,129261,1,0,0:0:0:0:
432,317,129334,1,0,0:0:0:0:
391,344,129408,1,0,0:0:0:0:
342,347,129481,1,0,0:0:0:0:
294,333,129555,1,0,0:0:0:0:
271,290,129628,6,0,B|242:257|242:257|197:251|159:223,1,112.5
188,192,129922,1,0,0:0:0:0:
69,263,130069,1,0,0:0:0:0:
127,118,130216,1,0,0:0:0:0:
195,319,130363,1,0,0:0:0:0:
284,123,130511,1,0,0:0:0:0:
368,245,130658,5,0,0:0:0:0:
69,263,130952,5,0,0:0:0:0:
390,137,131540,5,0,0:0:0:0:
175,175,131981,6,0,P|104:200|30:210,1,150
300,89,132422,2,0,L|316:192,1,75
244,239,132716,1,0,0:0:0:0:
397,160,132863,1,0,0:0:0:0:
205,110,133010,1,0,0:0:0:0:
349,256,133157,1,0,0:0:0:0:
134,198,133304,5,0,0:0:0:0:
206,303,133451,2,0,L|244:239,1,75
345,72,133746,2,0,B|293:69|293:69|191:116,1,150
323,313,134187,1,0,0:0:0:0:
464,251,134334,6,0,B|461:198|461:198|479:156|479:156|466:106,1,150
180,277,134775,2,0,L|248:235,1,75
123,114,135069,2,0,L|35:123,1,75
106,207,135363,1,0,0:0:0:0:
301,122,135510,1,0,0:0:0:0:
143,42,135658,5,0,0:0:0:0:
286,193,135804,2,0,P|301:155|296:106,1,75
106,207,136098,2,0,P|103:247|125:288,1,75
319,301,136393,2,0,P|289:277|255:261,1,75
43,349,136687,6,0,P|117:368|205:325,1,150
412,217,137128,1,0,0:0:0:0:
105,250,137275,1,0,0:0:0:0:
395,137,137422,1,0,0:0:0:0:
84,144,137569,1,0,0:0:0:0:
386,62,137716,1,0,0:0:0:0:
84,36,137864,1,0,0:0:0:0:
460,26,138010,5,0,0:0:0:0:
159,79,138157,1,0,0:0:0:0:
490,135,138304,1,0,0:0:0:0:
172,166,138451,1,0,0:0:0:0:
496,236,138598,1,0,0:0:0:0:
199,247,138745,1,0,0:0:0:0:
495,331,138893,1,0,0:0:0:0:
236,326,139040,1,0,0:0:0:0:
323,95,139187,5,0,0:0:0:0:
366,82,139260,1,0,0:0:0:0:
414,87,139334,1,0,0:0:0:0:
458,102,139407,1,0,0:0:0:0:
490,135,139481,2,0,L|463:173,1,37.5
236,326,139628,5,0,0:0:0:0:
215,287,139701,1,0,0:0:0:0:
204,243,139775,1,0,0:0:0:0:
207,199,139848,1,0,0:0:0:0:
236,165,139922,2,0,L|278:166,1,37.5
397,232,140069,1,0,0:0:0:0:
375,271,140143,1,0,0:0:0:0:
341,299,140217,2,0,L|296:257,1,37.5
252,72,140363,5,0,0:0:0:0:
465,144,140511,2,0,P|485:211|474:334,1,187.5
289,97,140951,1,0,0:0:0:0:
167,181,141099,2,0,L|112:293,1,112.5
403,272,141393,6,0,P|454:212|462:127,1,150
219,72,141834,2,0,L|247:154,1,75
403,272,142128,1,0,0:0:0:0:
375,93,142275,1,0,0:0:0:0:
257,264,142422,1,0,0:0:0:0:
449,178,142569,1,0,0:0:0:0:
165,148,142716,5,0,0:0:0:0:
315,217,142863,2,0,L|256:263,1,75
91,70,143157,2,0,B|153:68|183:26|250:15,1,150
207,192,143598,1,0,0:0:0:0:
400,81,143746,6,0,B|418:132|418:132|409:181|409:181|425:247,1,150
179,345,144187,2,0,L|192:263,1,75
267,311,144481,1,0,0:0:0:0:
89,265,144628,1,0,0:0:0:0:
220,126,144775,1,0,0:0:0:0:
101,171,144922,1,0,0:0:0:0:
329,175,145069,5,0,0:0:0:0:
192,323,145216,2,0,L|266:311,1,75
89,265,145510,2,0,P|60:300|44:342,1,75
254,191,145804,2,0,P|241:155|218:123,1,75
89,266,146099,6,0,P|115:329|192:358,1,150
437,189,146540,1,0,0:0:0:0:
279,356,146687,1,0,0:0:0:0:
363,118,146834,1,0,0:0:0:0:
211,310,146981,1,0,0:0:0:0:
297,67,147128,1,0,0:0:0:0:
122,272,147275,1,0,0:0:0:0:
222,16,147422,5,0,0:0:0:0:
188,232,147569,1,0,0:0:0:0:
134,30,147716,1,0,0:0:0:0:
292,222,147863,1,0,0:0:0:0:
76,102,148010,1,0,0:0:0:0:
314,138,148157,1,0,0:0:0:0:
95,192,148304,1,0,0:0:0:0:
297,57,148451,1,0,0:0:0:0:
215,299,148599,6,0,L|248:328,1,37.5
219,174,148746,1,0,0:0:0:0:
187,154,148819,1,0,0:0:0:0:
154,135,148893,1,0,0:0:0:0:
121,277,149040,2,0,L|96:333,1,37.5
300,245,149187,1,0,0:0:0:0:
316,210,149261,1,0,0:0:0:0:
330,175,149334,1,0,0:0:0:0:
297,57,149481,6,0,L|245:62,1,37.5
394,105,149628,1,0,0:0:0:0:
428,119,149702,1,0,0:0:0:0:
462,133,149775,1,0,0:0:0:0:
406,269,149922,2,0,L|382:319,1,37.5
186,215,150069,1,0,0:0:0:0:
202,181,150143,1,0,0:0:0:0:
218,147,150216,1,0,0:0:0:0:
280,292,150363,6,0,L|224:316,1,37.5
50,236,150511,1,0,0:0:0:0:
66,202,150584,1,0,0:0:0:0:
84,169,150658,1,0,0:0:0:0:
102,136,150731,1,0,0:0:0:0:
122,104,150805,1,0,0:0:0:0:
236,39,150952,5,0,0:0:0:0:
354,163,151099,2,0,L|262:207,1,75
245,306,151393,1,0,0:0:0:0:
375,240,151540,1,0,0:0:0:0:
231,140,151687,2,0,L|187:224,1,75
279,298,151981,1,0,0:0:0:0:
342,132,152128,5,0,0:0:0:0:
144,141,152275,2,0,L|48:157,1,75
133,287,152569,2,0,P|202:308|302:287,1,150
350,101,153011,1,0,0:0:0:0:
153,57,153158,1,0,0:0:0:0:
220,215,153305,5,0,0:0:0:0:
269,87,153452,2,0,L|186:120,1,75
140,263,153746,1,0,0:0:0:0:
329,325,153893,1,0,0:0:0:0:
274,191,154040,2,0,L|240:273,1,75
441,294,154334,1,0,0:0:0:0:
393,123,154481,5,0,0:0:0:0:
386,160,154555,1,0,0:0:0:0:
377,196,154628,1,0,0:0:0:0:
186,92,154775,1,0,0:0:0:0:
223,88,154849,1,0,0:0:0:0:
260,83,154922,1,0,0:0:0:0:
168,242,155069,1,0,0:0:0:0:
145,272,155143,1,0,0:0:0:0:
121,300,155216,1,0,0:0:0:0:
51,365,155363,1,0,0:0:0:0:
71,197,155511,1,0,0:0:0:0:
228,317,155658,5,0,0:0:0:0:
200,157,155805,2,0,L|300:126,1,75
398,161,156099,1,0,0:0:0:0:
315,337,156246,1,0,0:0:0:0:
211,242,156393,2,0,L|137:238,1,75
86,318,156687,1,0,0:0:0:0:
200,157,156834,5,0,0:0:0:0:
37,131,156981,2,0,L|67:202,1,75
237,350,157275,2,0,P|244:310|228:258,1,75
66,200,157569,2,0,P|55:237|70:287,1,75
158,327,157863,1,0,0:0:0:0:
297,227,158011,5,0,0:0:0:0:
175,124,158158,2,0,L|92:109,1,75
166,234,158452,1,0,0:0:0:0:
321,179,158599,1,0,0:0:0:0:
205,55,158746,2,0,L|171:132,1,75
245,245,159040,1,0,0:0:0:0:
245,245,159334,5,0,0:0:0:0:
395,116,159481,1,0,0:0:0:0:
205,55,159628,1,0,0:0:0:0:
359,231,159775,1,0,0:0:0:0:
306,31,159922,1,0,0:0:0:0:
166,164,160069,1,0,0:0:0:0:
285,136,160216,1,0,0:0:0:0:
285,136,160290,1,0,0:0:0:0:
285,136,160363,6,0,L|448:147,1,150
326,299,160805,2,0,P|218:347|98:308,1,225
57,155,161393,5,0,0:0:0:0:
49,118,161466,1,0,0:0:0:0:
59,81,161540,1,0,0:0:0:0:
274,166,161687,1,0,0:0:0:0:
277,203,161761,1,0,0:0:0:0:
267,239,161834,1,0,0:0:0:0:
146,118,161981,1,0,0:0:0:0:
154,81,162055,1,0,0:0:0:0:
177,52,162128,1,0,0:0:0:0:
352,103,162275,1,0,0:0:0:0:
368,136,162348,1,0,0:0:0:0:
373,173,162422,1,0,0:0:0:0:
327,314,162569,5,0,0:0:0:0:
290,323,162643,1,0,0:0:0:0:
252,320,162716,1,0,0:0:0:0:
200,117,162863,1,0,0:0:0:0:
235,128,162937,1,0,0:0:0:0:
261,154,163011,1,0,0:0:0:0:
95,223,163158,1,0,0:0:0:0:
61,207,163231,1,0,0:0:0:0:
41,174,163305,1,0,0:0:0:0:
158,26,163452,1,0,0:0:0:0:
194,21,163525,1,0,0:0:0:0:
230,29,163599,1,0,0:0:0:0:
362,125,163746,5,0,0:0:0:0:
374,160,163819,1,0,0:0:0:0:
366,197,163893,1,0,0:0:0:0:
195,295,164040,1,0,0:0:0:0:
163,275,164113,1,0,0:0:0:0:
149,239,164187,1,0,0:0:0:0:
256,92,164334,5,0,0:0:0:0:
277,52,164408,1,0,0:0:0:0:
314,28,164481,1,0,0:0:0:0:
359,23,164555,1,0,0:0:0:0:
399,41,164628,1,0,0:0:0:0:
428,75,164702,1,0,0:0:0:0:
445,116,164775,1,0,0:0:0:0:
452,160,164849,1,0,0:0:0:0:
453,204,164922,6,0,P|424:255|337:323,1,150
125,232,165363,1,0,0:0:0:0:
290,235,165511,1,0,0:0:0:0:
124,117,165658,1,0,0:0:0:0:
292,117,165805,1,0,0:0:0:0:
125,232,165952,1,0,0:0:0:0:
290,235,166099,1,0,0:0:0:0:
94,77,166246,5,0,0:0:0:0:
327,79,166393,1,0,0:0:0:0:
90,270,166540,1,0,0:0:0:0:
329,282,166687,1,0,0:0:0:0:
94,77,166834,1,0,0:0:0:0:
327,79,166981,1,0,0:0:0:0:
90,270,167128,1,0,0:0:0:0:
329,282,167275,1,0,0:0:0:0:
94,77,167422,5,0,0:0:0:0:
126,45,167496,1,0,0:0:0:0:
170,38,167569,1,0,0:0:0:0:
214,46,167643,1,0,0:0:0:0:
247,75,167716,1,0,0:0:0:0:
267,115,167790,1,0,0:0:0:0:
285,155,167863,1,0,0:0:0:0:
319,183,167937,1,0,0:0:0:0:
362,196,168011,1,0,0:0:0:0:
405,187,168084,1,0,0:0:0:0:
446,169,168158,1,0,0:0:0:0:
471,132,168231,1,0,0:0:0:0:
471,86,168305,1,0,0:0:0:0:
441,52,168378,1,0,0:0:0:0:
396,57,168452,2,0,L|381:124,1,37.5
213,342,168599,5,0,0:0:0:0:
168,343,168672,1,0,0:0:0:0:
129,319,168746,1,0,0:0:0:0:
117,275,168819,1,0,0:0:0:0:
119,229,168893,1,0,0:0:0:0:
150,197,168966,1,0,0:0:0:0:
190,175,169040,1,0,0:0:0:0:
234,172,169113,1,0,0:0:0:0:
274,152,169187,1,0,0:0:0:0:
289,109,169261,1,0,0:0:0:0:
278,65,169334,1,0,0:0:0:0:
246,32,169408,1,0,0:0:0:0:
203,17,169481,1,0,0:0:0:0:
158,26,169555,1,0,0:0:0:0:
137,65,169628,6,0,L|105:121,9,37.5
77,199,170363,1,0,0:0:0:0:
111,304,170511,1,0,0:0:0:0:
77,199,170658,2,0,L|185:196,1,75
277,100,170952,5,0,0:0:0:0:
351,212,171099,1,0,0:0:0:0:
365,246,171172,1,0,0:0:0:0:
378,281,171246,1,0,0:0:0:0:
213,324,171393,2,0,P|174:336|107:333,1,75
77,199,171687,1,0,0:0:0:0:
212,135,171834,2,0,L|247:230,1,75
475,160,172128,5,0,0:0:0:0:
482,115,172202,1,0,0:0:0:0:
469,72,172275,1,0,0:0:0:0:
434,43,172349,1,0,0:0:0:0:
391,29,172422,1,0,0:0:0:0:
347,40,172496,1,0,0:0:0:0:
310,65,172569,1,0,0:0:0:0:
280,99,172643,1,0,0:0:0:0:
243,125,172716,1,0,0:0:0:0:
197,124,172790,1,0,0:0:0:0:
157,102,172863,1,0,0:0:0:0:
127,67,172937,1,0,0:0:0:0:
83,55,173011,1,0,0:0:0:0:
39,66,173084,1,0,0:0:0:0:
14,104,173158,1,0,0:0:0:0:
7,148,173231,1,0,0:0:0:0:
23,190,173305,5,0,0:0:0:0:
44,229,173378,1,0,0:0:0:0:
79,256,173452,1,0,0:0:0:0:
121,269,173525,1,0,0:0:0:0:
166,270,173599,1,0,0:0:0:0:
210,266,173672,1,0,0:0:0:0:
253,253,173746,1,0,0:0:0:0:
290,228,173819,1,0,0:0:0:0:
322,195,173893,2,0,P|365:168|441:173,1,112.5
453,194,174187,1,0,0:0:0:0:
270,331,174334,6,0,L|229:365,5,37.5
297,306,174775,1,0,0:0:0:0:
137,150,174922,1,0,0:0:0:0:
345,160,175069,1,0,0:0:0:0:
151,264,175216,1,0,0:0:0:0:
298,89,175363,1,0,0:0:0:0:
222,308,175511,1,0,0:0:0:0:
208,72,175658,5,0,0:0:0:0:
358,250,175805,1,0,0:0:0:0:
84,212,175952,1,0,0:0:0:0:
366,134,176099,1,0,0:0:0:0:
102,120,176246,1,0,0:0:0:0:
288,330,176393,1,0,0:0:0:0:
281,59,176540,1,0,0:0:0:0:
141,309,176687,1,0,0:0:0:0:
263,161,176834,1,0,0:0:0:0:
306,147,176908,1,0,0:0:0:0:
343,171,176981,1,0,0:0:0:0:
378,198,177055,1,0,0:0:0:0:
421,209,177128,1,0,0:0:0:0:
465,199,177202,1,0,0:0:0:0:
493,164,177275,1,0,0:0:0:0:
501,119,177349,1,0,0:0:0:0:
483,77,177422,1,0,0:0:0:0:
445,51,177496,1,0,0:0:0:0:
400,48,177569,2,0,L|355:83,1,37.5
89,293,177716,5,0,0:0:0:0:
136,265,177790,1,0,0:0:0:0:
189,284,177863,1,0,0:0:0:0:
244,291,177937,1,0,0:0:0:0:
288,253,178011,1,0,0:0:0:0:
299,198,178084,1,0,0:0:0:0:
302,142,178158,1,0,0:0:0:0:
279,93,178231,1,0,0:0:0:0:
230,65,178305,1,0,0:0:0:0:
256,192,191687,12,0,193011,0:0:0:0:
96,105,193305,5,0,0:0:0:0:
96,105,193378,1,0,0:0:0:0:
96,105,193452,1,0,0:0:0:0:
273,163,193599,1,0,0:0:0:0:
193,316,193746,1,0,0:0:0:0:
193,316,193819,1,0,0:0:0:0:
193,316,193893,1,0,0:0:0:0:
187,108,194040,1,0,0:0:0:0:
327,294,194187,5,0,0:0:0:0:
371,303,194261,1,0,0:0:0:0:
415,295,194334,1,0,0:0:0:0:
453,271,194408,1,0,0:0:0:0:
478,234,194481,1,0,0:0:0:0:
335,81,194628,2,0,L|359:152,1,75
423,53,194922,1,0,0:0:0:0:
243,149,195069,2,0,L|200:244,1,75
439,246,195363,2,0,L|493:341,1,75
244,332,195658,5,0,0:0:0:0:
134,276,195805,2,0,P|108:240|97:196,1,75
93,166,196025,1,0,0:0:0:0:
104,122,196099,1,0,0:0:0:0:
127,84,196172,1,0,0:0:0:0:
163,57,196246,1,0,0:0:0:0:
205,44,196319,1,0,0:0:0:0:
249,36,196393,1,0,0:0:0:0:
293,38,196466,1,0,0:0:0:0:
336,50,196540,2,0,L|321:108,1,37.5
192,264,196687,2,0,L|201:219,1,37.5
397,154,196834,5,0,0:0:0:0:
406,198,196908,1,0,0:0:0:0:
409,242,196981,1,0,0:0:0:0:
402,286,197055,1,0,0:0:0:0:
392,329,197128,1,0,0:0:0:0:
361,362,197202,1,0,0:0:0:0:
316,368,197275,2,0,L|271:330,1,37.5
59,103,197422,1,0,0:0:0:0:
100,85,197496,1,0,0:0:0:0:
142,71,197569,1,0,0:0:0:0:
188,68,197643,1,0,0:0:0:0:
231,76,197716,6,0,L|215:133,1,37.5
144,294,197863,2,0,L|191:265,1,37.5
338,163,198011,2,0,L|287:159,1,37.5
113,171,198158,2,0,L|154:200,1,37.5
290,299,198305,2,0,L|298:262,1,37.5
231,76,198452,5,0,0:0:0:0:
231,76,198525,1,0,0:0:0:0:
231,76,198599,1,0,0:0:0:0:
99,206,198746,1,0,0:0:0:0:
99,206,198819,1,0,0:0:0:0:
99,206,198893,2,0,L|151:216,1,37.5
351,282,199040,2,0,L|297:297,1,37.5
198,323,199187,6,0,L|245:311,1,37.5
354,200,199334,2,0,L|285:220,1,37.5
162,254,199481,2,0,L|221:237,1,37.5
344,117,199628,2,0,L|297:132,1,37.5
121,188,199775,2,0,L|173:174,1,37.5
81,117,199922,2,0,L|137:104,1,37.5
350,34,200069,5,0,0:0:0:0:
314,47,200143,1,0,0:0:0:0:
279,60,200216,1,0,0:0:0:0:
168,268,200363,1,0,0:0:0:0:
326,210,200511,1,0,0:0:0:0:
296,187,200584,1,0,0:0:0:0:
265,164,200658,1,0,0:0:0:0:
97,157,200805,1,0,0:0:0:0:
129,138,200878,1,0,0:0:0:0:
162,120,200952,1,0,0:0:0:0:
435,105,201099,1,0,0:0:0:0:
398,95,201172,1,0,0:0:0:0:
362,83,201246,2,0,L|304:92,1,37.5
174,250,201393,6,0,L|241:236,1,37.5
302,168,201540,2,0,L|259:163,1,37.5
162,120,201687,2,0,L|220:86,1,37.5
318,40,201834,2,0,L|292:88,1,37.5
394,190,201981,2,0,L|402:154,1,37.5
479,49,202128,2,0,L|506:93,1,37.5
476,202,202275,1,0,0:0:0:0:
470,246,202349,1,0,0:0:0:0:
454,287,202422,1,0,0:0:0:0:
432,326,202496,1,0,0:0:0:0:
399,356,202569,6,0,L|309:366,1,75
132,288,202863,1,0,0:0:0:0:
294,206,203011,1,0,0:0:0:0:
109,126,203158,1,0,0:0:0:0:
293,79,203305,1,0,0:0:0:0:
170,219,203452,1,0,0:0:0:0:
375,175,203599,1,0,0:0:0:0:
196,61,203746,1,0,0:0:0:0:
283,287,203893,5,0,0:0:0:0:
394,96,204040,1,0,0:0:0:0:
229,167,204187,1,0,0:0:0:0:
465,313,204334,1,0,0:0:0:0:
477,269,204408,1,0,0:0:0:0:
483,224,204481,1,0,0:0:0:0:
481,178,204555,1,0,0:0:0:0:
473,134,204628,1,0,0:0:0:0:
460,90,204702,1,0,0:0:0:0:
436,52,204775,1,0,0:0:0:0:
394,34,204849,1,0,0:0:0:0:
349,40,204922,2,0,L|331:102,1,37.5
73,234,205069,5,0,0:0:0:0:
105,265,205143,1,0,0:0:0:0:
144,285,205216,1,0,0:0:0:0:
188,291,205290,1,0,0:0:0:0:
232,288,205363,1,0,0:0:0:0:
273,270,205437,1,0,0:0:0:0:
301,234,205511,1,0,0:0:0:0:
315,191,205584,1,0,0:0:0:0:
310,145,205658,1,0,0:0:0:0:
285,107,205731,1,0,0:0:0:0:
256,71,205805,1,0,0:0:0:0:
224,39,205878,1,0,0:0:0:0:
179,29,205952,1,0,0:0:0:0:
206,203,206246,5,0,0:0:0:0:
420,66,206393,1,0,0:0:0:0:
420,66,206834,1,0,0:0:0:0:
450,309,206981,1,0,0:0:0:0:
449,308,207275,6,0,P|376:334|302:333,1,150
205,244,207716,2,0,L|181:174,1,75
208,53,208010,1,0,0:0:0:0:
90,179,208157,1,0,0:0:0:0:
276,157,208304,1,0,0:0:0:0:
106,77,208451,1,0,0:0:0:0:
205,244,208598,5,0,0:0:0:0:
355,192,208745,2,0,L|376:120,1,75
504,79,209039,2,0,B|514:154|488:227,1,150
358,324,209480,1,0,0:0:0:0:
204,243,209628,6,0,B|194:199|194:199|203:150|203:150|185:99,1,150
422,158,210069,2,0,L|354:191,1,75
276,113,210363,1,0,0:0:0:0:
295,310,210510,1,0,0:0:0:0:
108,173,210657,1,0,0:0:0:0:
194,289,210804,1,0,0:0:0:0:
197,148,210951,5,0,0:0:0:0:
66,274,211098,2,0,L|106:341,1,75
295,310,211392,2,0,P|328:294|350:263,1,75
215,67,211686,2,0,P|178:68|143:81,1,75
153,315,211981,6,0,P|227:334|315:291,1,150
336,57,212422,1,0,0:0:0:0:
319,303,212569,1,0,0:0:0:0:
205,45,212716,1,0,0:0:0:0:
205,287,212863,1,0,0:0:0:0:
74,33,213010,1,0,0:0:0:0:
69,267,213158,1,0,0:0:0:0:
143,20,213304,5,0,0:0:0:0:
126,315,213451,1,0,0:0:0:0:
268,30,213598,1,0,0:0:0:0:
263,339,213745,1,0,0:0:0:0:
405,38,213892,1,0,0:0:0:0:
390,351,214039,1,0,0:0:0:0:
512,40,214187,1,0,0:0:0:0:
508,350,214334,1,0,0:0:0:0:
211,192,214481,5,0,0:0:0:0:
246,164,214555,1,0,0:0:0:0:
289,153,214628,1,0,0:0:0:0:
334,149,214702,1,0,0:0:0:0:
377,159,214775,1,0,0:0:0:0:
415,183,214849,1,0,0:0:0:0:
446,214,214922,1,0,0:0:0:0:
457,257,214996,1,0,0:0:0:0:
455,301,215069,1,0,0:0:0:0:
429,338,215143,1,0,0:0:0:0:
388,356,215216,1,0,0:0:0:0:
344,342,215290,1,0,0:0:0:0:
313,309,215363,1,0,0:0:0:0:
283,275,215437,1,0,0:0:0:0:
252,241,215511,1,0,0:0:0:0:
210,225,215584,1,0,0:0:0:0:
164,224,215658,5,0,0:0:0:0:
113,205,215731,1,0,0:0:0:0:
89,166,215805,1,0,0:0:0:0:
89,121,215878,1,0,0:0:0:0:
106,79,215952,1,0,0:0:0:0:
142,53,216025,1,0,0:0:0:0:
186,43,216099,1,0,0:0:0:0:
229,53,216172,1,0,0:0:0:0:
272,66,216246,2,0,L|207:193,1,112.5
233,209,216540,1,0,0:0:0:0:
269,234,216613,1,0,0:0:0:0:
314,229,216687,1,0,0:0:0:0:
348,200,216761,1,0,0:0:0:0:
380,169,216834,5,0,0:0:0:0:
479,100,216981,1,0,0:0:0:0:
501,239,217128,2,0,B|471:314|471:314|437:315|378:349,1,150
240,283,217569,1,0,0:0:0:0:
319,105,217716,1,0,0:0:0:0:
188,208,217863,6,0,P|122:173|103:87,1,150
302,28,218305,2,0,P|336:28|375:51,1,75
460,176,218599,1,0,0:0:0:0:
319,270,218746,2,0,L|297:199,1,75
322,107,219040,1,0,0:0:0:0:
186,236,219187,5,0,0:0:0:0:
391,202,219334,1,0,0:0:0:0:
138,142,219481,2,0,P|91:201|95:290,1,150
202,367,219922,1,0,0:0:0:0:
311,153,220069,1,0,0:0:0:0:
186,236,220216,6,0,P|203:276|258:296,1,75
333,99,220511,1,0,0:0:0:0:
364,303,220658,2,0,P|434:263|479:179,1,150
290,151,221099,2,0,L|242:262,1,112.5
91,181,221393,6,0,B|91:228|91:228|117:250|117:250|114:286|114:286|149:341,1,150
356,268,221834,2,0,L|237:253,1,112.5
281,139,222128,2,0,B|306:130|306:130|327:148|327:148|348:128|348:128|430:130,1,150
209,52,222569,6,0,B|183:73|183:73|171:106|171:106|135:111|135:111|107:162,1,150
131,313,223011,2,0,L|175:207,1,112.5
377,256,223305,2,0,B|377:233|377:233|350:225|350:225|363:195|363:195|314:117,1,150
120,88,223746,6,0,P|71:142|30:225,1,150
178,344,224187,2,0,L|212:253,1,75
321,306,224481,1,0,0:0:0:0:
296,136,224628,1,0,0:0:0:0:
164,158,224775,2,0,L|121:240,1,75
257,241,225069,5,0,0:0:0:0:
268,49,225216,1,0,0:0:0:0:
109,106,225363,2,0,L|184:177,1,75
457,209,225658,1,0,0:0:0:0:
414,194,225731,1,0,0:0:0:0:
369,201,225805,1,0,0:0:0:0:
335,230,225878,1,0,0:0:0:0:
298,257,225952,1,0,0:0:0:0:
253,252,226025,1,0,0:0:0:0:
220,232,226099,6,0,L|254:68,1,150
486,276,226540,2,0,B|456:351|456:351|422:352|363:386,1,150
240,283,226981,1,0,0:0:0:0:
319,105,227128,1,0,0:0:0:0:
117,184,227275,6,0,P|98:104|118:30,1,150
302,28,227717,2,0,P|336:28|375:51,1,75
460,176,228011,1,0,0:0:0:0:
319,270,228158,2,0,L|297:199,1,75
322,107,228452,1,0,0:0:0:0:
186,236,228599,5,0,0:0:0:0:
391,202,228746,1,0,0:0:0:0:
138,142,228893,2,0,P|91:201|95:290,1,150
170,349,229334,1,0,0:0:0:0:
290,151,229481,1,0,0:0:0:0:
391,202,229628,6,0,P|408:242|374:346,1,150
110,253,230069,2,0,L|97:149,1,75
200,66,230363,1,0,0:0:0:0:
305,186,230511,2,0,L|299:288,1,75
53,336,230805,6,0,P|119:342|207:312,1,150
317,76,231246,2,0,P|236:70|151:100,1,150
244,225,231687,1,0,0:0:0:0:
420,112,231834,1,0,0:0:0:0:
469,243,231981,6,0,B|443:293|443:293|397:316|364:349,1,150
131,212,232423,2,0,P|104:245|94:286,1,75
321,239,232716,2,0,P|352:186|323:85,1,150
174,53,233158,1,0,0:0:0:0:
131,212,233305,1,0,0:0:0:0:
246,158,233452,5,0,0:0:0:0:
63,137,233599,2,0,L|27:203,1,75
203,308,233893,1,0,0:0:0:0:
336,218,234040,5,0,0:0:0:0:
175,98,234187,2,0,P|225:72|281:71,1,112.5
324,82,234481,1,0,0:0:0:0:
363,104,234555,1,0,0:0:0:0:
391,138,234628,1,0,0:0:0:0:
407,180,234702,1,0,0:0:0:0:
412,224,234775,1,0,0:0:0:0:
405,268,234849,1,0,0:0:0:0:
378,304,234922,1,0,0:0:0:0:
341,330,234996,1,0,0:0:0:0:
298,342,235069,1,0,0:0:0:0:
252,339,235143,1,0,0:0:0:0:
209,324,235216,1,0,0:0:0:0:
173,296,235290,1,0,0:0:0:0:
161,252,235363,1,0,0:0:0:0:
116,118,235511,1,0,0:0:0:0:
0,210,235658,6,0,P|3:287|58:361,1,150
162,232,236099,1,0,0:0:0:0:
287,219,236246,1,0,0:0:0:0:
254,354,236393,2,0,L|176:302,1,75
162,232,236687,1,0,0:0:0:0:
238,105,236834,5,0,0:0:0:0:
356,187,236982,2,0,L|289:218,1,75
145,318,237276,2,0,P|88:282|98:177,1,150
156,103,237716,1,0,0:0:0:0:
269,157,237863,1,0,0:0:0:0:
162,232,238012,5,0,0:0:0:0:
65,123,238158,2,0,L|104:56,1,75
269,157,238452,1,0,0:0:0:0:
163,297,238600,1,0,0:0:0:0:
80,204,238746,2,0,L|156:173,1,75
228,235,239040,1,0,0:0:0:0:
190,92,239187,5,0,0:0:0:0:
322,94,239335,1,0,0:0:0:0:
348,121,239409,1,0,0:0:0:0:
376,145,239482,1,0,0:0:0:0:
228,235,239629,1,0,0:0:0:0:
242,200,239702,1,0,0:0:0:0:
260,166,239776,1,0,0:0:0:0:
405,248,239923,1,0,0:0:0:0:
375,269,239996,1,0,0:0:0:0:
344,289,240070,1,0,0:0:0:0:
229,334,240217,1,0,0:0:0:0:
260,166,240364,5,0,0:0:0:0:
352,214,240511,2,0,L|343:304,1,75
204,245,240805,1,0,0:0:0:0:
179,80,240952,1,0,0:0:0:0:
325,127,241099,2,0,L|252:170,1,75
179,80,241393,1,0,0:0:0:0:
376,60,241540,5,0,0:0:0:0:
261,165,241687,2,0,L|264:75,1,75
379,175,241982,2,0,L|386:269,1,75
268,341,242276,2,0,P|229:349|184:337,1,75
103,264,242570,1,0,0:0:0:0:
255,176,242717,5,0,0:0:0:0:
230,263,242864,2,0,P|199:245|178:209,1,75
215,52,243158,1,0,0:0:0:0:
326,50,243305,1,0,0:0:0:0:
327,160,243452,2,0,P|291:176|248:174,1,75
105,28,243747,6,0,L|215:52,1,112.5
239,87,244040,1,0,0:0:0:0:
256,273,244187,1,0,0:0:0:0:
153,177,244334,1,0,0:0:0:0:
327,160,244482,1,0,0:0:0:0:
177,251,244629,1,0,0:0:0:0:
151,95,244776,1,0,0:0:0:0:
333,82,244923,1,0,0:0:0:0:
256,192,244996,12,0,249775,0:0:0:0:
