osu file format v14

[General]
AudioFilename: audio.mp3
AudioLeadIn: 0
PreviewTime: 82450
Countdown: 0
SampleSet: Soft
StackLeniency: 0.5
Mode: 0
LetterboxInBreaks: 0
WidescreenStoryboard: 1

[Editor]
Bookmarks: 55425,62185,68946,82467
DistanceSpacing: 1
BeatDivisor: 4
GridSize: 16
TimelineZoom: 2.1

[Metadata]
Title:KAMING OUT (Cut Ver.)
TitleUnicode:神ングアウト (Cut Ver.)
Artist:URBANGARDE
ArtistUnicode:アーバンギャルド
Creator:wafer
Version:NORMAL
Source:
Tags:japanese pop mappers mappers' guild mpg avantdemic アバンデミック goopert kami no kotoba fa featured artist
BeatmapID:2914391
BeatmapSetID:1413418

[Difficulty]
HPDrainRate:3
CircleSize:3.6
OverallDifficulty:4
ApproachRate:5.5
SliderMultiplier:1.2
SliderTickRate:1

[Events]
//Background and Video events
0,0,"jason-leung-QAq4ZTmDIjY-unsplash.jpg",0,0
//Break Periods
//Storyboard Layer 0 (Background)
//Storyboard Layer 1 (Fail)
//Storyboard Layer 2 (Pass)
//Storyboard Layer 3 (Foreground)
//Storyboard Layer 4 (Overlay)
//Storyboard Sound Samples

[TimingPoints]
585,422.535211267605,4,2,1,35,1,0
585,-111.111111111111,4,2,1,35,0,0
14106,-100,4,2,1,45,0,0
20866,-100,4,2,1,50,0,0
26782,-100,4,2,1,60,0,0
27627,-100,4,2,1,60,0,0
40937,-100,4,2,1,50,0,0
41993,422.535211267605,4,2,1,50,1,0
55091,-100,4,2,1,50,0,0
55514,-100,4,2,1,60,0,0
62274,-100,4,2,1,55,0,0
69035,-111.111111111111,4,2,1,45,0,0
75795,-100,4,2,1,60,0,0
82556,-90.9090909090909,4,2,1,70,0,0
96077,-90.9090909090909,4,2,1,65,0,0
128190,-90.9090909090909,4,2,1,75,0,0
133155,-90.9090909090909,4,2,2,45,0,0
133578,-90.9090909090909,4,2,1,40,0,0
134000,-90.9090909090909,4,2,2,35,0,0
134423,-90.9090909090909,4,2,1,30,0,0
134845,-90.9090909090909,4,2,2,25,0,0
135268,-90.9090909090909,4,2,1,20,0,0
135690,-90.9090909090909,4,2,2,15,0,0
136113,-90.9090909090909,4,2,1,10,0,0
136535,-90.9090909090909,4,2,2,5,0,0

[Colours]
Combo1 : 115,207,242
Combo2 : 108,159,244
Combo3 : 145,210,125

[HitObjects]
61,127,585,6,0,P|82:93|154:98,1,107.999996704102,2|8,0:3|0:1,0:0:0:0:
298,39,1640,2,0,L|286:117,1,53.9999983520508,2|8,0:3|0:1,0:0:0:0:
331,126,2063,1,2,3:2:0:0:
465,255,3331,5,2,0:3:0:0:
409,347,3753,1,2,3:2:0:0:
356,357,3964,2,0,P|315:339|239:341,1,107.999996704102,2|8,0:3|0:1,0:0:0:0:
92,361,5021,1,2,0:3:0:0:
29,272,5444,1,2,3:2:0:0:
29,272,5655,1,2,0:3:0:0:
86,180,6077,1,8,0:1:0:0:
24,91,6500,1,2,0:2:0:0:
96,10,6922,1,8,0:1:0:0:
157,99,7345,6,0,P|191:63|248:66,1,107.999996704102,2|8,1:3|0:1,0:0:0:0:
339,197,8401,2,0,P|327:233|321:278,2,80.9999975280763,2|2|2,1:3|1:3|1:2,0:0:0:0:
491,82,10091,2,0,P|479:46|473:1,2,80.9999975280763,2|2|2,1:3|1:3|1:3,0:0:0:0:
278,125,11570,1,2,0:3:0:0:
70,64,12415,1,2,1:2:0:0:
18,159,12838,1,8,0:1:0:0:
91,238,13260,1,2,0:2:0:0:
91,238,14106,5,6,1:2:0:0:
154,136,14528,1,2,0:0:0:0:
208,248,14950,1,2,0:2:0:0:
208,248,15162,2,0,P|256:257|300:273,1,90,0|0,1:0|1:0,0:0:0:0:
370,319,15795,1,2,1:2:0:0:
401,202,16218,2,0,P|389:162|387:134,1,60,8|0,0:1|0:0,0:0:0:0:
335,105,16640,1,2,0:0:0:0:
230,88,17063,1,8,0:1:0:0:
143,170,17486,5,2,1:2:0:0:
86,64,17908,1,2,0:0:0:0:
22,167,18331,1,2,0:2:0:0:
22,167,18542,2,0,B|31:195|39:221|32:273,1,90,0|0,1:0|1:0,0:0:0:0:
0,339,19176,1,2,1:2:0:0:
119,343,19598,1,10,0:1:0:0:
214,269,20021,1,2,3:2:0:0:
329,301,20443,1,8,0:1:0:0:
436,246,20866,6,0,P|437:203|447:181,1,60,2|0,1:0|0:0,0:0:0:0:
465,132,21288,2,0,P|464:89|454:67,1,60,10|0,1:0|0:0,0:0:0:0:
428,21,21711,1,2,1:2:0:0:
428,21,21922,2,0,P|367:30|355:45,1,60,0|8,0:0|1:1,0:0:0:0:
268,88,22556,6,0,P|238:93|211:83,1,60,2|0,1:2|0:0,0:0:0:0:
155,59,22978,2,0,P|125:54|98:64,1,60,8|0,1:0|0:0,0:0:0:0:
58,109,23401,2,0,P|46:155|114:197,1,120,2|8,1:2|1:1,0:0:0:0:
205,245,24246,6,0,P|197:211|198:174,2,60,2|0|8,1:2|1:2|1:1,0:0:0:0:
236,296,24880,1,0,1:2:0:0:
287,326,25091,2,0,P|274:369|259:393,2,60,0|0|8,1:2|1:2|1:1,0:0:0:0:
383,254,25936,2,0,P|393:220|385:187,1,60,0|0,1:2|1:2,0:0:0:0:
355,146,26359,2,0,P|345:112|353:79,1,60,8|0,1:1|1:2,0:0:0:0:
387,42,26782,2,0,P|393:20|354:-2,1,60,2|2,1:2|1:2,0:0:0:0:
225,120,27626,6,0,P|194:105|143:102,1,60,6|2,1:2|0:0,0:0:0:0:
111,118,28049,1,10,0:2:0:0:
17,192,28471,2,0,P|36:242|43:309,1,120,0|10,1:2|0:2,0:0:0:0:
153,356,29317,1,2,1:2:0:0:
202,321,29528,1,2,0:2:0:0:
260,332,29739,2,0,P|304:339|332:337,1,60,10|2,0:2|0:2,0:0:0:0:
350,286,30162,1,2,1:2:0:0:
467,266,30584,1,10,0:2:0:0:
454,146,31007,6,0,P|459:116|473:90,1,60,2|2,1:2|0:0,0:0:0:0:
456,32,31430,1,10,0:2:0:0:
337,46,31852,2,0,B|263:39|297:78|218:75,1,120,0|10,1:2|0:2,0:0:0:0:
114,26,32698,1,2,1:2:0:0:
76,72,32909,1,2,0:2:0:0:
86,130,33119,1,10,0:2:0:0:
182,201,33542,1,2,1:2:0:0:
127,309,33965,1,10,0:2:0:0:
235,360,34387,6,0,P|266:345|317:342,1,60,2|2,1:2|0:0,0:0:0:0:
333,298,34810,1,10,0:2:0:0:
445,341,35232,2,0,P|450:281|471:225,1,120,0|10,1:2|0:2,0:0:0:0:
505,109,36078,1,2,1:2:0:0:
456,73,36289,1,2,0:2:0:0:
397,84,36500,2,0,P|361:77|333:75,1,60,10|2,0:2|0:2,0:0:0:0:
304,25,36922,1,2,1:2:0:0:
208,80,37345,1,10,0:2:0:0:
88,67,37768,6,0,P|83:97|69:123,1,60,2|2,1:2|0:0,0:0:0:0:
88,181,38191,1,10,0:2:0:0:
200,221,38613,2,0,B|274:214|240:253|319:250,1,120,0|10,1:2|0:2,0:0:0:0:
414,186,39457,1,2,1:2:0:0:
428,243,39669,1,2,0:0:0:0:
441,301,39880,1,10,0:2:0:0:
348,378,40303,1,4,1:2:0:0:
508,340,41993,6,0,P|464:346|434:354,1,60,2|0,1:3|0:0,0:0:0:0:
222,270,43049,2,0,P|173:256|127:256,2,90,2|2|2,1:3|1:3|1:3,0:0:0:0:
439,65,44740,2,0,P|390:79|344:79,2,90,2|2|2,1:3|1:3|1:3,0:0:0:0:
233,188,46218,2,0,P|184:174|138:174,2,90,2|2|2,1:3|1:3|1:3,0:0:0:0:
276,229,47064,6,0,P|323:231|269:120,1,240,2|0,1:2|1:0,0:0:0:0:
233,92,48120,1,0,1:0:0:0:
233,92,48331,2,0,P|224:43|226:19,1,60,0|0,1:0|1:0,0:0:0:0:
168,10,48754,5,2,1:3:0:0:
4,261,49810,2,0,P|53:247|99:247,2,90,2|2|2,1:3|1:3|1:3,0:0:0:0:
262,107,51501,2,0,P|311:121|357:121,2,90,2|2|2,1:3|1:3|1:3,0:0:0:0:
106,16,52767,1,0,1:3:0:0:
66,129,53190,2,0,P|64:173|51:216,2,90,2|2|2,1:3|1:3|1:2,0:0:0:0:
187,127,54247,1,2,1:2:0:0:
292,184,54669,2,0,P|342:178|363:177,1,60,8|0,0:0|1:0,0:0:0:0:
407,156,55091,2,0,P|457:162|478:163,1,60,0|0,1:0|1:0,0:0:0:0:
500,211,55514,6,0,P|507:243|512:273,1,60,6|2,1:0|0:0,0:0:0:0:
504,329,55937,1,8,0:0:0:0:
390,367,56359,2,0,P|358:360|328:355,1,60,2|2,1:0|0:0,0:0:0:0:
307,299,56782,1,8,0:1:0:0:
204,236,57204,2,0,P|146:238|78:250,1,120,2|8,1:0|0:0,0:0:0:0:
48,296,57838,1,2,0:1:0:0:
1,258,58049,2,0,P|5:205|25:189,2,60,2|2|8,1:0|0:0|0:1,0:0:0:0:
34,373,58894,6,0,P|66:366|96:361,1,60,2|2,1:0|0:0,0:0:0:0:
151,348,59316,1,8,0:0:0:0:
268,371,59740,2,0,P|275:339|280:309,1,60,2|2,1:0|0:0,0:0:0:0:
324,272,60163,1,8,0:1:0:0:
374,163,60585,2,0,P|373:134|367:100,2,60,2|2|10,1:0|0:0|0:2,0:0:0:0:
408,212,61219,1,2,0:0:0:0:
454,250,61430,2,0,P|455:279|461:313,2,60,2|2|10,1:0|0:0|0:2,0:0:0:0:
497,207,62064,1,8,0:0:0:0:
473,151,62275,5,2,1:3:0:0:
364,99,62697,1,8,0:0:0:0:
252,143,63120,1,8,0:0:0:0:
252,143,63331,2,0,P|221:112|226:68,2,90,2|2|2,1:3|1:3|1:3,0:0:0:0:
327,243,64387,1,8,0:0:0:0:
262,345,64810,1,0,1:3:0:0:
262,345,65021,2,0,P|219:334|169:326,2,90,2|2|2,1:3|1:3|1:3,0:0:0:0:
327,243,66078,1,8,0:0:0:0:
252,143,66500,2,0,P|209:154|159:162,2,90,2|2|2,1:3|1:3|1:3,0:0:0:0:
287,94,67345,5,2,1:2:0:0:
401,56,67768,1,2,1:2:0:0:
492,133,68190,1,8,0:0:0:0:
406,213,68612,1,8,0:0:0:0:
406,213,68823,1,8,0:0:0:0:
406,213,69035,6,0,P|367:206|293:302,1,161.999995056153,6|2,1:2|1:2,0:0:0:0:
256,328,69880,1,10,0:2:0:0:
149,310,70303,1,0,1:2:0:0:
42,292,70726,2,0,P|22:327|25:367,2,80.9999975280763,2|2|2,0:2|0:2|1:2,0:0:0:0:
82,255,71571,2,0,P|109:219|77:165,1,107.999996704102,8|0,0:0|1:2,0:0:0:0:
114,64,72416,6,0,P|131:99|252:103,1,161.999995056153,2|2,1:2|1:2,0:0:0:0:
282,76,73261,1,10,0:2:0:0:
390,77,73684,1,0,1:2:0:0:
455,163,74105,2,0,P|474:198|471:238,2,80.9999975280763,2|2|2,0:2|0:2|1:2,0:0:0:0:
479,114,74950,1,8,0:0:0:0:
407,33,75373,2,0,P|351:37|336:42,1,53.9999983520508,0|0,1:2|1:2,0:0:0:0:
294,28,75795,5,6,1:2:0:0:
294,28,76007,2,0,P|261:51|252:88,1,60,2|8,0:0|0:0,0:0:0:0:
140,45,76640,1,2,1:2:0:0:
140,45,76852,2,0,P|132:84|152:117,1,60,2|8,0:0|0:0,0:0:0:0:
46,176,77485,1,2,1:2:0:0:
46,176,77697,2,0,P|69:209|106:218,1,60,2|8,0:0|0:0,0:0:0:0:
105,339,78331,1,2,1:2:0:0:
105,339,78543,2,0,P|144:346|177:326,1,60,2|8,0:0|0:0,0:0:0:0:
208,301,78964,1,2,0:0:0:0:
208,301,79176,6,0,P|252:288|272:284,2,60,2|2|8,1:2|0:0|0:0,0:0:0:0:
103,243,80020,2,0,P|59:230|39:226,2,60,2|2|8,1:2|0:0|0:0,0:0:0:0:
204,178,80866,2,0,P|211:134|184:89,2,90,4|2|2,0:3|0:0|0:0,0:0:0:0:
154,212,81711,1,8,0:0:0:0:
255,275,82133,1,8,0:0:0:0:
364,327,82556,6,0,P|416:321|446:317,1,66.0000020141602,6|2,1:2|0:0,0:0:0:0:
478,275,82978,2,0,P|472:223|468:193,1,66.0000020141602,10|2,0:2|0:0,0:0:0:0:
419,166,83401,2,0,B|363:177|363:177|355:184|355:184|284:195,1,132.00000402832,2|8,1:2|0:2,0:0:0:0:
205,93,84246,2,0,L|122:87,1,66.0000020141602,2|2,1:2|0:0,0:0:0:0:
73,95,84669,1,10,0:2:0:0:
28,143,84880,1,2,0:0:0:0:
46,206,85091,1,2,1:2:0:0:
164,265,85514,1,10,0:0:0:0:
276,197,85936,6,0,P|328:203|358:207,1,66.0000020141602,2|2,1:2|0:0,0:0:0:0:
390,249,86358,2,0,P|384:301|380:331,1,66.0000020141602,10|2,0:2|0:0,0:0:0:0:
331,358,86781,2,0,B|275:347|275:347|267:340|267:340|196:329,1,132.00000402832,2|8,1:2|0:2,0:0:0:0:
119,227,87626,2,0,L|125:144,1,66.0000020141602,2|2,1:2|0:0,0:0:0:0:
172,116,88049,2,0,L|166:33,1,66.0000020141602,10|2,0:2|0:0,0:0:0:0:
212,1,88471,1,2,1:2:0:0:
332,54,88894,1,10,0:0:0:0:
462,72,89316,6,0,P|456:124|452:154,1,66.0000020141602,2|2,1:2|0:0,0:0:0:0:
410,186,89738,2,0,P|358:180|328:176,1,66.0000020141602,10|2,0:2|0:0,0:0:0:0:
281,199,90161,2,0,B|270:255|270:255|263:263|263:263|252:334,1,132.00000402832,2|8,1:2|0:2,0:0:0:0:
123,351,91007,2,0,P|129:312|129:268,1,66.0000020141602,2|2,1:2|0:0,0:0:0:0:
102,225,91430,1,10,0:2:0:0:
117,160,91641,1,2,0:0:0:0:
182,161,91852,1,2,1:2:0:0:
281,225,92275,1,10,0:0:0:0:
304,95,92697,6,0,P|253:93|218:88,1,66.0000020141602,2|0,1:2|1:2,0:0:0:0:
186,52,93119,2,0,P|153:48|120:48,1,66.0000020141602,8|0,1:2|1:2,0:0:0:0:
55,38,93542,2,0,P|35:74|49:114,1,66.0000020141602,0|0,1:2|1:2,0:0:0:0:
82,148,93964,2,0,P|102:184|88:224,1,66.0000020141602,2|0,1:2|1:2,0:0:0:0:
53,256,94387,1,12,1:2:0:0:
173,312,94809,1,4,1:2:0:0:
285,242,95232,1,12,1:2:0:0:
420,249,95654,1,8,0:0:0:0:
420,249,95866,1,0,1:0:0:0:
420,249,96077,6,0,P|432:206|435:177,1,66.0000020141602,6|2,1:2|0:0,0:0:0:0:
427,119,96500,2,0,P|415:76|412:47,1,66.0000020141602,10|2,0:2|0:0,0:0:0:0:
363,19,96922,1,2,1:2:0:0:
363,19,97133,2,0,P|333:58|246:56,1,132.00000402832,2|2,0:0|0:0,0:0:0:0:
193,38,97767,2,0,P|150:23|121:21,1,66.0000020141602,2|2,1:2|0:0,0:0:0:0:
70,51,98190,2,0,P|82:81|87:114,1,66.0000020141602,10|2,0:2|0:0,0:0:0:0:
43,163,98612,1,2,1:2:0:0:
136,258,99035,1,10,0:0:0:0:
265,232,99457,6,0,P|313:224|394:275,2,132.00000402832,0|10|2,1:0|0:0|1:2,0:0:0:0:
198,118,100725,2,0,P|205:84|231:59,1,66.0000020141602,10|2,0:0|0:0,0:0:0:0:
291,57,101147,1,2,1:2:0:0:
420,83,101570,1,10,0:0:0:0:
482,199,101992,1,2,1:2:0:0:
404,306,102415,1,2,1:2:0:0:
272,316,102838,6,0,P|229:304|200:301,1,66.0000020141602,6|2,1:2|0:0,0:0:0:0:
163,252,103261,2,0,P|120:264|91:267,1,66.0000020141602,10|2,0:2|0:0,0:0:0:0:
42,239,103683,1,2,1:2:0:0:
42,239,103894,2,0,P|27:202|96:162,1,132.00000402832,2|2,0:0|0:0,0:0:0:0:
146,122,104528,2,0,P|189:137|218:139,1,66.0000020141602,2|2,1:2|0:0,0:0:0:0:
264,175,104951,2,0,P|294:163|327:158,1,66.0000020141602,10|2,0:2|0:0,0:0:0:0:
391,174,105373,1,2,1:2:0:0:
493,90,105796,1,10,0:0:0:0:
377,26,106218,6,0,P|341:29|293:45,1,66.0000020141602,0|2,1:0|0:0,0:0:0:0:
266,84,106640,2,0,P|223:99|164:42,1,132.00000402832,10|2,0:0|1:2,0:0:0:0:
111,6,107274,1,2,0:0:0:0:
53,37,107485,2,0,P|50:102|38:182,1,132.00000402832,10|2,0:0|1:2,0:0:0:0:
5,295,108331,1,10,0:0:0:0:
127,343,108753,1,2,1:2:0:0:
188,226,109176,1,8,0:2:0:0:
316,197,109598,6,0,P|366:186|406:184,1,66.0000020141602,6|2,1:2|0:0,0:0:0:0:
434,145,110021,2,0,P|438:112|446:80,1,66.0000020141602,10|2,0:2|0:0,0:0:0:0:
405,29,110443,2,0,P|317:27|306:81,1,132.00000402832,2|8,1:2|0:2,0:0:0:0:
185,114,111288,2,0,P|196:161|193:192,1,66.0000020141602,2|2,1:2|0:0,0:0:0:0:
139,213,111711,2,0,P|128:260|131:291,1,66.0000020141602,10|2,0:2|0:0,0:0:0:0:
176,322,112133,1,2,1:2:0:0:
307,332,112556,1,10,0:0:0:0:
438,329,112978,6,0,P|427:279|425:239,1,66.0000020141602,2|2,1:2|0:0,0:0:0:0:
388,209,113401,2,0,P|355:205|323:197,1,66.0000020141602,10|2,0:2|0:0,0:0:0:0:
265,164,113823,2,0,P|263:76|317:65,1,132.00000402832,2|8,1:2|0:2,0:0:0:0:
409,3,114668,2,0,P|398:50|401:81,1,66.0000020141602,2|2,1:2|0:0,0:0:0:0:
453,104,115091,2,0,P|464:151|461:182,1,66.0000020141602,10|2,0:2|0:0,0:0:0:0:
498,223,115513,1,2,1:2:0:0:
400,320,115936,1,10,0:0:0:0:
273,280,116359,6,0,P|223:269|183:267,1,66.0000020141602,2|2,1:2|0:0,0:0:0:0:
155,228,116782,2,0,P|151:195|143:163,1,66.0000020141602,10|2,0:2|0:0,0:0:0:0:
184,112,117204,2,0,P|272:110|283:164,1,132.00000402832,2|8,1:2|0:2,0:0:0:0:
321,265,118050,2,0,P|360:259|404:259,1,66.0000020141602,2|2,1:2|0:0,0:0:0:0:
447,286,118471,1,10,0:2:0:0:
511,271,118684,1,2,0:0:0:0:
511,205,118895,1,2,1:2:0:0:
447,107,119316,1,10,0:0:0:0:
317,85,119739,6,0,P|266:87|231:92,1,66.0000020141602,2|2,1:2|1:2,0:0:0:0:
248,154,120162,2,0,P|197:156|162:161,1,66.0000020141602,8|2,1:2|1:2,0:0:0:0:
147,213,120584,2,0,P|96:211|61:206,1,66.0000020141602,0|2,1:2|1:2,0:0:0:0:
29,167,121007,1,2,1:2:0:0:
97,54,121429,6,0,P|148:56|183:61,1,66.0000020141602,2|2,1:2|1:2,0:0:0:0:
166,123,121852,2,0,P|217:125|252:130,1,66.0000020141602,8|2,1:2|1:2,0:0:0:0:
267,182,122274,2,0,P|318:180|353:175,1,66.0000020141602,0|2,1:2|1:2,0:0:0:0:
385,136,122697,1,2,1:2:0:0:
438,256,123119,6,0,P|387:258|352:263,1,66.0000020141602,2|2,1:2|1:2,0:0:0:0:
369,325,123542,2,0,P|318:327|283:332,1,66.0000020141602,8|2,1:2|1:2,0:0:0:0:
268,384,123964,2,0,P|217:382|182:377,1,66.0000020141602,0|2,1:2|1:2,0:0:0:0:
150,338,124387,1,2,1:2:0:0:
150,338,124598,1,0,1:2:0:0:
89,363,124809,5,6,1:2:0:0:
23,233,125232,1,12,1:2:0:0:
73,111,125654,1,4,1:2:0:0:
190,50,126077,1,6,1:2:0:0:
322,50,126500,1,6,1:2:0:0:
440,108,126922,2,0,P|449:154|451:174,1,66.0000020141602,6|0,1:2|1:2,0:0:0:0:
503,212,127345,2,0,P|494:258|492:278,1,66.0000020141602,6|0,1:2|1:2,0:0:0:0:
458,334,127767,1,6,1:2:0:0:
396,357,127978,1,0,1:2:0:0:
336,327,128190,1,6,1:2:0:0:
256,192,128295,12,0,136534,0:0:0:0:
