osu file format v14

[General]
AudioFilename: audio.mp3
AudioLeadIn: 0
PreviewTime: 82450
Countdown: 0
SampleSet: Soft
StackLeniency: 0.6
Mode: 0
LetterboxInBreaks: 0
WidescreenStoryboard: 1

[Editor]
Bookmarks: 55425,62185,68946,82467,109509
DistanceSpacing: 1
BeatDivisor: 4
GridSize: 16
TimelineZoom: 2.1

[Metadata]
Title:KAMING OUT (Cut Ver.)
TitleUnicode:神ングアウト (Cut Ver.)
Artist:URBANGARDE
ArtistUnicode:アーバンギャルド
Creator:wafer
Version:EASY
Source:
Tags:japanese pop mappers mappers' guild mpg avantdemic アバンデミック goopert kami no kotoba fa featured artist
BeatmapID:2913675
BeatmapSetID:1413418

[Difficulty]
HPDrainRate:2
CircleSize:3
OverallDifficulty:2
ApproachRate:3
SliderMultiplier:1
SliderTickRate:1

[Events]
//Background and Video events
0,0,"jason-leung-QAq4ZTmDIjY-unsplash.jpg",0,0
//Break Periods
//Storyboard Layer 0 (Background)
//Storyboard Layer 1 (Fail)
//Storyboard Layer 2 (Pass)
//Storyboard Layer 3 (Foreground)
//Storyboard Layer 4 (Overlay)
//Storyboard Sound Samples

[TimingPoints]
585,422.535211267605,4,2,1,35,1,0
14106,-100,4,2,1,45,0,0
20866,-100,4,2,1,50,0,0
26782,-100,4,2,1,60,0,0
27627,-100,4,2,1,60,0,0
40937,-100,4,2,1,50,0,0
41993,422.535211267605,4,2,1,50,1,0
55514,-100,4,2,1,60,0,0
62274,-100,4,2,1,55,0,0
69035,-100,4,2,1,45,0,0
75795,-100,4,2,1,60,0,0
82556,-100,4,2,1,70,0,0
96077,-100,4,2,1,65,0,0
128190,-100,4,2,1,75,0,0
133155,-100,4,2,2,45,0,0
133578,-100,4,2,1,40,0,0
134000,-100,4,2,2,35,0,0
134423,-100,4,2,1,30,0,0
134845,-100,4,2,2,25,0,0
135268,-100,4,2,1,20,0,0
135690,-100,4,2,2,15,0,0
136113,-100,4,2,1,10,0,0
136535,-100,4,2,2,5,0,0

[Colours]
Combo1 : 115,207,242
Combo2 : 108,159,244
Combo3 : 145,210,125

[HitObjects]
62,94,585,6,0,P|98:74|168:77,1,100,2|8,0:3|0:1,0:0:0:0:
317,140,1641,1,2,0:3:0:0:
411,107,2064,1,2,3:2:0:0:
411,107,3332,6,0,P|431:143|428:213,1,100,2|2,0:3|3:2,0:0:0:0:
402,240,3965,2,0,P|397:288|394:346,1,100,2|8,0:3|0:1,0:0:0:0:
245,359,5022,1,2,0:3:0:0:
148,331,5444,2,0,P|100:337|77:343,1,50,2|2,3:2|0:3,0:0:0:0:
20,274,6078,1,8,0:1:0:0:
72,188,6501,2,0,P|90:138|75:75,2,100,2|8|2,0:2|0:1|1:3,0:0:0:0:
72,188,8402,6,0,P|112:168|145:168,2,75,2|2|2,1:3|1:3|1:2,0:0:0:0:
286,59,10092,6,0,P|326:79|359:79,2,75,2|2|2,1:3|1:3|1:3,0:0:0:0:
234,252,11571,1,2,0:3:0:0:
125,83,12416,1,2,1:2:0:0:
76,170,12839,1,8,0:1:0:0:
39,250,13261,1,2,0:2:0:0:
234,252,14106,6,0,P|297:259|323:290,2,100,6|2|2,1:2|0:2|0:2,0:0:0:0:
110,166,15796,2,0,P|105:141|37:106,2,100,2|8|2,1:2|0:1|0:0,0:0:0:0:
206,193,17064,1,8,0:1:0:0:
298,155,17487,6,0,P|361:148|387:117,2,100,2|2|2,1:2|0:2|0:2,0:0:0:0:
124,255,19177,2,0,P|128:279|136:367,2,100,2|10|2,1:2|0:1|3:2,0:0:0:0:
42,197,20444,1,8,0:1:0:0:
91,110,20867,6,0,P|84:47|53:21,2,100,2|10|2,1:0|1:0|1:2,0:0:0:0:
174,164,22134,1,8,1:1:0:0:
254,104,22557,2,0,P|249:79|242:-8,2,100,2|8|2,1:2|1:0|1:2,0:0:0:0:
339,156,23824,1,8,1:1:0:0:
420,98,24247,5,2,1:2:0:0:
487,172,24670,1,8,1:1:0:0:
429,253,25092,1,0,1:2:0:0:
329,247,25515,1,8,1:1:0:0:
252,182,25937,1,0,1:0:0:0:
152,190,26360,2,0,P|84:201|82:201,2,50,8|0|2,1:1|1:2|1:2,0:0:0:0:
292,48,27627,6,0,P|336:52|365:106,1,100,6|10,1:2|0:2,0:0:0:0:
387,195,28472,2,0,B|356:220|356:220|279:188,1,100,0|10,1:2|0:2,0:0:0:0:
219,137,29317,1,2,1:2:0:0:
129,96,29740,1,10,0:2:0:0:
29,110,30163,2,0,P|3:146|25:198,1,100,2|10,1:2|0:2,0:0:0:0:
80,274,31008,6,0,B|127:289|127:289|182:251,2,100,2|10|0,1:2|0:2|1:2,0:0:0:0:
70,174,32275,1,10,0:2:0:0:
103,79,32697,1,2,1:2:0:0:
172,6,33121,1,10,0:2:0:0:
270,34,33542,2,0,P|296:70|274:122,1,100,2|10,1:2|0:2,0:0:0:0:
287,218,34388,6,0,P|338:200|393:201,1,100,2|10,1:2|0:2,0:0:0:0:
471,152,35233,2,0,B|496:183|496:183|464:260,1,100,0|10,1:2|0:2,0:0:0:0:
420,323,36077,1,2,1:2:0:0:
319,331,36501,1,10,0:2:0:0:
236,274,36923,2,0,P|167:292|138:295,1,100,2|10,1:2|0:2,0:0:0:0:
60,239,37768,6,0,P|60:192|111:162,2,100,2|10|0,1:2|0:2|1:2,0:0:0:0:
139,295,39036,1,10,0:2:0:0:
198,214,39458,1,2,1:2:0:0:
253,130,39881,1,10,0:2:0:0:
349,103,40303,1,4,1:2:0:0:
256,192,41993,5,2,1:3:0:0:
76,18,43049,2,0,P|13:10|-16:9,2,75,2|2|2,1:3|1:3|1:3,0:0:0:0:
316,86,44740,2,0,P|379:78|408:77,2,75,2|2|2,1:3|1:3|1:3,0:0:0:0:
142,185,46218,2,0,P|79:177|50:176,2,75,2|2|2,1:3|1:3|1:3,0:0:0:0:
184,212,47064,1,2,1:2:0:0:
361,304,47909,2,0,P|390:295|422:291,2,50,0|0|0,1:0|1:0|1:0,0:0:0:0:
272,374,48754,5,2,1:3:0:0:
50,257,49810,2,0,P|58:194|59:165,2,75,2|2|2,1:3|1:3|1:3,0:0:0:0:
234,87,51501,2,0,P|226:24|225:-5,2,75,2|2|2,1:3|1:3|1:3,0:0:0:0:
455,202,53190,2,0,P|447:265|446:294,2,75,2|2|2,1:3|1:3|1:2,0:0:0:0:
501,113,54247,1,2,1:2:0:0:
434,38,54669,1,8,0:0:0:0:
434,38,55514,6,0,P|363:65|330:91,1,100,6|8,1:0|0:0,0:0:0:0:
265,141,56359,2,0,P|194:114|161:88,1,100,2|8,1:0|0:1,0:0:0:0:
97,36,57204,1,2,1:0:0:0:
17,95,57626,1,8,0:0:0:0:
32,198,58049,2,0,P|70:211|98:280,1,100,2|8,1:0|0:1,0:0:0:0:
145,349,58894,1,2,1:0:0:0:
240,320,59316,1,8,0:0:0:0:
325,266,59740,2,0,P|373:275|423:274,1,100,2|8,1:0|0:1,0:0:0:0:
502,211,60585,1,2,1:0:0:0:
425,149,61007,2,0,P|431:95|439:84,1,50,10|2,0:2|0:0,0:0:0:0:
424,50,61430,2,0,P|432:14|427:-1,2,50,2|2|10,1:0|0:0|0:2,0:0:0:0:
336,98,62275,5,2,1:3:0:0:
240,69,62697,1,8,0:0:0:0:
140,181,63331,2,0,P|82:172|46:169,2,75,2|2|2,1:3|1:3|1:3,0:0:0:0:
195,264,64387,1,8,0:0:0:0:
324,205,65021,2,0,P|361:209|398:215,2,75,2|2|2,1:3|1:3|1:3,0:0:0:0:
262,125,66078,1,8,0:0:0:0:
190,55,66500,2,0,P|152:50|115:44,2,75,2|2|2,1:3|1:3|1:3,0:0:0:0:
234,30,67345,2,0,P|283:18|355:6,2,100,2|2|8,1:2|1:2|0:0,0:0:0:0:
62,132,69035,6,0,P|126:133|182:248,1,200,6|10,1:2|0:2,0:0:0:0:
260,306,70303,1,0,1:2:0:0:
335,240,70726,2,0,P|341:204|319:166,2,75,2|2|2,0:2|0:2|1:2,0:0:0:0:
369,275,71571,1,8,0:0:0:0:
509,135,72416,6,0,P|445:134|389:19,1,200,2|10,1:2|0:2,0:0:0:0:
287,18,73684,1,0,1:2:0:0:
193,54,74105,2,0,P|204:93|208:127,2,75,2|2|2,0:2|0:2|1:2,0:0:0:0:
149,30,74951,1,8,0:0:0:0:
64,211,75796,6,0,P|85:216|114:239,2,50,6|2|8,1:2|0:0|0:0,0:0:0:0:
98,117,76641,2,0,P|94:92|81:70,2,50,2|2|8,1:2|0:0|0:0,0:0:0:0:
195,93,77486,2,0,P|209:72|215:48,2,50,2|2|8,1:2|0:0|0:0,0:0:0:0:
271,157,78331,2,0,P|295:153|317:140,2,50,2|2|8,1:2|0:0|0:0,0:0:0:0:
221,244,79176,6,0,P|184:248|129:290,1,100,2|8,1:2|0:0,0:0:0:0:
171,375,80021,2,0,P|208:371|263:329,1,100,2|8,1:2|0:0,0:0:0:0:
311,250,80866,1,4,0:3:0:0:
377,61,82557,6,0,P|397:98|463:96,1,100,6|10,1:2|0:2,0:0:0:0:
489,195,83402,2,0,P|469:232|403:230,1,100,2|8,1:2|0:2,0:0:0:0:
318,212,84247,2,0,P|305:178|297:150,2,50,2|2|10,1:2|0:0|0:2,0:0:0:0:
246,282,85092,1,2,1:2:0:0:
146,275,85514,1,10,0:0:0:0:
73,206,85937,6,0,P|93:169|159:171,1,100,2|10,1:2|0:2,0:0:0:0:
226,105,86782,2,0,P|206:68|140:70,1,100,2|8,1:2|0:2,0:0:0:0:
53,78,87627,2,0,P|41:37|31:16,2,50,2|2|10,1:2|0:0|0:2,0:0:0:0:
12,169,88472,1,2,1:2:0:0:
35,266,88895,1,10,0:0:0:0:
97,340,89317,6,0,P|117:303|183:305,1,100,2|10,1:2|0:2,0:0:0:0:
251,238,90162,2,0,P|271:275|337:273,1,100,2|8,1:2|0:2,0:0:0:0:
423,296,91007,2,0,P|406:325|402:358,2,50,2|2|10,1:2|0:0|0:2,0:0:0:0:
490,221,91852,2,0,P|499:174|498:111,1,100,2|10,1:2|0:0,0:0:0:0:
417,50,92697,5,2,1:2:0:0:
319,71,93120,1,8,1:2:0:0:
226,33,93542,1,0,1:2:0:0:
126,45,93965,1,2,1:2:0:0:
55,115,94387,2,0,P|79:147|75:169,1,50,12|2,1:2|1:2,0:0:0:0:
121,181,94810,2,0,P|115:220|96:233,1,50,4|2,1:2|1:2,0:0:0:0:
109,276,95233,2,0,P|50:288|28:322,1,100,12|8,1:2|0:0,0:0:0:0:
118,363,96078,6,0,L|234:344,1,100,6|10,1:2|0:2,0:0:0:0:
294,283,96923,2,0,L|410:302,1,100,2|8,1:2|0:2,0:0:0:0:
479,249,97768,2,0,P|477:218|410:193,1,100,2|10,1:2|0:2,0:0:0:0:
320,189,98613,1,2,1:2:0:0:
221,204,99035,1,10,0:0:0:0:
122,219,99458,6,0,P|106:141|96:113,1,100,0|10,1:0|0:0,0:0:0:0:
199,125,100303,2,0,P|215:47|225:19,1,100,2|10,1:2|0:0,0:0:0:0:
320,14,101148,2,0,P|360:42|355:96,1,100,2|10,1:2|0:0,0:0:0:0:
441,146,101993,2,0,P|466:127|492:124,2,50,2|2|2,1:2|1:2|1:2,0:0:0:0:
416,243,102838,6,0,L|300:262,1,100,6|10,1:2|0:2,0:0:0:0:
261,342,103683,2,0,L|145:323,1,100,2|8,1:2|0:2,0:0:0:0:
74,277,104528,2,0,P|76:246|143:221,1,100,2|10,1:2|0:2,0:0:0:0:
212,157,105373,1,2,1:2:0:0:
177,63,105795,1,10,0:0:0:0:
82,30,106218,6,0,P|98:108|108:136,1,100,0|10,1:0|0:0,0:0:0:0:
34,198,107063,2,0,P|18:276|8:304,1,100,2|10,1:2|0:0,0:0:0:0:
114,269,107909,2,0,P|122:318|136:366,1,100,2|10,1:2|0:0,0:0:0:0:
221,313,108754,2,0,P|254:309|279:316,1,50,2|2,1:2|0:0,0:0:0:0:
320,322,109176,1,8,0:2:0:0:
391,252,109599,6,0,P|411:289|477:287,1,100,6|10,1:2|0:2,0:0:0:0:
505,203,110444,2,0,P|485:166|419:168,1,100,2|8,1:2|0:2,0:0:0:0:
340,117,111289,2,0,P|327:83|326:54,2,50,2|2|10,1:2|0:0|0:2,0:0:0:0:
272,192,112134,1,2,1:2:0:0:
178,157,112556,1,10,0:0:0:0:
90,108,112979,6,0,P|47:131|43:179,1,100,2|10,1:2|0:2,0:0:0:0:
131,228,113824,2,0,P|173:204|177:156,1,100,2|8,1:2|0:2,0:0:0:0:
219,66,114669,2,0,P|238:83|268:80,1,50,2|2,1:2|0:0,0:0:0:0:
307,102,115092,2,0,P|326:85|412:83,1,100,10|2,0:2|1:2,0:0:0:0:
484,125,115937,1,10,0:0:0:0:
429,208,116359,6,0,P|446:264|456:328,1,100,2|10,1:2|0:2,0:0:0:0:
356,328,117204,2,0,P|339:272|329:208,1,100,2|8,1:2|0:2,0:0:0:0:
260,160,118049,2,0,P|243:131|239:98,2,50,2|2|10,1:2|0:0|0:2,0:0:0:0:
186,228,118895,2,0,P|119:225|86:254,1,100,2|10,1:2|0:0,0:0:0:0:
56,335,119739,5,2,1:2:0:0:
152,363,120162,1,8,1:2:0:0:
246,329,120584,1,0,1:2:0:0:
291,239,121007,1,2,1:2:0:0:
390,247,121429,5,2,1:2:0:0:
417,151,121852,1,8,1:2:0:0:
384,57,122274,1,0,1:2:0:0:
294,12,122697,1,2,1:2:0:0:
243,98,123120,5,2,1:2:0:0:
147,70,123543,1,8,1:2:0:0:
53,104,123965,1,0,1:2:0:0:
8,194,124388,1,2,1:2:0:0:
72,270,124810,6,0,P|135:260|176:257,1,100,6|12,1:2|1:2,0:0:0:0:
257,206,125655,2,0,P|320:216|361:219,1,100,4|6,1:2|1:2,0:0:0:0:
371,119,126500,2,0,P|308:109|267:106,1,100,6|6,1:2|1:2,0:0:0:0:
183,153,127345,1,6,1:2:0:0:
134,141,127557,2,0,P|122:108|122:74,2,50,0|6|0,1:2|1:2|1:2,0:0:0:0:
95,172,128190,1,6,1:2:0:0:
256,192,128296,12,0,136535,0:0:0:0:
