osu file format v14

[General]
AudioFilename: audio.mp3
AudioLeadIn: 0
PreviewTime: 77205
Countdown: 0
SampleSet: Soft
StackLeniency: 0.7
Mode: 0
LetterboxInBreaks: 0
WidescreenStoryboard: 1

[Editor]
Bookmarks: 14967,108996,179742,230786,246905
DistanceSpacing: 1.3
BeatDivisor: 4
GridSize: 32
TimelineZoom: 1.299999

[Metadata]
Title:BAERUNA
TitleUnicode:映えるな
Artist:URBANGARDE
ArtistUnicode:アーバンギャルド
Creator:Agatsu
Version:HARD
Source:
Tags:japanese pop hinsvar black impurepug man fixxis avantdemic アバンデミック
BeatmapID:2796741
BeatmapSetID:1330252

[Difficulty]
HPDrainRate:4
CircleSize:3.5
OverallDifficulty:6
ApproachRate:8
SliderMultiplier:1.5
SliderTickRate:1

[Events]
//Background and Video events
0,0,"64337772_p0.jpg",0,0
//Break Periods
2,94868,108247
2,136062,141829
2,181533,193320
//Storyboard Layer 0 (Background)
//Storyboard Layer 1 (Fail)
//Storyboard Layer 2 (Pass)
//Storyboard Layer 3 (Foreground)
//Storyboard Layer 4 (Overlay)
//Storyboard Sound Samples

[TimingPoints]
2430,447.761194029851,4,2,1,70,1,0
14967,-100,4,2,1,70,0,0
32653,-100,4,2,1,70,0,0
32877,-111.111111111111,4,2,1,50,0,0
47206,-100,4,2,1,50,0,0
62430,447.761194029851,4,2,1,55,1,0
62430,-111.111111111111,4,2,1,55,0,0
63325,-111.111111111111,4,2,1,55,0,0
64221,-111.111111111111,4,2,1,55,0,0
68698,-100,4,2,1,55,0,0
69594,-100,4,2,1,60,0,0
74967,-100,4,2,1,60,0,0
75862,-100,4,2,1,60,0,0
76086,-100,4,2,1,60,0,0
76758,-100,4,2,1,10,0,0
78549,-90.9090909090909,4,2,1,70,0,0
81683,-100,4,2,1,70,0,0
82131,-100,4,2,1,70,0,0
88847,-100,4,2,1,70,0,0
89295,-100,4,2,1,70,0,0
108996,-111.111111111111,4,2,1,50,0,0
123325,-111.111111111111,4,2,1,55,0,0
143026,-100,4,2,1,70,0,0
150190,-111.111111111111,4,2,1,50,0,0
165414,447.761194029851,4,2,1,55,1,0
165414,-111.111111111111,4,2,1,55,0,0
166309,-111.111111111111,4,2,1,55,0,0
167205,-111.111111111111,4,2,1,55,0,0
171682,-100,4,2,1,55,0,0
172578,-100,4,2,1,60,0,0
177951,-100,4,2,1,60,0,0
178846,-100,4,2,1,60,0,0
179070,-100,4,2,1,60,0,0
179742,-100,4,2,1,10,0,0
194070,-100,4,2,1,50,0,0
195637,-100,4,2,1,20,0,0
197652,-100,4,2,1,70,0,0
200787,-100,4,2,1,70,0,0
201234,-100,4,2,1,70,0,0
207951,-100,4,2,1,70,0,0
208399,-100,4,2,1,70,0,0
212876,447.761194029851,4,2,1,70,1,0
212876,-100,4,2,1,70,0,0

[Colours]
Combo1 : 237,191,146
Combo2 : 233,180,181
Combo3 : 234,142,142
Combo4 : 131,145,207

[HitObjects]
16,46,14967,6,0,B|85:66|70:37|150:62,1,112.5,10|8,0:1|0:1,0:0:0:0:
163,68,15415,1,2,0:0:0:0:
240,127,15638,2,0,B|188:176|220:178|159:235,1,112.5,10|8,0:1|0:1,0:0:0:0:
148,245,16086,1,2,0:0:0:0:
61,290,16310,2,0,B|43:220|26:247|7:165,1,112.5,8|8,0:1|0:1,0:0:0:0:
8,150,16758,1,0,0:0:0:0:
425,18,18549,6,0,P|467:39|488:102,1,112.5,6|2,1:0|0:0,0:0:0:0:
473,133,18997,2,0,P|430:142|384:155,1,75,8|0,0:1|0:0,0:0:0:0:
325,212,19444,2,0,L|314:260,3,37.5,2|0|0|0,1:0|0:0|0:0|0:0,0:0:0:0:
320,286,19892,2,0,B|283:270|283:270|222:270,1,75,10|0,0:1|0:0,0:0:0:0:
178,338,20340,6,0,B|122:322|135:346|65:326,1,112.5,2|2,1:0|0:0,0:0:0:0:
37,304,20788,2,0,B|32:265|32:265|47:222,1,75,8|0,0:1|0:0,0:0:0:0:
112,162,21235,2,0,L|157:173,3,37.5,2|0|0|0,1:0|0:0|0:0|0:0,0:0:0:0:
176,197,21683,2,0,L|212:188,3,37.5,10|0|0|0,0:1|0:0|0:0|0:0,0:0:0:0:
252,190,22131,6,0,P|263:136|243:60,1,112.5,2|2,1:0|0:0,0:0:0:0:
224,44,22579,2,0,P|266:36|321:22,1,75,8|0,0:1|0:0,0:0:0:0:
392,5,23027,1,2,1:0:0:0:
466,67,23250,1,0,0:0:0:0:
415,150,23474,2,0,P|378:141|341:134,1,75,10|0,0:1|0:0,0:0:0:0:
250,170,23922,6,0,B|227:244|253:229|229:301,1,112.5,2|2,1:0|0:0,0:0:0:0:
211,310,24370,2,0,P|251:322|305:343,1,75,8|0,0:1|0:0,0:0:0:0:
375,301,24818,2,0,P|392:316|412:339,3,37.5,2|0|0|0,1:0|0:0|0:0|0:0,0:0:0:0:
420,360,25265,1,10,0:1:0:0:
496,282,25489,5,8,0:1:0:0:
496,282,25601,1,8,0:1:0:0:
496,282,25713,2,0,P|504:215|469:151,1,112.5,6|2,1:0|0:0,0:0:0:0:
491,137,26161,2,0,P|447:153|389:167,1,75,8|0,0:1|0:0,0:0:0:0:
333,206,26609,2,0,P|309:199|271:186,3,37.5,2|0|0|0,1:0|0:0|0:0|0:0,0:0:0:0:
261,205,27056,2,0,P|255:154|267:114,1,75,10|0,0:1|0:0,0:0:0:0:
203,50,27504,6,0,L|83:71,1,112.5,2|2,1:0|0:0,0:0:0:0:
55,58,27952,2,0,B|46:100|46:100|57:157,1,75,8|0,0:1|0:0,0:0:0:0:
108,211,28400,2,0,L|92:269,3,37.5,2|0|0|0,1:0|0:0|0:0|0:0,0:0:0:0:
123,276,28847,2,0,L|139:334,3,37.5,10|0|0|0,0:1|0:0|0:0|0:0,0:0:0:0:
165,336,29295,6,0,P|215:321|248:247,1,112.5,2|2,1:0|0:0,0:0:0:0:
232,236,29743,2,0,P|229:194|245:141,1,75,8|0,0:1|0:0,0:0:0:0:
315,104,30191,1,2,1:0:0:0:
396,157,30415,1,0,0:0:0:0:
488,126,30638,2,0,P|491:163|484:199,1,75,10|0,0:1|0:0,0:0:0:0:
424,278,31086,6,0,B|355:259|365:286|285:261,1,112.5,2|2,1:0|0:0,0:0:0:0:
283,245,31534,2,0,P|237:260|185:275,1,75,8|0,0:1|0:0,0:0:0:0:
133,311,31982,1,0,1:0:0:0:
133,311,32094,1,8,0:3:0:0:
133,311,32206,1,8,0:3:0:0:
133,311,32318,1,8,0:3:0:0:
133,311,32430,2,0,L|120:360,2,37.5,8|2|2,0:1|0:3|0:3,0:0:0:0:
31,211,32877,6,0,P|100:210|167:171,1,134.999995880127,6|2,1:0|1:0,0:0:0:0:
265,58,33773,2,0,P|308:70|353:80,1,67.4999979400635,2|0,1:0|0:0,0:0:0:0:
362,80,34109,2,0,P|350:123|335:190,1,101.249996910095,2|0,0:0|0:0,0:0:0:0:
279,232,34668,6,0,P|232:253|206:337,1,134.999995880127,2|2,1:0|1:0,0:0:0:0:
280,355,35340,1,0,0:0:0:0:
352,319,35564,2,0,P|390:329|429:338,1,67.4999979400635,2|0,1:0|0:0,0:0:0:0:
448,350,35900,2,0,B|439:288|459:307|437:229,1,101.249996910095,2|0,0:0|0:0,0:0:0:0:
403,182,36459,6,0,P|453:151|467:67,1,134.999995880127,2|2,1:0|1:0,0:0:0:0:
326,6,37355,2,0,B|317:42|317:42|324:90,1,67.4999979400635,2|0,1:0|0:0,0:0:0:0:
340,102,37691,2,0,L|216:120,1,101.249996910095,2|2,0:0|0:0,0:0:0:0:
152,159,38250,6,0,P|145:124|155:71,2,67.4999979400635,2|0|0,1:0|0:0|1:0,0:0:0:0:
186,232,38922,1,2,0:0:0:0:
123,315,39146,2,0,P|153:322|203:338,1,67.4999979400635,2|0,1:0|0:0,0:0:0:0:
206,362,39482,2,0,B|267:353|259:376|333:360,1,101.249996910095,2|0,0:0|0:0,0:0:0:0:
389,382,40041,6,0,B|375:304|404:325|375:235,1,134.999995880127,6|2,1:0|1:0,0:0:0:0:
268,129,40937,2,0,P|257:171|262:215,1,67.4999979400635,2|0,1:0|0:0,0:0:0:0:
272,224,41273,2,0,P|212:235|147:253,1,101.249996910095,2|0,0:0|0:0,0:0:0:0:
137,323,41832,6,0,P|131:262|56:220,1,134.999995880127,2|2,1:0|1:0,0:0:0:0:
26,59,42728,2,0,P|62:52|119:39,1,67.4999979400635,2|0,1:0|0:0,0:0:0:0:
116,20,43064,2,0,B|98:79|121:63|95:138,1,101.249996910095,2|0,0:0|0:0,0:0:0:0:
159,176,43624,2,0,P|212:201|232:277,1,134.999995880127,2|2,1:0|1:0,0:0:0:0:
71,279,44519,2,0,P|58:331|63:361,1,67.4999979400635,2|0,1:0|0:0,0:0:0:0:
44,377,44855,2,0,B|104:378|93:361|167:362,1,101.249996910095,2|2,0:0|0:0,0:0:0:0:
235,321,45415,6,0,P|276:330|322:346,1,67.4999979400635,2|0,1:0|0:0,0:0:0:0:
379,275,45862,2,0,P|366:234|357:187,1,67.4999979400635,2|0,1:0|0:0,0:0:0:0:
276,155,46310,2,0,P|247:186|195:229,2,101.249996910095,2|0|8,1:0|1:0|0:3,0:0:0:0:
277,28,47206,6,0,P|337:47|361:140,1,150,6|10,1:0|0:1,0:0:0:0:
421,185,47877,1,0,0:0:0:0:
355,246,48101,2,0,P|346:279|351:324,1,75,2|0,1:0|0:0,0:0:0:0:
333,354,48437,2,0,B|403:333|387:363|462:339,1,112.5,2|0,0:0|0:0,0:0:0:0:
503,281,48997,5,2,1:0:0:0:
503,281,49221,1,0,0:0:0:0:
454,205,49444,2,0,P|461:168|483:115,1,75,10|0,0:1|0:0,0:0:0:0:
482,4,49892,2,0,P|441:21|391:31,1,75,2|0,1:0|0:0,0:0:0:0:
383,4,50228,2,0,B|399:79|372:55|388:133,1,112.5,2|0,0:0|0:0,0:0:0:0:
321,207,50788,6,0,P|355:215|419:235,2,75,2|0|10,1:0|0:0|0:1,0:0:0:0:
245,157,51459,1,0,0:0:0:0:
162,192,51683,2,0,P|157:155|168:109,1,75,2|0,1:0|0:0,0:0:0:0:
188,86,52019,2,0,B|123:107|143:74|58:96,1,112.5,2|0,0:0|0:0,0:0:0:0:
7,142,52579,5,2,1:0:0:0:
7,142,52803,1,0,0:0:0:0:
68,207,53027,2,0,P|79:250|74:294,1,75,10|0,0:1|0:0,0:0:0:0:
143,341,53474,2,0,P|182:350|226:363,1,75,2|0,1:0|0:0,0:0:0:0:
246,379,53810,2,0,B|234:309|254:325|235:260,1,112.5,2|0,0:0|0:0,0:0:0:0:
185,201,54370,6,0,P|144:213|106:228,2,75,2|0|10,1:0|0:0|0:1,0:0:0:0:
256,146,55041,1,0,0:0:0:0:
185,89,55265,2,0,P|185:42|206:9,1,75,2|0,1:0|0:0,0:0:0:0:
232,3,55601,2,0,L|366:27,1,112.5,2|0,0:0|0:0,0:0:0:0:
440,6,56161,6,0,P|450:45|441:105,1,75,2|0,1:0|0:0,0:0:0:0:
390,149,56609,1,10,0:1:0:0:
390,149,56832,1,0,0:0:0:0:
306,115,57056,2,0,P|259:125|217:133,1,75,2|0,1:0|0:0,0:0:0:0:
203,149,57392,2,0,B|184:207|184:207|198:273,1,112.5,2|0,0:0|0:0,0:0:0:0:
124,329,57952,6,0,P|87:338|39:355,2,75,2|0|10,1:0|0:0|0:1,0:0:0:0:
197,381,58624,1,0,0:0:0:0:
279,345,58847,2,0,P|319:355|365:364,1,75,2|0,1:0|0:0,0:0:0:0:
386,372,59183,1,2,0:0:0:0:
468,257,59519,6,0,L|515:245,2,37.5,2|0|2,0:0|0:0|1:0,0:0:0:0:
394,204,59967,2,0,L|347:192,2,37.5,0|0|10,0:0|0:0|0:1,0:0:0:0:
466,134,60415,1,0,0:0:0:0:
466,134,60527,1,0,0:0:0:0:
466,134,60638,2,0,P|469:92|463:17,2,112.5,10|8|8,0:1|0:1|0:1,0:0:0:0:
395,230,61534,5,0,1:0:0:0:
464,286,61758,2,0,P|476:332|472:372,2,75,4|8|8,0:3|0:3|0:3,0:0:0:0:
395,230,62430,6,0,P|352:243|306:253,1,67.4999979400635,6|0,1:0|0:0,0:0:0:0:
311,277,62765,2,0,P|271:257|187:258,1,101.249996910095,2|2,0:0|0:0,0:0:0:0:
135,282,63325,2,0,B|139:199|113:234|123:126,1,134.999995880127,2|8,1:0|0:0,0:0:0:0:
17,23,64221,6,0,P|65:36|98:44,1,67.4999979400635,2|0,1:0|0:0,0:0:0:0:
108,63,64556,2,0,B|171:44|161:69|234:42,1,101.249996910095,2|2,0:0|0:0,0:0:0:0:
284,17,65116,1,2,1:0:0:0:
360,57,65340,1,8,0:0:0:0:
360,57,65564,1,8,0:0:0:0:
241,167,66012,6,0,P|223:251|234:292,2,101.249996910095,2|2|0,1:0|0:0|0:0,0:0:0:0:
307,120,66907,2,0,P|345:131|383:138,1,67.4999979400635,2|0,1:0|0:0,0:0:0:0:
405,126,67243,2,0,P|428:168|427:244,1,101.249996910095,2|0,0:0|0:0,0:0:0:0:
371,271,67803,2,0,P|316:305|305:383,1,134.999995880127,2|8,1:0|0:1,0:0:0:0:
482,372,68698,6,0,B|488:334|488:334|478:292,1,75,8|0,0:3|0:0,0:0:0:0:
472,287,69034,1,4,0:3:0:0:
466,279,69146,2,0,P|473:231|484:175,1,75,8|4,0:3|0:3,0:0:0:0:
388,109,69594,6,0,P|347:120|287:135,1,75,6|0,1:0|0:0,0:0:0:0:
246,186,70041,2,0,P|232:238|239:279,1,75,10|0,0:1|0:0,0:0:0:0:
250,294,70377,2,0,B|181:277|189:302|110:277,1,112.5,2|0,0:0|0:0,0:0:0:0:
49,333,70937,2,0,P|41:292|54:240,1,75,10|0,0:1|0:0,0:0:0:0:
102,189,71385,5,2,1:0:0:0:
102,189,71609,1,0,0:0:0:0:
94,89,71832,2,0,P|141:104|176:113,1,75,10|0,0:1|0:0,0:0:0:0:
199,131,72168,2,0,P|202:61|187:9,1,112.5,2|0,0:0|0:0,0:0:0:0:
108,4,72728,1,10,0:1:0:0:
108,4,72952,1,2,0:0:0:0:
28,45,73176,6,0,B|4:128|36:105|17:193,1,150,0|10,1:0|0:1,0:0:0:0:
77,260,73847,1,2,0:0:0:0:
160,225,74071,1,0,1:0:0:0:
307,327,74519,1,8,0:1:0:0:
307,327,74631,1,8,0:3:0:0:
307,327,74743,1,4,0:3:0:0:
389,290,74967,5,10,0:1:0:0:
267,156,75415,1,10,0:1:0:0:
416,56,75862,1,10,0:1:0:0:
416,56,76086,1,10,0:1:0:0:
478,351,78549,6,0,B|412:370|422:340|345:360,1,123.75000377655,6|2,1:0|0:0,0:0:0:0:
317,373,78997,2,0,P|310:326|325:275,1,82.5000025177003,8|0,0:1|0:0,0:0:0:0:
248,209,79444,2,0,P|204:219|156:230,1,82.5000025177003,2|0,1:0|0:0,0:0:0:0:
67,267,79892,2,0,P|60:220|75:169,1,82.5000025177003,10|0,0:1|0:0,0:0:0:0:
5,71,80340,6,0,P|49:83|132:60,1,123.75000377655,2|2,1:0|0:0,0:0:0:0:
155,40,80788,2,0,B|168:83|168:83|159:135,1,82.5000025177003,8|0,0:1|0:0,0:0:0:0:
241,191,81235,2,0,P|276:180|305:172,3,41.2500012588501,2|0|0|0,1:0|0:0|0:0|0:0,0:0:0:0:
305,150,81683,2,0,P|344:161|400:175,1,75,10|0,0:1|0:0,0:0:0:0:
440,244,82131,6,0,P|451:288|444:339,1,75,2|0,1:0|0:0,0:0:0:0:
443,331,82467,1,2,0:0:0:0:
434,343,82579,2,0,P|473:354|528:373,1,75,8|0,0:1|0:0,0:0:0:0:
346,286,83027,2,0,P|294:281|241:321,1,112.5,2|0,1:0|0:0,0:0:0:0:
209,316,83474,2,0,P|223:341|232:374,2,37.5,8|0|2,0:1|0:0|0:0,0:0:0:0:
88,310,83922,5,2,1:0:0:0:
153,238,84146,1,0,0:0:0:0:
158,140,84370,1,10,0:1:0:0:
89,70,84594,1,0,0:0:0:0:
12,3,84818,2,0,P|-2:55|5:123,1,112.5,2|0,1:0|0:0,0:0:0:0:
18,141,85265,2,0,P|5:186|-6:246,1,75,10|0,0:1|0:0,0:0:0:0:
40,328,85713,6,0,B|78:319|78:319|121:325,1,75,6|0,1:0|0:0,0:0:0:0:
135,351,86049,2,0,B|183:360|183:360|203:374|203:374|261:385,1,112.5,2|0,0:0|0:0,0:0:0:0:
324,329,86609,2,0,P|365:340|426:355,1,75,2|0,1:0|0:0,0:0:0:0:
488,379,87056,2,0,P|495:333|480:282,1,75,10|0,0:1|0:0,0:0:0:0:
432,225,87504,6,0,B|420:146|445:167|425:94,1,112.5,2|2,1:0|0:0,0:0:0:0:
443,78,87952,2,0,P|393:94|348:105,1,75,8|0,0:1|0:0,0:0:0:0:
297,164,88400,2,0,P|288:193|282:228,3,37.5,2|0|0|0,1:0|0:0|0:0|0:0,0:0:0:0:
260,223,88847,2,0,P|273:273|280:324,1,75,10|0,0:1|0:0,0:0:0:0:
181,372,89295,5,2,1:0:0:0:
99,317,89519,1,0,0:0:0:0:
120,221,89743,1,10,0:1:0:0:
54,148,89967,1,0,0:0:0:0:
59,50,90191,1,2,1:0:0:0:
59,50,90303,2,0,B|100:39|100:39|154:46,1,75
165,30,90638,2,0,P|154:71|142:129,1,75,10|0,0:1|0:0,0:0:0:0:
272,89,91086,6,0,B|338:65|333:95|406:61,1,112.5,2|0,1:0|0:0,0:0:0:0:
414,55,91534,1,8,0:1:0:0:
486,120,91758,2,0,B|473:189|450:169|443:250,1,112.5,2|0,0:0|0:0,0:0:0:0:
445,260,92206,1,0,0:0:0:0:
352,290,92430,2,0,B|298:244|326:234|260:187,1,112.5,10|0,0:1|0:0,0:0:0:0:
251,185,92877,6,0,P|215:197|167:211,1,75,2|0,1:0|0:0,0:0:0:0:
87,172,93325,2,0,B|74:211|74:211|81:260,1,75,8|0,0:1|0:0,0:0:0:0:
129,345,93773,2,0,B|69:367|78:339|-2:365,2,112.5,8|8|4,0:3|0:3|0:3,0:0:0:0:
256,375,94668,1,6,1:0:0:0:
32,371,108997,6,0,P|27:331|47:233,1,134.999995880127,6|2,1:0|1:0,0:0:0:0:
191,170,109892,2,0,P|229:180|279:192,1,67.4999979400635,2|2,1:0|0:0,0:0:0:0:
324,230,110340,1,2,1:0:0:0:
395,192,110564,1,0,0:0:0:0:
473,213,110788,6,0,P|471:149|453:81,1,134.999995880127,2|2,1:0|1:0,0:0:0:0:
388,30,111459,1,0,0:0:0:0:
316,69,111683,2,0,P|302:107|295:157,2,67.4999979400635,2|0|2,1:0|0:0|1:0,0:0:0:0:
170,141,112579,5,2,1:0:0:0:
211,210,112803,1,2,0:0:0:0:
168,279,113027,2,0,P|181:315|188:357,1,67.4999979400635,2|0,1:0|0:0,0:0:0:0:
170,368,113362,2,0,B|112:347|125:371|49:345,1,101.249996910095,2|2,0:0|0:0,0:0:0:0:
0,271,113922,2,0,P|35:257|87:244,1,67.4999979400635,2|0,1:0|0:0,0:0:0:0:
110,181,114370,6,0,B|85:99|116:116|76:31,2,134.999995880127,0|2|2,1:0|1:0|1:0,0:0:0:0:
183,214,115489,1,0,0:0:0:0:
248,166,115713,2,0,P|291:178|345:189,1,67.4999979400635,2|2,1:3|0:3,0:0:0:0:
401,250,116161,6,0,P|425:191|499:162,1,134.999995880127,2|2,1:0|1:0,0:0:0:0:
380,67,117056,2,0,P|392:12|409:-21,2,67.4999979400635,2|0|0,1:0|0:0|1:0,0:0:0:0:
313,112,117728,1,0,0:0:0:0:
265,177,117952,6,0,P|262:126|233:28,1,134.999995880127,0|2,1:0|1:0,0:0:0:0:
164,14,118624,1,0,0:0:0:0:
93,53,118847,2,0,B|56:55|56:55|11:70,1,67.4999979400635,2|2,1:0|0:0,0:0:0:0:
8,143,119295,1,2,1:3:0:0:
73,209,119519,5,2,0:3:0:0:
73,209,119631,1,2,0:3:0:0:
73,209,119743,2,0,P|58:271|39:358,1,134.999995880127,2|2,1:0|1:0,0:0:0:0:
120,364,120415,1,0,0:0:0:0:
120,364,120527,2,0,B|179:340|173:368|243:337,1,101.249996910095,2|2,0:0|0:0,0:0:0:0:
292,284,121086,2,0,P|332:294|374:307,1,67.4999979400635,0|0,1:0|1:0,0:0:0:0:
357,301,121422,1,0,0:0:0:0:
357,301,121534,6,0,B|369:337|369:337|368:373,1,67.4999979400635,2|0,1:0|0:0,0:0:0:0:
461,316,121982,2,0,B|486:286|486:286|517:269,1,67.4999979400635,2|0,1:0|0:0,0:0:0:0:
422,219,122430,2,0,B|369:209|369:209|314:176,2,101.249996910095,2|0|2,1:0|1:0|1:3,0:0:0:0:
333,295,123325,6,0,P|285:311|251:387,1,134.999995880127,6|10,1:0|0:1,0:0:0:0:
173,333,123997,1,0,0:0:0:0:
173,333,124109,2,0,B|107:310|126:336|55:309,1,101.249996910095,2|2,0:0|0:0,0:0:0:0:
10,265,124668,1,10,0:1:0:0:
132,159,125116,6,0,P|126:118|113:68,2,67.4999979400635,2|0|10,1:0|0:0|0:1,0:0:0:0:
196,218,125788,1,0,0:0:0:0:
196,218,125900,2,0,P|183:270|170:337,1,101.249996910095,2|0,0:0|0:0,0:0:0:0:
228,376,126459,1,10,0:1:0:0:
376,310,126907,6,0,P|412:322|466:340,1,67.4999979400635,2|0,1:0|0:0,0:0:0:0:
499,276,127355,1,10,0:1:0:0:
456,207,127579,1,0,0:0:0:0:
456,207,127691,2,0,P|462:153|522:116,1,101.249996910095,2|2,0:0|0:0,0:0:0:0:
455,51,128250,1,10,0:1:0:0:
299,97,128698,6,0,P|263:90|205:73,1,67.4999979400635,0|0,1:0|0:0,0:0:0:0:
168,32,129146,2,0,P|189:111|192:178,1,134.999995880127,8|2,0:1|1:0,0:0:0:0:
133,219,129818,1,0,0:0:0:0:
58,188,130041,1,10,0:1:0:0:
143,50,130489,6,0,P|183:62|222:72,2,67.4999979400635,6|0|10,1:0|0:0|0:1,0:0:0:0:
50,9,131161,1,0,0:0:0:0:
50,9,131273,2,0,B|72:66|46:56|67:124,1,101.249996910095,2|0,0:0|0:0,0:0:0:0:
110,173,131832,1,10,0:1:0:0:
257,106,132280,6,0,P|303:116|347:124,1,67.4999979400635,0|0,1:0|0:0,0:0:0:0:
388,167,132728,1,10,0:1:0:0:
465,136,132952,1,0,0:0:0:0:
465,136,133064,2,0,P|484:219|482:259,1,101.249996910095,2|0,0:0|0:0,0:0:0:0:
466,313,133624,1,10,0:1:0:0:
312,365,134071,6,0,P|323:331|346:285,2,67.4999979400635,2|10|10,1:0|0:1|0:1,0:0:0:0:
392,378,134743,1,0,0:0:0:0:
463,339,134967,1,2,1:0:0:0:
463,339,135079,2,0,P|458:292|435:237,1,101.249996910095,8|8,0:3|0:3,0:0:0:0:
387,179,135638,1,8,0:3:0:0:
439,98,135862,1,6,1:0:0:0:
0,60,142579,6,0,L|9:104,3,33.7499989700318,8|8|8|8,0:1|0:1|0:1|0:1,0:0:0:0:
1,138,143027,2,0,P|56:113|123:121,1,112.5,6|2,1:0|0:0,0:0:0:0:
142,98,143474,2,0,P|128:149|120:198,1,75,8|2,0:1|0:0,0:0:0:0:
177,243,143922,1,0,0:0:0:0:
177,243,144034,2,0,P|215:231|283:221,1,75,2|0,1:0|0:0,0:0:0:0:
285,233,144370,1,10,0:1:0:0:
245,313,144594,1,0,0:0:0:0:
320,362,144818,6,0,B|390:337|383:358|446:333,1,112.5,0|0,1:0|0:0,0:0:0:0:
456,357,145265,2,0,P|464:316|483:258,1,75,8|0,0:1|0:0,0:0:0:0:
423,208,145713,2,0,P|417:176|407:145,3,37.5,2|0|0|2,1:0|0:0|0:0|0:0,0:0:0:0:
447,139,146161,1,8,0:1:0:0:
388,70,146385,1,0,0:0:0:0:
452,7,146609,6,0,P|505:41|515:106,2,112.5,2|2|2,1:0|0:0|0:0,0:0:0:0:
371,84,147504,2,0,P|318:118|308:183,2,112.5,2|2|2,1:0|0:0|0:0,0:0:0:0:
458,161,148400,2,0,B|442:221|465:212|439:282,1,112.5,2|0,1:0|0:0,0:0:0:0:
453,299,148847,2,0,P|422:313|402:329,3,37.5,8|0|0|0,0:1|0:0|0:0|0:0,0:0:0:0:
405,348,149295,2,0,P|388:338|371:332,3,37.5,0|0|0|0,1:0|0:0|0:0|0:0,0:0:0:0:
339,351,149743,1,8,0:1:0:0:
248,284,149967,5,8,0:1:0:0:
248,284,150079,1,8,0:1:0:0:
248,284,150191,2,0,P|255:206|279:143,1,134.999995880127,6|10,1:0|0:1,0:0:0:0:
252,74,150862,1,0,0:0:0:0:
316,25,151086,2,0,P|355:38|395:51,1,67.4999979400635,2|0,1:0|0:0,0:0:0:0:
408,31,151422,2,0,P|422:89|417:154,1,101.249996910095,2|0,0:0|0:0,0:0:0:0:
499,197,151982,6,0,P|449:217|423:299,1,134.999995880127,2|10,1:0|0:1,0:0:0:0:
255,364,152877,2,0,P|219:353|175:344,1,67.4999979400635,2|0,1:0|0:0,0:0:0:0:
165,361,153213,2,0,P|160:306|174:245,1,101.249996910095,2|0,0:0|0:0,0:0:0:0:
112,202,153773,6,0,P|79:212|35:223,2,67.4999979400635,2|0|10,1:0|0:0|0:1,0:0:0:0:
184,238,154444,1,0,0:0:0:0:
249,190,154668,2,0,B|250:155|250:155|235:114,1,67.4999979400635,2|0,1:0|0:0,0:0:0:0:
217,104,155004,2,0,B|260:95|260:95|279:83|279:83|333:73,1,101.249996910095,2|0,0:0|0:0,0:0:0:0:
380,29,155564,5,2,1:0:0:0:
380,29,155788,1,0,0:0:0:0:
448,71,156012,2,0,P|436:113|426:165,1,67.4999979400635,10|0,0:1|0:0,0:0:0:0:
360,176,156459,2,0,P|321:165|280:157,1,67.4999979400635,2|0,1:0|0:0,0:0:0:0:
279,134,156795,2,0,P|237:150|212:221,1,101.249996910095,2|0,0:0|0:0,0:0:0:0:
251,290,157355,6,0,P|286:279|333:266,2,67.4999979400635,2|0|10,1:0|0:0|0:1,0:0:0:0:
195,352,158027,1,0,0:0:0:0:
120,321,158250,2,0,P|114:286|118:242,1,67.4999979400635,2|0,1:0|0:0,0:0:0:0:
139,235,158586,2,0,B|156:180|132:192|159:127,1,101.249996910095,2|0,0:0|0:0,0:0:0:0:
279,92,159146,6,0,P|232:73|198:0,1,134.999995880127,2|10,1:0|0:1,0:0:0:0:
37,105,160041,2,0,P|45:143|51:188,1,67.4999979400635,2|0,1:0|0:0,0:0:0:0:
38,202,160377,2,0,B|98:183|87:204|150:183,1,101.249996910095,2|0,0:0|0:0,0:0:0:0:
213,231,160937,5,2,1:0:0:0:
213,231,161161,1,0,0:0:0:0:
281,188,161385,2,0,B|283:156|283:156|269:111,1,67.4999979400635,10|0,0:1|0:0,0:0:0:0:
327,63,161832,2,0,P|364:72|406:79,1,67.4999979400635,2|0,1:0|0:0,0:0:0:0:
420,65,162168,2,0,P|441:114|446:177,1,101.249996910095,2|2,0:0|0:0,0:0:0:0:
376,257,162728,5,2,1:0:0:0:
443,300,162952,1,0,0:0:0:0:
396,364,163176,1,10,0:1:0:0:
326,322,163400,1,0,0:0:0:0:
356,235,163624,2,0,P|347:178|328:131,2,101.249996910095,10|8|8,0:1|0:1|0:1,0:0:0:0:
457,271,164519,5,8,0:1:0:0:
83,384,165414,6,0,B|79:351|79:351|89:312,1,67.4999979400635,6|0,1:0|0:0,0:0:0:0:
76,293,165749,2,0,L|191:314,1,101.249996910095,2|2,0:0|0:0,0:0:0:0:
239,362,166309,2,0,P|289:337|309:257,1,134.999995880127,2|8,1:0|0:0,0:0:0:0:
131,124,167205,6,0,P|167:133|206:141,1,67.4999979400635,2|0,1:0|0:0,0:0:0:0:
222,159,167540,2,0,P|225:97|212:43,1,101.249996910095,2|2,0:0|0:0,0:0:0:0:
160,1,168100,1,2,1:0:0:0:
79,26,168324,1,8,0:0:0:0:
79,26,168548,1,8,0:0:0:0:
138,212,168996,6,0,P|171:225|199:296,2,101.249996910095,2|2|0,1:0|0:0|0:0,0:0:0:0:
188,138,169891,2,0,B|190:105|190:105|179:72,1,67.4999979400635,2|0,1:0|0:0,0:0:0:0:
162,48,170227,2,0,B|217:38|211:60|276:43,1,101.249996910095,2|0,0:0|0:0,0:0:0:0:
321,104,170787,2,0,P|299:179|297:263,1,134.999995880127,2|8,1:0|0:1,0:0:0:0:
157,373,171682,5,12,0:1:0:0:
157,373,171794,1,8,0:1:0:0:
81,305,172018,1,8,0:1:0:0:
81,305,172130,2,0,P|87:284|92:263,3,37.5,8|8|8|8,0:1|0:1|0:1|0:1,0:0:0:0:
118,242,172578,6,0,P|113:204|99:155,1,75,6|0,1:0|0:0,0:0:0:0:
44,82,173025,2,0,B|79:67|79:67|122:71,1,75,10|0,0:1|0:0,0:0:0:0:
142,89,173361,2,0,B|185:79|185:79|205:62|205:62|257:51,1,112.5,2|0,0:0|0:0,0:0:0:0:
323,6,173921,1,10,0:1:0:0:
323,6,174145,1,0,0:0:0:0:
405,42,174369,6,0,P|393:84|386:122,1,75,2|0,1:0|0:0,0:0:0:0:
311,163,174816,2,0,P|265:177|227:191,1,75,10|0,0:1|0:0,0:0:0:0:
210,170,175152,2,0,P|188:253|194:309,1,112.5,2|0,0:0|0:0,0:0:0:0:
242,351,175712,1,10,0:1:0:0:
242,351,175936,1,2,0:0:0:0:
330,334,176160,6,0,B|416:315|403:355|492:328,1,150,0|10,1:0|0:1,0:0:0:0:
509,247,176831,1,2,0:0:0:0:
441,187,177055,1,0,1:0:0:0:
277,249,177503,1,8,0:1:0:0:
277,249,177615,1,8,0:3:0:0:
277,249,177727,1,4,0:3:0:0:
198,204,177951,6,0,B|185:132|208:149|187:78,1,112.5,10|0,0:1|0:0,0:0:0:0:
201,61,178399,2,0,P|165:73|117:86,1,75,10|0,0:1|0:0,0:0:0:0:
61,142,178846,1,10,0:1:0:0:
103,221,179070,1,10,0:1:0:0:
256,192,194070,12,0,195637,0:0:0:0:
3,136,197652,6,0,P|58:103|74:42,1,112.5,6|2,1:0|0:0,0:0:0:0:
60,32,198100,2,0,P|99:22|143:7,1,75,8|0,0:1|0:0,0:0:0:0:
220,53,198548,1,2,1:0:0:0:
302,0,198772,1,0,0:0:0:0:
390,41,198996,2,0,B|402:79|402:79|395:126,1,75,10|0,0:1|0:0,0:0:0:0:
501,169,199443,6,0,P|460:195|450:273,1,112.5,2|2,1:0|0:0,0:0:0:0:
460,280,199891,2,0,P|420:291|381:305,1,75,8|0,0:1|0:0,0:0:0:0:
307,356,200339,2,0,P|302:332|294:307,3,37.5,2|0|0|0,1:0|0:0|0:0|0:0,0:0:0:0:
274,298,200787,2,0,P|283:257|289:204,1,75,10|0,0:1|0:0,0:0:0:0:
355,136,201234,6,0,B|315:126|315:126|294:107|294:107|230:93,1,112.5,2|2,1:0|0:0,0:0:0:0:
230,73,201682,2,0,P|195:85|150:100,1,75,8|0,0:1|0:0,0:0:0:0:
97,173,202130,1,2,1:0:0:0:
148,255,202354,1,0,0:0:0:0:
64,303,202578,2,0,P|50:328|41:361,2,37.5,8|0|2,0:1|0:0|0:0,0:0:0:0:
148,255,203025,6,0,P|192:269|242:281,1,75,2|0,1:0|0:0,0:0:0:0:
316,260,203473,1,10,0:1:0:0:
395,316,203697,1,0,0:0:0:0:
487,285,203921,2,0,B|478:214|500:230|479:159,1,112.5,2|0,1:0|0:0,0:0:0:0:
498,146,204369,2,0,P|461:137|413:123,1,75,10|0,0:1|0:0,0:0:0:0:
344,64,204816,6,0,B|307:60|307:60|270:76,1,75,6|0,1:0|0:0,0:0:0:0:
254,102,205152,2,0,B|255:163|275:148|274:217,1,112.5,2|0,0:0|0:0,0:0:0:0:
318,298,205712,2,0,P|282:309|239:325,1,75,2|0,1:0|0:0,0:0:0:0:
166,378,206160,2,0,P|130:365|94:354,1,75,10|0,0:1|0:0,0:0:0:0:
20,290,206608,6,0,P|13:234|26:170,1,112.5,2|2,1:0|0:0,0:0:0:0:
12,149,207055,2,0,P|57:163|104:174,1,75,8|0,0:1|0:0,0:0:0:0:
165,237,207503,1,2,1:0:0:0:
165,237,207615,1,0,0:0:0:0:
165,237,207727,1,0,0:0:0:0:
239,180,207951,2,0,P|235:135|225:106,1,75,10|0,0:1|0:0,0:0:0:0:
288,31,208398,5,2,1:0:0:0:
383,13,208622,1,0,0:0:0:0:
471,54,208846,1,10,0:1:0:0:
495,148,209070,1,0,0:0:0:0:
442,231,209294,1,2,1:0:0:0:
442,231,209406,2,0,P|401:239|361:249,1,75
339,239,209742,2,0,P|323:277|321:322,1,75,10|0,0:1|0:0,0:0:0:0:
415,384,210190,6,0,P|465:365|486:295,1,112.5,2|0,1:0|0:0,0:0:0:0:
477,285,210637,1,8,0:1:0:0:
385,213,210861,2,0,P|335:194|314:124,1,112.5,2|0,0:0|0:0,0:0:0:0:
323,114,211308,1,0,0:0:0:0:
241,59,211533,2,0,P|179:75|123:88,1,112.5,10|0,0:1|0:0,0:0:0:0:
101,81,211981,5,2,1:0:0:0:
22,139,212205,1,8,0:3:0:0:
63,226,212428,2,0,P|52:257|46:278,3,37.5,8|8|4|4,0:3|0:3|0:3|0:3,0:0:0:0:
20,283,212876,6,0,B|88:279|77:304|148:291,1,112.5,4|2,1:0|0:0,0:0:0:0:
161,277,213323,2,0,P|197:291|245:304,1,75,8|0,0:1|0:0,0:0:0:0:
342,383,213771,2,0,B|346:347|346:347|332:303,1,75,2|0,1:0|0:0,0:0:0:0:
288,223,214219,2,0,P|324:212|358:198,1,75,10|0,0:1|0:0,0:0:0:0:
479,210,214667,6,0,P|476:151|451:95,1,112.5,2|2,1:0|0:0,0:0:0:0:
434,79,215114,1,8,0:1:0:0:
347,123,215338,1,0,0:0:0:0:
259,80,215562,2,0,P|215:92|173:101,1,75,2|0,1:0|0:0,0:0:0:0:
111,161,216010,2,0,P|97:203|98:245,1,75,10|0,0:1|0:0,0:0:0:0:
51,362,216458,6,0,P|89:354|136:341,1,75,2|0,1:0|0:0,0:0:0:0:
134,334,216793,1,0,0:0:0:0:
142,324,216905,2,0,P|178:333|214:341,1,75,10|0,0:1|0:0,0:0:0:0:
315,261,217353,2,0,B|319:224|319:224|304:184,1,75,2|0,1:0|0:0,0:0:0:0:
299,178,217689,1,0,0:0:0:0:
294,168,217801,2,0,P|330:159|366:150,1,75,10|0,0:1|0:0,0:0:0:0:
479,185,218249,6,0,P|484:163|492:136,3,37.5,2|0|0|2,1:0|0:0|0:0|0:0,0:0:0:0:
512,127,218696,2,0,P|515:90|503:44,1,75,8|0,0:1|0:0,0:0:0:0:
405,7,219144,2,0,B|346:0|358:24|285:17,1,112.5,2|0,1:0|0:0,0:0:0:0:
255,2,219592,1,10,0:1:0:0:
255,2,219704,2,0,P|211:14|161:22,1,75,8|8,0:1|0:1,0:0:0:0:
138,2,220040,6,0,P|128:44|120:121,1,112.5,6|2,1:0|0:0,0:0:0:0:
130,142,220487,1,8,0:1:0:0:
52,201,220711,1,0,0:0:0:0:
112,277,220935,2,0,P|152:266|194:257,1,75,2|0,1:0|0:0,0:0:0:0:
263,199,221383,2,0,P|262:151|246:110,1,75,10|0,0:1|0:0,0:0:0:0:
316,49,221831,6,0,P|388:69|449:60,1,112.5,2|2,1:0|0:0,0:0:0:0:
453,49,222278,2,0,P|472:86|477:138,1,75,8|0,0:1|0:0,0:0:0:0:
413,192,222726,2,0,B|395:257|421:245|393:332,1,112.5,2|0,1:0|0:0,0:0:0:0:
412,334,223174,2,0,P|360:347|325:358,1,75,10|0,0:1|0:0,0:0:0:0:
218,383,223622,5,2,1:0:0:0:
253,292,223846,1,0,0:0:0:0:
229,197,224070,1,10,0:1:0:0:
264,106,224293,1,0,0:0:0:0:
197,34,224517,2,0,P|145:55|63:49,1,112.5,2|0,1:0|0:0,0:0:0:0:
63,37,224965,2,0,P|43:96|44:128,1,75,10|0,0:1|0:0,0:0:0:0:
92,192,225413,5,2,1:0:0:0:
92,192,225525,2,0,P|132:183|186:176,1,75
196,191,225861,1,10,0:1:0:0:
279,141,226084,1,0,0:0:0:0:
368,180,226308,2,0,P|381:220|375:271,1,75,2|2,1:0|0:0,0:0:0:0:
316,327,226756,1,10,0:1:0:0:
223,296,226980,1,2,0:0:0:0:
136,341,227204,6,0,P|84:311|72:253,1,112.5,8|8,0:3|0:3,0:0:0:0:
84,234,227652,1,8,0:1:0:0:
0,165,227876,2,0,P|30:113|88:101,1,112.5,8|8,0:3|0:3,0:0:0:0:
107,113,228324,1,8,0:1:0:0:
176,29,228547,2,0,P|228:59|240:117,1,112.5,8|8,0:3|0:3,0:0:0:0:
228,136,228995,1,8,0:1:0:0:
312,205,229219,2,0,P|282:257|224:269,1,112.5,8|8,0:3|0:3,0:0:0:0:
205,257,229667,1,0,1:0:0:0:
128,186,229890,6,0,B|115:125|141:137|118:73,1,112.5,10|8,0:1|0:3,0:0:0:0:
104,49,230338,1,8,0:1:0:0:
206,73,230562,1,10,0:1:0:0:
302,24,230786,1,6,1:0:0:0:
256,192,230898,12,2,234368,1:0:0:0:
