osu file format v14

[General]
AudioFilename: audio.mp3
AudioLeadIn: 0
PreviewTime: 38594
Countdown: 0
SampleSet: Soft
StackLeniency: 0.6
Mode: 0
LetterboxInBreaks: 0
WidescreenStoryboard: 1

[Editor]
Bookmarks: 5969,15569,25169,34769,39419,53969,58769,61169,65969,70769,80369,85019,99569,104369,113969,123569,133019,147569,152369,161969
DistanceSpacing: 1
BeatDivisor: 4
GridSize: 16
TimelineZoom: 1

[Metadata]
Title:Oni
TitleUnicode:鬼
Artist:UPLIFT SPICE
ArtistUnicode:UPLIFT SPICE
Creator:Shirahane Suou
Version:Insane
Source:
Tags:japanese rock jrock j-rock the musmus gst:live2022 great singapore tournament live 2022 gstlive custom map tourney AEF asia esports festival online kallang wave mall EXP esports experience center gstlive2022a8 iceluin
BeatmapID:3979106
BeatmapSetID:1893909

[Difficulty]
HPDrainRate:5
CircleSize:4
OverallDifficulty:8
ApproachRate:9
SliderMultiplier:1.6
SliderTickRate:1

[Events]
//Background and Video events
0,0,"oni.jpg",0,0
//Break Periods
2,104569,108269
2,109369,112169
//Storyboard Layer 0 (Background)
//Storyboard Layer 1 (Fail)
//Storyboard Layer 2 (Pass)
//Storyboard Layer 3 (Foreground)
//Storyboard Layer 4 (Overlay)
//Storyboard Sound Samples

[TimingPoints]
1169,300,4,2,1,50,1,0
1169,-133.333333333333,4,2,1,50,0,0
4769,-133.333333333333,4,2,1,60,0,0
5969,-105.263157894737,4,2,1,70,0,0
15569,-133.333333333333,4,2,1,60,0,0
25169,-105.263157894737,4,2,1,70,0,0
34769,-133.333333333333,4,2,1,60,0,0
39419,-90.9090909090909,4,2,1,80,0,1
58769,-133.333333333333,4,2,1,50,0,0
59969,-133.333333333333,4,2,1,60,0,0
61169,-333.333333333333,4,2,1,50,0,0
64994,-333.333333333333,4,2,1,5,0,0
65069,-250,4,2,1,50,0,0
65294,-250,4,2,1,5,0,0
65369,-200,4,2,1,50,0,0
65594,-200,4,2,1,5,0,0
65669,-166.666666666667,4,2,1,50,0,0
65894,-166.666666666667,4,2,1,5,0,0
65969,-133.333333333333,4,2,1,60,0,0
66194,-133.333333333333,4,2,1,5,0,0
66269,-133.333333333333,4,2,1,60,0,0
66494,-133.333333333333,4,2,1,5,0,0
66569,-133.333333333333,4,2,1,60,0,0
66794,-133.333333333333,4,2,1,5,0,0
66869,-133.333333333333,4,2,1,60,0,0
67094,-133.333333333333,4,2,1,5,0,0
67169,-133.333333333333,4,2,1,60,0,0
67394,-133.333333333333,4,2,1,5,0,0
67469,-133.333333333333,4,2,1,60,0,0
67694,-133.333333333333,4,2,1,5,0,0
67769,-133.333333333333,4,2,1,60,0,0
67994,-133.333333333333,4,2,1,5,0,0
68069,-133.333333333333,4,2,1,60,0,0
68294,-133.333333333333,4,2,1,5,0,0
68369,-117.647058823529,4,2,1,60,0,0
68594,-117.647058823529,4,2,1,5,0,0
68669,-117.647058823529,4,2,1,60,0,0
68894,-117.647058823529,4,2,1,5,0,0
68969,-117.647058823529,4,2,1,60,0,0
69194,-117.647058823529,4,2,1,5,0,0
69269,-117.647058823529,4,2,1,60,0,0
69494,-117.647058823529,4,2,1,5,0,0
69569,-117.647058823529,4,2,1,60,0,0
69794,-117.647058823529,4,2,1,5,0,0
69869,-117.647058823529,4,2,1,60,0,0
70094,-117.647058823529,4,2,1,5,0,0
70169,-90.9090909090909,4,2,1,70,0,0
70269,-90.9090909090909,4,2,1,5,0,0
70369,-90.9090909090909,4,2,1,70,0,0
70469,-90.9090909090909,4,2,1,5,0,0
70569,-90.9090909090909,4,2,1,70,0,0
70669,-90.9090909090909,4,2,1,5,0,0
70769,-105.263157894737,4,2,1,70,0,0
80369,-133.333333333333,4,2,1,60,0,0
85019,-90.9090909090909,4,2,1,80,0,1
104369,-105.263157894737,4,2,1,50,0,0
112769,-166.666666666667,4,2,1,50,0,0
113969,-117.647058823529,4,2,1,70,0,0
123269,-153.846153846153,4,2,1,70,0,0
123569,-105.263157894737,4,2,1,70,0,0
133019,-90.9090909090909,4,2,1,80,0,1
152369,-105.263157894737,4,2,1,70,0,0

[Colours]
Combo1 : 218,207,158
Combo2 : 174,204,174
Combo3 : 162,200,206
Combo4 : 236,145,145

[HitObjects]
265,73,1169,6,0,L|255:34,2,30.0000011444092,10|8|8,0:2|0:2|0:2,0:0:0:0:
346,49,1469,2,0,L|336:10,2,30.0000011444092,2|0|8,3:2|3:0|0:2,0:0:0:0:
401,117,1769,2,0,L|380:195,1,60.0000022888184,2|8,3:2|0:2,0:0:0:0:
314,233,2069,1,10,0:2:0:0:
317,248,2144,1,8,0:2:0:0:
321,263,2219,1,8,0:2:0:0:
325,279,2294,1,8,0:2:0:0:
329,294,2369,6,0,L|368:304,2,30.0000011444092,10|8|8,0:2|0:2|0:2,0:0:0:0:
289,377,2669,2,0,L|328:387,2,30.0000011444092,2|0|8,3:2|3:0|0:2,0:0:0:0:
213,326,2969,2,0,L|134:346,1,60.0000022888184,2|8,3:2|0:2,0:3:0:0:
73,384,3269,1,10,0:2:0:0:
69,368,3344,1,8,0:2:0:0:
65,353,3419,1,8,0:2:0:0:
61,337,3494,1,8,0:2:0:0:
57,322,3569,6,0,L|18:312,2,30.0000011444092,10|8|8,0:2|0:2|0:2,0:0:0:0:
93,244,3869,2,0,L|62:236,2,30.0000011444092,2|0|8,3:2|3:0|0:2,0:0:0:0:
165,186,4169,2,0,L|149:124,1,60.0000022888184,2|8,3:2|0:2,0:3:0:0:
130,39,4469,1,10,0:2:0:0:
114,35,4544,1,8,0:2:0:0:
99,31,4619,1,8,0:2:0:0:
83,27,4694,1,8,0:2:0:0:
68,23,4769,5,10,0:2:0:0:
14,83,4919,1,0,3:2:0:0:
68,167,5069,5,10,0:2:0:0:
14,227,5219,1,0,3:2:0:0:
68,311,5369,5,10,0:2:0:0:
148,292,5519,1,8,0:2:0:0:
148,292,5594,1,8,0:2:0:0:
148,292,5669,2,0,L|186:301,3,30.0000011444092,10|8|8|8,0:2|0:2|0:2|0:2,0:0:0:0:
194,312,5969,5,6,3:2:0:0:
240,248,6119,2,0,L|219:152,1,75.9999979705811,2|8,0:2|0:2,0:0:0:0:
126,70,6419,5,2,3:2:0:0:
203,91,6569,1,8,0:2:0:0:
261,35,6719,1,0,3:2:0:0:
358,133,6869,5,10,0:2:0:0:
416,77,7019,2,0,L|494:94,1,75.9999979705811,2|8,3:2|0:2,0:0:0:0:
456,233,7319,5,2,3:2:0:0:
399,287,7469,1,8,0:2:0:0:
417,367,7619,1,0,3:2:0:0:
417,367,7694,1,0,3:2:0:0:
417,367,7769,1,10,0:2:0:0:
475,311,7919,5,0,3:2:0:0:
379,211,8069,2,0,L|302:235,1,75.9999979705811,10|0,0:2|3:2,0:0:0:0:
83,291,8369,5,10,0:2:0:0:
124,359,8519,2,0,L|201:383,1,75.9999979705811,2|8,0:2|0:2,0:0:0:0:
284,311,8819,5,2,3:2:0:0:
227,257,8969,1,8,0:2:0:0:
246,182,9119,1,0,3:2:0:0:
134,74,9269,5,10,0:2:0:0:
208,51,9419,2,0,L|295:74,1,75.9999979705811,2|8,3:2|0:2,0:0:0:0:
190,128,9719,5,2,3:2:0:0:
114,150,9869,1,8,0:2:0:0:
59,96,10019,1,0,3:2:0:0:
59,96,10094,1,0,3:2:0:0:
59,96,10169,1,10,0:2:0:0:
134,74,10319,5,0,3:2:0:0:
39,172,10469,2,0,L|62:259,1,75.9999979705811,10|0,0:2|3:2,0:0:0:0:
208,333,10769,5,10,0:2:0:0:
284,311,10919,2,0,L|371:334,1,75.9999979705811,2|8,0:2|0:2,0:0:0:0:
484,294,11219,5,2,3:2:0:0:
459,218,11369,1,8,0:2:0:0:
384,199,11519,1,0,3:2:0:0:
284,311,11669,5,10,0:2:0:0:
226,256,11819,2,0,L|202:169,1,75.9999979705811,2|8,3:2|0:2,0:0:0:0:
342,46,12119,5,2,3:2:0:0:
362,120,12269,1,8,0:2:0:0:
313,184,12419,1,0,3:2:0:0:
313,184,12494,1,0,3:2:0:0:
313,184,12569,1,10,0:2:0:0:
289,106,12719,5,0,3:2:0:0:
384,199,12869,2,0,L|470:175,1,75.9999979705811,10|0,0:2|3:2,0:0:0:0:
342,46,13169,5,10,0:2:0:0:
268,27,13319,2,0,L|194:46,1,75.9999979705811,2|8,0:2|0:2,0:0:0:0:
97,141,13619,5,2,3:2:0:0:
42,84,13769,1,8,0:2:0:0:
63,8,13919,1,0,3:2:0:0:
174,121,14069,5,10,0:2:0:0:
160,205,14219,1,10,0:2:0:0:
160,205,14294,1,8,0:2:0:0:
160,205,14369,2,0,L|182:303,1,75.9999979705811,8|10,0:2|0:2,0:0:0:0:
229,178,14669,2,0,L|251:276,1,75.9999979705811,8|8,0:3|0:3,0:0:0:0:
338,362,14969,5,10,0:2:0:0:
416,345,15119,1,8,0:2:0:0:
398,267,15269,1,10,0:2:0:0:
320,284,15419,1,8,0:2:0:0:
202,359,15569,6,0,P|143:358|104:315,1,120.000004577637,6|8,3:2|0:2,0:0:0:0:
52,254,16019,2,0,P|61:225|65:195,1,60.0000022888184,2|0,0:2|3:2,0:0:0:0:
166,129,16319,1,0,3:2:0:0:
166,129,16469,2,0,P|148:189|139:251,1,120.000004577637,10|0,0:2|3:2,0:0:0:0:
397,314,17069,2,0,P|414:253|423:191,1,120.000004577637,10|2,0:2|3:2,0:0:0:0:
397,123,17519,1,0,3:2:0:0:
346,183,17669,1,10,0:2:0:0:
107,0,17969,6,0,P|138:39|212:33,1,120.000004577637,2|8,3:2|0:2,0:0:0:0:
278,12,18419,2,0,P|282:41|292:69,1,60.0000022888184,2|0,0:2|3:2,0:0:0:0:
256,232,18719,1,0,3:2:0:0:
256,232,18869,2,0,P|245:168|223:107,1,120.000004577637,10|0,0:2|3:2,0:0:0:0:
406,0,19469,2,0,P|416:63|438:124,1,120.000004577637,10|2,0:2|3:2,0:0:0:0:
491,171,19919,1,0,3:2:0:0:
509,93,20069,1,8,0:2:0:0:
398,288,20369,6,0,P|350:280|293:328,1,120.000004577637,2|8,3:2|0:2,0:0:0:0:
233,370,20819,2,0,P|215:349|215:310,1,60.0000022888184,2|0,0:2|3:2,0:0:0:0:
156,194,21119,1,0,3:2:0:0:
156,194,21269,2,0,P|199:232|258:226,1,120.000004577637,10|0,0:2|3:2,0:0:0:0:
470,68,21869,2,0,P|426:29|367:35,1,120.000004577637,10|2,0:2|3:2,0:0:0:0:
323,101,22319,1,0,3:2:0:0:
403,107,22469,1,10,0:2:0:0:
166,1,22769,6,0,P|183:58|195:117,1,120.000004577637,2|8,3:2|0:2,0:0:0:0:
166,194,23219,2,0,P|136:199|107:208,1,60.0000022888184,2|0,0:2|3:2,0:0:0:0:
3,155,23519,1,0,3:2:0:0:
3,155,23669,2,0,P|64:142|125:124,1,120.000004577637,10|0,0:2|3:2,0:0:0:0:
242,178,24119,5,8,0:2:0:0:
225,46,24269,1,10,0:2:0:0:
196,117,24419,1,0,3:2:0:0:
274,110,24569,5,10,0:2:0:0:
274,110,24719,1,0,3:2:0:0:
149,56,24869,5,8,0:2:0:0:
165,192,25019,1,8,0:2:0:0:
45,141,25169,6,0,P|82:135|119:125,1,75.9999979705811,6|0,3:2|3:2,0:0:0:0:
165,192,25469,1,8,0:2:0:0:
225,46,25619,2,0,P|298:69|372:83,1,151.999995941162,2|0,3:2|3:2,0:0:0:0:
494,210,26069,1,10,0:2:0:0:
512,132,26219,6,0,P|437:147|365:170,1,151.999995941162,0|0,3:2|3:2,0:0:0:0:
231,242,26669,2,0,P|254:276|299:283,1,75.9999979705811,10|0,0:2|0:0,0:0:0:0:
285,367,26969,2,0,P|325:364|354:328,1,75.9999979705811,2|0,3:2|3:2,0:0:0:0:
420,382,27269,2,0,P|437:345|421:302,1,75.9999979705811,10|0,0:2|0:0,0:0:0:0:
365,170,27569,6,0,P|347:206|363:249,1,75.9999979705811,2|0,3:2|3:2,0:0:0:0:
507,160,27869,1,8,0:2:0:0:
456,99,28019,2,0,P|380:88|307:68,1,151.999995941162,2|0,3:2|3:2,0:0:0:0:
163,191,28469,1,10,0:2:0:0:
143,113,28619,6,0,P|218:123|291:143,1,151.999995941162,0|0,3:2|3:2,0:0:0:0:
325,309,29069,2,0,P|267:301|212:285,1,113.999996955872,10|0,0:2|0:0,0:0:0:0:
201,289,29369,2,0,P|180:319|181:362,1,75.9999979705811,2|0,3:2|3:2,0:0:0:0:
52,214,29669,2,0,P|109:206|164:190,1,113.999996955872,8|0,0:2|0:0,0:0:0:0:
174,188,29969,6,0,P|194:157|193:114,1,75.9999979705811,2|0,3:2|3:2,0:0:0:0:
154,52,30269,1,8,0:2:0:0:
274,146,30419,2,0,B|335:166|366:104|366:104|304:86,1,151.999995941162,2|0,3:2|3:2,0:0:0:0:
262,232,30869,1,10,0:2:0:0:
338,257,31019,6,0,P|263:268|190:287,1,151.999995941162,0|0,3:2|3:2,0:0:0:0:
66,377,31469,2,0,P|78:340|81:299,1,75.9999979705811,10|0,0:2|0:0,0:0:0:0:
129,235,31769,2,0,P|111:200|84:169,1,75.9999979705811,2|0,3:2|3:2,0:0:0:0:
73,90,32069,2,0,P|36:77|-5:74,1,75.9999979705811,10|0,0:2|0:0,0:0:0:0:
151,2,32369,6,0,P|188:14|229:17,1,75.9999979705811,2|0,3:2|3:2,0:0:0:0:
353,130,32669,1,8,0:2:0:0:
401,61,32819,2,0,P|344:47|267:127,1,151.999995941162,2|0,3:2|3:2,0:0:0:0:
178,230,33269,1,10,0:2:0:0:
265,245,33419,5,8,0:2:0:0:
265,245,33494,1,8,0:2:0:0:
265,245,33569,2,0,L|241:158,1,75.9999979705811,8|8,0:2|0:2,0:0:0:0:
149,79,33869,2,0,L|173:166,1,75.9999979705811,10|8,0:2|0:2,0:0:0:0:
113,274,34169,5,8,0:2:0:0:
36,280,34319,1,8,0:2:0:0:
30,203,34469,1,10,0:2:0:0:
107,197,34619,1,8,0:2:0:0:
169,334,34769,6,0,P|198:342|225:355,1,60.0000022888184,4|0,3:2|3:2,0:0:0:0:
193,257,35069,2,0,P|222:264|249:277,1,60.0000022888184,0|0,3:2|3:2,0:0:0:0:
311,384,35369,5,8,0:2:0:0:
387,361,35519,1,8,0:2:0:0:
434,253,35669,5,8,0:3:0:0:
510,277,35819,1,8,0:3:0:0:
380,195,35969,6,0,P|372:166|359:139,1,60.0000022888184,4|0,3:2|3:2,0:0:0:0:
303,222,36268,2,0,P|295:193|282:166,1,60.0000022888184,0|0,3:2|3:2,0:0:0:0:
411,76,36569,5,8,0:2:0:0:
437,2,36719,1,8,0:2:0:0:
512,28,36869,1,8,0:2:0:0:
487,103,37019,1,8,0:2:0:0:
312,63,37169,6,0,P|284:70|257:83,1,60.0000022888184,4|0,3:2|3:2,0:0:0:0:
282,166,37469,2,0,P|308:152|337:145,1,60.0000022888184,0|0,3:2|3:2,0:0:0:0:
420,251,37769,5,8,0:2:0:0:
343,228,37919,1,0,3:2:0:0:
269,333,38069,5,8,0:3:0:0:
193,357,38219,1,0,3:2:0:0:
75,258,38369,5,8,0:2:0:0:
75,258,39419,6,0,B|110:237|123:184|123:184|167:220|216:214,1,176.000005371094,6|0,3:2|3:2,0:0:0:0:
236,48,39869,2,0,P|204:78|208:134,1,88.000002685547,10|0,0:2|0:0,0:0:0:0:
275,287,40169,1,2,3:2:0:0:
275,287,40319,2,0,P|307:257|303:201,1,88.000002685547,2|8,3:2|0:2,0:0:0:0:
439,85,40619,6,0,B|333:66|333:66|322:106|284:130,1,176.000005371094,6|0,3:2|3:2,0:0:0:0:
149,32,41069,2,0,L|235:47,1,88.000002685547,10|0,0:2|0:0,0:0:0:0:
390,172,41369,1,2,3:2:0:0:
390,172,41519,1,2,3:2:0:0:
275,285,41669,2,0,L|259:198,1,88.000002685547,10|0,0:2|0:0,0:0:0:0:
353,320,41969,6,0,P|289:318|247:367,1,132.00000402832,2|0,3:2|0:0,0:0:0:0:
251,384,42269,2,0,L|164:368,1,88.000002685547,10|0,0:2|0:0,0:0:0:0:
49,266,42569,1,2,3:2:0:0:
49,266,42719,2,0,L|135:281,1,88.000002685547,2|8,3:2|0:2,0:0:0:0:
277,102,43019,6,0,P|213:105|168:216,1,176.000005371094,2|0,0:2|3:2,0:0:0:0:
275,285,43469,2,0,L|259:198,1,88.000002685547,10|0,0:2|0:0,0:0:0:0:
364,41,43769,1,2,3:2:0:0:
364,41,43919,2,0,L|379:127,1,88.000002685547,2|8,3:2|0:2,0:0:0:0:
512,271,44219,6,0,B|464:217|397:260|397:260|424:278|431:307,1,176.000005371094,6|0,3:2|3:2,0:0:0:0:
268,375,44669,2,0,P|311:372|343:344,1,88.000002685547,10|0,0:2|0:0,0:0:0:0:
211,235,44969,1,2,3:2:0:0:
211,235,45119,2,0,P|234:271|275:284,1,88.000002685547,2|8,3:2|0:2,0:0:0:0:
447,204,45419,6,0,L|485:23,1,176.000005371094,6|0,3:2|3:2,0:0:0:0:
369,146,45869,2,0,L|388:53,1,88.000002685547,10|0,0:2|0:0,0:0:0:0:
215,0,46169,2,0,L|234:92,1,88.000002685547,2|0,3:2|3:2,0:0:0:0:
305,27,46469,1,10,0:2:0:0:
305,27,46619,1,2,0:2:0:0:
160,145,46769,6,0,L|19:114,1,132.00000402832,2|0,3:2|0:0,0:0:0:0:
23,106,47069,2,0,L|42:14,1,88.000002685547,10|0,0:2|0:0,0:0:0:0:
76,218,47369,1,2,3:2:0:0:
76,218,47519,2,0,L|57:310,1,88.000002685547,2|8,3:2|0:2,0:0:0:0:
226,384,47819,6,0,B|242:317|202:299|192:304|165:273|185:210,1,176.000005371094,2|0,0:2|3:2,0:0:0:0:
343,109,48269,2,0,B|280:76|238:145|238:145|265:164|273:197,1,176.000005371094,8|0,0:2|3:2,0:0:0:0:
387,299,48719,5,8,0:2:0:0:
452,231,48869,1,10,0:3:0:0:
361,208,49019,1,6,0:3:0:0:
361,208,49094,1,4,0:3:0:0:
361,208,49169,6,0,L|182:253,1,176.000005371094,6|8,3:2|0:2,0:0:0:0:
70,364,49619,1,2,0:2:0:0:
70,364,49769,2,0,L|155:342,1,88.000002685547,0|0,3:2|3:2,0:0:0:0:
113,200,50069,2,0,L|28:222,1,88.000002685547,8|0,0:2|0:0,0:0:0:0:
190,250,50369,6,0,P|212:208|200:160,1,88.000002685547,0|0,3:2|3:2,0:0:0:0:
94,16,50669,2,0,P|43:53|64:118,1,132.00000402832,10|0,0:2|0:0,0:0:0:0:
69,120,50969,2,0,L|154:98,1,88.000002685547,2|0,3:2|3:2,0:0:0:0:
276,0,51269,2,0,L|413:35,1,132.00000402832,10|0,0:2|0:0,0:0:0:0:
416,25,51569,6,0,B|478:62|439:130|439:130|412:115|371:120,1,176.000005371094,2|8,3:2|0:2,0:0:0:0:
360,284,52019,1,2,0:2:0:0:
360,284,52169,2,0,P|398:247|389:201,1,88.000002685547,0|0,3:2|3:2,0:0:0:0:
170,146,52469,6,0,P|204:206|328:185,1,176.000005371094,10|0,0:2|3:2,0:0:0:0:
203,59,52919,1,0,3:2:0:0:
203,59,53069,2,0,P|151:44|116:75,1,88.000002685547,10|0,0:2|0:0,0:0:0:0:
263,131,53369,2,0,P|301:94|292:48,1,88.000002685547,2|0,3:2|3:2,0:0:0:0:
170,146,53669,2,0,L|197:257,1,88.000002685547,10|0,0:2|0:0,0:0:0:0:
346,339,53969,5,10,0:2:0:0:
371,254,54119,1,2,3:2:0:0:
261,314,54269,1,10,0:2:0:0:
286,229,54419,1,2,3:2:0:0:
355,351,54569,2,0,L|457:327,1,88.000002685547,10|0,0:2|3:2,0:0:0:0:
441,191,54869,5,10,0:2:0:0:
356,166,55019,1,2,3:2:0:0:
466,106,55169,1,10,0:2:0:0:
381,81,55319,1,2,3:2:0:0:
491,21,55469,2,0,L|389:-3,1,88.000002685547,10|0,0:2|3:2,0:0:0:0:
205,30,55769,5,10,0:2:0:0:
180,115,55919,1,2,3:2:0:0:
290,55,56069,1,10,0:2:0:0:
265,140,56219,1,2,3:2:0:0:
196,18,56369,2,0,L|94:42,1,88.000002685547,10|0,0:2|3:2,0:0:0:0:
110,178,56669,5,10,0:2:0:0:
195,203,56819,1,2,3:2:0:0:
85,263,56969,1,10,0:2:0:0:
170,288,57119,1,2,3:2:0:0:
60,348,57269,2,0,L|162:372,1,88.000002685547,10|0,0:2|3:2,0:0:0:0:
280,228,57569,5,2,3:2:0:0:
170,288,57719,1,8,0:2:0:0:
277,354,57869,1,8,0:2:0:0:
277,354,58019,1,0,3:2:0:0:
195,203,58169,5,8,0:2:0:0:
146,368,58319,1,0,3:2:0:0:
336,297,58469,2,0,P|400:297|430:363,1,132.00000402832,8|0,0:2|0:0,0:0:0:0:
426,361,58769,6,0,L|383:374,2,30.0000011444092,10|8|8,0:2|0:2|0:2,0:0:0:0:
484,296,59069,2,0,L|527:309,2,30.0000011444092,10|8|8,0:2|0:2|0:2,0:0:0:0:
424,220,59369,2,0,L|444:153,1,60.0000022888184,2|8,3:2|0:2,0:0:0:0:
495,21,59669,1,10,0:2:0:0:
499,35,59744,1,8,0:2:0:0:
503,49,59819,1,8,0:2:0:0:
508,64,59894,1,8,0:2:0:0:
512,78,59969,6,0,L|478:88,2,30.0000011444092,10|8|8,0:2|0:2|0:2,0:0:0:0:
441,162,60269,2,0,L|407:151,2,30.0000011444092,10|8|8,0:2|0:2|0:2,0:0:0:0:
377,66,60569,5,10,0:2:0:0:
358,70,60644,1,8,0:2:0:0:
342,80,60719,1,8,0:2:0:0:
329,93,60794,1,8,0:2:0:0:
319,109,60869,1,10,0:2:0:0:
314,127,60944,1,8,0:2:0:0:
313,145,61019,1,8,0:2:0:0:
318,163,61094,1,8,0:2:0:0:
326,180,61169,5,6,3:2:0:0:
393,243,61469,1,0,3:2:0:0:
371,332,61769,1,0,3:2:0:0:
282,358,62069,1,0,3:2:0:0:
128,320,62369,5,0,3:2:0:0:
149,230,62669,1,0,3:2:0:0:
237,205,62969,1,0,3:2:0:0:
304,269,63269,1,0,3:2:0:0:
194,383,63569,5,0,3:2:0:0:
216,294,63869,1,0,3:2:0:0:
149,230,64169,1,0,3:2:0:0:
171,141,64469,1,0,3:2:0:0:
313,73,64769,6,0,L|320:35,1,35.9999989013672,2|0,3:2|0:0,0:0:0:0:
333,34,65069,6,0,L|324:81,1,48,2|0,3:2|0:0,0:0:0:0:
336,89,65369,6,0,L|348:18,1,60,2|0,3:2|0:0,0:0:0:0:
359,27,65669,6,0,L|346:97,1,71.9999978027344,2|0,3:2|0:0,0:0:0:0:
409,149,65969,6,0,P|365:145|322:190,1,90.0000034332277,2|0,3:2|0:0,0:0:0:0:
320,177,66269,2,0,P|316:221|361:264,1,90.0000034332277,0|0,3:2|0:0,0:0:0:0:
348,266,66569,2,0,P|392:270|435:225,1,90.0000034332277,0|0,3:2|0:0,0:0:0:0:
437,238,66869,2,0,P|440:194|396:151,1,90.0000034332277,0|0,3:2|0:0,0:0:0:0:
409,149,67169,6,0,L|433:44,1,90.0000034332277,0|0,3:2|0:0,0:0:0:0:
424,50,67469,2,0,L|319:26,1,90.0000034332277,0|0,3:2|0:0,0:0:0:0:
325,37,67769,2,0,L|301:142,1,90.0000034332277,0|0,3:2|0:0,0:0:0:0:
297,132,68069,2,0,L|209:111,1,90.0000034332277,0|0,3:2|0:0,0:0:0:0:
171,44,68369,6,0,B|140:36|124:18|124:18|139:37|149:77,1,102.000001945496,2|0,3:2|0:0,0:0:0:0:
134,71,68669,2,0,B|103:79|80:71|80:71|102:80|131:110,1,102.000001945496,0|0,3:2|0:0,0:0:0:0:
115,112,68969,2,0,B|92:134|68:139|68:139|92:136|132:147,1,102.000001945496,0|0,3:2|0:0,0:0:0:0:
119,157,69269,2,0,B|111:188|93:204|93:204|112:189|151:179,1,102.000001945496,0|0,3:2|0:0,0:0:0:0:
150,185,69569,6,0,B|200:197|200:197|202:262,1,102.000001945496,0|0,3:2|0:0,0:0:0:0:
211,255,69869,2,0,B|211:304|211:304|262:317,1,102.000001945496,0|0,3:2|0:0,0:0:0:0:
270,333,70169,6,0,L|364:307,1,58.6666684570313,8|0,0:2|0:0,0:0:0:0:
393,363,70369,6,0,L|323:294,1,58.6666684570313,8|0,0:2|0:0,0:0:0:0:
358,241,70569,6,0,L|333:335,1,58.6666684570313,8|0,0:2|0:0,0:0:0:0:
363,107,70769,6,0,P|393:138|389:181,1,75.9999979705811,6|0,3:2|3:2,0:0:0:0:
358,241,71069,1,8,0:2:0:0:
277,149,71219,2,0,L|307:-7,1,151.999995941162,2|0,3:2|3:2,0:0:0:0:
509,47,71669,1,10,0:2:0:0:
469,113,71819,6,0,L|499:269,1,151.999995941162,0|0,3:2|3:2,0:0:0:0:
385,348,72269,2,0,P|347:350|315:331,1,75.9999979705811,10|0,0:2|0:0,0:0:0:0:
248,384,72569,2,0,P|227:352|227:315,1,75.9999979705811,2|0,3:2|3:2,0:0:0:0:
148,283,72869,2,0,P|164:249|197:230,1,75.9999979705811,10|0,0:2|0:0,0:0:0:0:
298,176,73169,6,0,L|275:278,1,75.9999979705811,2|0,3:2|3:2,0:0:0:0:
315,331,73469,1,8,0:2:0:0:
381,173,73619,2,0,L|340:-6,1,151.999995941162,2|0,3:2|3:2,0:0:0:0:
231,130,74069,1,10,0:2:0:0:
172,76,74219,6,0,P|99:69|51:124,1,151.999995941162,0|0,3:2|3:2,0:0:0:0:
144,301,74669,2,0,L|172:183,1,113.999996955872,10|0,0:2|0:0,0:0:0:0:
163,180,74969,2,0,L|69:203,1,75.9999979705811,2|0,3:2|3:2,0:0:0:0:
243,265,75269,2,0,L|366:295,1,113.999996955872,8|0,0:2|0:0,0:0:0:0:
361,287,75569,6,0,P|372:241|348:211,1,75.9999979705811,2|0,3:2|3:2,0:0:0:0:
284,182,75869,1,8,0:2:0:0:
230,348,76019,2,0,L|82:384,1,151.999995941162,2|0,3:2|3:2,0:0:0:0:
0,245,76469,1,10,0:2:0:0:
76,272,76619,6,0,P|144:247|156:175,1,151.999995941162,0|0,3:2|3:2,0:0:0:0:
21,0,77069,2,0,P|16:37|6:74,1,75.9999979705811,10|0,0:2|0:0,0:0:0:0:
0,161,77369,2,0,P|34:146|71:136,1,75.9999979705811,2|0,3:2|3:2,0:0:0:0:
152,94,77669,2,0,P|121:71|94:44,1,75.9999979705811,10|2,0:2|0:2,0:0:0:0:
16,245,77969,6,0,P|51:232|88:224,1,75.9999979705811,2|0,3:2|3:2,0:0:0:0:
156,175,78269,1,8,0:2:0:0:
229,318,78419,2,0,P|302:335|374:361,1,151.999995941162,2|0,3:2|3:2,0:0:0:0:
504,253,78869,1,10,0:2:0:0:
459,384,79019,5,8,0:2:0:0:
459,384,79094,1,8,0:2:0:0:
459,384,79169,2,0,L|441:297,1,75.9999979705811,8|8,0:2|0:2,0:0:0:0:
355,194,79469,2,0,L|371:269,1,75.9999979705811,10|8,0:2|0:2,0:0:0:0:
491,154,79769,5,10,0:2:0:0:
512,76,79919,1,8,0:2:0:0:
434,55,80069,1,10,0:2:0:0:
413,133,80219,1,8,0:2:0:0:
299,93,80369,6,0,P|326:81|355:74,1,60.0000022888184,4|0,3:2|3:2,0:0:0:0:
277,18,80669,2,0,P|304:6|333:0,1,60.0000022888184,0|0,3:2|3:2,0:0:0:0:
413,133,80969,5,8,0:2:0:0:
387,208,81119,1,8,0:2:0:0:
476,286,81269,5,8,0:3:0:0:
450,361,81419,1,8,0:3:0:0:
326,285,81569,6,0,P|296:291|269:303,1,60.0000022888184,4|0,3:2|3:2,0:0:0:0:
348,359,81869,2,0,P|318:365|291:377,1,60.0000022888184,0|0,3:2|3:2,0:0:0:0:
194,287,82169,5,8,0:2:0:0:
121,309,82319,1,8,0:2:0:0:
143,382,82469,1,8,0:2:0:0:
216,360,82619,1,8,0:2:0:0:
251,227,82769,6,0,P|257:197|269:170,1,60.0000022888184,4|0,3:2|3:2,0:0:0:0:
177,205,83069,2,0,P|183:175|195:148,1,60.0000022888184,0|0,3:2|3:2,0:0:0:0:
334,118,83369,5,8,0:2:0:0:
409,147,83519,1,0,3:2:0:0:
476,29,83669,5,8,0:3:0:0:
401,58,83819,1,0,3:2:0:0:
484,194,83969,5,8,0:2:0:0:
484,194,85019,6,0,P|461:279|444:365,1,176.000005371094,6|0,3:2|3:2,0:0:0:0:
388,215,85469,2,0,P|376:257|368:300,1,88.000002685547,10|0,0:2|0:0,0:0:0:0:
222,356,85769,1,2,3:2:0:0:
222,356,85919,2,0,P|265:364|307:375,1,88.000002685547,2|8,3:2|0:2,0:0:0:0:
161,292,86219,6,0,B|89:254|48:328|48:328|99:375,1,176.000005371094,6|0,3:2|3:2,0:0:0:0:
241,274,86669,2,0,L|262:178,1,88.000002685547,10|0,0:2|0:0,0:0:0:0:
187,50,86969,1,2,3:2:0:0:
187,50,87119,1,2,3:2:0:0:
112,151,87269,2,0,L|208:130,1,88.000002685547,10|0,0:2|0:0,0:0:0:0:
393,52,87569,6,0,P|355:19|266:43,1,132.00000402832,2|0,3:2|0:0,0:0:0:0:
268,26,87869,2,0,L|289:122,1,88.000002685547,10|0,0:2|0:0,0:0:0:0:
390,225,88169,1,2,3:2:0:0:
390,225,88319,2,0,L|369:129,1,88.000002685547,2|8,3:2|0:2,0:0:0:0:
187,50,88619,6,0,L|3:90,1,176.000005371094,2|0,0:2|3:2,0:0:0:0:
104,233,89069,2,0,L|123:141,1,88.000002685547,10|0,0:2|0:0,0:0:0:0:
43,297,89369,1,2,3:2:0:0:
43,297,89519,2,0,P|77:323|120:321,1,88.000002685547,2|8,3:2|0:2,0:0:0:0:
272,181,89819,6,0,P|205:213|208:315,1,176.000005371094,6|0,3:2|3:2,0:0:0:0:
310,364,90269,2,0,L|288:264,1,88.000002685547,10|0,0:2|0:0,0:0:0:0:
345,111,90569,1,2,3:2:0:0:
345,111,90719,2,0,L|367:211,1,88.000002685547,2|8,3:2|0:2,0:0:0:0:
257,73,91019,6,0,P|319:14|403:36,1,176.000005371094,6|0,3:2|3:2,0:0:0:0:
266,162,91469,2,0,P|218:156|183:118,1,88.000002685547,10|0,0:2|0:0,0:0:0:0:
45,57,91769,1,2,3:2:0:0:
45,57,91919,1,0,3:2:0:0:
143,0,92069,2,0,L|118:108,1,88.000002685547,10|0,0:2|0:0,0:0:0:0:
29,280,92369,6,0,L|-1:150,1,132.00000402832,2|0,3:2|0:0,0:0:0:0:
8,142,92669,2,0,L|93:161,1,88.000002685547,10|0,0:2|0:0,0:0:0:0:
217,52,92969,1,2,3:2:0:0:
217,52,93119,2,0,L|302:71,1,88.000002685547,2|8,3:2|0:2,0:0:0:0:
485,112,93419,6,0,B|414:77|367:142|367:142|388:159|393:183,1,176.000005371094,2|0,0:2|3:2,0:0:0:0:
195,181,93869,2,0,B|265:146|312:211|312:211|291:228|286:252,1,176.000005371094,8|0,0:2|3:2,0:0:0:0:
390,369,94319,5,8,0:2:0:0:
305,340,94469,1,10,0:3:0:0:
373,281,94619,1,4,0:3:0:0:
373,281,94694,1,4,0:3:0:0:
373,281,94769,6,0,L|196:318,1,176.000005371094,6|8,3:2|0:2,0:0:0:0:
87,184,95219,1,2,0:2:0:0:
87,184,95369,2,0,P|124:162|167:167,1,88.000002685547,0|0,3:2|3:2,0:0:0:0:
112,329,95669,2,0,P|111:285|138:251,1,88.000002685547,8|0,0:2|0:0,0:0:0:0:
206,79,95969,6,0,P|243:100|260:140,1,88.000002685547,0|0,3:2|3:2,0:0:0:0:
367,317,96269,2,0,P|319:311|264:385,1,132.00000402832,10|0,0:2|0:0,0:0:0:0:
255,378,96569,2,0,P|217:356|200:316,1,88.000002685547,2|0,3:2|3:2,0:0:0:0:
331,212,96869,2,0,L|476:242,1,132.00000402832,10|0,0:2|0:0,0:0:0:0:
466,250,97169,6,0,B|486:212|530:197|530:197|492:160|488:103,1,176.000005371094,2|8,3:2|0:2,0:0:0:0:
382,0,97619,1,2,0:2:0:0:
382,0,97769,2,0,L|408:116,1,88.000002685547,0|0,3:2|3:2,0:0:0:0:
241,213,98069,6,0,B|135:194|135:194|124:234|86:258,1,176.000005371094,10|0,0:2|3:2,0:0:0:0:
158,384,98519,1,0,3:2:0:0:
158,384,98669,2,0,L|181:293,1,88.000002685547,10|0,0:2|0:0,0:0:0:0:
21,185,98969,2,0,L|0:270,1,88.000002685547,2|0,3:2|3:2,0:0:0:0:
76,335,99269,2,0,L|99:244,1,88.000002685547,10|0,0:2|0:0,0:0:0:0:
232,128,99569,5,10,0:2:0:0:
312,100,99719,1,2,3:2:0:0:
204,48,99869,1,10,0:2:0:0:
284,20,100019,1,2,3:2:0:0:
229,138,100169,2,0,L|140:119,1,88.000002685547,10|0,0:2|3:2,0:0:0:0:
15,272,100469,5,10,0:2:0:0:
38,354,100619,1,2,3:2:0:0:
97,249,100769,1,10,0:2:0:0:
120,331,100919,1,2,3:2:0:0:
179,226,101069,2,0,L|209:329,1,88.000002685547,10|0,0:2|3:2,0:0:0:0:
368,235,101369,5,10,0:2:0:0:
448,263,101519,1,2,3:2:0:0:
340,315,101669,1,10,0:2:0:0:
420,343,101819,1,2,3:2:0:0:
365,225,101969,2,0,L|276:244,1,88.000002685547,10|0,0:2|3:2,0:0:0:0:
141,100,102269,5,10,0:2:0:0:
164,18,102419,1,2,3:2:0:0:
223,123,102569,1,10,0:2:0:0:
246,41,102719,1,2,3:2:0:0:
305,146,102869,2,0,L|335:43,1,88.000002685547,10|8,0:2|0:2,0:0:0:0:
378,0,103169,5,2,3:2:0:0:
512,58,103319,1,8,0:2:0:0:
395,146,103469,1,8,0:2:0:0:
395,146,103619,1,0,3:2:0:0:
429,68,103769,5,8,0:2:0:0:
446,214,103919,1,0,3:2:0:0:
305,146,104069,2,0,L|217:168,1,88.000002685547,8|8,0:2|0:2,0:0:0:0:
166,315,104369,5,4,3:2:0:0:
299,338,108869,6,0,L|318:251,1,75.9999979705811,0|0,3:2|3:2,0:0:0:0:
256,192,109169,1,12,0:2:0:0:
256,192,112769,6,0,B|169:224|120:163|143:146|76:102|-3:144,1,263.99999194336,4|0,3:2|0:0,0:0:0:0:
3,148,113669,5,8,0:2:0:0:
210,115,113969,5,0,3:2:0:0:
210,115,114119,1,0,3:2:0:0:
155,181,114269,2,0,P|166:210|178:264,1,68.0000012969971,2|2,3:2|0:2,0:0:0:0:
219,349,114569,5,8,0:2:0:0:
219,349,114719,1,0,3:2:0:0:
285,294,114869,2,0,P|314:305|368:317,1,68.0000012969971,2|2,3:2|0:2,0:0:0:0:
457,379,115169,5,0,3:2:0:0:
457,379,115319,1,0,3:2:0:0:
512,313,115469,2,0,P|501:284|489:230,1,68.0000012969971,2|2,3:2|0:2,0:0:0:0:
448,145,115769,5,8,0:2:0:0:
448,145,115919,1,0,3:2:0:0:
382,200,116069,2,0,P|353:189|299:177,1,68.0000012969971,2|2,3:2|0:2,0:0:0:0:
210,115,116369,5,0,3:2:0:0:
210,115,116519,1,0,3:2:0:0:
290,101,116669,1,0,3:2:0:0:
239,193,116819,2,0,P|226:224|218:257,1,68.0000012969971,2|8,0:2|0:2,0:0:0:0:
153,318,117119,2,0,P|145:284|132:253,1,68.0000012969971,2|0,3:2|3:2,0:0:0:0:
74,202,117419,1,2,0:2:0:0:
134,71,117569,5,0,3:2:0:0:
134,71,117719,1,0,3:2:0:0:
65,114,117869,1,0,3:2:0:0:
146,162,118019,2,0,P|177:149|210:141,1,68.0000012969971,2|8,0:2|0:2,0:0:0:0:
284,74,118319,1,2,3:2:0:0:
284,74,118469,2,0,P|250:66|219:53,1,68.0000012969971,2|0,3:2|0:0,0:0:0:0:
109,0,118769,5,0,3:2:0:0:
109,0,118919,1,0,3:2:0:0:
44,49,119069,2,0,P|56:80|64:113,1,68.0000012969971,2|2,3:2|0:2,0:0:0:0:
215,145,119369,5,8,0:2:0:0:
215,145,119519,1,0,3:2:0:0:
166,210,119669,2,0,P|134:197|101:189,1,68.0000012969971,2|2,3:2|0:2,0:0:0:0:
0,281,119969,5,0,3:2:0:0:
0,281,120119,1,0,3:2:0:0:
49,346,120269,2,0,P|80:333|113:325,1,68.0000012969971,2|2,3:2|0:2,0:0:0:0:
235,271,120569,5,8,0:2:0:0:
235,271,120719,1,0,3:2:0:0:
300,320,120869,2,0,P|287:351|279:384,1,68.0000012969971,2|2,3:2|0:2,0:0:0:0:
381,291,121169,5,0,3:2:0:0:
381,291,121319,1,0,3:2:0:0:
312,242,121469,1,0,3:2:0:0:
350,167,121619,2,0,P|337:136|329:103,1,68.0000012969971,2|8,0:2|0:2,0:0:0:0:
260,56,121919,2,0,P|247:87|239:120,1,68.0000012969971,2|0,3:2|3:2,0:0:0:0:
181,180,122219,1,2,0:2:0:0:
76,121,122369,5,0,3:2:0:0:
76,121,122519,1,0,3:2:0:0:
156,100,122669,1,0,3:2:0:0:
106,207,122819,5,10,0:2:0:0:
106,207,122894,1,8,0:2:0:0:
106,207,122969,1,8,0:2:0:0:
239,120,123119,1,8,0:2:0:0:
248,278,123269,2,0,P|210:290|175:306,1,77.9999964294435,10|0,0:3|0:0,0:0:0:0:
164,322,123569,6,0,P|120:328|86:296,1,75.9999979705811,6|2,3:2|0:2,0:0:0:0:
35,257,123869,1,2,3:2:0:0:
160,147,124019,2,0,L|121:-5,1,151.999995941162,10|0,0:2|0:0,0:0:0:0:
0,140,124469,6,0,L|96:163,1,75.9999979705811,10|2,0:2|0:2,0:0:0:0:
122,225,124769,1,2,3:2:0:0:
239,120,124919,2,0,L|386:157,1,151.999995941162,10|0,0:2|3:2,0:0:0:0:
486,244,125369,5,14,0:2:0:0:
486,244,125519,1,0,3:2:0:0:
432,310,125669,2,0,P|443:346|451:383,1,75.9999979705811,10|0,0:3|0:0,0:0:0:0:
355,262,125969,6,0,P|318:273|281:281,1,75.9999979705811,2|0,3:2|3:2,0:0:0:0:
163,384,126269,1,0,3:2:0:0:
163,384,126419,2,0,P|199:372|236:364,1,75.9999979705811,14|0,0:2|3:2,0:0:0:0:
230,211,126719,5,2,0:2:0:0:
230,211,126794,1,2,0:2:0:0:
230,211,126869,2,0,P|156:235|81:251,1,151.999995941162,10|0,0:2|3:2,0:0:0:0:
0,360,127319,1,8,0:2:0:0:
0,360,127469,2,0,P|36:347|74:339,1,75.9999979705811,0|0,3:2|0:0,0:0:0:0:
143,190,127769,6,0,P|113:164|95:139,1,50.6666653137207,10|0,0:2|0:0,0:0:0:0:
112,77,127969,6,0,P|104:115|91:143,1,50.6666653137207,10|0,0:2|0:0,0:0:0:0:
28,161,128169,6,0,P|65:148|96:144,1,50.6666653137207,10|0,0:2|0:0,0:0:0:0:
214,104,128369,5,10,0:2:0:0:
214,104,128519,2,0,P|259:100|296:128,1,75.9999979705811,2|8,3:2|0:3,0:0:0:0:
267,257,128819,1,2,3:2:0:0:
267,257,128969,2,0,P|241:220|246:173,1,75.9999979705811,4|0,0:3|0:0,0:0:0:0:
374,135,129269,5,10,0:2:0:0:
374,135,129419,2,0,P|354:175|312:194,1,75.9999979705811,2|8,3:2|0:3,0:0:0:0:
294,341,129719,1,2,3:2:0:0:
294,341,129869,2,0,P|249:345|211:317,1,75.9999979705811,4|0,0:3|0:0,0:0:0:0:
93,266,130169,5,2,3:2:0:0:
93,266,130319,1,0,3:2:0:0:
190,197,130469,2,0,P|179:233|171:270,1,75.9999979705811,6|0,0:3|3:2,0:0:0:0:
8,384,130769,6,0,P|19:348|27:311,1,75.9999979705811,14|0,0:2|3:2,0:0:0:0:
54,189,131069,1,0,3:2:0:0:
93,266,131219,1,12,0:2:0:0:
128,142,131369,2,0,P|117:106|109:69,1,75.9999979705811,0|0,3:2|3:2,0:0:0:0:
190,197,131669,6,0,P|179:233|171:270,1,75.9999979705811,12|0,0:2|3:2,0:0:0:0:
243,376,131969,1,0,3:2:0:0:
283,303,132119,1,12,0:2:0:0:
386,357,132269,2,0,P|422:346|459:338,1,75.9999979705811,2|0,3:2|3:2,0:0:0:0:
389,186,132569,5,14,0:2:0:0:
365,275,132719,1,2,3:2:0:0:
455,252,132869,1,8,0:2:0:0:
323,120,133019,6,0,B|284:69|221:98|221:98|217:144|169:174,1,176.000005371094,6|0,3:2|3:2,0:0:0:0:
42,110,133469,2,0,L|128:92,1,88.000002685547,10|0,0:2|0:0,0:0:0:0:
262,236,133769,1,2,3:2:0:0:
262,236,133919,2,0,L|175:253,1,88.000002685547,2|8,3:2|0:2,0:0:0:0:
239,75,134219,6,0,P|287:29|392:59,1,176.000005371094,6|0,3:2|3:2,0:0:0:0:
512,0,134669,2,0,L|495:87,1,88.000002685547,10|0,0:2|0:0,0:0:0:0:
369,195,134969,1,2,3:2:0:0:
369,195,135119,1,0,3:2:0:0:
472,265,135269,2,0,L|455:178,1,88.000002685547,10|0,0:2|0:0,0:0:0:0:
249,264,135569,6,0,L|383:290,1,132.00000402832,2|0,3:2|0:0,0:0:0:0:
391,286,135869,2,0,L|374:373,1,88.000002685547,10|0,0:2|0:0,0:0:0:0:
276,182,136169,1,2,3:2:0:0:
276,182,136319,2,0,L|293:95,1,88.000002685547,2|8,3:2|0:2,0:0:0:0:
507,1,136619,6,0,P|463:51|355:32,1,176.000005371094,2|0,0:2|3:2,0:0:0:0:
185,25,137069,2,0,L|272:8,1,88.000002685547,10|0,0:2|0:0,0:0:0:0:
362,165,137369,1,2,3:2:0:0:
362,165,137519,2,0,L|275:182,1,88.000002685547,2|8,3:2|0:2,0:0:0:0:
106,78,137819,6,0,P|44:114|50:219,1,176.000005371094,6|0,3:2|3:2,0:0:0:0:
162,356,138269,2,0,P|190:324|185:267,1,88.000002685547,10|0,0:2|0:0,0:0:0:0:
18,305,138569,1,2,3:2:0:0:
18,305,138719,2,0,P|59:313|106:280,1,88.000002685547,2|8,3:2|0:2,0:0:0:0:
276,182,139019,6,0,P|344:173|405:274,1,176.000005371094,6|0,3:2|3:2,0:0:0:0:
297,355,139469,2,0,L|319:265,1,88.000002685547,10|0,0:2|0:0,0:0:0:0:
187,160,139769,1,2,3:2:0:0:
187,160,139919,1,0,3:2:0:0:
297,97,140069,2,0,L|275:187,1,88.000002685547,10|0,0:2|0:0,0:0:0:0:
164,384,140369,6,0,P|123:353|129:262,1,132.00000402832,2|0,3:2|0:0,0:0:0:0:
130,266,140669,2,0,L|215:286,1,88.000002685547,10|0,0:2|0:0,0:0:0:0:
347,382,140969,1,2,3:2:0:0:
347,382,141119,2,0,L|432:361,1,88.000002685547,2|8,3:2|0:2,0:0:0:0:
512,184,141419,6,0,B|474:125|404:160|404:160|417:192|414:227,1,176.000005371094,2|0,0:2|3:2,0:0:0:0:
305,294,141869,2,0,L|328:193,1,88.000002685547,8|0,0:2|0:0,0:0:0:0:
414,68,142169,1,8,0:2:0:0:
411,57,142244,1,8,0:2:0:0:
409,46,142319,1,8,0:2:0:0:
406,35,142394,1,8,0:2:0:0:
404,25,142469,2,0,L|361:15,3,44.0000013427735,10|8|8|8,0:3|0:3|0:3|0:3,0:0:0:0:
346,28,142769,6,0,B|280:45|280:45|260:84|260:84|179:104,1,176.000005371094,6|8,3:2|0:2,0:0:0:0:
5,81,143219,1,2,0:2:0:0:
5,81,143369,2,0,P|17:34|75:12,1,88.000002685547,0|0,3:2|3:2,0:0:0:0:
138,170,143669,2,0,P|104:136|114:75,1,88.000002685547,8|0,0:2|0:0,0:0:0:0:
346,28,143969,6,0,L|319:135,1,88.000002685547,0|0,3:2|3:2,0:0:0:0:
207,253,144269,2,0,P|248:211|323:223,1,132.00000402832,10|0,0:2|0:0,0:0:0:0:
330,210,144569,2,0,L|357:317,1,88.000002685547,2|0,3:2|3:2,0:0:0:0:
181,384,144869,2,0,L|48:350,1,132.00000402832,10|0,0:2|0:0,0:0:0:0:
41,342,145169,6,0,B|17:284|47:256|59:261|90:224|54:161,1,176.000005371094,2|8,3:2|0:2,0:0:0:0:
70,13,145619,1,2,0:2:0:0:
70,13,145769,2,0,P|41:50|51:105,1,88.000002685547,0|0,3:2|3:2,0:0:0:0:
276,127,146069,6,0,P|218:65|134:79,1,176.000005371094,10|0,0:2|3:2,0:0:0:0:
171,239,146519,1,0,3:2:0:0:
171,239,146669,2,0,L|195:141,1,88.000002685547,10|0,0:2|0:0,0:0:0:0:
76,249,146969,2,0,L|100:151,1,88.000002685547,2|0,3:2|3:2,0:0:0:0:
258,294,147269,2,0,L|282:196,1,88.000002685547,10|0,0:2|0:0,0:0:0:0:
342,58,147569,5,10,0:2:0:0:
372,139,147719,1,2,3:2:0:0:
423,28,147869,1,10,0:2:0:0:
453,109,148019,1,2,3:2:0:0:
331,56,148169,2,0,L|229:84,1,88.000002685547,10|0,0:2|3:2,0:0:0:0:
124,157,148469,5,10,0:2:0:0:
94,238,148619,1,2,3:2:0:0:
43,127,148769,1,10,0:2:0:0:
13,208,148919,1,2,3:2:0:0:
135,155,149069,2,0,L|237:183,1,88.000002685547,10|0,0:2|3:2,0:0:0:0:
392,204,149369,5,10,0:2:0:0:
422,285,149519,1,2,3:2:0:0:
473,174,149669,1,10,0:2:0:0:
503,255,149819,1,2,3:2:0:0:
381,202,149969,2,0,L|279:230,1,88.000002685547,10|0,0:2|3:2,0:0:0:0:
174,303,150269,5,10,0:2:0:0:
144,384,150419,1,2,3:2:0:0:
93,273,150569,1,10,0:2:0:0:
63,354,150719,1,2,3:2:0:0:
185,301,150869,2,0,L|287:329,1,88.000002685547,10|8,0:2|0:2,0:0:0:0:
458,290,151169,5,2,3:2:0:0:
345,384,151319,1,8,0:2:0:0:
320,239,151469,1,8,0:2:0:0:
320,239,151619,1,0,3:2:0:0:
375,304,151769,5,8,0:2:0:0:
350,159,151919,1,0,3:2:0:0:
237,254,152069,2,0,L|118:229,1,88.000002685547,8|8,0:2|0:2,0:0:0:0:
26,72,152369,5,6,3:2:0:0:
97,35,152519,2,0,L|183:53,1,75.9999979705811,2|8,3:2|0:2,0:0:0:0:
273,141,152819,5,2,3:2:0:0:
324,82,152969,1,8,0:2:0:0:
298,8,153119,1,0,3:2:0:0:
196,126,153269,6,0,L|110:144,2,75.9999979705811,4|4|4,0:3|0:3|0:3,0:0:0:0:
350,156,153719,6,0,L|315:320,1,151.999995941162,6|0,3:2|3:2,0:0:0:0:
254,351,154169,2,0,L|179:335,1,75.9999979705811,10|0,0:2|3:2,0:0:0:0:
135,274,154469,1,10,0:2:0:0:
135,274,154619,1,8,0:2:0:0:
37,384,154769,5,6,3:2:0:0:
0,313,154919,2,0,L|18:227,1,75.9999979705811,2|8,3:2|0:2,0:0:0:0:
134,133,155219,5,2,3:2:0:0:
75,186,155369,1,8,0:2:0:0:
0,161,155519,1,0,3:2:0:0:
118,56,155669,6,0,L|204:38,2,75.9999979705811,4|4|4,0:3|0:3|0:3,0:0:0:0:
283,102,156119,6,0,L|134:133,1,151.999995941162,6|0,3:2|3:2,0:0:0:0:
75,186,156569,2,0,L|90:260,1,75.9999979705811,10|0,0:2|3:2,0:0:0:0:
156,307,156869,1,10,0:2:0:0:
156,307,157019,1,8,0:2:0:0:
250,194,157169,6,0,L|324:209,1,75.9999979705811,6|0,3:2|3:2,0:0:0:0:
233,276,157469,2,0,L|307:291,1,75.9999979705811,8|0,0:2|3:2,0:0:0:0:
449,324,157769,5,10,0:2:0:0:
374,351,157919,1,0,3:2:0:0:
463,238,158069,5,8,0:2:0:0:
388,265,158219,1,0,3:2:0:0:
233,112,158369,6,0,L|158:127,1,75.9999979705811,10|0,0:2|3:2,0:0:0:0:
250,194,158669,2,0,L|175:209,1,75.9999979705811,8|0,0:2|3:2,0:0:0:0:
34,242,158969,5,10,0:2:0:0:
109,269,159119,1,0,3:2:0:0:
20,156,159269,5,8,0:2:0:0:
95,183,159419,1,0,3:2:0:0:
145,42,159569,5,8,0:2:0:0:
145,42,159719,1,2,3:2:0:0:
159,128,159869,1,10,0:2:0:0:
81,97,160019,1,2,3:2:0:0:
223,73,160169,5,8,0:2:0:0:
223,73,160319,1,2,3:2:0:0:
303,101,160469,1,10,0:2:0:0:
235,156,160619,1,2,3:2:0:0:
398,220,160769,5,8,0:2:0:0:
398,220,160919,1,2,3:2:0:0:
383,137,161069,1,10,0:3:0:0:
318,194,161219,1,6,0:3:0:0:
318,194,161294,1,4,0:3:0:0:
318,194,161369,1,0,3:2:0:0:
464,169,161519,5,10,0:2:0:0:
332,271,161669,1,10,0:2:0:0:
310,106,161819,1,10,0:2:0:0:
