osu file format v14

[General]
AudioFilename: audio.mp3
AudioLeadIn: 0
PreviewTime: 38594
Countdown: 0
SampleSet: Soft
StackLeniency: 0.7
Mode: 0
LetterboxInBreaks: 0
WidescreenStoryboard: 1

[Editor]
Bookmarks: 5969,15569,25169,34769,39419,53969,58769,61169,65969,70769,80369,85019,99569,104369,113969,123569,133019,147569,152369,161969
DistanceSpacing: 1
BeatDivisor: 4
GridSize: 16
TimelineZoom: 1

[Metadata]
Title:Oni
TitleUnicode:鬼
Artist:UPLIFT SPICE
ArtistUnicode:UPLIFT SPICE
Creator:Shirahane Suou
Version:Hard
Source:
Tags:japanese rock jrock j-rock the musmus gst:live2022 great singapore tournament live 2022 gstlive custom map tourney AEF asia esports festival online kallang wave mall EXP esports experience center gstlive2022a8 iceluin
BeatmapID:3958968
BeatmapSetID:1893909

[Difficulty]
HPDrainRate:4
CircleSize:3.7
OverallDifficulty:6.5
ApproachRate:8
SliderMultiplier:1.4
SliderTickRate:1

[Events]
//Background and Video events
0,0,"oni.jpg",0,0
//Break Periods
2,61369,65219
2,104569,108119
2,109369,112019
//Storyboard Layer 0 (Background)
//Storyboard Layer 1 (Fail)
//Storyboard Layer 2 (Pass)
//Storyboard Layer 3 (Foreground)
//Storyboard Layer 4 (Overlay)
//Storyboard Sound Samples

[TimingPoints]
1169,300,4,2,1,50,1,0
1169,-111.111111111111,4,2,1,50,0,0
4769,-111.111111111111,4,2,1,60,0,0
5969,-111.111111111111,4,2,1,70,0,0
15569,-111.111111111111,4,2,1,60,0,0
25169,-111.111111111111,4,2,1,70,0,0
34769,-111.111111111111,4,2,1,60,0,0
39419,-100,4,2,1,80,0,1
58769,-111.111111111111,4,2,1,50,0,0
59969,-111.111111111111,4,2,1,60,0,0
61169,-111.111111111111,4,2,1,50,0,0
65969,-133.333333333333,4,2,1,60,0,0
70169,-133.333333333333,4,2,1,70,0,0
70769,-111.111111111111,4,2,1,70,0,0
80369,-111.111111111111,4,2,1,60,0,0
85019,-100,4,2,1,80,0,1
104369,-133.333333333333,4,2,1,50,0,0
113969,-111.111111111111,4,2,1,70,0,0
133019,-100,4,2,1,80,0,1
152369,-111.111111111111,4,2,1,70,0,0

[Colours]
Combo1 : 218,207,158
Combo2 : 174,204,174
Combo3 : 162,200,206
Combo4 : 236,145,145

[HitObjects]
65,42,1169,6,0,P|105:31|175:91,1,125.999996154785,10|2,0:2|3:2,0:0:0:0:
249,46,1619,1,8,0:2:0:0:
249,46,1769,2,0,L|274:171,1,125.999996154785,2|10,3:2|0:2,0:0:0:0:
414,254,2369,2,0,P|374:243|304:303,1,125.999996154785,10|2,0:2|3:2,0:0:0:0:
230,258,2819,1,8,0:2:0:0:
230,258,2969,2,0,L|205:383,1,125.999996154785,2|10,3:2|0:2,0:0:0:0:
52,323,3569,6,0,L|76:199,1,125.999996154785,10|2,0:2|3:2,0:0:0:0:
59,124,4019,1,8,0:2:0:0:
59,124,4169,2,0,B|106:115|106:115|130:125|130:125|198:113,1,125.999996154785,2|10,3:2|0:2,0:0:0:0:
295,0,4769,1,10,0:2:0:0:
295,0,4919,1,0,3:2:0:0:
365,41,5069,2,0,L|353:114,1,62.9999980773926,10|0,0:2|3:2,0:0:0:0:
309,171,5369,2,0,L|319:211,3,31.4999990386963,10|0|8|8,0:2|0:0|0:2|0:2,0:0:0:0:
293,235,5669,2,0,L|303:275,3,31.4999990386963,10|8|8|8,0:2|0:2|0:2|0:2,0:0:0:0:
330,300,5969,5,6,3:2:0:0:
330,300,6119,2,0,L|400:280,1,62.9999980773926,2|8,0:2|0:2,0:0:0:0:
443,219,6419,2,0,L|513:239,2,62.9999980773926,2|8|0,3:2|0:2|3:2,0:0:0:0:
394,158,6869,5,10,0:2:0:0:
394,158,7019,2,0,L|414:88,1,62.9999980773926,2|8,3:2|0:2,0:0:0:0:
451,25,7319,2,0,L|521:45,2,62.9999980773926,2|8|0,3:2|0:2|3:2,0:0:0:0:
371,3,7769,2,0,L|310:20,1,62.9999980773926,10|0,0:2|3:2,0:0:0:0:
262,87,8069,1,10,0:2:0:0:
129,3,8369,5,10,0:2:0:0:
129,3,8519,2,0,L|111:63,1,62.9999980773926,2|8,0:2|0:2,0:0:0:0:
60,128,8819,2,0,L|0:110,2,62.9999980773926,2|8|0,3:2|0:2|3:2,0:0:0:0:
130,180,9269,5,10,0:2:0:0:
130,180,9419,2,0,L|147:240,1,62.9999980773926,2|8,3:2|0:2,0:0:0:0:
205,298,9719,2,0,L|265:280,2,62.9999980773926,2|8|0,3:2|0:2|3:2,0:0:0:0:
166,370,10169,2,0,L|105:352,1,62.9999980773926,10|0,0:2|3:2,0:0:0:0:
33,311,10469,1,10,0:2:0:0:
130,180,10769,5,10,0:2:0:0:
130,180,10919,2,0,L|113:120,1,62.9999980773926,2|8,0:2|0:2,0:0:0:0:
60,56,11219,2,0,L|0:39,2,62.9999980773926,2|8|0,3:2|0:2|3:2,0:0:0:0:
131,13,11669,5,10,0:2:0:0:
131,13,11819,2,0,L|191:30,1,62.9999980773926,2|8,3:2|0:2,0:3:0:0:
262,72,12119,2,0,L|322:55,2,62.9999980773926,2|8|0,3:2|0:2|3:2,0:0:0:0:
224,144,12569,2,0,L|207:204,1,62.9999980773926,10|0,0:2|3:2,0:0:0:0:
181,282,12869,1,10,0:2:0:0:
317,381,13169,5,10,0:2:0:0:
317,381,13319,2,0,L|377:364,1,62.9999980773926,2|8,0:2|0:2,0:0:0:0:
452,330,13619,2,0,L|512:347,2,62.9999980773926,2|8|0,3:2|0:2|3:2,0:0:0:0:
402,265,14069,2,0,P|396:230|414:199,1,62.9999980773926,10|10,0:2|0:2,0:0:0:0:
454,139,14369,5,8,0:2:0:0:
454,139,14519,1,10,0:2:0:0:
380,101,14669,2,0,L|320:118,1,62.9999980773926,8|8,0:3|0:3,0:0:0:0:
262,178,14969,1,10,0:2:0:0:
262,178,15119,1,8,0:2:0:0:
204,120,15269,1,10,0:2:0:0:
204,120,15419,1,8,0:2:0:0:
141,193,15569,6,0,P|135:227|146:321,1,125.999996154785,6|8,3:2|0:2,0:0:0:0:
206,380,16019,1,2,0:2:0:0:
206,380,16169,1,0,3:2:0:0:
356,314,16469,2,0,P|362:280|351:186,1,125.999996154785,10|0,0:2|3:2,0:0:0:0:
234,75,17069,1,10,0:2:0:0:
161,222,17369,2,0,P|129:226|100:236,1,62.9999980773926,2|0,3:2|3:2,0:0:0:0:
18,222,17669,1,10,0:2:0:0:
38,59,17969,6,0,P|100:49|159:29,1,125.999996154785,2|8,3:2|0:2,0:0:0:0:
234,75,18419,1,2,0:2:0:0:
234,75,18569,1,0,3:2:0:0:
161,222,18869,2,0,P|223:231|282:251,1,125.999996154785,10|0,0:2|3:2,0:0:0:0:
420,340,19469,1,10,0:2:0:0:
503,199,19769,2,0,P|505:161|493:129,2,62.9999980773926,2|0|8,3:2|3:2|0:2,0:0:0:0:
344,157,20369,6,0,P|294:168|235:101,1,125.999996154785,2|8,3:2|0:2,0:0:0:0:
199,58,20819,1,2,0:2:0:0:
199,58,20969,1,0,3:2:0:0:
52,131,21269,2,0,P|43:191|85:235,1,125.999996154785,10|0,0:2|3:2,0:0:0:0:
222,324,21869,1,10,0:2:0:0:
312,187,22169,2,0,L|250:171,1,62.9999980773926,2|0,3:2|3:2,0:0:0:0:
186,223,22469,1,10,0:2:0:0:
324,310,22769,6,0,P|375:318|424:260,1,125.999996154785,2|8,3:2|0:2,0:0:0:0:
489,217,23219,1,2,0:2:0:0:
489,217,23369,1,0,3:2:0:0:
350,129,23669,2,0,P|299:121|250:179,1,125.999996154785,10|0,0:2|3:2,0:0:0:0:
196,232,24119,1,8,0:2:0:0:
196,232,24269,2,0,L|211:299,1,62.9999980773926,10|0,0:2|3:2,0:0:0:0:
154,353,24569,2,0,L|87:338,1,62.9999980773926,10|0,0:2|3:2,0:3:0:0:
26,299,24869,1,8,0:2:0:0:
26,299,25019,1,8,0:2:0:0:
70,212,25169,6,0,P|52:168|45:81,1,125.999996154785,6|8,3:2|0:2,0:0:0:0:
109,40,25619,2,0,P|153:58|240:65,1,125.999996154785,2|0,3:2|3:2,0:0:0:0:
305,29,26069,1,10,0:2:0:0:
305,29,26219,2,0,P|367:33|426:54,1,125.999996154785,0|0,3:2|3:2,0:0:0:0:
469,124,26669,1,10,0:2:0:0:
347,233,26969,2,0,P|317:222|286:220,1,62.9999980773926,2|0,3:2|3:2,0:0:0:0:
228,161,27269,1,10,0:2:0:0:
156,308,27569,6,0,P|218:312|277:333,1,125.999996154785,2|8,3:2|0:2,0:0:0:0:
349,373,28019,2,0,P|411:369|470:348,1,125.999996154785,2|0,3:2|3:2,0:0:0:0:
509,275,28469,1,10,0:2:0:0:
509,275,28619,2,0,P|471:245|473:162,1,125.999996154785,0|0,3:2|3:2,0:0:0:0:
502,97,29069,1,10,0:2:0:0:
362,8,29369,2,0,P|374:38|367:83,2,62.9999980773926,2|0|8,3:2|3:2|0:2,0:0:0:0:
212,75,29969,6,0,P|190:110|94:111,1,125.999996154785,2|8,3:2|0:2,0:0:0:0:
60,186,30419,2,0,P|82:245|95:307,1,125.999996154785,2|0,3:2|3:2,0:0:0:0:
158,368,30869,1,10,0:2:0:0:
158,368,31019,2,0,P|217:345|279:332,1,125.999996154785,0|0,3:2|3:2,0:0:0:0:
330,269,31469,1,10,0:2:0:0:
184,193,31769,2,0,P|177:162|166:132,1,62.9999980773926,2|0,3:2|3:2,0:0:0:0:
185,52,32069,1,10,0:2:0:0:
342,96,32369,6,0,P|364:61|460:60,1,125.999996154785,2|8,3:2|0:2,0:0:0:0:
502,104,32819,2,0,P|482:164|472:227,1,125.999996154785,2|0,3:2|3:2,0:0:0:0:
500,303,33269,2,0,P|469:309|439:320,1,62.9999980773926,10|8,0:2|0:2,0:0:0:0:
406,305,33494,1,8,0:2:0:0:
406,305,33569,6,0,P|376:316|345:321,1,62.9999980773926,8|8,0:2|0:2,0:0:0:0:
264,313,33869,2,0,P|252:283|247:252,1,62.9999980773926,10|8,0:2|0:2,0:0:0:0:
272,173,34169,1,8,0:2:0:0:
272,173,34319,1,8,0:2:0:0:
205,125,34469,1,10,0:2:0:0:
205,125,34619,1,8,0:2:0:0:
260,47,34769,6,0,P|322:35|378:6,1,125.999996154785,4|0,3:2|3:2,0:0:0:0:
439,62,35219,1,0,3:2:0:0:
439,62,35369,2,0,L|422:128,1,62.9999980773926,8|8,0:2|0:2,0:0:0:0:
361,176,35669,2,0,L|378:242,1,62.9999980773926,8|8,0:3|0:3,0:0:0:0:
447,287,35969,5,4,3:2:0:0:
447,287,36119,2,0,P|404:271|332:317,1,125.999996154785,0|0,3:2|3:2,0:0:0:0:
270,355,36569,1,8,0:2:0:0:
270,355,36719,1,8,0:2:0:0:
212,296,36869,1,8,0:2:0:0:
212,296,37019,1,8,0:2:0:0:
122,347,37169,6,0,P|109:286|89:226,1,125.999996154785,4|0,3:2|3:2,0:0:0:0:
37,163,37619,1,0,3:2:0:0:
37,163,37769,2,0,P|48:130|50:101,1,62.9999980773926,8|0,0:2|3:2,0:0:0:0:
120,58,38069,2,0,P|153:69|181:71,1,62.9999980773926,8|0,0:3|3:2,0:0:0:0:
264,156,38369,5,8,0:2:0:0:
444,9,39419,6,0,B|410:52|410:52|447:150,1,140,6|0,3:2|3:2,0:0:0:0:
502,198,39869,2,0,L|488:280,1,70,10|0,0:2|0:0,0:0:0:0:
428,334,40169,1,2,3:2:0:0:
428,334,40319,2,0,L|346:320,1,70,2|8,3:2|0:2,0:0:0:0:
301,251,40619,6,0,L|326:102,1,140,6|0,3:2|3:2,0:0:0:0:
268,41,41069,2,0,B|237:42|204:17|204:17|188:54|139:77,1,140,10|2,0:2|3:2,0:0:0:0:
113,149,41519,1,2,3:2:0:0:
113,149,41669,2,0,L|125:223,1,70,10|0,0:2|0:0,0:0:0:0:
200,268,41969,6,0,P|132:259|76:300,2,140,2|10|2,3:2|0:2|3:2,0:0:0:0:
271,324,42719,2,0,L|340:312,1,70,2|8,3:2|0:2,0:0:0:0:
404,248,43019,6,0,B|395:198|395:198|413:167|413:167|400:95,1,140,2|0,0:2|3:2,0:3:0:0:
333,56,43469,2,0,L|263:67,1,70,10|0,0:2|0:0,0:0:0:0:
182,104,43769,1,2,3:2:0:0:
182,104,43919,2,0,L|112:92,1,70,2|8,3:2|0:2,0:0:0:0:
34,8,44219,6,0,L|8:158,1,140,6|0,3:2|3:2,0:0:0:0:
62,220,44669,2,0,L|49:295,1,70,10|0,0:2|0:0,0:0:0:0:
33,382,44969,1,2,3:2:0:0:
33,382,45119,2,0,L|108:369,1,70,2|8,3:2|0:2,0:0:0:0:
172,311,45419,6,0,P|217:357|297:338,1,140,6|0,3:2|3:2,0:0:0:0:
354,285,45869,2,0,L|328:134,1,140,10|2,0:2|3:2,0:0:0:0:
174,53,46469,2,0,L|249:40,1,70,10|2,0:2|0:2,0:0:0:0:
243,132,46769,6,0,L|100:156,2,140,2|10|2,3:2|0:2|3:2,0:0:0:0:
330,147,47519,2,0,L|342:71,1,70,2|8,3:2|0:2,0:0:0:0:
408,15,47819,6,0,P|463:44|461:123,1,140,2|0,0:2|3:2,0:0:0:0:
426,197,48269,2,0,L|438:272,1,70,8|0,0:2|0:0,0:0:0:0:
508,331,48569,1,0,3:2:0:0:
508,331,48719,1,8,0:2:0:0:
430,378,48869,2,0,L|354:365,1,70,10|6,0:3|0:3,0:0:0:0:
267,296,49169,6,0,L|121:320,1,140,6|8,3:2|0:2,0:0:0:0:
52,367,49619,1,2,0:2:0:0:
52,367,49769,2,0,L|39:294,1,70,0|0,3:2|3:2,0:0:0:0:
91,222,50069,2,0,L|78:149,1,70,8|0,0:2|0:0,0:0:0:0:
32,75,50369,6,0,L|104:62,1,70,0|0,3:2|3:2,0:0:0:0:
181,105,50669,2,0,L|253:92,1,70,10|0,0:2|0:0,0:0:0:0:
311,26,50969,1,2,3:2:0:0:
311,26,51119,1,0,3:2:0:0:
391,67,51269,2,0,P|415:97|412:131,1,70,10|2,0:2|0:2,0:0:0:0:
375,210,51569,6,0,P|333:199|255:265,1,140,2|8,3:2|0:2,0:0:0:0:
180,297,52019,2,0,P|222:286|300:352,1,140,2|0,0:2|3:2,0:0:0:0:
431,384,52469,6,0,L|459:217,1,140,10|0,0:2|3:2,0:0:0:0:
503,169,52919,1,0,3:2:0:0:
503,169,53069,2,0,L|488:85,1,70,10|0,0:2|0:0,0:0:0:0:
433,29,53369,1,2,3:2:0:0:
433,29,53519,1,0,3:2:0:0:
380,103,53669,1,10,0:2:0:0:
215,24,53969,6,0,L|138:48,1,70,10|2,0:2|3:2,0:0:0:0:
60,69,54269,1,10,0:2:0:0:
60,69,54419,1,2,3:2:0:0:
123,133,54569,2,0,L|200:157,1,70,10|0,0:2|3:2,0:0:0:0:
267,107,54869,6,0,L|344:131,1,70,10|2,0:2|3:2,0:0:0:0:
422,152,55169,1,10,0:2:0:0:
422,152,55319,1,2,3:2:0:0:
359,216,55469,2,0,L|282:240,1,70,10|0,0:2|3:2,0:0:0:0:
211,325,55769,6,0,L|134:301,1,70,10|2,0:2|3:2,0:0:0:0:
60,334,56069,1,10,0:2:0:0:
60,334,56219,1,2,3:2:0:0:
21,251,56369,2,0,L|45:174,1,70,10|0,0:2|3:2,0:0:0:0:
128,212,56669,6,0,L|205:188,1,70,10|2,0:2|3:2,0:0:0:0:
279,221,56969,1,10,0:2:0:0:
279,221,57119,1,2,3:2:0:0:
318,138,57269,2,0,L|294:61,1,70,10|0,0:2|3:2,0:0:0:0:
223,17,57569,5,2,3:2:0:0:
158,80,57719,1,8,0:2:0:0:
158,80,57869,2,0,L|87:65,1,70,8|0,0:2|3:2,0:0:0:0:
13,14,58169,2,0,L|-2:85,1,70,8|0,0:2|3:2,0:0:0:0:
12,172,58469,2,0,L|80:186,1,70,8|0,0:2|0:0,0:0:0:0:
159,272,58769,6,0,L|288:244,1,125.999996154785,10|10,0:2|0:2,0:0:0:0:
328,179,59219,1,8,0:2:0:0:
328,179,59369,2,0,L|457:151,1,125.999996154785,2|10,3:2|0:2,0:0:0:0:
505,308,59969,6,0,L|443:321,1,62.9999980773926,10|8,0:2|0:2,0:0:0:0:
383,377,60269,2,0,L|321:363,1,62.9999980773926,10|8,0:2|0:2,0:0:0:0:
255,314,60569,2,0,L|224:320,3,31.4999990386963,10|8|8|8,0:2|0:2|0:2|0:2,0:0:0:0:
193,348,60869,2,0,L|162:341,3,31.4999990386963,10|8|8|8,0:2|0:2|0:2|0:2,0:0:0:0:
131,313,61169,5,6,3:2:0:0:
29,90,65969,6,0,P|64:53|114:60,2,105.000004005432,2|0|0,3:2|3:2|3:2,0:0:0:0:
112,185,66869,2,0,P|176:198|237:217,1,105.000004005432,0|0,3:2|3:2,0:0:0:0:
319,139,67469,1,0,3:2:0:0:
401,234,67769,2,0,P|386:284|376:336,1,105.000004005432,0|0,3:2|3:2,0:0:0:0:
256,378,68369,6,0,P|206:363|154:353,2,105.000004005432,2|0|0,3:2|3:2|3:2,0:0:0:0:
376,335,69269,2,0,P|385:284|401:234,1,105.000004005432,0|0,3:2|3:2,0:0:0:0:
337,125,69869,1,0,3:2:0:0:
441,54,70169,2,0,B|466:78|466:78|524:74,2,70.0000026702882,8|8|8,0:2|0:2|0:2,0:0:0:0:
363,8,70769,6,0,P|297:20|228:37,1,125.999996154785,6|8,3:2|0:2,0:0:0:0:
158,45,71219,2,0,P|171:106|184:168,1,125.999996154785,2|0,3:2|3:2,0:0:0:0:
262,204,71669,1,10,0:2:0:0:
262,204,71819,2,0,P|248:265|235:327,1,125.999996154785,0|0,3:2|3:2,0:0:0:0:
173,380,72269,1,10,0:2:0:0:
41,282,72569,2,0,P|47:251|54:220,1,62.9999980773926,2|0,3:2|3:2,0:0:0:0:
113,162,72869,1,10,0:2:0:0:
4,39,73169,6,0,P|53:3|112:18,1,125.999996154785,2|8,3:2|0:2,0:0:0:0:
183,58,73619,2,0,L|312:36,1,125.999996154785,2|0,3:2|3:2,0:0:0:0:
390,20,74069,1,10,0:2:0:0:
390,20,74219,2,0,P|425:69|410:128,1,125.999996154785,0|0,3:2|3:2,0:0:0:0:
340,169,74669,1,10,0:2:0:0:
450,290,74969,2,0,L|522:273,2,62.9999980773926,2|0|8,3:2|3:2|0:2,0:0:0:0:
301,361,75569,6,0,P|251:325|192:340,1,125.999996154785,2|8,3:2|0:2,0:0:0:0:
115,371,76019,2,0,P|102:309|88:247,1,125.999996154785,2|0,3:2|3:2,0:0:0:0:
33,195,76469,1,10,0:2:0:0:
33,195,76619,2,0,P|92:209|141:174,1,125.999996154785,0|0,3:2|3:2,0:0:0:0:
181,101,77069,1,10,0:2:0:0:
316,192,77369,2,0,P|345:182|376:176,1,62.9999980773926,2|0,3:2|3:2,0:0:0:0:
443,129,77669,1,10,0:2:0:0:
443,129,77819,1,2,0:2:0:0:
385,70,77969,6,0,P|321:90|256:102,1,125.999996154785,2|8,3:2|0:2,0:0:0:0:
181,101,78419,2,0,P|169:162|149:222,1,125.999996154785,2|0,3:2|3:2,0:0:0:0:
84,273,78869,2,0,P|93:302|100:333,1,62.9999980773926,10|8,0:2|0:2,0:0:0:0:
176,375,79169,5,8,0:2:0:0:
176,375,79319,1,8,0:2:0:0:
240,324,79469,2,0,P|230:294|223:263,1,62.9999980773926,10|8,0:2|0:2,0:0:0:0:
149,223,79769,2,0,P|169:199|193:178,1,62.9999980773926,10|8,0:2|0:2,0:3:0:0:
190,93,80069,2,0,P|220:99|250:109,1,62.9999980773926,10|8,0:2|0:2,0:3:0:0:
324,175,80369,6,0,P|375:187|444:141,1,125.999996154785,4|0,3:2|3:2,0:0:0:0:
503,104,80819,1,0,3:2:0:0:
503,104,80969,2,0,P|492:74|486:43,1,62.9999980773926,8|8,0:2|0:2,0:3:0:0:
415,1,81269,2,0,P|385:11|354:17,1,62.9999980773926,8|8,0:3|0:3,0:3:0:0:
282,52,81569,5,4,3:2:0:0:
282,52,81719,2,0,P|219:31|155:18,1,125.999996154785,0|0,3:2|3:2,0:3:0:0:
84,47,82169,1,8,0:2:0:0:
84,47,82319,1,8,0:2:0:0:
139,114,82469,1,8,0:2:0:0:
139,114,82619,1,8,0:2:0:0:
73,182,82769,6,0,P|93:244|106:308,1,125.999996154785,4|0,3:2|3:2,0:3:0:0:
170,362,83219,1,0,3:2:0:0:
170,362,83369,2,0,P|201:351|233:345,1,62.9999980773926,8|0,0:2|3:2,0:3:0:0:
288,286,83669,2,0,P|318:292|348:302,1,62.9999980773926,8|0,0:3|3:2,0:3:0:0:
441,375,83969,5,8,0:2:0:0:
172,33,85019,6,0,P|130:63|143:147,1,140,6|0,3:2|3:2,0:0:0:0:
213,195,85469,2,0,L|296:176,1,70,10|0,0:2|0:0,0:0:0:0:
348,116,85769,1,2,3:2:0:0:
348,116,85919,2,0,L|431:135,1,70,2|8,3:2|0:2,0:0:0:0:
498,172,86219,6,0,L|465:314,1,140,6|0,3:2|3:2,0:0:0:0:
396,367,86669,2,0,P|366:325|282:338,1,140,10|2,0:2|3:2,0:0:0:0:
206,375,87119,1,2,3:2:0:0:
206,375,87269,2,0,L|123:356,1,70,10|0,0:2|0:0,0:0:0:0:
111,271,87569,6,0,P|46:254|0:303,2,140,2|10|2,3:2|0:2|3:2,0:0:0:0:
191,228,88319,2,0,L|210:145,1,70,2|8,3:2|0:2,0:3:0:0:
159,81,88619,6,0,L|322:43,1,140,2|0,0:2|3:2,0:3:0:0:
374,2,89069,2,0,L|455:20,1,70,10|0,0:2|0:3,0:3:0:0:
495,98,89369,1,2,3:2:0:0:
495,98,89519,2,0,L|479:166,1,70,2|8,3:2|0:2,0:3:0:0:
392,246,89819,6,0,P|327:262|281:213,1,140,6|0,3:2|3:2,0:0:0:0:
207,160,90269,2,0,L|125:178,1,70,10|0,0:2|0:3,0:3:0:0:
82,247,90569,1,2,3:2:0:0:
82,247,90719,2,0,L|100:328,1,70,2|8,3:2|0:2,0:3:0:0:
172,366,91019,6,0,P|217:317|282:333,1,140,6|0,3:2|3:2,0:0:0:0:
368,365,91469,2,0,L|399:229,1,140,10|2,0:2|3:2,0:3:0:0:
424,141,91919,1,0,3:2:0:0:
424,141,92069,1,10,0:2:0:0:
275,36,92369,6,0,B|227:51|227:51|203:83|203:83|155:98,2,140,2|10|2,3:2|0:2|3:2,0:0:0:0:
329,109,93119,2,0,L|310:190,1,70,2|8,3:2|0:2,0:3:0:0:
257,249,93419,6,0,P|192:232|146:281,1,140,2|0,0:2|3:2,0:0:0:0:
59,254,93869,2,0,L|43:185,1,70,8|0,0:2|0:3,0:3:0:0:
5,108,94169,1,0,3:2:0:0:
5,108,94319,1,8,0:2:0:0:
66,40,94469,2,0,P|111:31|147:40,1,70,10|4,0:3|0:3,0:0:0:0:
218,120,94769,6,0,P|266:134|338:74,1,140,6|8,3:2|0:2,0:0:0:0:
397,19,95219,1,2,0:2:0:0:
397,19,95369,2,0,P|430:29|464:34,1,70,0|0,3:2|3:2,0:3:0:0:
512,111,95669,2,0,P|501:144|496:178,1,70,8|0,0:2|0:3,0:3:0:0:
409,207,95969,6,0,P|419:240|424:274,1,70,0|0,3:2|3:2,0:3:0:0:
471,354,96269,2,0,P|436:359|403:369,1,70,10|0,0:2|0:3,0:3:0:0:
326,319,96569,1,2,3:2:0:0:
326,319,96719,1,0,3:2:0:0:
245,362,96869,2,0,P|210:356|177:346,1,70,10|0,0:2|0:3,0:3:0:0:
127,269,97169,6,0,L|160:121,1,140,2|8,3:2|0:2,0:0:0:0:
234,84,97619,2,0,L|267:232,1,140,2|0,0:2|3:2,0:0:0:0:
326,319,98069,6,0,P|391:329|444:262,1,140,10|0,0:2|3:2,0:0:0:0:
501,213,98519,1,0,3:2:0:0:
501,213,98669,2,0,L|485:144,1,70,10|0,0:2|0:0,0:0:0:0:
441,71,98969,1,2,3:2:0:0:
441,71,99119,1,0,3:2:0:0:
510,12,99269,1,10,0:2:0:0:
371,130,99569,6,0,L|302:114,1,70,10|2,0:2|3:2,0:0:0:0:
254,37,99869,1,10,0:2:0:0:
254,37,100019,1,2,3:2:0:0:
167,65,100169,2,0,L|151:133,1,70,10|0,0:2|3:2,0:0:0:0:
190,212,100469,6,0,L|258:196,1,70,10|2,0:2|3:2,0:0:0:0:
307,119,100769,1,10,0:2:0:0:
307,119,100919,1,2,3:2:0:0:
394,147,101069,2,0,L|409:215,1,70,10|0,0:2|3:2,0:0:0:0:
331,304,101369,6,0,L|262:319,1,70,10|2,0:2|3:2,0:0:0:0:
190,384,101669,1,10,0:2:0:0:
190,384,101819,1,2,3:2:0:0:
103,356,101969,2,0,L|87:287,1,70,10|0,0:2|3:2,0:0:0:0:
123,196,102269,6,0,L|191:180,1,70,10|2,0:2|3:2,0:0:0:0:
264,116,102569,1,10,0:2:0:0:
264,116,102719,1,2,3:2:0:0:
351,144,102869,2,0,L|366:212,1,70,10|8,0:2|0:2,0:0:0:0:
445,269,103169,5,2,3:2:0:0:
494,186,103319,1,8,0:2:0:0:
494,186,103469,2,0,L|478:117,1,70,8|0,0:2|3:2,0:0:0:0:
429,32,103769,2,0,L|360:47,1,70,8|0,0:2|3:2,0:0:0:0:
271,6,104069,1,8,0:2:0:0:
271,6,104219,1,8,0:2:0:0:
223,110,104369,5,4,3:2:0:0:
170,53,108869,6,0,L|154:126,1,52.5000020027161,0|0,3:2|3:2,0:0:0:0:
188,181,109169,1,12,0:2:0:0:
115,243,112769,6,0,B|160:221|170:159|170:159|234:136|266:189|266:189|250:217|252:242,1,262.500010013581,4|0,3:2|0:0,0:0:0:0:
288,310,113669,5,8,0:2:0:0:
443,262,113969,6,0,P|448:230|457:200,1,62.9999980773926,0|0,3:2|3:2,0:0:0:0:
486,123,114269,1,2,3:2:0:0:
347,210,114569,2,0,P|351:178|360:148,1,62.9999980773926,8|0,0:2|3:2,0:0:0:0:
389,71,114869,1,2,3:2:0:0:
242,144,115169,6,0,P|246:175|255:205,1,62.9999980773926,0|0,3:2|3:2,0:0:0:0:
284,283,115469,1,2,3:2:0:0:
145,196,115769,2,0,P|149:227|158:257,1,62.9999980773926,8|0,0:2|3:2,0:0:0:0:
187,335,116069,1,2,3:2:0:0:
28,375,116369,6,0,P|32:344|41:314,1,62.9999980773926,0|0,3:2|3:2,0:0:0:0:
6,245,116669,1,0,3:2:0:0:
6,245,116819,2,0,P|15:214|19:183,1,62.9999980773926,2|8,0:2|0:2,0:0:0:0:
67,116,117119,2,0,P|97:108|126:96,1,62.9999980773926,2|0,3:2|3:2,0:0:0:0:
212,102,117419,1,2,0:2:0:0:
212,102,117569,6,0,P|233:124|258:144,2,62.9999980773926,0|0|0,3:2|3:2|3:2,0:0:0:0:
262,36,118019,2,0,P|287:55|308:78,1,62.9999980773926,2|8,0:2|0:2,0:0:0:0:
386,117,118319,1,2,3:2:0:0:
386,117,118469,2,0,P|381:148|372:178,1,62.9999980773926,2|0,3:2|0:0,0:0:0:0:
305,225,118769,6,0,P|295:255|291:286,1,62.9999980773926,0|0,3:2|3:2,0:0:0:0:
289,368,119069,1,2,3:2:0:0:
188,238,119369,2,0,P|178:268|174:299,1,62.9999980773926,8|0,0:2|3:2,0:0:0:0:
172,381,119669,1,2,3:2:0:0:
91,238,119969,6,0,P|100:207|104:176,1,62.9999980773926,0|0,3:2|3:2,0:0:0:0:
107,95,120269,1,2,3:2:0:0:
249,176,120569,2,0,P|258:145|262:114,1,62.9999980773926,8|0,0:2|3:2,0:0:0:0:
265,33,120869,1,2,3:2:0:0:
407,114,121169,6,0,P|411:82|420:52,2,62.9999980773926,0|0|0,3:2|3:2|3:2,0:0:0:0:
345,169,121619,2,0,P|354:199|358:230,1,62.9999980773926,2|8,0:2|0:2,0:0:0:0:
431,267,121919,2,0,P|409:289|384:309,1,62.9999980773926,2|0,3:2|3:2,0:0:0:0:
342,381,122219,1,2,0:2:0:0:
342,381,122369,6,0,P|311:373|282:361,1,62.9999980773926,0|0,3:2|3:2,0:0:0:0:
230,297,122669,1,0,3:2:0:0:
170,353,122819,2,0,L|178:398,2,31.4999990386963,10|8|8,0:2|0:2|0:2,0:0:0:0:
100,310,123119,1,8,0:2:0:0:
50,374,123269,1,10,0:3:0:0:
1,217,123569,6,0,P|13:187|19:156,1,62.9999980773926,6|2,3:2|0:2,0:0:0:0:
93,117,123869,1,2,3:2:0:0:
93,117,124019,2,0,P|153:140|216:154,1,125.999996154785,10|0,0:2|0:0,0:0:0:0:
268,213,124469,6,0,P|297:201|328:195,1,62.9999980773926,10|2,0:2|0:2,0:3:0:0:
393,145,124769,1,2,3:2:0:0:
393,145,124919,2,0,P|369:84|355:21,1,125.999996154785,10|0,0:2|3:2,0:0:0:0:
271,0,125369,6,0,P|241:11|210:17,1,62.9999980773926,14|0,0:2|3:2,0:3:0:0:
130,33,125669,2,0,P|141:62|147:93,1,62.9999980773926,10|0,0:3|0:3,0:3:0:0:
210,146,125969,6,0,P|198:175|192:206,1,62.9999980773926,2|0,3:2|3:2,0:3:0:0:
128,257,126269,1,0,3:2:0:0:
128,257,126419,2,0,P|183:243|236:295,1,125.999996154785,14|2,0:2|0:2,0:0:0:0:
312,353,126869,6,0,P|367:367|420:315,1,125.999996154785,10|0,0:2|3:2,0:0:0:0:
486,282,127319,1,8,0:2:0:0:
486,282,127469,1,0,3:2:0:0:
407,138,127769,2,0,P|423:93|430:48,2,83.9999974365235,10|10|10,0:2|0:2|0:2,0:0:0:0:
329,154,128369,5,10,0:2:0:0:
329,154,128519,2,0,P|299:143|268:139,1,62.9999980773926,2|8,3:2|0:3,0:0:0:0:
209,89,128819,1,2,3:2:0:0:
209,89,128969,2,0,P|179:99|148:103,1,62.9999980773926,4|0,0:3|0:0,0:0:0:0:
88,159,129269,5,10,0:2:0:0:
88,159,129419,2,0,P|98:188|102:219,1,62.9999980773926,2|8,3:2|0:3,0:0:0:0:
173,270,129719,1,2,3:2:0:0:
173,270,129869,2,0,P|162:299|158:330,1,62.9999980773926,4|0,0:3|0:0,0:0:0:0:
89,376,130169,6,0,P|59:365|28:361,1,62.9999980773926,2|0,3:2|3:2,0:0:0:0:
2,283,130469,1,6,0:3:0:0:
88,159,130769,6,0,P|117:169|148:173,2,62.9999980773926,14|0|0,0:2|3:2|3:2,0:0:0:0:
111,83,131219,1,12,0:2:0:0:
111,83,131369,2,0,P|140:93|171:97,1,62.9999980773926,0|0,3:2|3:2,0:0:0:0:
261,168,131669,6,0,P|290:178|321:182,2,62.9999980773926,12|0|0,0:2|3:2|3:2,0:0:0:0:
284,92,132119,1,12,0:2:0:0:
284,92,132269,2,0,P|313:102|344:106,1,62.9999980773926,2|0,3:2|3:2,0:0:0:0:
414,63,132569,5,14,0:2:0:0:
414,63,132719,1,2,3:2:0:0:
482,107,132869,1,8,0:2:0:0:
416,200,133019,6,0,P|438:270|447:336,1,140,6|0,3:2|3:2,0:0:0:0:
367,380,133469,2,0,P|332:369|298:364,1,70,10|0,0:2|0:3,0:3:0:0:
245,297,133769,1,2,3:2:0:0:
245,297,133919,2,0,P|210:308|176:312,1,70,2|8,3:2|0:2,0:3:0:0:
102,365,134219,6,0,P|54:340|69:257,1,140,6|0,3:2|3:2,0:0:0:0:
103,182,134669,2,0,P|175:171|244:149,1,140,10|2,0:2|3:2,0:3:0:0:
315,210,135119,1,0,3:2:0:0:
315,210,135269,2,0,P|339:181|337:143,1,70,10|0,0:2|0:0,0:0:0:0:
389,72,135569,6,0,P|441:63|503:130,2,140,2|10|2,3:2|0:2|3:2,0:0:0:0:
308,30,136319,2,0,P|279:54|241:52,1,70,2|8,3:2|0:2,0:0:0:0:
166,11,136619,6,0,P|120:40|133:123,1,140,2|0,0:2|3:2,0:0:0:0:
209,157,137069,2,0,P|198:191|193:225,1,70,10|0,0:2|0:3,0:3:0:0:
118,275,137369,1,2,3:2:0:0:
118,275,137519,2,0,P|129:309|133:343,1,70,2|8,3:2|0:2,0:3:0:0:
248,377,137819,6,0,P|292:353|288:260,1,140,6|0,3:2|3:2,0:0:0:0:
360,205,138269,2,0,P|349:170|344:136,1,70,10|0,0:2|0:3,0:3:0:0:
275,85,138569,1,2,3:2:0:0:
275,85,138719,2,0,P|240:96|206:100,1,70,2|8,3:2|0:2,0:3:0:0:
130,151,139019,6,0,P|77:161|32:89,1,140,6|0,3:2|3:2,0:0:0:0:
7,10,139469,2,0,P|75:24|144:37,1,140,10|2,0:2|3:2,0:0:0:0:
253,183,140069,2,0,P|287:172|321:167,1,70,10|0,0:2|0:3,0:3:0:0:
399,121,140369,6,0,P|424:71|374:-9,2,140,2|10|2,3:2|0:2|3:2,0:0:0:0:
459,189,141119,2,0,P|448:223|443:257,1,70,2|8,3:2|0:2,0:3:0:0:
374,317,141419,6,0,P|300:293|231:283,1,140,2|0,0:2|3:2,0:3:0:0:
182,211,141869,2,0,P|147:222|113:226,1,70,8|0,0:2|0:3,0:3:0:0:
31,187,142169,2,0,L|20:230,3,35,8|8|8|8,0:2|0:2|0:2|0:2,0:0:0:0:
37,263,142469,2,0,L|26:306,3,35,10|8|8|8,0:3|0:3|0:3|0:3,0:0:0:0:
0,334,142769,6,0,P|69:345|135:366,1,140,6|8,3:2|0:2,0:3:0:0:
228,349,143219,1,2,0:2:0:0:
228,349,143369,2,0,P|233:314|244:281,1,70,0|0,3:2|3:2,0:3:0:0:
182,211,143669,2,0,P|192:177|198:143,1,70,8|0,0:2|0:3,0:3:0:0:
274,92,143969,6,0,P|307:102|341:108,1,70,0|0,3:2|3:2,0:3:0:0:
429,85,144269,2,0,P|436:119|448:151,1,70,10|0,0:2|0:3,0:3:0:0:
512,224,144569,1,2,3:2:0:0:
512,224,144719,1,0,3:2:0:0:
438,277,144869,2,0,P|404:266|370:260,1,70,10|0,0:2|0:3,0:3:0:0:
307,193,145169,6,0,P|264:211|249:306,1,140,2|8,3:2|0:2,0:0:0:0:
301,368,145619,2,0,P|263:340|174:374,1,140,2|0,0:2|3:2,0:0:0:0:
67,384,146069,6,0,B|35:340|35:340|81:240,1,140,10|0,0:2|3:2,0:0:0:0:
140,203,146519,1,0,3:2:0:0:
140,203,146669,2,0,L|120:110,1,70,10|0,0:2|0:0,0:0:0:0:
56,75,146969,1,2,3:2:0:0:
56,75,147119,1,0,3:2:0:0:
116,7,147269,1,10,0:2:0:0:
286,69,147569,6,0,L|304:161,1,70,10|2,0:2|3:2,0:0:0:0:
257,218,147869,1,10,0:2:0:0:
257,218,148019,1,2,3:2:0:0:
328,273,148169,2,0,L|346:365,1,70,10|0,0:2|3:2,0:0:0:0:
430,322,148469,6,0,L|412:230,1,70,10|2,0:2|3:2,0:0:0:0:
474,183,148769,1,10,0:2:0:0:
474,183,148919,1,2,3:2:0:0:
395,137,149069,2,0,L|377:45,1,70,10|0,0:2|3:2,0:0:0:0:
279,0,149369,6,0,P|258:33|212:49,1,70,10|2,0:2|3:2,0:0:0:0:
189,128,149669,1,10,0:2:0:0:
189,128,149819,1,2,3:2:0:0:
114,76,149969,2,0,P|95:41|105:-6,1,70,10|0,0:2|3:2,0:0:0:0:
0,33,150269,6,0,P|18:67|8:115,1,70,10|2,0:2|3:2,0:0:0:0:
84,166,150569,1,10,0:2:0:0:
84,166,150719,1,2,3:2:0:0:
15,226,150869,2,0,P|-3:260|6:308,1,70,10|8,0:2|0:2,0:0:0:0:
85,319,151169,6,0,P|85:353|68:383,2,70,2|8|8,3:2|0:2|0:2,0:0:0:0:
151,257,151619,1,0,3:2:0:0:
151,257,151769,2,0,L|236:277,1,70,8|0,0:2|3:2,0:0:0:0:
271,347,152069,2,0,L|356:367,1,70,8|8,0:2|0:2,0:0:0:0:
418,293,152369,6,0,L|394:148,1,125.999996154785,6|8,3:2|0:2,0:0:0:0:
338,119,152819,1,2,3:2:0:0:
338,119,152969,2,0,L|265:131,1,62.9999980773926,8|0,0:2|3:2,0:0:0:0:
213,182,153269,2,0,L|140:194,2,62.9999980773926,4|4|4,0:3|0:3|0:3,0:0:0:0:
279,229,153719,6,0,L|255:374,1,125.999996154785,6|0,3:2|3:2,0:0:0:0:
181,383,154169,2,0,L|108:370,1,62.9999980773926,10|0,0:2|3:2,0:0:0:0:
61,314,154469,1,10,0:2:0:0:
61,314,154619,1,8,0:2:0:0:
107,246,154769,6,0,L|83:101,1,125.999996154785,6|8,3:2|0:2,0:0:0:0:
40,52,155219,1,2,3:2:0:0:
40,52,155369,2,0,P|69:37|106:39,1,62.9999980773926,8|0,0:2|3:2,0:0:0:0:
163,87,155669,2,0,P|194:86|221:71,2,62.9999980773926,4|4|4,0:3|0:3|0:3,0:0:0:0:
176,5,156119,6,0,L|322:43,1,125.999996154785,6|0,3:2|3:2,0:0:0:0:
341,106,156569,2,0,L|322:179,1,62.9999980773926,10|0,0:2|3:2,0:0:0:0:
257,214,156869,1,10,0:2:0:0:
257,214,157019,1,8,0:2:0:0:
296,285,157169,6,0,L|369:304,1,62.9999980773926,6|0,3:2|3:2,0:0:0:0:
436,322,157469,2,0,P|479:294|470:219,1,125.999996154785,8|10,0:2|0:2,0:0:0:0:
429,156,157919,1,0,3:2:0:0:
429,156,158069,2,0,L|448:82,1,62.9999980773926,8|0,0:2|3:2,0:0:0:0:
395,28,158369,6,0,L|321:47,1,62.9999980773926,10|0,0:2|3:2,0:0:0:0:
278,105,158669,2,0,L|150:71,1,125.999996154785,8|10,0:2|0:2,0:0:0:0:
77,49,159119,1,0,3:2:0:0:
77,49,159269,2,0,L|58:122,1,62.9999980773926,8|0,0:2|3:2,0:0:0:0:
1,179,159569,5,8,0:2:0:0:
68,234,159719,1,2,3:2:0:0:
68,234,159869,2,0,L|141:215,1,62.9999980773926,10|2,0:2|3:2,0:0:0:0:
196,157,160169,5,8,0:2:0:0:
251,224,160319,1,2,3:2:0:0:
251,224,160469,2,0,L|232:297,1,62.9999980773926,10|2,0:2|3:2,0:0:0:0:
262,362,160769,5,8,0:2:0:0:
346,351,160919,1,2,3:2:0:0:
346,351,161069,2,0,L|419:370,2,62.9999980773926,10|6|0,0:3|0:3|3:2,0:0:0:0:
329,270,161519,5,10,0:2:0:0:
392,184,161669,1,10,0:2:0:0:
325,108,161819,1,10,0:2:0:0:
