osu file format v14

[General]
AudioFilename: audio.mp3
AudioLeadIn: 0
PreviewTime: 39450
Countdown: 0
SampleSet: Drum
StackLeniency: 0.8
Mode: 0
LetterboxInBreaks: 0
WidescreenStoryboard: 1

[Editor]
Bookmarks: 51156,53757
DistanceSpacing: 1.2
BeatDivisor: 4
GridSize: 4
TimelineZoom: 1.72

[Metadata]
Title:Omega Rhythm
TitleUnicode:オメガリズム
Artist:UPLIFT SPICE
ArtistUnicode:UPLIFT SPICE
Creator:olsonn
Version:Kuki's & Enu's Hard
Source:
Tags:jpop jrock japanese rock pop saltylucario saltking enryotoki full_combo full combo kloster kuki1537 enuhq the musmus
BeatmapID:3299525
BeatmapSetID:1577946

[Difficulty]
HPDrainRate:4
CircleSize:3.8
OverallDifficulty:7
ApproachRate:8
SliderMultiplier:1.5
SliderTickRate:1

[Events]
//Background and Video events
0,0,"47595f88b7965d60940a42765835157cdecc6aaa.jpg",0,0
//Break Periods
2,137367,145435
//Storyboard Layer 0 (Background)
//Storyboard Layer 1 (Fail)
//Storyboard Layer 2 (Pass)
//Storyboard Layer 3 (Foreground)
//Storyboard Layer 4 (Overlay)
//Storyboard Sound Samples

[TimingPoints]
1214,346.820809248555,4,3,1,55,1,0
1214,-133.333333333333,4,3,1,55,0,0
16127,-133.333333333333,4,3,2,55,0,0
16474,-133.333333333333,4,3,1,70,0,0
16820,-133.333333333333,4,3,1,50,0,0
17167,-133.333333333333,4,3,1,70,0,0
17514,-133.333333333333,4,3,1,55,0,0
17601,-133.333333333333,4,3,1,65,0,0
17687,-133.333333333333,4,3,1,75,0,0
17774,-133.333333333333,4,3,1,85,0,0
17861,-111.111111111111,4,3,3,70,0,0
18208,-111.111111111111,4,3,1,70,0,0
19422,-111.111111111111,4,3,4,70,0,0
19595,-111.111111111111,4,3,1,70,0,0
19768,-111.111111111111,4,3,4,70,0,0
19942,-111.111111111111,4,3,1,70,0,0
20115,-111.111111111111,4,3,4,70,0,0
20289,-111.111111111111,4,3,1,70,0,0
20462,-111.111111111111,4,3,4,70,0,0
20635,-111.111111111111,4,3,1,70,0,0
22196,-111.111111111111,4,3,4,70,0,0
22370,-111.111111111111,4,3,1,70,0,0
22543,-111.111111111111,4,3,4,70,0,0
22716,-111.111111111111,4,3,1,70,0,0
22890,-111.111111111111,4,3,4,70,0,0
23063,-111.111111111111,4,3,1,70,0,0
23237,-111.111111111111,4,3,4,70,0,0
23410,-111.111111111111,4,3,1,70,0,0
24971,-111.111111111111,4,3,4,70,0,0
25144,-111.111111111111,4,3,1,70,0,0
25318,-111.111111111111,4,3,4,70,0,0
25491,-111.111111111111,4,3,1,70,0,0
25664,-111.111111111111,4,3,4,70,0,0
25838,-111.111111111111,4,3,1,70,0,0
26011,-111.111111111111,4,3,4,70,0,0
26185,-111.111111111111,4,3,1,70,0,0
27745,-111.111111111111,4,3,4,70,0,0
27919,-111.111111111111,4,3,1,70,0,0
28092,-111.111111111111,4,3,4,70,0,0
28266,-111.111111111111,4,3,1,70,0,0
28439,-111.111111111111,4,3,4,70,0,0
28612,-111.111111111111,4,3,1,70,0,0
28786,-111.111111111111,4,3,2,70,0,0
28872,-111.111111111111,4,3,3,70,0,0
28959,-111.111111111111,4,3,5,75,0,0
29306,-111.111111111111,4,3,5,65,0,0
29393,-111.111111111111,4,3,4,65,0,0
29653,-111.111111111111,4,3,1,65,0,0
29740,-111.111111111111,4,3,4,65,0,0
30000,-111.111111111111,4,3,1,65,0,0
30086,-111.111111111111,4,3,4,65,0,0
30346,-111.111111111111,4,3,1,65,0,0
30433,-111.111111111111,4,3,4,65,0,0
30693,-111.111111111111,4,3,1,65,0,0
30780,-111.111111111111,4,3,4,65,0,0
31040,-111.111111111111,4,3,1,65,0,0
31127,-111.111111111111,4,3,4,65,0,0
31387,-111.111111111111,4,3,1,65,0,0
31474,-111.111111111111,4,3,4,65,0,0
31734,-111.111111111111,4,3,1,65,0,0
31820,-111.111111111111,4,3,4,65,0,0
32081,-111.111111111111,4,3,1,65,0,0
32167,-111.111111111111,4,3,4,65,0,0
32427,-111.111111111111,4,3,1,65,0,0
32514,-111.111111111111,4,3,4,65,0,0
32601,-111.111111111111,4,3,1,65,0,0
32687,-111.111111111111,4,3,4,65,0,0
32774,-111.111111111111,4,3,1,65,0,0
32861,-111.111111111111,4,3,4,65,0,0
33121,-111.111111111111,4,3,1,65,0,0
33208,-111.111111111111,4,3,4,65,0,0
33294,-111.111111111111,4,3,1,65,0,0
33381,-111.111111111111,4,3,4,65,0,0
33468,-111.111111111111,4,3,1,65,0,0
33555,-111.111111111111,4,3,4,65,0,0
33728,-111.111111111111,4,3,1,65,0,0
33901,-111.111111111111,4,3,4,65,0,0
33988,-111.111111111111,4,3,1,65,0,0
34075,-111.111111111111,4,3,4,65,0,0
34161,-111.111111111111,4,3,1,65,0,0
34248,-111.111111111111,4,3,4,65,0,0
34335,-111.111111111111,4,3,2,65,0,0
34508,-111.111111111111,4,3,5,75,0,0
34855,-111.111111111111,4,3,5,65,0,0
34942,-111.111111111111,4,3,4,65,0,0
35202,-111.111111111111,4,3,1,65,0,0
35289,-111.111111111111,4,3,4,65,0,0
35549,-111.111111111111,4,3,1,65,0,0
35635,-111.111111111111,4,3,4,65,0,0
35896,-111.111111111111,4,3,1,65,0,0
35982,-111.111111111111,4,3,4,65,0,0
36242,-111.111111111111,4,3,1,65,0,0
36329,-111.111111111111,4,3,4,65,0,0
36589,-111.111111111111,4,3,1,65,0,0
36676,-111.111111111111,4,3,4,65,0,0
36936,-111.111111111111,4,3,1,65,0,0
37023,-111.111111111111,4,3,4,65,0,0
37283,-111.111111111111,4,3,6,65,0,0
37630,-111.111111111111,4,3,6,50,0,0
37803,-111.111111111111,4,3,6,55,0,0
37977,-111.111111111111,4,3,6,60,0,0
38150,-111.111111111111,4,3,6,65,0,0
38323,-111.111111111111,4,3,6,70,0,0
38497,-111.111111111111,4,3,6,75,0,0
38670,-111.111111111111,4,3,6,80,0,0
38844,-111.111111111111,4,3,2,75,0,0
38930,-111.111111111111,4,3,3,75,0,0
39190,-111.111111111111,4,3,1,75,0,0
39537,-111.111111111111,4,3,1,45,0,0
40057,-100,4,3,7,80,0,0
40404,-100,4,3,8,80,0,0
42832,-100,4,3,9,80,0,0
43179,-100,4,3,8,80,0,0
45607,-100,4,3,7,80,0,0
45953,-100,4,3,8,80,0,0
46994,-100,4,3,10,80,0,0
47341,-100,4,3,8,80,0,0
47687,-100,4,3,9,80,0,0
48034,-100,4,3,8,80,0,0
48381,-100,4,3,7,80,0,0
48728,-100,4,3,8,80,0,0
49075,-100,4,3,2,80,0,0
49248,-100,4,3,1,80,0,0
49595,-100,4,3,2,80,0,0
49768,-100,4,3,1,80,0,0
50115,-100,4,3,2,80,0,0
50289,-100,4,3,1,80,0,0
50635,-100,4,3,2,80,0,0
50809,-100,4,3,1,80,0,0
51156,-100,4,3,7,80,0,0
51503,-100,4,3,8,80,0,0
53930,-100,4,3,9,80,0,0
54277,-100,4,3,8,80,0,0
56705,-100,4,3,7,80,0,0
57052,-100,4,3,8,80,0,0
58092,-100,4,3,10,80,0,0
58439,-100,4,3,8,80,0,0
58786,-100,4,3,9,80,0,0
59133,-100,4,3,8,80,0,0
59479,-100,4,3,7,80,0,0
59826,-100,4,3,8,80,0,0
60867,-100,4,3,11,80,0,0
61040,-100,4,3,5,80,0,0
62948,-100,4,3,5,75,0,0
63121,-100,4,3,5,60,0,0
63294,-100,4,3,2,90,0,0
63468,-100,4,3,2,55,0,0
63641,-133.333333333333,4,3,6,60,0,0
63815,-133.333333333333,4,3,4,60,0,0
63988,-133.333333333333,4,3,1,60,0,0
64161,-133.333333333333,4,3,4,60,0,0
64335,-133.333333333333,4,3,1,60,0,0
64508,-133.333333333333,4,3,4,60,0,0
64682,-133.333333333333,4,3,1,60,0,0
64855,-133.333333333333,4,3,4,60,0,0
65029,-133.333333333333,4,3,1,65,0,0
65202,-133.333333333333,4,3,4,65,0,0
65375,-133.333333333333,4,3,1,65,0,0
65549,-133.333333333333,4,3,4,65,0,0
65722,-133.333333333333,4,3,1,65,0,0
65896,-133.333333333333,4,3,4,65,0,0
66069,-133.333333333333,4,3,1,65,0,0
66242,-133.333333333333,4,3,4,65,0,0
66416,-133.333333333333,4,3,1,70,0,0
66589,-133.333333333333,4,3,4,70,0,0
66763,-133.333333333333,4,3,1,70,0,0
66936,-133.333333333333,4,3,4,70,0,0
67109,-133.333333333333,4,3,1,70,0,0
67283,-133.333333333333,4,3,4,70,0,0
67456,-133.333333333333,4,3,1,70,0,0
67630,-133.333333333333,4,3,4,70,0,0
67803,-111.111111111111,4,3,1,75,0,0
68844,-111.111111111111,4,3,1,55,0,0
68930,-111.111111111111,4,3,1,65,0,0
69017,-111.111111111111,4,3,1,75,0,0
69104,-111.111111111111,4,3,1,85,0,0
69190,-111.111111111111,4,3,3,70,0,0
69537,-111.111111111111,4,3,1,70,0,0
70751,-111.111111111111,4,3,4,70,0,0
70924,-111.111111111111,4,3,1,70,0,0
71098,-111.111111111111,4,3,4,70,0,0
71271,-111.111111111111,4,3,1,70,0,0
71445,-111.111111111111,4,3,4,70,0,0
71618,-111.111111111111,4,3,1,70,0,0
71792,-111.111111111111,4,3,4,70,0,0
71965,-111.111111111111,4,3,1,70,0,0
73526,-111.111111111111,4,3,4,70,0,0
73699,-111.111111111111,4,3,1,70,0,0
73872,-111.111111111111,4,3,4,70,0,0
74046,-111.111111111111,4,3,1,70,0,0
74219,-111.111111111111,4,3,4,70,0,0
74393,-111.111111111111,4,3,1,70,0,0
74566,-111.111111111111,4,3,4,70,0,0
74740,-111.111111111111,4,3,1,70,0,0
76300,-111.111111111111,4,3,4,70,0,0
76474,-111.111111111111,4,3,1,70,0,0
76647,-111.111111111111,4,3,4,70,0,0
76820,-111.111111111111,4,3,1,70,0,0
76994,-111.111111111111,4,3,4,70,0,0
77167,-111.111111111111,4,3,1,70,0,0
77341,-111.111111111111,4,3,4,70,0,0
77514,-111.111111111111,4,3,1,70,0,0
79075,-111.111111111111,4,3,4,70,0,0
79248,-111.111111111111,4,3,1,70,0,0
79422,-111.111111111111,4,3,4,70,0,0
79595,-111.111111111111,4,3,1,70,0,0
79768,-111.111111111111,4,3,4,70,0,0
79942,-111.111111111111,4,3,1,70,0,0
80115,-111.111111111111,4,3,2,70,0,0
80202,-111.111111111111,4,3,3,70,0,0
80289,-111.111111111111,4,3,5,75,0,0
80635,-111.111111111111,4,3,5,70,0,0
80722,-111.111111111111,4,3,4,70,0,0
80982,-111.111111111111,4,3,1,70,0,0
81069,-111.111111111111,4,3,4,70,0,0
81329,-111.111111111111,4,3,1,70,0,0
81416,-111.111111111111,4,3,4,70,0,0
81676,-111.111111111111,4,3,1,70,0,0
81763,-111.111111111111,4,3,4,70,0,0
82023,-111.111111111111,4,3,1,70,0,0
82109,-111.111111111111,4,3,4,70,0,0
82370,-111.111111111111,4,3,1,70,0,0
82456,-111.111111111111,4,3,4,70,0,0
82716,-111.111111111111,4,3,1,70,0,0
82803,-111.111111111111,4,3,4,70,0,0
83063,-111.111111111111,4,3,1,65,0,0
83583,-111.111111111111,4,3,2,65,0,0
83757,-111.111111111111,4,3,1,65,0,0
83930,-111.111111111111,4,3,2,65,0,0
84277,-111.111111111111,4,3,1,65,0,0
84450,-111.111111111111,4,3,2,65,0,0
84624,-111.111111111111,4,3,1,65,0,0
84971,-111.111111111111,4,3,2,65,0,0
85318,-111.111111111111,4,3,1,65,0,0
85664,-111.111111111111,4,3,3,65,0,0
85838,-111.111111111111,4,3,5,75,0,0
86185,-111.111111111111,4,3,5,70,0,0
86271,-111.111111111111,4,3,4,70,0,0
86531,-111.111111111111,4,3,1,70,0,0
86618,-111.111111111111,4,3,4,70,0,0
86878,-111.111111111111,4,3,1,70,0,0
86965,-111.111111111111,4,3,4,70,0,0
87225,-111.111111111111,4,3,1,70,0,0
87312,-111.111111111111,4,3,4,70,0,0
87572,-111.111111111111,4,3,1,70,0,0
87659,-111.111111111111,4,3,4,70,0,0
87919,-111.111111111111,4,3,1,70,0,0
88005,-111.111111111111,4,3,4,70,0,0
88266,-111.111111111111,4,3,1,70,0,0
88352,-111.111111111111,4,3,4,70,0,0
88612,-111.111111111111,4,3,6,70,0,0
90000,-111.111111111111,4,3,2,70,0,0
90086,-111.111111111111,4,3,1,70,0,0
90520,-111.111111111111,4,3,3,70,0,0
90867,-111.111111111111,4,3,5,75,0,0
91387,-100,4,3,7,80,0,0
91734,-100,4,3,8,80,0,0
94161,-100,4,3,9,80,0,0
94508,-100,4,3,8,80,0,0
96936,-100,4,3,7,80,0,0
97283,-100,4,3,8,80,0,0
98323,-100,4,3,10,80,0,0
98670,-100,4,3,8,80,0,0
99017,-100,4,3,9,80,0,0
99364,-100,4,3,8,80,0,0
99711,-100,4,3,7,80,0,0
100057,-100,4,3,8,80,0,0
100404,-100,4,3,2,80,0,0
100578,-100,4,3,1,80,0,0
100924,-100,4,3,2,80,0,0
101098,-100,4,3,1,80,0,0
101445,-100,4,3,2,80,0,0
101618,-100,4,3,1,80,0,0
101965,-100,4,3,2,80,0,0
102138,-100,4,3,1,80,0,0
102485,-100,4,3,7,80,0,0
102832,-100,4,3,8,80,0,0
105260,-100,4,3,9,80,0,0
105607,-100,4,3,8,80,0,0
108034,-100,4,3,7,80,0,0
108381,-100,4,3,8,80,0,0
109422,-100,4,3,10,80,0,0
109768,-100,4,3,8,80,0,0
110115,-100,4,3,9,80,0,0
110462,-100,4,3,8,80,0,0
110809,-100,4,3,7,80,0,0
111156,-100,4,3,8,80,0,0
112196,-100,4,3,11,80,0,0
112370,-100,4,3,5,80,0,0
114624,-100,4,3,4,80,0,0
114711,-100,4,3,6,80,0,0
114971,-117.647058823529,4,3,6,75,0,0
115144,-117.647058823529,4,3,8,75,0,0
120000,-117.647058823529,4,3,12,75,0,0
120173,-117.647058823529,4,3,6,75,0,0
120520,-117.647058823529,4,3,3,75,0,0
120693,-117.647058823529,4,3,8,75,0,0
124682,-117.647058823529,4,3,5,75,0,0
126069,-117.647058823529,4,3,6,75,0,0
126242,-117.647058823529,4,3,8,75,0,0
131098,-117.647058823529,4,3,12,75,0,0
131271,-117.647058823529,4,3,6,75,0,0
131618,-117.647058823529,4,3,3,75,0,0
131792,-117.647058823529,4,3,8,75,0,0
133005,-117.647058823529,4,3,5,75,0,0
133179,-117.647058823529,4,3,8,75,0,0
134046,-117.647058823529,4,3,5,75,0,0
134219,-117.647058823529,4,3,8,75,0,0
134393,-117.647058823529,4,3,6,75,0,0
134740,-117.647058823529,4,3,4,50,0,0
134913,-117.647058823529,4,3,4,55,0,0
135086,-117.647058823529,4,3,4,60,0,0
135260,-117.647058823529,4,3,4,65,0,0
135433,-117.647058823529,4,3,4,75,0,0
135607,-117.647058823529,4,3,4,80,0,0
135780,-117.647058823529,4,3,1,90,0,0
137167,-117.647058823529,4,3,1,40,0,0
146185,-111.111111111111,4,3,2,75,0,0
146358,-111.111111111111,4,3,1,75,0,0
146705,-111.111111111111,4,3,2,75,0,0
146878,-111.111111111111,4,3,1,70,0,0
147225,-111.111111111111,4,3,13,70,0,0
147398,-111.111111111111,4,3,1,80,0,0
147745,-111.111111111111,4,3,13,80,0,0
147919,-111.111111111111,4,3,1,90,0,0
148266,-100,4,3,7,80,0,0
148612,-100,4,3,8,80,0,0
151040,-100,4,3,9,80,0,0
151387,-100,4,3,8,80,0,0
153815,-100,4,3,7,80,0,0
154161,-100,4,3,8,80,0,0
155202,-100,4,3,10,80,0,0
155549,-100,4,3,8,80,0,0
155896,-100,4,3,9,80,0,0
156242,-100,4,3,8,80,0,0
156589,-100,4,3,7,80,0,0
156936,-100,4,3,8,80,0,0
157283,-100,4,3,2,80,0,0
157456,-100,4,3,1,80,0,0
157803,-100,4,3,2,80,0,0
157977,-100,4,3,1,80,0,0
159364,-100,4,3,7,80,0,0
159711,-100,4,3,8,80,0,0
162138,-100,4,3,10,80,0,0
162485,-100,4,3,8,80,0,0
164913,-100,4,3,7,80,0,0
165260,-100,4,3,8,80,0,0
166300,-100,4,3,10,80,0,0
166647,-100,4,3,8,80,0,0
166994,-100,4,3,9,80,0,0
167341,-100,4,3,8,80,0,0
167687,-100,4,3,7,80,0,0
168034,-100,4,3,8,80,0,0
169075,-100,4,3,11,80,0,0
169248,-100,4,3,1,80,0,0
171156,-100,4,3,14,75,0,0
171329,-100,4,3,14,60,0,0
171503,-100,4,3,2,90,0,0
171676,-100,4,3,2,55,0,0
171849,-133.333333333333,4,3,6,60,0,0
172023,-133.333333333333,4,3,4,60,0,0
172196,-133.333333333333,4,3,1,60,0,0
172370,-133.333333333333,4,3,4,60,0,0
172543,-133.333333333333,4,3,1,60,0,0
172716,-133.333333333333,4,3,4,60,0,0
172890,-133.333333333333,4,3,1,60,0,0
173063,-133.333333333333,4,3,4,60,0,0
173237,-133.333333333333,4,3,1,65,0,0
173410,-133.333333333333,4,3,4,65,0,0
173583,-133.333333333333,4,3,1,65,0,0
173757,-133.333333333333,4,3,4,65,0,0
173930,-133.333333333333,4,3,1,65,0,0
174104,-133.333333333333,4,3,4,65,0,0
174277,-133.333333333333,4,3,1,65,0,0
174450,-133.333333333333,4,3,4,65,0,0
174624,-133.333333333333,4,3,1,70,0,0
174797,-133.333333333333,4,3,4,70,0,0
174971,-133.333333333333,4,3,1,70,0,0
175144,-133.333333333333,4,3,4,70,0,0
175318,-133.333333333333,4,3,1,70,0,0
175491,-133.333333333333,4,3,4,70,0,0
175664,-133.333333333333,4,3,1,70,0,0
175838,-133.333333333333,4,3,4,70,0,0
176011,-111.111111111111,4,3,1,90,0,0
176185,-111.111111111111,4,3,1,75,0,0
176531,-111.111111111111,4,3,2,90,0,0
176618,-111.111111111111,4,3,2,75,0,0
176705,-111.111111111111,4,3,1,55,0,0
176792,-111.111111111111,4,3,1,60,0,0
176878,-111.111111111111,4,3,1,66,0,0
176965,-111.111111111111,4,3,1,71,0,0
177052,-111.111111111111,4,3,1,77,0,0
177138,-111.111111111111,4,3,1,83,0,0
177225,-111.111111111111,4,3,1,88,0,0
177312,-111.111111111111,4,3,1,95,0,0

[Colours]
Combo1 : 17,254,176
Combo2 : 173,255,95
Combo3 : 255,88,100
Combo4 : 255,94,55

[HitObjects]
1,111,1214,6,0,P|32:105|59:112,1,56.2500021457673,6|0,3:3|0:0,0:0:0:0:
72,33,1560,2,0,P|101:43|122:63,1,56.2500021457673,6|0,3:3|0:0,0:0:0:0:
173,0,1907,2,0,P|193:24|201:51,1,56.2500021457673,6|0,3:3|0:0,0:0:0:0:
276,23,2254,2,0,P|281:54|274:81,1,56.2500021457673,6|0,3:3|0:0,0:0:0:0:
224,152,2601,5,6,3:3:0:0:
224,152,2774,2,0,L|166:145,2,56.2500021457673,0|6|0,0:0|3:3|0:0,0:0:0:0:
290,213,3294,2,0,L|345:206,1,56.2500021457673,6|0,3:3|0:0,0:0:0:0:
416,149,3641,1,6,3:3:0:0:
416,149,3815,1,0,0:0:0:0:
484,207,3988,6,0,L|493:269,1,56.2500021457673,6|0,3:3|0:0,0:0:0:0:
444,325,4335,2,0,L|382:334,1,56.2500021457673,6|0,3:3|0:0,0:0:0:0:
323,378,4682,2,0,L|261:369,1,56.2500021457673,6|0,3:3|0:0,0:0:0:0:
219,306,5029,2,0,L|228:244,1,56.2500021457673,6|0,3:3|0:0,0:0:0:0:
284,181,5375,5,6,3:3:0:0:
284,181,5549,2,0,P|315:176|353:187,2,56.2500021457673,0|6|0,0:0|3:3|0:0,0:0:0:0:
216,121,6069,2,0,P|205:91|200:63,1,56.2500021457673,6|0,3:3|0:0,0:0:0:0:
127,13,6416,2,0,P|116:43|111:71,1,56.2500021457673,6|0,3:3|0:0,0:0:0:0:
125,155,6763,5,6,3:3:0:0:
79,219,6936,1,0,1:1:0:0:
79,219,7109,2,0,L|19:226,1,56.2500021457673,6|0,1:3|1:1,0:0:0:0:
121,287,7456,2,0,L|176:293,1,56.2500021457673,6|0,1:3|1:1,0:0:0:0:
242,346,7803,1,6,1:3:0:0:
242,346,7977,1,0,1:1:0:0:
311,281,8150,6,0,P|344:270|368:264,2,56.2500021457673,6|0|6,1:3|1:1|1:3,0:0:0:0:
253,226,8670,2,0,P|247:193|252:165,1,56.2500021457673,0|6,1:1|3:3,0:0:0:0:
294,105,9017,2,0,P|297:77|291:49,1,56.2500021457673,0|6,1:1|3:3,0:0:0:0:
190,18,9364,6,0,P|254:33|319:45,1,112.500004291535,0|0,1:1|1:1,0:0:0:0:
371,74,9884,2,0,P|402:65|429:59,1,56.2500021457673,6|0,1:3|1:1,0:0:0:0:
504,64,10231,2,0,P|497:36|489:9,2,56.2500021457673,6|0|6,1:3|1:1|1:3,0:0:0:0:
462,150,10751,6,0,P|502:172|505:247,1,112.500004291535,0|0,1:1|1:1,0:0:0:0:
450,282,11271,1,6,1:3:0:0:
450,282,11445,2,0,P|402:273|368:269,1,56.2500021457673,0|6,1:1|3:3,0:0:0:0:
338,216,11792,2,0,P|290:225|256:229,1,56.2500021457673,0|6,1:1|3:3,0:0:0:0:
249,328,12138,6,0,P|260:286|275:213,1,112.500004291535,0|0,1:1|1:1,0:0:0:0:
207,175,12659,2,0,L|199:114,1,56.2500021457673,6|0,1:3|1:1,0:0:0:0:
249,59,13005,1,6,1:3:0:0:
249,59,13179,1,0,1:1:0:0:
196,0,13352,1,6,1:3:0:0:
63,85,13699,6,0,P|58:54|63:24,2,56.2500021457673,6|0|6,1:3|1:1|1:3,0:0:0:0:
7,141,14219,2,0,P|15:169|22:208,1,56.2500021457673,0|6,1:1|3:3,0:0:0:0:
95,220,14566,2,0,P|88:247|82:274,1,56.2500021457673,0|6,1:1|3:3,0:0:0:0:
20,358,14913,6,0,P|33:315|116:288,1,112.500004291535,0|0,1:1|1:1,0:0:0:0:
157,325,15433,2,0,P|193:332|230:337,1,56.2500021457673,6|0,1:3|1:1,0:0:0:0:
286,302,15780,1,6,1:3:0:0:
286,302,15953,1,0,1:1:0:0:
353,342,16127,1,6,1:3:0:0:
501,290,16474,5,10,3:3:0:0:
478,197,16647,1,8,3:3:0:0:
303,64,17167,5,8,3:3:0:0:
280,157,17340,1,8,3:3:0:0:
215,202,17514,2,0,L|180:197,3,28.1250010728836,8|8|8|8,1:3|3:3|3:3|3:3,0:0:0:0:
151,166,17861,6,0,P|162:226|176:314,1,134.999995880127,6|10,3:3|1:3,0:0:0:0:
121,369,18381,1,0,1:1:0:0:
48,318,18555,2,0,P|42:283|36:248,1,67.4999979400635,6|0,1:3|1:1,0:0:0:0:
66,171,18901,1,10,1:3:0:0:
66,171,19075,1,0,1:1:0:0:
81,71,19248,6,0,P|44:78|13:83,2,67.4999979400635,4|2|8,1:3|1:3|1:3,0:0:0:0:
147,13,19768,2,0,P|183:7|224:18,1,67.4999979400635,2|4,1:3|3:3,0:0:0:0:
277,73,20115,2,0,P|283:109|272:150,1,67.4999979400635,2|8,1:3|3:3,0:0:0:0:
179,168,20462,6,0,P|191:229|207:316,1,134.999995880127,2|0,1:3|1:1,0:0:0:0:
264,364,20982,2,0,P|304:371|341:379,1,67.4999979400635,10|0,1:3|1:1,0:0:0:0:
400,323,21329,2,0,P|440:316|477:308,1,67.4999979400635,6|0,1:3|1:1,0:0:0:0:
503,232,21676,1,10,1:3:0:0:
503,232,21849,1,0,1:1:0:0:
419,174,22023,6,0,P|385:179|352:186,2,67.4999979400635,4|2|8,1:3|1:3|1:3,0:0:0:0:
479,92,22543,2,0,P|465:51|371:34,1,134.999995880127,2|2,1:3|1:3,0:0:0:0:
313,81,23063,1,8,3:3:0:0:
226,49,23237,1,2,1:3:0:0:
226,49,23323,1,0,0:0:0:0:
226,49,23410,6,0,P|220:87|230:122,1,67.4999979400635,4|0,3:3|1:1,0:0:0:0:
299,164,23757,2,0,P|305:196|298:229,1,67.4999979400635,10|0,1:3|1:1,0:0:0:0:
228,282,24104,2,0,P|220:326|214:357,1,67.4999979400635,6|0,1:3|1:1,0:0:0:0:
136,380,24450,1,10,1:3:0:0:
136,380,24624,1,0,1:1:0:0:
69,303,24797,6,0,P|34:311|-6:318,2,67.4999979400635,4|2|8,1:3|1:3|1:3,0:0:0:0:
124,233,25318,2,0,P|132:198|123:159,1,67.4999979400635,2|4,1:3|3:3,0:0:0:0:
65,105,25664,2,0,P|57:70|66:31,1,67.4999979400635,2|8,1:3|3:3,0:0:0:0:
159,70,26011,6,0,B|207:62|207:62|241:83|241:83|311:72,1,134.999995880127,2|0,1:3|1:1,0:0:0:0:
364,35,26531,2,0,L|372:107,1,67.4999979400635,10|0,1:3|1:1,0:0:0:0:
301,155,26878,2,0,L|293:222,1,67.4999979400635,6|0,1:3|1:1,0:0:0:0:
220,271,27225,2,0,L|228:343,1,67.4999979400635,10|0,1:3|0:0,0:0:0:0:
325,380,27572,5,4,3:3:0:0:
325,380,27745,1,2,3:3:0:0:
388,318,27919,2,0,P|424:311|463:320,1,67.4999979400635,8|2,1:3|1:3,0:0:0:0:
512,235,28266,5,4,3:3:0:0:
512,235,28439,1,2,3:3:0:0:
446,176,28612,2,0,L|402:182,3,33.7499989700318,8|8|8|8,1:3|3:3|3:3|3:3,0:0:0:0:
376,206,28959,6,0,P|332:197|296:188,1,67.4999979400635,6|0,3:3|0:0,0:0:0:0:
272,112,29306,2,0,P|239:119|206:126,1,67.4999979400635,8|4,3:3|3:3,0:0:0:0:
96,78,29653,2,0,P|136:73|198:148,1,134.999995880127,4|8,1:3|3:3,0:0:0:0:
156,215,30173,1,4,3:3:0:0:
156,215,30346,6,0,P|96:204|20:192,1,134.999995880127,4|8,1:3|3:3,0:0:0:0:
5,282,30867,1,4,3:3:0:0:
5,282,31040,2,0,P|71:292|138:304,1,134.999995880127,4|8,1:3|3:3,0:0:0:0:
298,377,31734,6,0,P|312:346|319:313,1,67.4999979400635,4|4,1:3|3:3,0:0:0:0:
398,274,32081,2,0,P|383:243|376:210,1,67.4999979400635,8|4,3:3|3:3,0:0:0:0:
433,143,32427,1,4,3:3:0:0:
372,78,32601,1,8,3:3:0:0:
295,120,32774,2,0,P|255:126|221:120,1,67.4999979400635,8|4,3:3|1:3,0:0:0:0:
155,73,33121,6,0,L|164:5,2,67.4999979400635,4|8|8,1:3|3:3|1:3,0:0:0:0:
85,127,33641,1,4,1:3:0:0:
85,127,33728,1,8,3:3:0:0:
85,127,33815,2,0,L|96:197,1,67.4999979400635,4|8,3:3|1:3,0:0:0:0:
51,269,34161,1,4,3:3:0:0:
117,326,34335,1,8,1:3:0:0:
117,326,34422,1,8,3:3:0:0:
117,326,34508,6,0,P|150:331|182:341,1,67.4999979400635,6|0,3:3|0:0,0:0:0:0:
242,276,34855,2,0,P|275:270|307:260,1,67.4999979400635,8|4,3:3|3:3,0:0:0:0:
407,332,35202,2,0,P|360:336|317:262,1,134.999995880127,4|8,1:3|3:3,0:0:0:0:
267,201,35722,1,4,3:3:0:0:
267,201,35896,6,0,P|280:119|290:59,1,134.999995880127,4|8,1:3|3:3,0:0:0:0:
378,52,36416,1,4,3:3:0:0:
378,52,36590,2,0,P|364:134|355:193,1,134.999995880127,4|8,1:3|3:3,0:0:0:0:
229,343,37283,6,0,B|159:321|170:374|95:356,1,134.999995880127,6|8,1:3|3:3,0:0:0:0:
1,382,37803,1,8,3:3:0:0:
48,291,37977,1,8,3:3:0:0:
17,194,38150,1,8,3:3:0:0:
68,107,38323,2,0,P|59:65|51:32,1,67.4999979400635,8|8,1:3|3:3,0:0:0:0:
167,122,38670,6,0,P|158:164|150:197,1,67.4999979400635,8|8,1:3|3:3,0:0:0:0:
142,233,38930,1,8,3:3:0:0:
142,233,39017,1,4,3:3:0:0:
254,211,39190,1,8,3:3:0:0:
383,57,40057,6,0,P|424:50|458:44,1,75,6|0,1:3|1:1,0:0:0:0:
394,146,40404,2,0,P|357:139|320:133,1,75,10|0,1:3|1:1,0:0:0:0:
217,65,40751,2,0,P|263:60|306:147,1,150,6|10,1:3|3:3,0:0:0:0:
265,219,41271,1,0,1:1:0:0:
152,217,41445,6,0,P|146:178|140:141,2,75,6|0|10,1:3|1:1|1:3,0:0:0:0:
87,279,41965,2,0,P|124:263|228:303,1,150,0|0,1:1|0:0,0:0:0:0:
284,362,42485,1,10,3:3:0:0:
352,303,42659,1,0,1:1:0:0:
458,351,42832,5,6,1:3:0:0:
458,351,43005,2,0,P|468:312|461:271,1,75,0|10,1:1|1:3,0:0:0:0:
410,204,43352,2,0,P|456:195|493:190,1,75,0|6,1:1|3:3,0:0:0:0:
364,128,43699,2,0,P|318:119|281:114,1,75,0|10,1:1|3:3,0:0:0:0:
190,206,44046,6,0,P|242:203|265:96,1,150,0|0,1:1|0:0,0:0:0:0:
221,51,44566,2,0,P|181:59|145:65,1,75,10|0,3:3|0:0,0:0:0:0:
75,18,44913,1,6,1:3:0:0:
75,18,45086,1,0,1:1:0:0:
17,88,45260,1,10,1:3:0:0:
17,88,45433,1,0,1:1:0:0:
83,179,45607,6,0,P|94:244|103:290,1,112.5,6|0,1:3|0:0,0:0:0:0:
108,326,45953,2,0,P|149:318|194:316,1,75,10|0,1:3|0:0,0:0:0:0:
273,382,46300,6,0,P|284:316|293:270,1,112.5,6|0,1:3|0:0,0:0:0:0:
298,235,46646,2,0,P|339:243|384:245,1,75,10|0,1:3|0:0,0:0:0:0:
477,288,46994,6,0,P|488:249|479:208,1,75,6|0,1:3|0:0,0:0:0:0:
501,127,47341,2,0,P|472:97|432:85,1,75,10|0,1:3|0:0,0:0:0:0:
378,21,47687,2,0,P|329:31|261:107,1,150,6|10,1:3|3:3,0:0:0:0:
306,192,48208,1,0,0:0:0:0:
306,192,48294,1,0,0:0:0:0:
306,192,48381,6,0,P|296:238|289:271,1,75,6|0,3:3|0:0,0:0:0:0:
346,335,48728,1,10,1:3:0:0:
270,383,48901,2,0,P|224:374|186:367,1,75,0|8,1:1|3:3,0:0:0:0:
127,310,49248,2,0,L|89:315,4,37.5,8|8|8|8|8,1:3|3:3|3:3|3:3|1:3,0:0:0:0:
152,190,49768,6,0,L|160:237,4,37.5,8|8|8|8|8,1:3|3:3|3:3|3:3|3:3,0:0:0:0:
93,120,50289,2,0,L|48:103,4,37.5,8|8|8|8|8,1:3|3:3|3:3|3:3|3:3,0:0:0:0:
181,104,50809,2,0,L|217:73,3,37.5,8|8|8|8,1:3|3:3|3:3|3:3,0:0:0:0:
223,36,51156,6,0,P|266:47|316:57,1,75,6|0,1:3|0:0,0:0:0:0:
333,135,51503,2,0,P|376:124|426:114,1,75,10|0,1:3|1:1,0:0:0:0:
471,56,51849,1,6,1:3:0:0:
471,56,52023,1,0,1:1:0:0:
512,141,52196,1,10,1:3:0:0:
512,141,52370,1,0,1:1:0:0:
457,212,52543,6,0,P|448:254|441:291,1,75,6|0,1:3|1:1,0:0:0:0:
362,353,52890,2,0,P|354:316|346:279,1,75,10|0,1:3|1:1,0:0:0:0:
256,194,53237,2,0,P|260:233|362:263,1,150,6|10,1:3|3:3,0:0:0:0:
406,196,53757,1,0,1:1:0:0:
351,97,53930,6,0,P|390:105|432:112,2,75,6|0|10,1:3|1:1|1:3,0:0:0:0:
290,29,54450,2,0,P|251:36|211:40,1,75,0|6,1:1|3:3,0:0:0:0:
158,109,54797,2,0,P|119:102|79:98,1,75,0|10,1:1|3:3,0:0:0:0:
8,14,55144,6,0,P|22:68|38:161,1,150,0|0,1:1|0:0,0:0:0:0:
123,191,55664,2,0,P|115:231|110:270,1,75,10|0,3:3|0:0,0:0:0:0:
44,325,56011,1,6,1:3:0:0:
44,325,56185,1,0,1:1:0:0:
119,382,56358,1,10,1:3:0:0:
119,382,56532,1,0,1:1:0:0:
213,320,56705,6,0,P|247:297|321:299,1,112.5,6|0,1:3|0:0,0:0:0:0:
349,315,57052,2,0,P|357:271|363:239,1,75,10|0,1:3|0:0,0:0:0:0:
436,157,57398,6,0,P|402:134|328:136,1,112.5,6|0,1:3|0:0,0:0:0:0:
300,152,57745,2,0,P|292:108|286:76,1,75,10|0,1:3|0:0,0:0:0:0:
202,2,58092,6,0,P|189:40|183:87,1,75,6|0,1:3|0:0,0:0:0:0:
100,110,58439,2,0,P|97:150|103:197,1,75,10|0,1:3|0:0,0:0:0:0:
28,239,58786,2,0,P|36:293|65:392,1,150,6|10,1:3|3:3,0:0:0:0:
143,340,59306,1,0,0:0:0:0:
143,340,59393,1,0,0:0:0:0:
143,340,59479,6,0,P|187:334|231:346,1,75,6|0,3:3|0:0,0:0:0:0:
296,382,59826,1,10,1:3:0:0:
359,317,60000,2,0,P|349:266|343:231,1,75,0|6,1:1|3:3,0:0:0:0:
410,182,60346,2,0,P|416:145|423:108,1,75,0|10,1:1|3:3,0:0:0:0:
438,19,60693,1,0,1:1:0:0:
329,50,60867,5,14,3:3:0:0:
249,13,61040,1,8,3:3:0:0:
249,13,61127,1,8,3:3:0:0:
249,13,61214,2,0,L|199:20,3,37.5,12|8|8|8,3:3|3:3|1:3|3:3,0:0:0:0:
175,50,61560,2,0,L|125:57,3,37.5,12|8|8|8,3:3|3:3|3:3|3:3,0:0:0:0:
100,86,61907,2,0,L|50:93,3,37.5,12|8|8|8,1:3|3:3|3:3|3:3,0:0:0:0:
32,129,62254,6,0,P|28:154|34:183,3,37.5,12|8|8|8,3:3|3:3|3:3|3:3,0:0:0:0:
60,203,62601,2,0,P|64:228|58:257,3,37.5,12|8|8|8,3:3|3:3|1:3|3:3,0:0:0:0:
36,281,62948,2,0,P|91:271|188:254,1,150,6|8,1:3|1:3,0:0:0:0:
341,263,63641,6,0,P|336:229|343:203,1,56.2500021457673,6|2,3:3|3:3,0:0:0:0:
279,158,63988,2,0,P|305:136|331:129,1,56.2500021457673,4|2,3:3|3:3,0:0:0:0:
339,52,64335,2,0,P|370:64|389:83,1,56.2500021457673,4|2,3:3|3:3,0:0:0:0:
460,50,64682,2,0,P|465:84|458:110,1,56.2500021457673,4|2,3:3|3:3,0:0:0:0:
421,186,65029,6,0,P|432:240|444:306,1,112.500004291535,4|4,3:3|3:3,0:0:0:0:
488,367,65549,1,2,3:3:0:0:
488,367,65722,2,0,P|439:354|368:345,1,112.500004291535,4|4,3:3|3:3,0:0:0:0:
351,276,66242,1,2,3:3:0:0:
351,276,66416,6,0,L|291:284,1,56.2500021457673,4|2,3:3|3:3,0:0:0:0:
257,352,66763,2,0,L|197:344,1,56.2500021457673,4|2,3:3|3:3,0:0:0:0:
166,273,67109,2,0,L|106:281,1,56.2500021457673,4|2,3:3|3:3,0:0:0:0:
72,349,67456,2,0,L|12:341,1,56.2500021457673,4|2,3:3|3:3,0:0:0:0:
24,247,67803,6,0,L|18:211,4,33.7499989700318,8|8|8|8|12,3:3|3:3|3:3|3:3|3:3,0:0:0:0:
106,187,68323,2,0,L|100:151,4,33.7499989700318,8|8|12|8|8,3:3|3:3|3:3|3:3|3:3,0:0:0:0:
188,127,68844,2,0,L|182:91,3,33.7499989700318,12|8|8|8,3:3|3:3|3:3|3:3,0:0:0:0:
164,50,69190,6,0,P|207:60|299:78,1,134.999995880127,6|10,3:3|1:3,0:0:0:0:
375,38,69711,1,0,1:1:0:0:
432,104,69884,2,0,P|425:141|419:174,1,67.4999979400635,6|0,1:3|1:1,0:0:0:0:
365,240,70231,1,10,1:3:0:0:
365,240,70404,1,0,1:1:0:0:
446,300,70578,6,0,P|484:294|515:301,2,67.4999979400635,4|2|8,1:3|1:3|1:3,0:0:0:0:
395,371,71098,2,0,L|327:362,1,67.4999979400635,2|4,1:3|3:3,0:0:0:0:
270,295,71445,2,0,L|202:304,1,67.4999979400635,2|8,1:3|3:3,0:0:0:0:
92,345,71792,6,0,P|150:353|194:294,1,134.999995880127,2|0,1:3|1:1,0:0:0:0:
140,227,72312,2,0,P|133:193|125:153,1,67.4999979400635,10|0,1:3|1:1,0:0:0:0:
66,96,72659,2,0,P|33:85|-5:71,2,67.4999979400635,6|0|10,1:3|1:1|1:3,0:0:0:0:
151,76,73179,6,0,P|202:44|278:2,1,134.999995880127,0|2,1:1|1:3,0:0:0:0:
355,35,73699,1,8,1:3:0:0:
355,35,73872,2,0,L|346:104,1,67.4999979400635,2|4,1:3|3:3,0:0:0:0:
282,162,74219,2,0,L|291:231,1,67.4999979400635,2|8,1:3|3:3,0:0:0:0:
202,279,74566,6,0,P|254:269|329:338,1,134.999995880127,2|0,1:3|1:1,0:0:0:0:
398,350,75086,2,0,P|433:346|467:320,1,67.4999979400635,10|0,1:3|1:1,0:0:0:0:
509,257,75433,1,6,1:3:0:0:
509,257,75607,1,0,1:1:0:0:
467,179,75780,1,10,1:3:0:0:
434,20,76127,6,0,P|470:14|507:22,2,67.4999979400635,4|2|8,1:3|1:3|1:3,0:0:0:0:
367,78,76647,2,0,L|301:69,1,67.4999979400635,2|4,1:3|3:3,0:0:0:0:
235,128,76994,2,0,L|169:137,1,67.4999979400635,2|8,1:3|3:3,0:0:0:0:
138,12,77341,6,0,P|146:59|163:158,1,134.999995880127,2|0,1:3|1:1,0:0:0:0:
114,219,77861,2,0,P|66:210|37:206,1,67.4999979400635,10|0,1:3|1:1,0:0:0:0:
27,293,78208,2,0,P|75:302|104:306,1,67.4999979400635,6|0,1:3|1:1,0:0:0:0:
155,366,78555,2,0,P|203:357|232:353,1,67.4999979400635,10|0,1:3|0:0,0:0:0:0:
322,331,78901,5,4,3:3:0:0:
322,331,79075,1,2,3:3:0:0:
257,271,79248,2,0,P|263:234|268:203,1,67.4999979400635,8|2,1:3|1:3,0:0:0:0:
211,125,79595,5,4,3:3:0:0:
211,125,79769,1,2,3:3:0:0:
287,82,79942,2,0,P|293:45|298:14,1,67.4999979400635,8|8,1:3|3:3,0:0:0:0:
313,6,80202,1,8,3:3:0:0:
313,6,80289,6,0,P|353:-1|397:10,1,67.4999979400635,6|0,3:3|0:0,0:0:0:0:
446,59,80635,2,0,P|478:65|512:61,1,67.4999979400635,8|4,3:3|3:3,0:0:0:0:
479,150,80982,2,0,P|433:156|338:178,1,134.999995880127,4|8,1:3|3:3,0:0:0:0:
291,245,81503,1,4,3:3:0:0:
291,245,81676,6,0,P|246:233|149:218,1,134.999995880127,4|8,1:3|3:3,0:0:0:0:
87,270,82196,1,4,3:3:0:0:
87,270,82370,2,0,P|32:277|5:358,1,134.999995880127,4|8,1:3|3:3,0:0:0:0:
174,373,83063,5,4,1:3:0:0:
252,328,83237,1,8,3:3:0:0:
252,328,83323,1,4,3:3:0:0:
252,328,83410,2,0,L|303:322,3,33.7499989700318,8|4|8|4,3:3|3:3|3:3|3:3,0:0:0:0:
321,349,83757,2,0,L|372:343,3,33.7499989700318,8|4|8|4,3:3|3:3|3:3|3:3,0:0:0:0:
390,370,84104,2,0,L|441:364,3,33.7499989700318,8|4|8|4,3:3|3:3|3:3|3:3,0:0:0:0:
450,331,84450,6,0,P|458:307|458:287,3,33.7499989700318,12|4|8|4,1:3|3:3|3:3|3:3,0:0:0:0:
455,254,84797,1,8,1:3:0:0:
377,211,84971,2,0,P|369:187|369:167,3,33.7499989700318,8|4|12|4,1:3|3:3|3:3|3:3,0:0:0:0:
372,134,85318,1,8,1:3:0:0:
436,74,85491,2,0,P|444:50|444:30,3,33.7499989700318,8|4|8|8,3:3|3:3|1:3|3:3,0:0:0:0:
489,17,85838,6,0,P|430:25|327:50,1,134.999995880127,6|8,3:3|3:3,0:0:0:0:
285,8,86358,1,4,3:3:0:0:
285,8,86445,1,4,3:3:0:0:
285,8,86531,2,0,P|265:52|180:72,1,134.999995880127,4|8,1:3|3:3,0:0:0:0:
84,217,87225,6,0,P|145:226|242:248,1,134.999995880127,4|8,1:3|3:3,0:0:0:0:
287,188,87745,1,4,3:3:0:0:
287,188,87919,2,0,P|346:173|445:157,1,134.999995880127,4|8,1:3|3:3,0:0:0:0:
509,311,88612,5,6,1:3:0:0:
443,370,88786,2,0,P|399:362|372:359,1,67.4999979400635,8|4,3:3|3:3,0:0:0:0:
336,358,89046,1,8,3:3:0:0:
336,358,89133,1,4,3:3:0:0:
271,299,89306,2,0,P|240:339|183:340,1,101.249996910095,8|8,3:3|3:3,0:0:0:0:
179,333,89653,2,0,P|136:339|108:344,1,67.4999979400635,4|8,1:3|3:3,0:0:0:0:
16,378,90000,6,0,L|23:335,3,33.7499989700318,12|8|8|8,1:3|3:3|3:3|3:3,0:0:0:0:
5,297,90346,2,0,L|12:254,3,33.7499989700318,4|4|8|4,3:3|3:3|3:3|3:3,0:0:0:0:
45,226,90693,2,0,P|52:190|60:153,1,67.4999979400635,4|10,3:3|1:3,0:0:0:0:
20,80,91040,5,8,3:3:0:0:
39,53,91127,1,8,3:3:0:0:
67,36,91213,1,8,1:3:0:0:
100,34,91300,1,8,3:3:0:0:
131,47,91387,6,0,P|173:38|211:28,1,75,6|0,1:3|1:1,0:0:0:0:
268,93,91734,2,0,P|310:102|348:112,1,75,10|0,1:3|1:1,0:0:0:0:
449,186,92081,2,0,P|402:184|357:84,1,150,6|10,1:3|3:3,0:0:0:0:
290,256,92774,6,0,P|299:300|304:332,1,75,6|0,1:3|1:1,0:0:0:0:
228,380,93121,1,10,1:3:0:0:
158,322,93294,1,0,1:1:0:0:
76,361,93468,2,0,P|65:292|45:201,1,150,6|10,1:3|3:3,0:0:0:0:
95,136,93988,1,0,1:1:0:0:
78,29,94161,5,6,1:3:0:0:
78,29,94335,2,0,P|32:38|3:44,1,75,0|10,1:1|1:3,0:0:0:0:
95,136,94682,2,0,P|123:115|168:105,1,75,0|6,1:1|3:3,0:0:0:0:
207,27,95029,2,0,P|241:25|284:43,1,75,0|10,1:1|3:3,0:0:0:0:
380,13,95375,6,0,P|389:80|406:182,1,150,0|0,1:1|0:0,0:0:0:0:
471,220,95896,2,0,P|464:264|460:299,1,75,10|0,3:3|0:0,0:0:0:0:
400,361,96242,1,6,1:3:0:0:
400,361,96416,1,0,1:1:0:0:
334,307,96589,1,10,1:3:0:0:
334,307,96763,1,0,1:1:0:0:
246,376,96936,6,0,P|235:311|225:261,1,112.5,6|0,1:3|0:0,0:0:0:0:
219,228,97283,2,0,P|227:191|235:153,1,75,10|0,1:3|0:0,0:0:0:0:
331,95,97630,6,0,P|298:57|218:44,1,112.5,6|0,1:3|0:0,0:0:0:0:
202,47,97977,2,0,P|166:66|121:66,1,75,10|0,1:3|0:0,0:0:0:0:
33,13,98323,6,0,P|19:57|25:95,1,75,6|0,1:3|0:0,0:0:0:0:
0,172,98670,2,0,P|31:206|67:219,1,75,10|0,1:3|0:0,0:0:0:0:
111,289,99017,2,0,P|175:291|265:225,1,150,6|10,1:3|3:3,0:0:0:0:
304,181,99537,1,0,0:0:0:0:
304,181,99624,1,0,0:0:0:0:
304,181,99711,6,0,P|297:141|292:103,1,75,6|0,3:3|0:0,0:0:0:0:
238,35,100057,1,10,1:3:0:0:
326,18,100231,2,0,P|366:11|404:6,1,75,0|8,1:1|3:3,0:0:0:0:
444,85,100578,2,0,L|402:91,4,37.5,8|8|8|8|8,1:3|3:3|3:3|3:3|1:3,0:0:0:0:
304,181,101098,6,0,L|341:186,4,37.5,8|8|8|8|8,1:3|3:3|3:3|3:3|3:3,0:0:0:0:
409,257,101618,2,0,L|446:251,4,37.5,8|8|8|8|8,1:3|3:3|3:3|3:3|3:3,0:0:0:0:
327,303,102138,2,0,L|289:297,3,37.5,8|8|8|8,1:3|3:3|3:3|3:3,0:0:0:0:
253,271,102485,6,0,P|210:280|168:290,1,75,6|0,1:3|0:0,0:0:0:0:
129,362,102832,2,0,P|86:353|44:343,1,75,10|0,1:3|0:0,0:0:0:0:
11,273,103179,1,6,1:3:0:0:
11,273,103352,1,0,1:1:0:0:
88,224,103526,1,10,1:3:0:0:
88,224,103699,1,0,1:1:0:0:
72,112,103872,6,0,P|29:120|-8:129,1,75,6|0,1:3|1:1,0:0:0:0:
107,32,104219,2,0,P|150:40|187:49,1,75,10|0,1:3|1:1,0:0:0:0:
281,119,104566,2,0,P|214:111|200:24,1,150,6|10,1:3|3:3,0:0:0:0:
273,0,105086,1,0,1:1:0:0:
358,74,105260,6,0,P|398:67|438:59,2,75,6|0|10,1:3|1:1|1:3,0:0:0:0:
281,119,105780,2,0,P|293:161|303:200,1,75,0|6,1:1|3:3,0:0:0:0:
387,217,106127,2,0,P|380:260|372:299,1,75,0|10,1:1|3:3,0:0:0:0:
475,381,106474,6,0,P|450:334|334:306,1,150,0|0,1:1|0:0,0:0:0:0:
280,336,106994,2,0,P|239:351|194:346,1,75,10|0,3:3|0:0,0:0:0:0:
120,373,107341,2,0,P|128:328|134:292,1,75,6|0,1:3|0:0,0:0:0:0:
198,237,107687,1,10,1:3:0:0:
198,237,107861,1,0,1:1:0:0:
140,140,108034,6,0,P|87:129|36:161,1,112.5,6|0,1:3|0:0,0:0:0:0:
28,172,108381,2,0,P|36:211|42:247,1,75,10|0,1:3|0:0,0:0:0:0:
6,352,108728,6,0,P|52:342|128:328,1,112.5,6|0,1:3|0:0,0:0:0:0:
130,340,109075,2,0,P|174:347|214:355,1,75,10|0,1:3|0:0,0:0:0:0:
298,291,109422,6,0,P|332:277|370:275,1,75,6|0,1:3|0:0,0:0:0:0:
425,205,109768,2,0,P|390:191|352:189,1,75,10|0,1:3|0:0,0:0:0:0:
262,136,110115,2,0,P|330:107|405:104,1,150,6|10,1:3|3:3,0:0:0:0:
392,24,110635,1,0,0:0:0:0:
392,24,110722,1,0,0:0:0:0:
392,24,110809,6,0,P|347:17|309:10,1,75,6|0,3:3|0:0,0:0:0:0:
228,0,111156,1,10,1:3:0:0:
240,88,111329,2,0,P|247:133|254:171,1,75,0|6,1:1|3:3,0:0:0:0:
331,206,111676,2,0,P|324:242|318:279,1,75,0|10,1:1|3:3,0:0:0:0:
271,356,112023,1,0,1:1:0:0:
173,300,112196,5,10,3:3:0:0:
112,366,112370,1,8,3:3:0:0:
112,366,112456,1,8,3:3:0:0:
112,366,112543,2,0,P|89:368|68:364,3,37.5,12|8|8|8,3:3|3:3|1:3|3:3,0:0:0:0:
42,334,112890,2,0,P|24:319|12:301,3,37.5,12|8|8|8,3:3|3:3|3:3|3:3,0:0:0:0:
14,262,113237,2,0,P|11:239|16:218,3,37.5,12|8|8|8,1:3|3:3|3:3|3:3,0:0:0:0:
37,174,113583,6,0,L|87:167,3,37.5,12|8|8|8,3:3|3:3|3:3|3:3,0:0:0:0:
115,186,113930,2,0,L|165:179,3,37.5,12|8|8|8,3:3|3:3|1:3|3:3,0:0:0:0:
193,198,114277,2,0,P|233:193|276:190,1,75,6|8,1:3|1:3,0:0:0:0:
356,208,114624,5,8,1:3:0:0:
350,171,114711,1,8,3:3:0:0:
345,134,114798,1,8,1:3:0:0:
340,98,114884,1,8,3:3:0:0:
335,61,114971,6,0,P|302:68|273:76,1,63.7500012159348,6|2,3:3|3:3,0:0:0:0:
199,19,115318,2,0,P|166:11|137:3,1,63.7500012159348,8|2,3:3|3:3,0:0:0:0:
43,58,115664,1,4,3:3:0:0:
43,58,115838,1,2,3:3:0:0:
100,144,116011,2,0,P|122:122|134:92,1,63.7500012159348,8|2,3:3|3:3,0:0:0:0:
43,217,116358,6,0,P|20:195|9:166,1,63.7500012159348,4|2,3:3|3:3,0:0:0:0:
131,226,116705,2,0,B|105:300|105:300|125:348,2,127.50000243187,8|4|8,3:3|3:3|3:3,0:0:0:0:
202,296,117572,1,2,3:3:0:0:
202,296,117745,6,0,P|235:300|264:306,1,63.7500012159348,4|2,3:3|3:3,0:0:0:0:
278,220,118092,2,0,P|309:215|340:209,1,63.7500012159348,8|2,3:3|3:3,0:0:0:0:
387,347,118439,2,0,P|376:317|352:296,1,63.7500012159348,4|2,3:3|3:3,0:0:0:0:
459,193,118786,2,0,P|434:213|424:243,1,63.7500012159348,8|2,3:3|3:3,0:0:0:0:
368,118,119133,6,0,P|431:100|492:87,2,127.50000243187,4|8|4,3:3|3:3|3:3,0:0:0:0:
296,36,120000,1,10,3:3:0:0:
264,148,120173,2,0,P|231:144|202:138,1,63.7500012159348,10|0,3:3|0:0,0:0:0:0:
165,4,120520,6,0,P|188:24|199:54,1,63.7500012159348,6|2,3:3|3:3,0:0:0:0:
75,129,120867,2,0,P|95:105|125:94,1,63.7500012159348,8|2,3:3|3:3,0:0:0:0:
123,238,121214,6,0,P|62:221|0:207,2,127.50000243187,4|8|4,3:3|3:3|3:3,0:0:0:0:
91,340,122081,1,2,3:3:0:0:
91,340,122254,2,0,P|124:333|153:325,1,63.7500012159348,8|2,3:3|3:3,0:0:0:0:
228,192,122601,2,0,P|221:225|213:254,1,63.7500012159348,4|2,3:3|3:3,0:0:0:0:
241,336,122948,1,8,3:3:0:0:
363,239,123121,1,2,3:3:0:0:
363,239,123294,6,0,P|330:246|301:254,1,63.7500012159348,4|2,3:3|3:3,0:0:0:0:
400,349,123641,2,0,P|367:342|338:334,1,63.7500012159348,8|2,3:3|3:3,0:0:0:0:
461,265,123988,2,0,P|448:206|430:141,1,127.50000243187,4|8,3:3|3:3,0:0:0:0:
372,69,124508,1,2,3:3:0:0:
313,141,124682,6,0,P|280:134|251:126,1,63.7500012159348,6|8,3:3|3:3,0:0:0:0:
227,95,124942,1,8,3:3:0:0:
227,95,125029,2,0,L|221:63,3,31.8750006079674,8|8|8|8,3:3|3:3|3:3|3:3,0:0:0:0:
178,176,125375,2,0,P|145:183|116:191,1,63.7500012159348,6|8,3:3|3:3,0:0:0:0:
85,172,125635,1,4,3:3:0:0:
85,172,125722,2,0,L|79:140,3,31.8750006079674,8|8|8|8,3:3|3:3|3:3|3:3,0:0:0:0:
21,237,126069,6,0,P|29:267|35:298,1,63.7500012159348,6|2,3:3|3:3,0:0:0:0:
113,361,126416,2,0,P|121:330|127:299,1,63.7500012159348,8|2,3:3|3:3,0:0:0:0:
191,227,126763,1,4,3:3:0:0:
273,333,126936,2,0,P|242:324|211:318,1,63.7500012159348,2|8,3:3|3:3,0:0:0:0:
353,261,127283,6,0,P|322:252|291:246,1,63.7500012159348,2|4,3:3|3:3,0:0:0:0:
382,363,127630,1,2,3:3:0:0:
381,362,127803,2,0,P|435:334|443:273,1,127.50000243187,8|4,3:3|3:3,0:0:0:0:
473,170,128323,2,0,P|442:178|411:184,1,63.7500012159348,2|8,3:3|3:3,0:0:0:0:
405,97,128670,6,0,P|374:88|343:82,1,63.7500012159348,2|4,3:3|3:3,0:0:0:0:
301,193,129017,1,2,3:3:0:0:
301,193,129190,2,0,P|287:152|193:135,1,127.50000243187,8|4,3:3|3:3,0:0:0:0:
150,226,129711,2,0,P|181:219|211:211,1,63.7500012159348,2|8,3:3|3:3,0:0:0:0:
67,121,130058,6,0,P|98:127|128:135,1,63.7500012159348,2|4,3:3|3:3,0:0:0:0:
49,218,130404,1,2,3:3:0:0:
49,218,130578,2,0,P|62:277|80:342,1,127.50000243187,8|4,3:3|3:3,0:0:0:0:
165,384,131098,1,10,3:3:0:0:
165,384,131271,1,10,3:3:0:0:
220,256,131445,1,0,0:0:0:0:
224,260,131618,6,0,P|193:267|163:275,1,63.7500012159348,6|2,3:3|3:3,0:0:0:0:
242,347,131965,2,0,P|272:355|303:362,1,63.7500012159348,8|2,3:3|3:3,0:0:0:0:
346,219,132312,1,4,3:3:0:0:
346,219,132485,2,0,P|321:239|311:269,1,63.7500012159348,2|8,3:3|3:3,0:0:0:0:
418,374,132832,6,0,P|407:344|383:324,1,63.7500012159348,2|6,3:3|3:3,0:0:0:0:
435,256,133179,1,2,3:3:0:0:
435,256,133352,2,0,P|466:263|496:271,1,63.7500012159348,8|2,3:3|3:3,0:0:0:0:
496,146,133699,2,0,P|465:154|434:161,1,63.7500012159348,4|2,3:3|3:3,0:0:0:0:
422,73,134046,2,0,P|391:65|360:58,1,63.7500012159348,10|2,3:3|3:3,0:0:0:0:
243,102,134393,6,0,P|297:129|309:190,1,127.50000243187,6|8,3:3|3:3,0:0:0:0:
239,260,134913,1,8,3:3:0:0:
239,260,135086,2,0,P|270:268|301:275,1,63.7500012159348,8|8,3:3|3:3,0:0:0:0:
280,362,135433,2,0,P|248:354|218:347,1,63.7500012159348,8|8,3:3|3:3,0:0:0:0:
130,205,135780,6,0,P|99:213|68:220,1,63.7500012159348,8|8,3:3|3:3,0:0:0:0:
89,307,136127,2,0,P|120:299|150:292,1,63.7500012159348,8|8,3:3|3:3,0:0:0:0:
218,170,136474,1,8,3:3:0:0:
218,170,136647,1,8,3:3:0:0:
137,111,136820,1,8,3:3:0:0:
137,111,136994,1,8,3:3:0:0:
175,24,137167,5,0,1:1:0:0:
301,0,146185,5,8,3:3:0:0:
395,66,146358,1,8,1:3:0:0:
395,66,146445,1,8,3:3:0:0:
395,66,146531,2,0,L|403:17,2,33.7499989700318,8|8|8,3:3|3:3|1:3,0:0:0:0:
294,158,146878,6,0,L|286:109,4,33.7499989700318,8|8|8|8|10,1:3|3:3|3:3|3:3|3:3,0:0:0:0:
382,247,147398,2,0,L|390:198,4,33.7499989700318,8|8|8|8|10,1:3|3:3|3:3|3:3|3:3,0:0:0:0:
267,313,147919,2,0,L|275:264,3,33.7499989700318,8|8|8|8,1:3|3:3|3:3|3:3,0:0:0:0:
238,341,148266,6,0,P|199:336|164:327,1,75,6|0,1:3|0:0,0:0:0:0:
59,256,148612,2,0,P|97:251|132:242,1,75,10|0,1:3|1:1,0:0:0:0:
207,176,148959,1,6,1:3:0:0:
207,176,149133,1,0,1:1:0:0:
121,115,149306,1,10,1:3:0:0:
121,115,149479,1,0,1:1:0:0:
219,12,149653,6,0,P|205:45|209:82,1,75,6|0,1:3|1:1,0:0:0:0:
304,57,150000,2,0,P|309:92|297:127,1,75,10|0,1:3|1:1,0:0:0:0:
205,202,150346,2,0,P|281:212|351:234,1,150,6|10,1:3|3:3,0:0:0:0:
357,330,150867,1,0,1:1:0:0:
357,330,151040,6,0,P|392:318|429:312,2,75,6|0|10,1:3|1:1|1:3,0:0:0:0:
262,380,151560,2,0,P|250:344|244:307,1,75,0|6,1:1|3:3,0:0:0:0:
145,324,151907,2,0,P|156:288|162:251,1,75,0|10,1:1|3:3,0:0:0:0:
39,204,152254,6,0,P|109:186|141:116,1,150,0|0,1:1|0:0,0:0:0:0:
22,41,152774,2,0,P|25:78|44:110,1,75,10|0,3:3|0:0,0:0:0:0:
121,23,153121,1,6,1:3:0:0:
121,23,153294,1,0,1:1:0:0:
187,88,153468,1,10,1:3:0:0:
187,88,153641,1,0,1:1:0:0:
254,22,153815,6,0,P|313:32|363:47,1,112.5,6|0,1:3|0:0,0:0:0:0:
383,62,154161,2,0,P|389:98|400:134,1,75,10|0,1:3|0:0,0:0:0:0:
505,210,154508,2,0,P|450:207|410:246,1,112.5,6|0,1:3|0:0,0:0:0:0:
394,277,154855,2,0,P|358:265|321:259,1,75,10|0,1:3|0:0,0:0:0:0:
213,180,155202,6,0,P|248:168|285:162,1,75,6|0,1:3|0:0,0:0:0:0:
247,344,155549,2,0,P|235:308|229:271,1,75,10|0,1:3|0:0,0:0:0:0:
107,179,155896,2,0,P|130:255|144:335,1,150,6|10,1:3|3:3,0:0:0:0:
29,362,156416,1,0,0:0:0:0:
29,362,156503,1,0,0:0:0:0:
29,362,156589,6,0,P|40:326|46:289,1,75,6|0,3:3|0:0,0:0:0:0:
118,235,156936,1,10,1:3:0:0:
71,157,157109,2,0,P|34:163|-2:174,1,75,0|8,1:1|3:3,0:0:0:0:
113,81,157456,1,8,1:3:0:0:
113,81,157543,1,8,3:3:0:0:
113,81,157629,2,0,P|149:92|186:98,1,75,8|8,3:3|1:3,0:0:0:0:
267,17,157977,6,0,P|271:35|275:54,3,37.5,8|8|8|8,3:3|3:3|3:3|3:3,0:0:0:0:
304,87,158323,2,0,P|300:105|297:123,3,37.5,12|8|8|8,3:3|3:3|1:3|3:3,0:0:0:0:
266,157,158670,2,0,P|270:175|273:193,3,37.5,12|8|8|8,3:3|3:3|3:3|3:3,0:0:0:0:
305,226,159017,2,0,P|301:244|298:262,3,37.5,12|8|8|8,1:3|3:3|3:3|3:3,0:0:0:0:
275,306,159364,6,0,P|239:295|202:289,1,75,6|0,3:3|0:0,0:0:0:0:
114,177,159711,2,0,P|149:187|186:193,1,75,10|0,3:3|0:0,0:0:0:0:
95,345,160057,2,0,P|100:308|111:272,1,75,6|0,3:3|0:0,0:0:0:0:
4,162,160404,2,0,P|14:197|20:234,1,75,10|0,3:3|0:0,0:0:0:0:
63,72,160751,6,0,P|140:86|209:105,1,150,6|10,3:3|3:3,0:0:0:0:
304,166,161271,1,0,0:0:0:0:
304,166,161445,2,0,P|268:170|239:194,1,75,6|0,3:3|0:0,0:0:0:0:
198,279,161792,1,10,3:3:0:0:
322,329,161965,1,0,0:0:0:0:
322,329,162052,1,0,0:0:0:0:
322,329,162138,6,0,P|316:291|305:255,1,75,6|0,3:3|0:0,0:0:0:0:
407,139,162485,2,0,P|396:175|390:212,1,75,10|0,3:3|0:0,0:0:0:0:
304,166,162832,2,0,P|268:177|231:183,1,75,6|0,3:3|0:0,0:0:0:0:
165,64,163179,2,0,P|201:70|237:80,1,75,10|0,3:3|0:0,0:0:0:0:
144,158,163526,1,6,3:3:0:0:
65,87,163699,1,0,0:0:0:0:
65,87,163786,1,0,0:0:0:0:
65,87,163872,2,0,P|54:122|48:159,1,75,10|0,3:3|0:0,0:0:0:0:
28,247,164219,6,0,P|74:192|144:205,1,150,6|10,1:3|1:3,0:0:0:0:
109,300,164740,1,0,1:1:0:0:
109,300,164913,2,0,P|145:306|181:316,1,75,6|0,1:3|0:0,0:0:0:0:
299,218,165260,2,0,P|263:224|227:234,1,75,10|0,1:3|0:0,0:0:0:0:
280,319,165607,2,0,P|316:325|352:335,1,75,6|0,1:3|0:0,0:0:0:0:
403,169,165953,2,0,P|397:206|387:243,1,75,10|0,1:3|0:0,0:0:0:0:
491,117,166300,6,0,P|497:153|507:190,1,75,6|0,1:3|0:0,0:0:0:0:
405,68,166647,2,0,P|350:65|310:104,1,112.5,10|0,1:3|0:0,0:0:0:0:
294,135,166994,2,0,P|258:123|221:117,1,75,6|0,1:3|0:0,0:0:0:0:
174,43,167341,1,10,3:3:0:0:
102,97,167514,1,0,0:0:0:0:
33,32,167687,6,0,P|21:68|15:105,1,75,6|0,3:3|0:0,0:0:0:0:
109,184,168034,1,10,1:3:0:0:
109,184,168208,2,0,P|72:190|36:201,1,75,0|6,1:1|3:3,0:0:0:0:
53,298,168555,2,0,P|88:286|125:280,1,75,0|10,1:1|3:3,0:0:0:0:
203,199,168901,1,0,1:1:0:0:
243,374,169075,6,0,P|231:338|225:301,1,75,14|8,3:3|3:3,0:0:0:0:
255,273,169335,1,8,3:3:0:0:
255,273,169422,2,0,P|274:277|292:281,3,37.5,12|8|8|8,3:3|3:3|1:3|3:3,0:0:0:0:
323,254,169768,2,0,P|342:250|360:246,3,37.5,12|8|8|8,3:3|3:3|3:3|3:3,0:0:0:0:
403,273,170115,2,0,P|422:277|440:281,3,37.5,12|8|8|8,1:3|3:3|3:3|3:3,0:0:0:0:
478,243,170462,6,0,P|474:224|470:206,3,37.5,12|8|8|8,3:3|3:3|3:3|3:3,0:0:0:0:
437,164,170809,2,0,P|441:145|445:127,3,37.5,12|8|8|8,3:3|3:3|1:3|3:3,0:0:0:0:
407,80,171156,2,0,P|371:68|334:62,1,75,6|0,1:3|1:1,0:0:0:0:
241,187,171503,2,0,P|276:175|313:169,1,75,8|0,1:3|1:1,0:0:0:0:
247,38,171849,6,0,P|252:65|246:92,1,56.2500021457673,6|2,3:3|3:3,0:0:0:0:
139,76,172196,2,0,P|158:96|168:122,1,56.2500021457673,4|2,3:3|3:3,0:0:0:0:
75,175,172543,2,0,P|102:181|125:197,1,56.2500021457673,4|2,3:3|3:3,0:0:0:0:
66,292,172890,2,0,P|92:282|120:283,1,56.2500021457673,4|2,3:3|3:3,0:0:0:0:
203,363,173237,6,0,P|209:321|220:280,1,84.3750032186509,4|0,3:3|0:0,0:0:0:0:
226,234,173583,2,0,P|253:229|281:222,1,56.2500021457673,4|2,3:3|3:3,0:0:0:0:
384,276,173930,2,0,P|377:234|366:193,1,84.3750032186509,4|0,3:3|0:0,0:0:0:0:
361,147,174276,2,0,P|333:142|305:135,1,56.2500021457673,4|2,3:3|3:3,0:0:0:0:
235,19,174624,6,0,P|229:45|223:74,1,56.2500021457673,4|2,3:3|3:3,0:0:0:0:
133,52,174971,2,0,P|138:78|144:107,1,56.2500021457673,4|2,3:3|3:3,0:0:0:0:
69,153,175318,2,0,P|74:179|80:208,1,56.2500021457673,4|2,3:3|3:3,0:0:0:0:
167,185,175665,2,0,P|161:211|155:240,1,56.2500021457673,4|2,3:3|3:3,0:0:0:0:
141,337,176011,6,0,P|172:326|206:319,1,67.4999979400635,4|8,3:3|3:3,0:0:0:0:
241,297,176271,1,8,3:3:0:0:
241,297,176358,2,0,L|246:263,3,33.7499989700318,8|8|8|4,3:3|3:3|3:3|3:3,0:0:0:0:
291,241,176705,2,0,L|285:207,3,33.7499989700318,8|8|8|8,3:3|3:3|3:3|3:3,0:0:0:0:
252,171,177052,1,12,3:3:0:0:
254,154,177138,1,8,3:3:0:0:
256,137,177225,1,8,3:3:0:0:
258,120,177312,1,8,3:3:0:0:
