osu file format v14

[General]
AudioFilename: audio.mp3
AudioLeadIn: 0
PreviewTime: -1
Countdown: 0
SampleSet: Normal
StackLeniency: 0.2
Mode: 0
LetterboxInBreaks: 0
WidescreenStoryboard: 1

[Editor]
Bookmarks: 12193
DistanceSpacing: 0.8
BeatDivisor: 4
GridSize: 8
TimelineZoom: 2.4

[Metadata]
Title:Omega Rhythm
TitleUnicode:Omega Rhythm
Artist:UPLIFT SPICE
ArtistUnicode:UPLIFT SPICE
Creator:NaoKanade
Version:DANCE DANCE
Source:
Tags:Omega Rythm Uplift Spice Dance
BeatmapID:1165608
BeatmapSetID:549417

[Difficulty]
HPDrainRate:6
CircleSize:4
OverallDifficulty:7.5
ApproachRate:9.2
SliderMultiplier:1.4
SliderTickRate:1

[Events]
//Background and Video events
0,0,"Yuuko-tasogare-otome-x-amnesia-dusk-maiden-of-amnesia-39508667-1280-720.jpg",0,0
//Break Periods
2,52608,56410
//Storyboard Layer 0 (Background)
Sprite,Background,Centre,"Yuuko-tasogare-otome-x-amnesia-dusk-maiden-of-amnesia-39508667-1280-720.jpg",320,240 M,0,980,,372.0258,202.0129
//Storyboard Layer 1 (Fail)
//Storyboard Layer 2 (Pass)
//Storyboard Layer 3 (Foreground)
//Storyboard Sound Samples

[TimingPoints]
980,285.714285714286,4,1,0,100,1,0
32548,-100,4,1,0,100,0,1
52403,-100,4,1,0,100,0,0
75258,-100,4,1,0,100,0,1
89114,-66.6666666666667,4,1,0,100,0,1
94685,-100,4,1,0,100,0,0

[HitObjects]
80,160,980,5,0,0:0:0:0:
96,224,1122,1,0,0:0:0:0:
144,272,1265,1,0,0:0:0:0:
208,288,1408,2,0,P|256:288|304:272,1,70
416,208,1694,2,0,P|384:112|336:80,1,140
240,64,2122,1,0,0:0:0:0:
144,112,2265,2,0,B|96:144|112:192,1,70
128,256,2551,5,0,0:0:0:0:
192,312,2694,1,0,0:0:0:0:
272,328,2837,1,0,0:0:0:0:
352,312,2980,2,0,P|376:248|336:176,1,140
264,136,3408,5,0,0:0:0:0:
176,152,3551,1,0,0:0:0:0:
112,216,3694,1,0,0:0:0:0:
112,304,3837,2,0,P|152:344|192:336,1,70
264,328,4122,5,0,0:0:0:0:
328,256,4265,1,0,0:0:0:0:
320,152,4408,1,0,0:0:0:0:
392,80,4551,2,0,P|440:96|464:128,1,70
448,240,4837,2,0,P|384:256|352:248,1,70
224,224,5122,1,0,0:0:0:0:
224,80,5265,2,0,P|288:80|336:144,1,140
328,136,5694,1,0,0:0:0:0:
328,264,5837,5,0,0:0:0:0:
328,264,5980,1,0,0:0:0:0:
192,264,6122,1,0,0:0:0:0:
192,264,6265,1,0,0:0:0:0:
192,152,6408,6,0,P|208:184|248:192,1,70
352,192,6694,2,0,P|368:224|352:256,1,70
256,304,6980,1,0,0:0:0:0:
96,96,7122,2,0,P|160:128|208:176,1,140
80,288,7551,5,0,0:0:0:0:
176,304,7694,1,0,0:0:0:0:
272,256,7837,1,0,0:0:0:0:
320,160,7980,2,0,P|304:112|272:96,1,70
160,80,8265,2,0,P|144:128|176:160,1,70
224,208,8551,1,0,0:0:0:0:
320,240,8694,1,0,0:0:0:0:
432,256,8837,2,0,L|384:192,1,70
256,64,9122,1,0,0:0:0:0:
152,160,9265,1,0,0:0:0:0:
208,288,9408,6,0,P|288:224|272:192,1,140
80,176,9837,6,0,P|80:224|96:240,1,70
208,208,10122,1,0,0:0:0:0:
240,112,10265,1,0,0:0:0:0:
336,64,10408,1,0,0:0:0:0:
432,80,10551,1,0,0:0:0:0:
480,176,10694,2,0,P|480:224|464:240,1,70
304,304,10980,2,0,L|208:304,1,70
96,192,11265,2,0,L|192:192,1,70
320,144,11551,2,0,L|464:144,1,140
320,304,11980,6,0,P|256:304|224:288,1,70
160,256,12265,5,0,0:0:0:0:
64,160,12408,2,0,P|80:112|112:96,1,70
208,64,12694,1,0,0:0:0:0:
416,128,12837,1,0,0:0:0:0:
176,192,12980,1,0,0:0:0:0:
384,256,13122,1,0,0:0:0:0:
208,320,13265,2,0,P|160:304|144:272,1,70
80,144,13551,5,0,0:0:0:0:
96,144,13622,1,0,0:0:0:0:
112,144,13694,1,0,0:0:0:0:
192,256,13837,2,0,P|224:272|272:272,1,70
384,224,14122,1,0,0:0:0:0:
368,208,14194,1,0,0:0:0:0:
352,192,14265,1,0,0:0:0:0:
240,64,14408,6,0,P|192:48|144:64,1,70
80,208,14694,1,0,0:0:0:0:
176,304,14837,2,0,L|256:256,1,70
336,96,15122,2,0,L|256:144,1,70
96,176,15408,1,0,0:0:0:0:
176,320,15551,1,0,0:0:0:0:
256,112,15694,1,0,0:0:0:0:
312,288,15837,2,0,P|328:232|304:208,1,70
176,160,16122,1,0,0:0:0:0:
384,80,16265,2,0,P|288:64|224:80,1,140
240,80,16694,5,0,0:0:0:0:
48,192,16837,2,0,L|112:240,1,70
224,320,17122,1,0,0:0:0:0:
352,304,17265,2,0,L|304:224,1,70
240,112,17551,1,0,0:0:0:0:
384,48,17694,2,0,L|432:128,1,70
432,240,17980,1,0,0:0:0:0:
352,288,18122,1,0,0:0:0:0:
256,288,18265,1,0,0:0:0:0:
176,240,18408,1,0,0:0:0:0:
96,144,18551,2,0,P|128:80|208:48,1,140
384,64,18980,5,0,0:0:0:0:
128,144,19122,2,0,L|192:208,1,70
352,160,19408,1,0,0:0:0:0:
240,336,19551,1,0,0:0:0:0:
96,224,19694,2,0,L|176:224,1,70
432,304,19980,2,0,L|352:304,1,70
208,304,20265,5,0,0:0:0:0:
128,240,20408,1,0,0:0:0:0:
128,144,20551,1,0,0:0:0:0:
208,80,20694,1,0,0:0:0:0:
352,80,20837,6,0,L|304:160,1,70
304,160,21122,1,0,0:0:0:0:
352,320,21265,6,0,L|272:320,1,70
144,288,21551,1,0,0:0:0:0:
368,192,21694,1,0,0:0:0:0:
176,64,21837,6,0,L|230:122,1,70
294,237,22122,1,0,0:0:0:0:
71,139,22265,1,0,0:0:0:0:
256,96,22408,1,0,0:0:0:0:
256,96,22480,1,0,0:0:0:0:
256,96,22551,1,0,0:0:0:0:
400,192,22694,6,0,P|384:240|352:272,1,70
256,256,22980,1,0,0:0:0:0:
240,240,23051,1,0,0:0:0:0:
224,224,23122,1,0,0:0:0:0:
96,144,23265,2,0,L|160:96,1,70
352,48,23551,1,0,0:0:0:0:
416,136,23837,6,0,P|352:168|272:168,1,140
104,248,24408,6,0,B|105:261|169:293|240:280,1,140
328,184,24980,6,0,B|344:136|392:120|376:88|328:56,1,140
160,64,25551,2,0,P|128:112|200:168,1,140
336,264,26122,6,0,B|384:248|384:216|416:216|336:168,1,140
176,192,26551,6,0,P|144:176|144:144,1,70
240,48,26837,1,0,0:0:0:0:
416,64,26980,2,0,L|352:128,1,70
304,336,27265,2,0,B|240:336|256:288|224:320|240:272|192:304|224:256|176:288,1,140
256,48,27694,2,0,L|192:96,1,70
256,320,27980,2,0,P|352:288|288:256,1,210
160,48,28694,6,0,L|128:144,1,70
128,248,28980,5,0,0:0:0:0:
408,48,29265,1,0,0:0:0:0:
344,328,29551,1,0,0:0:0:0:
136,56,29837,1,0,0:0:0:0:
336,304,30122,6,0,B|288:304|304:272|288:256|208:288,1,140
96,176,30694,5,0,0:0:0:0:
128,176,30837,1,0,0:0:0:0:
160,176,30980,2,0,L|240:176,1,70
400,304,31265,5,0,0:0:0:0:
368,288,31408,1,0,0:0:0:0:
336,272,31551,2,0,L|256:240,1,70
128,192,31837,5,0,0:0:0:0:
154,169,31908,1,0,0:0:0:0:
184,151,31980,1,0,0:0:0:0:
217,139,32051,1,0,0:0:0:0:
256,128,32122,2,0,L|320:128,2,35
80,192,32980,5,0,0:0:0:0:
176,304,33122,1,0,0:0:0:0:
272,80,33265,1,0,0:0:0:0:
384,192,33408,2,0,L|288:192,1,70
128,192,33694,5,0,0:0:0:0:
128,192,33765,1,0,0:0:0:0:
128,192,33837,1,0,0:0:0:0:
240,48,33980,2,0,L|288:112,1,70
240,272,34265,1,0,0:0:0:0:
112,112,34408,1,0,0:0:0:0:
48,240,34551,2,0,P|96:272|128:272,1,70
288,240,34837,5,0,0:0:0:0:
304,224,34908,1,0,0:0:0:0:
320,208,34980,1,0,0:0:0:0:
201,266,35122,1,0,0:0:0:0:
256,99,35265,1,0,0:0:0:0:
310,266,35408,1,0,0:0:0:0:
160,160,35551,1,0,0:0:0:0:
336,160,35694,6,0,P|368:192|352:224,1,70
280,320,35980,2,0,L|248:344,2,35
352,272,36265,1,0,0:0:0:0:
383,255,36337,1,0,0:0:0:0:
410,233,36408,1,0,0:0:0:0:
430,204,36480,1,0,0:0:0:0:
440,170,36551,1,0,0:0:0:0:
440,135,36622,1,0,0:0:0:0:
431,102,36694,1,0,0:0:0:0:
128,112,36980,6,0,L|192:176,1,70
192,192,37265,1,0,0:0:0:0:
48,96,37408,1,0,0:0:0:0:
256,128,37551,1,0,0:0:0:0:
352,256,37837,6,0,P|320:192|352:160,1,105
320,128,38122,2,0,P|272:160|224:128,1,105
208,176,38408,2,0,P|240:240|208:272,1,105
256,288,38694,2,0,P|288:240|352:256,1,105
336,208,38980,2,0,P|336:160|288:176,1,105
256,176,39265,2,0,P|224:160|208:128,1,70
352,96,39551,5,0,0:0:0:0:
368,112,39622,1,0,0:0:0:0:
384,128,39694,1,0,0:0:0:0:
432,224,39837,2,0,P|416:272|384:272,1,70
256,288,40122,1,0,0:0:0:0:
264,128,40265,1,0,0:0:0:0:
400,192,40408,2,0,P|360:224|320:232,1,70
184,288,40694,2,0,P|120:280|96:256,1,70
128,192,40980,5,0,0:0:0:0:
155,170,41051,1,0,0:0:0:0:
187,156,41122,1,0,0:0:0:0:
221,149,41194,1,0,0:0:0:0:
256,153,41265,1,0,0:0:0:0:
384,256,41408,5,0,0:0:0:0:
352,270,41480,1,0,0:0:0:0:
318,280,41551,1,0,0:0:0:0:
283,282,41622,1,0,0:0:0:0:
249,278,41694,1,0,0:0:0:0:
288,144,41837,2,0,L|320:160,4,35
176,80,42265,5,0,0:0:0:0:
112,245,42408,1,0,0:0:0:0:
256,96,42551,5,0,0:0:0:0:
256,272,42694,1,0,0:0:0:0:
336,80,42837,5,0,0:0:0:0:
396,245,42980,1,0,0:0:0:0:
336,320,43122,2,0,P|272:304|256:288,1,70
112,80,43408,2,0,P|144:112|144:144,1,70
96,320,43694,2,0,P|128:272|144:272,1,70
160,192,43980,1,0,0:0:0:0:
352,192,44122,1,0,0:0:0:0:
256,80,44265,5,0,0:0:0:0:
224,272,44408,2,0,P|256:288|288:272,1,70
384,192,44694,1,0,0:0:0:0:
288,112,44837,2,0,P|256:96|224:112,1,70
96,64,45122,5,0,0:0:0:0:
96,64,45194,1,0,0:0:0:0:
96,64,45265,1,0,0:0:0:0:
128,208,45408,5,0,0:0:0:0:
140,240,45480,1,0,0:0:0:0:
161,268,45551,1,0,0:0:0:0:
188,290,45622,1,0,0:0:0:0:
220,302,45694,1,0,0:0:0:0:
255,305,45765,1,0,0:0:0:0:
288,304,45837,2,0,P|352:256|352:192,1,140
296,72,46265,5,0,0:0:0:0:
144,152,46408,2,0,P|184:184|224:184,1,70
280,128,46694,1,0,0:0:0:0:
272,104,46765,1,0,0:0:0:0:
248,88,46837,1,0,0:0:0:0:
80,80,46980,6,0,P|96:144|128:160,1,105
160,160,47265,2,0,B|208:176|240:208|240:240,1,105
272,272,47551,2,0,P|320:288|384:272,1,105
416,240,47837,2,0,B|416:192|384:160|336:144,1,105
336,144,48122,2,0,P|304:144|288:112,1,70
320,80,48408,2,0,P|272:32|176:32,1,140
64,128,48837,5,0,0:0:0:0:
176,320,48980,1,0,0:0:0:0:
272,128,49122,2,0,P|320:128|352:152,1,70
400,256,49408,1,0,0:0:0:0:
152,240,49551,1,0,0:0:0:0:
272,128,49694,2,0,P|256:160|224:160,1,70
128,96,49980,5,0,0:0:0:0:
368,96,50122,1,0,0:0:0:0:
176,256,50265,1,0,0:0:0:0:
160,240,50337,1,0,0:0:0:0:
144,224,50408,1,0,0:0:0:0:
208,48,50551,5,0,0:0:0:0:
224,64,50622,1,0,0:0:0:0:
240,80,50694,1,0,0:0:0:0:
336,272,50837,5,0,0:0:0:0:
336,48,50980,1,0,0:0:0:0:
367,62,51051,1,0,0:0:0:0:
394,85,51122,1,0,0:0:0:0:
411,115,51194,1,0,0:0:0:0:
415,150,51265,1,0,0:0:0:0:
160,144,51408,2,0,P|112:128|96:96,1,70
352,112,51694,5,0,0:0:0:0:
336,128,51765,1,0,0:0:0:0:
320,144,51837,1,0,0:0:0:0:
176,288,51980,1,0,0:0:0:0:
208,80,52122,1,0,0:0:0:0:
368,208,52265,1,0,0:0:0:0:
176,288,52408,1,0,0:0:0:0:
336,48,56980,6,0,P|360:72|368:120,1,70
352,160,57265,1,0,0:0:0:0:
320,216,57408,1,0,0:0:0:0:
272,256,57551,1,0,0:0:0:0:
216,288,57694,1,0,0:0:0:0:
152,304,57837,2,0,B|136:312|96:312|80:288,1,70
56,136,58122,6,0,P|88:104|128:96,1,70
240,88,58408,1,0,0:0:0:0:
336,96,58551,2,0,B|304:160|232:168|192:144,1,140
104,96,58980,6,0,P|56:136|56:168,1,70
64,280,59265,1,0,0:0:0:0:
216,112,59408,1,0,0:0:0:0:
368,304,59551,2,0,P|376:240|384:216,1,70
408,80,59837,6,0,B|360:56|320:80|320:80,1,70
264,112,60122,1,0,0:0:0:0:
208,184,60265,1,0,0:0:0:0:
200,272,60408,2,0,P|208:296|248:328,1,70
328,352,60694,1,0,0:0:0:0:
416,360,60837,2,0,B|464:328|480:288|472:232,1,140
448,144,61265,6,0,P|432:112|384:80,1,70
336,56,61551,1,0,0:0:0:0:
256,40,61694,1,0,0:0:0:0:
176,48,61837,1,0,0:0:0:0:
104,80,61980,2,0,P|72:112|64:136,1,70
184,216,62265,6,0,P|216:184|224:160,1,70
104,80,62551,2,0,P|72:112|64:136,1,70
56,216,62837,1,0,0:0:0:0:
88,288,62980,1,0,0:0:0:0:
144,344,63122,2,0,P|224:320|224:256,1,140
176,176,63551,5,0,0:0:0:0:
200,40,63694,1,0,0:0:0:0:
336,64,63837,2,0,P|280:96|272:128,1,70
256,280,64122,1,0,0:0:0:0:
400,136,64265,1,0,0:0:0:0:
128,240,64408,2,0,P|88:208|88:176,1,70
168,88,64694,5,0,0:0:0:0:
176,80,64765,1,0,0:0:0:0:
192,80,64837,1,0,0:0:0:0:
280,96,64980,2,0,P|320:120|336:152,1,70
352,216,65265,1,0,0:0:0:0:
344,232,65337,1,0,0:0:0:0:
328,240,65408,1,0,0:0:0:0:
176,288,65551,6,0,P|224:296|264:264,1,70
80,240,65837,1,0,0:0:0:0:
96,248,65908,1,0,0:0:0:0:
112,256,65980,1,0,0:0:0:0:
216,136,66122,6,0,P|288:136|352:104,1,140
392,240,66694,6,0,P|288:296|240:288,1,140
88,256,67265,6,0,P|112:168|176:128,1,140
392,112,67837,6,0,B|440:168|448:224|440:256,1,140
368,72,68408,2,0,L|376:8,1,35
317,69,68551,2,0,L|312:8,1,35
268,85,68694,2,0,L|248:24,1,35
224,111,68837,2,0,L|198:66,1,35
195,142,68980,2,0,L|232:184,1,35
168,192,69122,2,0,L|225:221,1,35
152,240,69265,2,0,L|216:248,1,35
152,296,69408,2,0,L|200:296,1,35
280,304,69551,5,0,0:0:0:0:
312,313,69622,1,0,0:0:0:0:
347,311,69694,1,0,0:0:0:0:
379,297,69765,1,0,0:0:0:0:
404,273,69837,1,0,0:0:0:0:
423,231,69908,6,0,L|431:185,4,35
425,170,70265,5,0,0:0:0:0:
408,139,70337,1,0,0:0:0:0:
383,115,70408,1,0,0:0:0:0:
351,100,70480,1,0,0:0:0:0:
317,94,70551,1,0,0:0:0:0:
275,91,70622,2,0,L|234:97,4,35
56,176,71265,6,0,P|112:224|184:248,1,140
328,296,71837,2,0,P|344:200|304:160,1,140
192,56,72408,2,0,P|280:32|352:48,1,140
400,80,72980,5,0,0:0:0:0:
208,176,73122,1,0,0:0:0:0:
432,184,73265,1,0,0:0:0:0:
272,264,73408,1,0,0:0:0:0:
272,264,73480,1,0,0:0:0:0:
272,264,73551,2,0,P|200:272|176:272,1,70
104,240,73837,1,0,0:0:0:0:
104,224,73908,1,0,0:0:0:0:
120,216,73980,1,0,0:0:0:0:
224,176,74122,5,0,0:0:0:0:
257,166,74194,1,0,0:0:0:0:
292,160,74265,1,0,0:0:0:0:
327,160,74337,1,0,0:0:0:0:
361,167,74408,1,0,0:0:0:0:
392,181,74480,1,0,0:0:0:0:
420,203,74551,1,0,0:0:0:0:
443,229,74622,1,0,0:0:0:0:
460,260,74694,1,0,0:0:0:0:
440,360,74837,6,0,B|376:352|352:336|304:288,1,140
200,96,75265,5,0,0:0:0:0:
376,280,75408,1,0,0:0:0:0:
128,256,75551,1,0,0:0:0:0:
352,104,75694,2,0,L|264:144,1,70
128,192,75980,5,0,0:0:0:0:
128,192,76051,1,0,0:0:0:0:
128,192,76122,1,0,0:0:0:0:
296,64,76265,2,0,L|264:128,1,70
144,328,76551,1,0,0:0:0:0:
368,160,76694,1,0,0:0:0:0:
160,64,76837,2,0,L|192:128,1,70
288,240,77122,5,0,0:0:0:0:
304,224,77194,1,0,0:0:0:0:
320,208,77265,1,0,0:0:0:0:
162,263,77408,1,0,0:0:0:0:
288,77,77551,1,0,0:0:0:0:
296,301,77694,1,0,0:0:0:0:
149,118,77837,1,0,0:0:0:0:
368,184,77980,6,0,P|392:216|376:256,1,70
169,287,78265,2,0,L|214:272,2,35
336,233,78551,1,0,0:0:0:0:
360,207,78622,1,0,0:0:0:0:
379,178,78694,1,0,0:0:0:0:
389,144,78765,1,0,0:0:0:0:
388,108,78837,1,0,0:0:0:0:
378,75,78908,1,0,0:0:0:0:
359,46,78980,1,0,0:0:0:0:
224,32,79265,6,0,P|176:48|160:88,1,70
136,176,79551,1,0,0:0:0:0:
344,184,79694,1,0,0:0:0:0:
184,280,79837,1,0,0:0:0:0:
112,64,80122,2,0,B|96:128|112:176|128:184,1,105
208,240,80408,2,0,B|240:224|280:192|296:144,1,105
368,96,80694,2,0,B|424:104|456:152|448:168,1,105
408,264,80980,2,0,B|352:288|304:264|304:248,1,105
312,168,81265,2,0,P|312:120|280:72,1,105
176,56,81551,2,0,P|144:64|104:104,1,70
352,96,81837,5,0,0:0:0:0:
368,112,81908,1,0,0:0:0:0:
384,128,81980,1,0,0:0:0:0:
472,248,82122,2,0,P|456:208|416:176,1,70
272,72,82408,1,0,0:0:0:0:
376,272,82551,1,0,0:0:0:0:
224,216,82694,2,0,L|232:120,1,70
400,64,82980,2,0,P|336:80|336:96,1,70
96,208,83265,5,0,0:0:0:0:
119,233,83337,1,0,0:0:0:0:
148,252,83408,1,0,0:0:0:0:
182,263,83480,1,0,0:0:0:0:
216,265,83551,1,0,0:0:0:0:
384,168,83694,5,0,0:0:0:0:
366,137,83765,1,0,0:0:0:0:
341,113,83837,1,0,0:0:0:0:
311,96,83908,1,0,0:0:0:0:
277,87,83980,1,0,0:0:0:0:
72,176,84122,5,0,0:0:0:0:
86,207,84194,1,0,0:0:0:0:
108,234,84265,1,0,0:0:0:0:
137,253,84337,1,0,0:0:0:0:
171,262,84408,1,0,0:0:0:0:
360,96,84551,5,0,0:0:0:0:
144,80,84694,1,0,0:0:0:0:
360,192,84837,5,0,0:0:0:0:
144,192,84980,1,0,0:0:0:0:
360,288,85122,5,0,0:0:0:0:
144,304,85265,1,0,0:0:0:0:
360,216,85408,2,0,P|336:184|296:184,1,70
184,288,85694,2,0,P|152:256|152:224,1,70
160,64,85980,2,0,P|127:74|113:105,1,70
80,224,86265,1,0,0:0:0:0:
312,112,86408,1,0,0:0:0:0:
272,304,86551,5,0,0:0:0:0:
88,152,86694,2,0,P|120:168|152:152,1,70
360,224,86980,1,0,0:0:0:0:
168,320,87122,2,0,P|168:288|192:256,1,70
288,128,87408,5,0,0:0:0:0:
288,128,87480,1,0,0:0:0:0:
288,128,87551,1,0,0:0:0:0:
112,80,87694,5,0,0:0:0:0:
102,112,87765,1,0,0:0:0:0:
103,147,87837,1,0,0:0:0:0:
112,181,87908,1,0,0:0:0:0:
131,210,87980,1,0,0:0:0:0:
157,233,88051,1,0,0:0:0:0:
185,251,88122,2,0,P|264:249|302:198,1,140
384,88,88551,5,0,0:0:0:0:
224,288,88694,2,0,P|216:248|176:224,1,70
72,112,88980,1,0,0:0:0:0:
88,128,89051,1,0,0:0:0:0:
104,144,89122,1,0,0:0:0:0:
344,216,89265,6,0,P|352:152|328:112,1,105.000004005432
80,104,89551,2,0,P|96:160|136:192,1,105.000004005432
288,328,89837,2,0,P|296:256|280:224,1,105.000004005432
160,32,90122,2,0,P|160:120|176:144,1,105.000004005432
96,256,90408,2,0,P|152:264|184:216,1,105.000004005432
368,72,90694,2,0,P|320:80|264:152,1,105.000004005432
208,208,91122,2,0,P|168:232|200:192,1,105.000004005432
208,48,91551,6,0,L|264:136,1,105.000004005432
376,288,91837,1,0,0:0:0:0:
168,232,91980,1,0,0:0:0:0:
304,112,92122,2,0,P|344:112|360:168,1,105.000004005432
200,304,92408,2,0,L|264:264,4,52.5000020027161
152,312,92837,1,0,0:0:0:0:
112,304,92908,1,0,0:0:0:0:
88,272,92980,1,0,0:0:0:0:
88,152,93122,5,0,0:0:0:0:
160,40,93265,1,0,0:0:0:0:
193,36,93337,1,0,0:0:0:0:
228,41,93408,1,0,0:0:0:0:
258,58,93480,1,0,0:0:0:0:
280,86,93551,1,0,0:0:0:0:
208,232,93694,2,0,P|160:216|208:184,1,105.000004005432
296,136,93980,5,0,0:0:0:0:
336,136,94051,1,0,0:0:0:0:
368,160,94122,1,0,0:0:0:0:
352,288,94265,1,0,0:0:0:0:
224,112,94408,1,0,0:0:0:0:
232,280,94551,1,0,0:0:0:0:
96,96,94694,1,0,0:0:0:0:
