osu file format v14

[General]
AudioFilename: audio.mp3
AudioLeadIn: 0
PreviewTime: 68389
Countdown: 0
SampleSet: Normal
StackLeniency: 0.5
Mode: 0
LetterboxInBreaks: 0
EpilepsyWarning: 1
WidescreenStoryboard: 1

[Editor]
DistanceSpacing: 1.3
BeatDivisor: 4
GridSize: 8
TimelineZoom: 1.9

[Metadata]
Title:Kanojo
TitleUnicode:カノジョ
Artist:UPLIFT SPICE
ArtistUnicode:UPLIFT SPICE
Creator:Beren
Version:Normal
Source:
Tags:cut version lobelia vivicat THE MUSMUS rain Ellegarden VS Brahman japanese rock girlfriend
BeatmapID:2443045
BeatmapSetID:1171142

[Difficulty]
HPDrainRate:4.5
CircleSize:3
OverallDifficulty:4
ApproachRate:5
SliderMultiplier:1
SliderTickRate:1

[Events]
//Background and Video events
0,0,"bg.jpg",0,0
//Break Periods
//Storyboard Layer 0 (Background)
//Storyboard Layer 1 (Fail)
//Storyboard Layer 2 (Pass)
//Storyboard Layer 3 (Foreground)
//Storyboard Layer 4 (Overlay)
//Storyboard Sound Samples

[TimingPoints]
461,428.571428571429,4,2,1,50,1,0
12461,-83.3333333333333,4,2,1,50,0,0
27889,-83.3333333333333,4,2,1,60,0,0
38175,428.571428571429,3,1,1,70,1,0
38175,-83.3333333333333,3,1,1,70,0,0
48889,428.571428571429,4,1,1,60,1,0
48889,-83.3333333333333,4,1,1,60,0,0
66032,-83.3333333333333,4,1,1,70,0,0
69460,-74.0740740740741,4,1,1,70,0,0
105461,-74.0740740740741,4,1,1,60,0,0
107174,428.571428571429,3,1,1,60,1,0

[Colours]
Combo1 : 129,192,192
Combo2 : 221,136,179

[HitObjects]
179,190,13103,5,0,0:0:0:0:
162,266,13318,2,0,L|143:362,2,89.9999972534181
238,283,14175,2,0,P|290:312|352:308,1,119.999996337891,2|0,0:3|0:2,0:0:0:0:
440,182,15032,2,0,L|314:190,1,119.999996337891,8|8,0:2|0:2,0:0:0:0:
194,96,15889,2,0,L|117:79,1,59.9999981689454,2|0,0:2|0:0,0:0:0:0:
18,185,16532,5,0,0:0:0:0:
21,262,16746,2,0,L|25:356,2,89.9999972534181
99,265,17603,2,0,P|161:268|221:251,1,119.999996337891,2|0,0:3|0:0,0:0:0:0:
359,189,18461,2,0,L|342:307,1,119.999996337891,8|8,0:2|0:2,0:0:0:0:
495,341,19318,2,0,L|478:280,1,59.9999981689454,2|0,0:2|0:0,0:0:0:0:
463,127,19961,5,0,0:0:0:0:
399,81,20175,2,0,P|356:66|312:70,2,89.9999972534181
384,157,21032,2,0,P|388:216|369:272,1,119.999996337891,2|0,0:3|0:0,0:0:0:0:
232,348,21889,2,0,L|94:328,1,119.999996337891,8|8,0:2|0:2,0:0:0:0:
40,192,22746,6,0,P|90:168|164:183,1,119.999996337891,2|0,0:2|0:0,0:0:0:0:
228,195,23389,2,0,P|236:135|226:76,1,119.999996337891
302,55,24032,2,0,L|373:48,1,59.9999981689454
439,40,24461,1,2,0:3:0:0:
493,186,24889,1,0,0:0:0:0:
380,294,25318,2,0,P|318:286|255:298,1,119.999996337891,8|8,0:2|0:2,0:0:0:0:
183,293,25961,2,0,L|106:267,1,59.9999981689454,0|2,0:0|0:2,0:0:0:0:
419,76,27889,6,0,L|339:97,1,59.9999981689454,2|2,1:0|1:0,0:0:0:0:
282,91,28318,2,0,L|198:88,1,59.9999981689454,8|0,0:0|0:0,0:0:0:0:
149,78,28746,1,8,0:2:0:0:
149,78,29175,1,8,0:2:0:0:
52,200,29603,6,0,L|130:206,1,59.9999981689454,2|2,1:0|1:0,0:0:0:0:
189,215,30032,2,0,L|261:207,1,59.9999981689454,8|0,0:0|0:0,0:0:0:0:
329,198,30461,1,8,0:2:0:0:
329,198,30889,1,8,0:2:0:0:
427,319,31318,6,0,L|368:313,1,59.9999981689454,2|2,1:0|1:0,0:0:0:0:
291,330,31746,2,0,L|226:335,1,59.9999981689454,8|0,0:0|0:0,0:0:0:0:
157,344,32175,1,8,0:2:0:0:
157,344,32603,1,8,0:2:0:0:
48,231,33032,6,0,L|44:157,1,59.9999981689454,2|2,1:0|1:0,0:0:0:0:
112,131,33461,2,0,L|180:124,1,59.9999981689454,8|0,0:0|0:0,0:0:0:0:
253,119,33889,1,8,0:2:0:0:
253,119,34318,1,8,0:2:0:0:
395,57,34746,6,0,L|459:55,1,59.9999981689454,2|2,1:0|1:0,0:0:0:0:
478,129,35175,2,0,L|483:198,1,59.9999981689454,8|0,0:0|0:0,0:0:0:0:
492,270,35603,1,8,0:2:0:0:
492,270,36032,1,8,0:2:0:0:
347,329,36461,1,2,0:3:0:0:
36,212,37371,2,0,P|101:202|158:221,1,119.999996337891,2|0,0:0|0:0,0:0:0:0:
140,81,38175,6,0,L|30:84,2,89.9999972534181,14|10|10,0:0|0:0|0:0,0:0:0:0:
218,83,39032,1,0,0:0:0:0:
344,174,39461,2,0,L|458:154,2,89.9999972534181,10|10|10,0:0|0:0|0:0,0:0:0:0:
267,192,40318,1,0,0:0:0:0:
178,319,40746,2,0,L|85:314,2,89.9999972534181,10|10|10,0:0|0:0|0:0,0:0:0:0:
254,336,41603,1,0,0:0:0:0:
331,338,41817,1,8,0:2:0:0:
409,333,42032,6,0,L|506:320,2,89.9999972534181,10|10|10,0:0|0:0|0:0,0:0:0:0:
401,255,42889,1,0,0:0:0:0:
394,177,43103,1,8,0:2:0:0:
399,98,43318,2,0,L|299:89,2,89.9999972534181,14|10|10,0:0|0:0|0:0,0:0:0:0:
477,97,44175,1,0,0:0:0:0:
487,252,44603,2,0,L|490:351,2,89.9999972534181,10|10|10,0:0|0:0|0:0,0:0:0:0:
479,173,45461,1,0,0:0:0:0:
327,136,45889,6,0,L|316:46,2,89.9999972534181,10|10|10,0:0|0:0|0:0,0:0:0:0:
339,213,46746,1,0,0:0:0:0:
187,252,47175,2,0,L|184:359,2,89.9999972534181,10|10|10,0:0|0:0|0:0,0:0:0:0:
132,196,48032,2,0,L|118:134,1,59.9999981689454,0|8,0:0|0:0,0:0:0:0:
95,62,48461,1,2,0:0:0:0:
168,35,48675,1,0,0:0:0:0:
245,40,48889,6,0,L|370:31,1,119.999996337891,6|0,0:0|0:0,0:0:0:0:
438,169,49746,2,0,L|499:159,2,59.9999981689454,0|8|8,0:0|0:2|0:0,0:0:0:0:
448,324,50603,2,0,P|381:335|330:306,1,119.999996337891,2|0,0:3|0:0,0:0:0:0:
266,172,51461,2,0,L|336:174,2,59.9999981689454,0|8|8,0:0|0:0|0:0,0:0:0:0:
166,51,52318,6,0,P|112:32|35:48,1,119.999996337891,6|0,0:0|0:0,0:0:0:0:
20,193,53175,2,0,L|14:254,2,59.9999981689454,0|8|8,0:0|0:2|0:0,0:0:0:0:
176,187,54032,2,0,P|188:248|165:312,1,119.999996337891,2|0,0:3|0:0,0:0:0:0:
244,330,54675,2,0,P|308:346|372:329,1,119.999996337891,0|8,0:0|0:0,0:0:0:0:
435,314,55318,1,8,0:0:0:0:
472,162,55746,6,0,L|345:143,1,119.999996337891,6|0,0:0|0:0,0:0:0:0:
224,55,56603,2,0,L|165:69,2,59.9999981689454,0|8|8,0:0|0:2|0:0,0:0:0:0:
222,211,57461,2,0,P|162:236|103:224,1,119.999996337891,2|0,0:3|0:0,0:0:0:0:
41,86,58318,2,0,L|35:24,2,59.9999981689454,0|0|8,0:0|0:0|0:0,0:0:0:0:
108,227,59175,6,0,P|97:290|116:353,1,119.999996337891,6|0,0:0|0:0,0:0:0:0:
265,361,60031,1,0,0:0:0:0:
342,370,60246,2,0,L|416:373,2,59.9999981689454,8|8|0,0:2|0:0|0:0,0:0:0:0:
349,292,60889,2,0,P|343:239|369:171,1,119.999996337891,2|0,0:3|0:0,0:0:0:0:
442,165,61532,2,0,P|450:93|430:37,1,119.999996337891,0|8,0:0|0:0,0:0:0:0:
366,13,62175,1,8,0:0:0:0:
139,227,63032,6,0,L|6:209,1,119.999996337891,2|0,0:3|0:0,0:0:0:0:
91,71,63889,2,0,L|215:63,1,119.999996337891,2|0,0:3|0:0,0:0:0:0:
360,17,64746,2,0,L|351:142,1,119.999996337891,2|0,0:3|0:0,0:0:0:0:
316,288,65603,1,2,0:3:0:0:
456,224,66032,6,0,L|472:308,2,82.4999974822999,8|0|0,0:0|0:0|0:0,0:0:0:0:
472,127,66889,2,0,L|484:45,2,82.4999974822999,8|0|0,0:0|0:0|0:0,0:0:0:0:
387,85,67746,2,0,L|318:69,2,59.9999981689454,8|0|8,0:0|0:0|0:0,0:0:0:0:
342,213,68603,2,0,P|284:233|226:223,1,119.999996337891,2|2,0:3|0:3,0:0:0:0:
64,288,69461,6,0,P|43:226|60:150,1,135.000000514984,4|8,0:0|0:0,0:0:0:0:
91,79,70103,1,0,0:0:0:0:
169,38,70318,2,0,P|232:25|304:40,1,135.000000514984,8|8,0:2|0:0,0:0:0:0:
461,108,71175,1,2,0:0:0:0:
307,192,71603,1,8,0:0:0:0:
310,279,71818,1,0,0:0:0:0:
357,352,72032,2,0,P|431:369|499:347,1,135.000000514984,8|8,0:0|0:0,0:0:0:0:
467,179,72889,6,0,P|478:113|460:48,1,135.000000514984,2|8,0:0|0:0,0:0:0:0:
372,41,73532,1,0,0:0:0:0:
284,36,73746,2,0,P|214:34|155:66,1,135.000000514984,8|8,0:2|0:0,0:0:0:0:
45,198,74603,1,2,0:0:0:0:
171,319,75032,1,8,0:0:0:0:
196,235,75246,1,0,0:0:0:0:
261,176,75461,2,0,P|312:168|393:191,1,135.000000514984,8|0,0:0|0:0,0:0:0:0:
487,336,76318,6,0,P|423:332|352:349,1,135.000000514984,2|8,0:0|0:0,0:0:0:0:
267,361,76961,1,0,0:0:0:0:
180,344,77175,2,0,P|112:345|49:324,1,135.000000514984,8|8,0:2|0:0,0:0:0:0:
22,151,78032,1,2,0:0:0:0:
181,77,78461,1,8,0:0:0:0:
174,164,78675,1,0,0:0:0:0:
227,233,78889,2,0,P|297:253|364:240,1,135.000000514984,8|8,0:0|0:0,0:0:0:0:
313,72,79746,6,0,P|378:60|446:79,1,135.000000514984,2|8,0:0|0:0,0:0:0:0:
504,141,80389,1,0,0:0:0:0:
503,228,80603,2,0,P|514:293|490:369,1,135.000000514984,8|8,0:2|0:0,0:0:0:0:
408,351,81246,1,0,0:0:0:0:
320,338,81461,2,0,L|180:361,1,135.000000514984,2|8,0:0|0:0,0:0:0:0:
79,221,82318,2,0,L|-5:207,1,67.5000002574921,8|8,0:0|0:0,0:0:0:0:
24,123,82746,2,0,L|100:107,1,67.5000002574921,8|8,0:0|0:0,0:0:0:0:
159,163,83175,6,0,P|226:183|295:159,1,135.000000514984,6|8,0:0|0:0,0:0:0:0:
308,79,83818,1,0,0:0:0:0:
381,30,84032,2,0,P|457:28|524:54,1,135.000000514984,8|8,0:2|0:0,0:0:0:0:
498,222,84889,1,2,0:0:0:0:
367,338,85318,1,8,0:0:0:0:
281,358,85532,1,0,0:0:0:0:
193,351,85746,2,0,P|188:279|214:209,1,135.000000514984,8|8,0:0|0:0,0:0:0:0:
376,171,86603,6,0,P|368:104|341:42,1,135.000000514984,2|8,0:0|0:0,0:0:0:0:
253,40,87246,1,0,0:0:0:0:
165,34,87461,2,0,P|98:32|36:59,1,135.000000514984,8|8,0:2|0:0,0:0:0:0:
43,234,88318,1,2,0:0:0:0:
178,345,88746,1,8,0:0:0:0:
266,346,88961,1,0,0:0:0:0:
348,316,89175,2,0,P|354:258|327:185,1,135.000000514984,8|8,0:0|0:0,0:0:0:0:
152,193,90032,6,0,P|145:126|174:55,1,135.000000514984,2|8,0:0|0:0,0:0:0:0:
252,39,90675,1,0,0:0:0:0:
339,30,90889,2,0,P|405:13|480:36,1,135.000000514984,8|8,0:2|0:0,0:0:0:0:
487,203,91746,1,2,0:0:0:0:
363,328,92175,1,8,0:0:0:0:
278,349,92389,1,0,0:0:0:0:
192,365,92603,2,0,P|124:363|64:322,1,135.000000514984,8|8,0:0|0:0,0:0:0:0:
121,159,93460,6,0,P|100:104|122:27,1,135.000000514984,2|8,0:0|0:0,0:0:0:0:
202,8,94103,1,0,0:0:0:0:
289,21,94318,2,0,P|306:80|291:160,1,135.000000514984,8|8,0:2|0:0,0:0:0:0:
262,233,94961,1,0,0:0:0:0:
223,311,95175,2,0,L|378:303,1,135.000000514984,2|8,0:0|0:0,0:0:0:0:
492,190,96032,2,0,L|424:190,1,67.5000002574921,8|8,0:0|0:0,0:0:0:0:
414,102,96461,2,0,L|332:102,1,67.5000002574921,8|8,0:0|0:0,0:0:0:0:
259,91,96889,6,0,L|251:180,1,67.5000002574921,6|2,0:0|0:0,0:0:0:0:
165,170,97318,2,0,L|169:250,1,67.5000002574921
196,325,97746,1,8,0:2:0:0:
196,325,98175,1,8,0:0:0:0:
21,341,98603,6,0,L|27:260,1,67.5000002574921,2|2,0:0|0:0,0:0:0:0:
75,200,99032,2,0,L|68:115,1,67.5000002574921
60,49,99461,1,8,0:0:0:0:
60,49,99889,1,8,0:0:0:0:
232,81,100318,6,0,L|302:76,1,67.5000002574921,2|2,0:0|0:0,0:0:0:0:
335,155,100746,2,0,L|412:162,1,67.5000002574921
489,173,101175,1,8,0:2:0:0:
411,330,101603,1,8,0:0:0:0:
235,341,102032,6,0,L|143:345,1,67.5000002574921,2|2,0:0|0:0,0:0:0:0:
156,256,102461,2,0,L|84:249,1,67.5000002574921
2,235,102889,1,8,0:0:0:0:
22,60,103318,1,8,0:0:0:0:
195,87,103746,6,0,L|200:175,1,67.5000002574921,2|2,0:0|0:0,0:0:0:0:
286,165,104175,2,0,L|283:243,1,67.5000002574921
262,317,104603,2,0,P|318:343|400:323,1,135.000000514984,8|8,0:2|0:0,0:0:0:0:
493,189,105461,1,2,0:3:0:0:
143,60,106371,2,0,P|76:52|9:72,1,135.000000514984,0|8,0:0|0:2,0:0:0:0:
52,221,107175,5,6,0:0:0:0:
