osu file format v14

[General]
AudioFilename: audio.mp3
AudioLeadIn: 0
PreviewTime: 57497
Countdown: 0
SampleSet: None
StackLeniency: 0.4
Mode: 0
LetterboxInBreaks: 0
WidescreenStoryboard: 1

[Editor]
Bookmarks: 21530,26834,57331,59652,65287,119652,148823,164734
DistanceSpacing: 1
BeatDivisor: 4
GridSize: 32
TimelineZoom: 1.5

[Metadata]
Title:Diorama
TitleUnicode:Diorama
Artist:UPLIFT SPICE
ArtistUnicode:UPLIFT SPICE
Creator:Keroshka
Version:Light Insane
Source:
Tags:
BeatmapID:2110000
BeatmapSetID:822135

[Difficulty]
HPDrainRate:4
CircleSize:3
OverallDifficulty:7
ApproachRate:8.4
SliderMultiplier:1.6
SliderTickRate:1

[Events]
//Background and Video events
0,0,"This+just+your+everyday+anime+wallpaper+or+is+it+from+_2f2eb550ef94305a0fd614e1c1c5cbe2.png",0,0
//Break Periods
//Storyboard Layer 0 (Background)
//Storyboard Layer 1 (Fail)
//Storyboard Layer 2 (Pass)
//Storyboard Layer 3 (Foreground)
//Storyboard Sound Samples

[TimingPoints]
315,331.491712707182,4,1,0,100,1,0
4955,-133.333333333333,4,1,0,100,0,0
5618,-90.9090909090909,4,1,0,100,0,0
10922,-100,4,1,0,100,0,0
16226,-90.9090909090909,4,1,0,100,0,0
21530,-100,4,1,0,100,0,0
58657,-86.9565217391304,4,1,0,100,0,0
186271,-83.3333333333333,4,1,0,75,0,0
186437,-83.3333333333333,4,1,0,70,0,0
186602,-83.3333333333333,4,1,0,65,0,0
186768,-83.3333333333333,4,1,0,60,0,0
186934,-83.3333333333333,4,1,0,55,0,0
187100,-83.3333333333333,4,1,0,50,0,0
187265,-83.3333333333333,4,1,0,45,0,0
187431,-83.3333333333333,4,1,0,40,0,0
187597,-83.3333333333333,4,1,0,35,0,0
187763,-83.3333333333333,4,1,0,30,0,0
187928,-83.3333333333333,4,1,0,25,0,0
188094,-83.3333333333333,4,1,0,20,0,0
188260,-83.3333333333333,4,1,0,15,0,0
188426,-83.3333333333333,4,1,0,10,0,0
188591,-83.3333333333333,4,1,0,5,0,0

[Colours]
Combo1 : 255,128,255
Combo2 : 128,128,255
Combo3 : 128,0,128
Combo4 : 242,24,57

[HitObjects]
54,332,315,6,0,L|136:319,1,80
219,300,646,2,0,P|247:262|228:122,1,160
186,89,1143,2,0,L|86:75,1,80
39,136,1475,1,0,0:0:0:0:
40,223,1640,6,0,L|140:209,1,80
195,257,1972,2,0,L|274:245,1,80
361,233,2303,2,0,P|380:267|389:306,1,80
468,348,2635,2,0,P|477:309|496:274,1,80
479,187,2884,1,0,0:0:0:0:
479,187,2966,6,0,P|470:148|451:113,1,80
379,61,3298,2,0,L|196:44,1,160
157,108,3795,2,0,P|130:71|131:12,1,80
249,149,4127,1,0,0:0:0:0:
162,208,4292,6,0,L|153:296,1,80
60,176,4624,2,0,L|69:264,1,80
219,350,4955,2,0,B|305:304|320:394|420:336,1,210.000008010865
338,169,5618,6,0,L|354:267,1,88.000002685547
450,245,5950,1,0,0:0:0:0:
449,114,6116,2,0,P|376:52|288:62,1,176.000005371094
224,128,6530,1,0,0:0:0:0:
224,128,6613,2,0,P|138:128|75:70,1,176.000005371094
267,28,7110,6,0,P|317:67|327:173,1,176.000005371094
237,234,7524,1,0,0:0:0:0:
237,234,7607,2,0,L|234:330,1,88.000002685547
340,372,7939,2,0,L|338:285,1,88.000002685547
424,224,8270,6,0,P|467:209|535:215,1,88.000002685547
444,329,8602,1,0,0:0:0:0:
325,175,8768,2,0,B|237:132|240:231|137:162,1,176.000005371094
106,83,9182,1,0,0:0:0:0:
106,83,9265,6,0,P|56:146|80:247,1,176.000005371094
168,304,9762,2,0,P|222:289|331:344,1,176.000005371094
418,380,10176,1,0,0:0:0:0:
418,380,10259,2,0,L|432:278,1,88.000002685547
348,226,10591,2,0,L|334:124,1,88.000002685547
320,24,10922,5,0,0:0:0:0:
430,86,11088,1,0,0:0:0:0:
336,138,11254,2,0,P|251:113|212:48,1,160
128,36,11751,1,0,0:0:0:0:
25,80,11917,1,0,0:0:0:0:
113,139,12082,6,0,P|133:180|132:223,1,80
204,367,12414,2,0,P|206:327|224:292,1,80
312,228,12745,1,0,0:0:0:0:
312,228,12828,1,0,0:0:0:0:
312,228,12911,2,0,L|409:224,1,80
494,278,13243,1,0,0:0:0:0:
402,337,13408,1,0,0:0:0:0:
391,224,13574,6,0,L|383:137,1,80
464,78,13906,2,0,P|393:38|312:61,1,160
289,151,14403,1,0,0:0:0:0:
186,148,14569,1,0,0:0:0:0:
106,74,14734,6,0,P|79:36|68:-11,1,80
215,76,15066,2,0,P|204:125|176:155,1,80
85,180,15397,1,0,0:0:0:0:
85,180,15480,1,0,0:0:0:0:
85,180,15563,2,0,L|99:274,1,80
167,333,15895,1,0,0:0:0:0:
263,283,16060,1,0,0:0:0:0:
351,334,16226,6,0,P|363:288|343:223,1,88.000002685547
275,182,16558,1,0,0:0:0:0:
374,147,16723,2,0,P|329:95|211:94,1,176.000005371094
163,175,17138,1,0,0:0:0:0:
163,175,17221,2,0,L|138:358,1,176.000005371094
34,184,17718,6,0,L|10:9,1,176.000005371094
150,87,18132,1,0,0:0:0:0:
150,87,18215,2,0,L|162:174,1,88.000002685547
123,371,18547,2,0,L|111:284,1,88.000002685547
225,271,18878,6,0,P|269:262|312:211,1,88.000002685547
346,146,19210,1,0,0:0:0:0:
398,236,19375,2,0,P|447:166|428:83,1,176.000005371094
337,40,19790,1,0,0:0:0:0:
337,40,19873,2,0,L|160:30,1,176.000005371094
0,170,20370,6,0,L|177:160,1,176.000005371094
327,231,20784,1,0,0:0:0:0:
327,231,20867,2,0,P|346:271|345:345,1,88.000002685547
199,243,21198,2,0,P|180:203|175:159,1,88.000002685547
266,60,21530,5,0,0:0:0:0:
347,120,21696,1,0,0:0:0:0:
356,25,21861,2,0,L|447:22,1,80
255,157,22193,2,0,L|175:159,1,80
38,101,22524,2,0,P|22:53|28:6,1,80
175,159,22856,6,0,P|191:207|185:254,1,80
103,334,23187,1,0,0:0:0:0:
57,216,23353,1,0,0:0:0:0:
57,216,23436,1,0,0:0:0:0:
57,216,23519,1,0,0:0:0:0:
200,371,23685,2,0,P|193:336|197:315,2,40
289,290,24016,1,0,0:0:0:0:
289,290,24099,1,0,0:0:0:0:
289,290,24182,6,0,L|389:285,1,80
512,207,24513,2,0,L|412:202,1,80
299,132,24845,2,0,P|289:85|297:36,1,80
185,207,25176,2,0,P|195:254|187:303,1,80
88,146,25508,6,0,L|38:135,3,40
196,96,25839,2,0,L|235:104,3,40
107,26,26171,2,0,L|67:17,3,40
185,207,26502,1,0,0:0:0:0:
471,308,26834,6,0,P|395:268|319:277,1,160
252,352,27331,1,0,0:0:0:0:
156,317,27497,2,0,P|111:289|85:238,1,80
102,172,27828,1,0,0:0:0:0:
163,95,27994,6,0,L|250:85,1,80
417,9,28326,2,0,L|337:18,1,80
348,124,28657,1,0,0:0:0:0:
430,187,28823,2,0,P|358:224|279:203,1,160
173,203,29320,1,0,0:0:0:0:
173,203,29403,1,0,0:0:0:0:
173,203,29486,6,0,P|149:250|168:353,1,160
265,383,29983,1,0,0:0:0:0:
349,332,30149,2,0,P|363:286|353:235,1,80
469,179,30480,2,0,P|466:218|480:256,1,80
450,362,30812,5,0,0:0:0:0:
360,254,30977,2,0,P|362:214|348:176,1,80
254,130,31309,1,0,0:0:0:0:
150,124,31475,2,0,L|42:128,1,80
21,243,31806,2,0,L|129:247,1,80
180,323,32138,6,0,P|259:337|323:286,1,160
355,187,32635,1,0,0:0:0:0:
426,267,32801,2,0,P|454:312|457:363,1,80
458,168,33132,2,0,P|467:129|490:97,1,80
378,78,33464,5,0,0:0:0:0:
281,121,33629,2,0,L|175:115,1,80
0,68,33961,2,0,L|106:62,1,80
101,169,34292,2,0,L|119:335,1,160
240,384,34790,6,0,L|227:269,1,80
303,218,35121,1,0,0:0:0:0:
372,307,35287,1,0,0:0:0:0:
415,199,35453,2,0,L|402:84,1,80
280,28,35784,2,0,L|288:107,1,80
303,218,36116,5,0,0:0:0:0:
171,174,36281,1,0,0:0:0:0:
200,309,36447,2,0,L|186:360,2,40
79,268,36779,1,0,0:0:0:0:
28,138,36944,2,0,L|38:99,2,40
149,38,37276,6,0,L|236:30,1,80
334,146,37607,1,0,0:0:0:0:
342,31,37773,1,0,0:0:0:0:
225,132,37939,2,0,L|212:227,1,80
205,330,38270,1,0,0:0:0:0:
310,275,38436,1,0,0:0:0:0:
214,211,38602,6,0,L|113:194,1,80
4,223,38933,1,0,0:0:0:0:
88,311,39099,1,0,0:0:0:0:
135,197,39265,2,0,P|151:158|145:104,1,80
76,51,39596,1,0,0:0:0:0:
223,5,39762,2,0,P|222:44|238:81,1,80
325,148,40094,6,0,L|422:135,1,80
512,258,40425,2,0,L|415:245,1,80
357,323,40756,1,0,0:0:0:0:
271,266,40922,1,0,0:0:0:0:
191,337,41088,2,0,P|163:296|164:248,1,80
211,172,41419,5,0,0:0:0:0:
271,266,41585,1,0,0:0:0:0:
327,172,41751,1,0,0:0:0:0:
266,75,41917,2,0,P|221:61|158:73,1,80
108,140,42248,1,0,0:0:0:0:
90,238,42414,1,0,0:0:0:0:
66,342,42580,6,0,P|107:341|157:322,1,80
196,240,42911,1,0,0:0:0:0:
271,320,43077,1,0,0:0:0:0:
311,216,43243,2,0,P|349:204|388:203,1,80
475,263,43574,1,0,0:0:0:0:
380,316,43740,1,0,0:0:0:0:
388,203,43906,6,0,L|395:97,1,80
457,31,44237,1,0,0:0:0:0:
509,132,44403,1,0,0:0:0:0:
393,123,44569,2,0,P|348:108|307:70,1,80
266,5,44900,1,0,0:0:0:0:
211,94,45066,2,0,P|173:105|141:129,1,80
54,203,45397,6,0,L|45:291,1,80
157,373,45729,2,0,L|149:294,1,80
263,193,46060,2,0,L|254:281,1,80
366,363,46392,2,0,L|357:283,1,80
415,210,46723,5,0,0:0:0:0:
511,249,46889,1,0,0:0:0:0:
494,141,47055,2,0,L|485:61,1,80
382,13,47386,2,0,L|390:92,1,80
308,168,47718,1,0,0:0:0:0:
210,95,47884,1,0,0:0:0:0:
130,184,48049,6,0,P|86:122|106:28,1,160
366,84,48712,2,0,P|410:146|390:240,1,160
198,325,49375,6,0,L|91:313,2,80
287,239,50038,2,0,L|394:227,2,80
175,47,50701,6,0,P|159:95|159:135,2,80
390,61,51364,2,0,L|303:57,1,80
397,218,51696,2,0,L|484:214,1,80
288,255,52027,6,0,P|272:293|271:333,1,80
358,372,52359,1,0,0:0:0:0:
457,345,52524,1,0,0:0:0:0:
379,268,52690,2,0,P|377:228|361:191,1,80
271,157,53022,1,0,0:0:0:0:
189,223,53187,1,0,0:0:0:0:
113,148,53353,6,0,P|66:135|20:142,1,80
166,318,53685,2,0,P|205:319|243:307,1,80
312,229,54016,2,0,P|345:202|473:195,1,160
450,268,54679,6,0,L|457:188,2,80
366,115,55176,2,0,L|324:109,2,40
238,177,55508,1,0,0:0:0:0:
149,103,55674,1,0,0:0:0:0:
63,183,55839,1,0,0:0:0:0:
16,42,56005,1,0,0:0:0:0:
256,192,56088,12,0,57331,0:0:0:0:
121,330,58657,6,0,P|203:312|253:203,1,184.000003509522
134,213,59154,1,0,0:0:0:0:
18,265,59320,2,0,P|8:207|21:155,1,92.0000017547608
100,2,59652,2,0,P|110:60|97:112,1,92.0000017547608
218,124,59983,6,0,L|420:98,1,184.000003509522
494,222,60480,1,0,0:0:0:0:
386,216,60646,2,0,L|272:201,1,92.0000017547608
202,350,60977,2,0,L|315:335,1,92.0000017547608
148,251,61309,6,0,P|149:150|213:87,1,184.000003509522
317,152,61806,1,0,0:0:0:0:
414,86,61972,2,0,P|439:131|443:181,1,92.0000017547608
396,348,62303,2,0,P|371:303|367:253,1,92.0000017547608
252,251,62635,6,0,L|131:259,1,92.0000017547608
17,373,62966,2,0,L|108:366,1,92.0000017547608
160,257,63298,2,0,P|180:205|173:141,1,92.0000017547608
65,9,63629,2,0,P|45:61|52:125,1,92.0000017547608
180,169,63961,6,0,L|372:154,1,184.000003509522
444,224,64458,1,0,0:0:0:0:
400,314,64624,2,0,P|364:284|345:219,1,92.0000017547608
404,55,64955,2,0,P|440:85|459:150,1,92.0000017547608
362,140,65287,6,0,L|178:125,1,184.000003509522
67,192,65784,1,0,0:0:0:0:
175,233,65950,2,0,L|226:325,1,92.0000017547608
40,379,66281,2,0,L|84:298,1,92.0000017547608
146,127,66613,6,0,P|227:133|288:250,1,184.000003509522
296,332,67110,1,0,0:0:0:0:
378,258,67276,2,0,P|425:241|483:246,1,92.0000017547608
512,112,67607,2,0,P|466:112|423:95,1,92.0000017547608
277,32,67939,6,0,P|231:31|188:48,1,92.0000017547608
5,161,68270,2,0,P|50:161|93:144,1,92.0000017547608
202,159,68602,1,0,0:0:0:0:
87,43,68768,1,0,0:0:0:0:
218,176,68933,2,0,L|306:263,1,92.0000017547608
479,264,69265,6,0,L|439:347,1,92.0000017547608
283,240,69596,2,0,L|322:156,1,92.0000017547608
463,90,69928,2,0,L|423:173,1,92.0000017547608
374,258,70259,1,0,0:0:0:0:
266,80,70425,1,0,0:0:0:0:
191,190,70591,6,0,L|96:174,1,92.0000017547608
157,336,70922,2,0,L|252:320,1,92.0000017547608
206,99,71254,2,0,L|190:194,1,92.0000017547608
353,327,71585,2,0,L|337:236,1,92.0000017547608
320,124,71917,5,0,0:0:0:0:
452,215,72082,1,0,0:0:0:0:
408,71,72248,2,0,P|367:34|297:22,1,92.0000017547608
153,106,72580,2,0,P|195:89|228:57,1,92.0000017547608
348,223,72911,2,0,P|305:239|272:271,1,92.0000017547608
93,258,73243,6,0,P|134:295|204:307,1,92.0000017547608
153,106,73574,2,0,P|112:69|42:57,1,92.0000017547608
187,204,73906,1,0,0:0:0:0:
284,90,74071,1,0,0:0:0:0:
348,223,74237,2,0,L|450:239,1,92.0000017547608
250,322,74569,6,0,P|165:331|82:272,1,184.000003509522
90,68,75232,2,0,L|70:169,2,92.0000017547608
186,221,75895,2,0,L|203:130,2,92.0000017547608
250,322,76392,1,0,0:0:0:0:
337,252,76558,2,0,P|380:238|438:241,1,92.0000017547608
500,132,76889,2,0,P|454:132|410:118,1,92.0000017547608
320,39,77221,6,0,P|219:17|146:61,1,184.000003509522
99,244,77884,2,0,L|89:138,2,92.0000017547608
246,118,78547,2,0,L|251:178,3,46.0000008773804
316,231,78878,2,0,L|321:291,3,46.0000008773804
396,355,79210,1,0,0:0:0:0:
498,305,79375,1,0,0:0:0:0:
410,228,79541,1,0,0:0:0:0:
512,178,79706,1,0,0:0:0:0:
413,111,79873,5,0,0:0:0:0:
