osu file format v14

[General]
AudioFilename: audio.mp3
AudioLeadIn: 0
PreviewTime: 47673
Countdown: 0
SampleSet: Soft
StackLeniency: 0.4
Mode: 0
LetterboxInBreaks: 0
WidescreenStoryboard: 1

[Editor]
Bookmarks: 29108,38613,48118,57623,64752,74257
DistanceSpacing: 1.5
BeatDivisor: 4
GridSize: 8
TimelineZoom: 2.1

[Metadata]
Title:Haruka Kanata (TV Size)
TitleUnicode:ハルカカナタ (TV Size)
Artist:UNLIMITS
ArtistUnicode:UNLIMITS
Creator:dorsalplum
Version:Pika's Hard
Source:BLEACH
Tags:anime ending 28 japanese [[pika]] pikapoo2014 kowari reform kujinn kittyadventure gokugohan12468 xiced door weapon agatsu rialkuu
BeatmapID:2182324
BeatmapSetID:958999

[Difficulty]
HPDrainRate:5
CircleSize:3.8
OverallDifficulty:7
ApproachRate:8
SliderMultiplier:1.1
SliderTickRate:1

[Events]
//Background and Video events
0,0,"BG.jpg",0,0
//Break Periods
//Storyboard Layer 0 (Background)
//Storyboard Layer 1 (Fail)
//Storyboard Layer 2 (Pass)
//Storyboard Layer 3 (Foreground)
//Storyboard Layer 4 (Overlay)
//Storyboard Sound Samples

[TimingPoints]
498,297.029702970297,4,2,2,40,1,0
720,-100,4,2,2,5,0,0
796,297.029702970297,4,2,2,40,1,0
7924,-100,4,2,2,50,0,0
9112,-100,4,2,2,50,0,0
9706,-100,4,2,2,70,0,0
10152,-90.9090909090909,4,2,2,75,0,1
19583,-90.9090909090909,4,2,2,75,0,0
19657,-95.2380952380952,4,2,2,55,0,1
19731,-95.2380952380952,4,2,2,55,0,0
29162,-95.2380952380952,4,2,2,60,0,1
29236,-95.2380952380952,4,2,2,60,0,0
38815,-95.2380952380952,4,2,2,65,0,1
38890,-95.2380952380952,4,2,2,65,0,0
43494,-95.2380952380952,4,2,2,5,0,0
43568,-95.2380952380952,4,2,2,65,0,0
45944,-95.2380952380952,4,2,2,70,0,0
46166,-95.2380952380952,4,2,2,5,0,0
46241,-95.2380952380952,4,2,2,70,0,0
46390,-95.2380952380952,4,2,2,70,0,0
46612,-95.2380952380952,4,2,2,5,0,0
46687,-95.2380952380952,4,2,2,70,0,0
46835,-95.2380952380952,4,2,2,70,0,0
47281,-95.2380952380952,4,2,2,50,0,0
47726,-95.2380952380952,4,2,2,50,0,0
47949,-95.2380952380952,4,2,2,5,0,0
48023,-95.2380952380952,4,2,2,50,0,0
48246,-95.2380952380952,4,2,2,5,0,0
48320,-86.9565217391304,4,2,2,85,0,1
48543,-86.9565217391304,4,2,2,5,0,1
48617,-86.9565217391304,4,2,2,85,0,1
50918,-86.9565217391304,4,2,2,5,0,1
50994,-86.9565217391304,4,2,2,85,0,1
56266,-86.9565217391304,4,2,2,5,0,1
56340,-86.9565217391304,4,2,2,85,0,1
57751,-86.9565217391304,4,2,2,85,0,0
57825,-86.9565217391304,4,2,2,85,0,1
60424,-86.9565217391304,4,2,2,5,0,1
60498,-86.9565217391304,4,2,2,85,0,1
60721,-86.9565217391304,4,2,2,5,0,1
60796,-86.9565217391304,4,2,2,85,0,1
64360,285.714285714286,4,2,2,80,1,0
64645,309.278350515464,4,2,2,80,1,0
64645,-86.9565217391304,4,2,2,80,0,1
64876,-86.9565217391304,4,2,2,80,0,1
64954,297.029702970297,4,2,2,85,1,0
64954,-86.9565217391304,4,2,2,85,0,1
74458,-90.9090909090909,4,2,2,80,0,0
80994,-90.9090909090909,4,2,2,60,0,0
81365,-90.9090909090909,4,2,2,5,0,0
81439,-90.9090909090909,4,2,2,75,0,1
83963,-90.9090909090909,4,2,2,75,0,0
84261,-90.9090909090909,4,2,2,65,0,0
84558,-90.9090909090909,4,2,2,55,0,0
84855,-90.9090909090909,4,2,2,50,0,0
85152,-90.9090909090909,4,2,2,45,0,0
85449,-90.9090909090909,4,2,2,40,0,0
85746,-90.9090909090909,4,2,2,35,0,0
86043,-90.9090909090909,4,2,2,30,0,0
86340,-90.9090909090909,4,2,2,25,0,0
86637,-90.9090909090909,4,2,2,20,0,0
86934,-90.9090909090909,4,2,2,15,0,0
87231,-90.9090909090909,4,2,2,10,0,0
87528,-90.9090909090909,4,2,2,5,0,0
87825,-90.9090909090909,4,2,2,5,0,0
88122,-90.9090909090909,4,2,2,5,0,0

[Colours]
Combo1 : 159,80,0
Combo2 : 72,72,72
Combo3 : 202,202,202
Combo4 : 255,133,74

[HitObjects]
36,344,498,6,0,B|52:328|52:328|43:261,1,82.5
71,246,795,5,6,1:2:0:0:
48,169,944,1,2,1:2:0:0:
40,157,3172,6,0,B|45:130|68:108|68:108|21:109|5:67|5:67|33:65|45:82,2,165,2|2|2,3:2|0:0|3:2,0:0:0:0:
48,169,4211,1,2,0:0:0:0:
487,353,5548,5,2,1:2:0:0:
438,275,5696,1,2,1:2:0:0:
429,267,6142,2,0,B|429:143|504:211|498:66,1,220,0|0,3:2|3:2,0:0:0:0:
242,21,7330,2,0,B|236:119|314:71|304:165,1,165,2|2,3:2|0:0,0:0:0:0:
296,187,7850,1,0,0:0:0:0:
278,205,7924,6,0,B|226:223|188:187|185:148|185:148|137:203|52:170|56:107|56:107|77:152|127:154,1,385,2|2,1:2|0:0,0:0:0:0:
130,72,9112,5,4,0:0:0:0:
6,38,9409,1,6,0:0:0:0:
121,56,9706,5,12,0:0:0:0:
21,28,9855,1,12,0:0:0:0:
11,210,10152,6,0,B|6:253|6:253|23:287|23:287|18:330,1,121.000003692627,6|2,1:2|1:2,0:0:0:0:
85,384,10597,1,8,0:0:0:0:
85,384,10746,2,0,P|115:364|145:362,1,60.5000018463135,2|0,0:0|1:0,0:0:0:0:
196,308,11043,2,0,P|226:328|256:330,1,60.5000018463135,2|10,1:2|0:0,0:0:0:0:
309,384,11340,6,0,P|359:345|422:338,1,121.000003692627,2|2,1:2|1:2,0:0:0:0:
444,265,11786,1,10,0:0:0:0:
444,265,11934,2,0,P|405:215|398:152,1,121.000003692627,2|0,0:0|1:0,0:0:0:0:
420,85,12380,1,8,0:0:0:0:
481,39,12528,6,0,B|449:55|449:55|349:28,1,121.000003692627,6|2,1:2|1:2,0:0:0:0:
292,8,12974,1,10,0:0:0:0:
292,8,13122,2,0,L|229:13,1,60.5000018463135,2|0,0:0|1:0,0:0:0:0:
180,71,13419,2,0,L|117:66,1,60.5000018463135,2|10,1:2|0:0,0:0:0:0:
45,47,13716,6,0,B|28:120|76:93|64:161,1,121.000003692627,2|2,1:2|1:2,0:0:0:0:
156,199,14162,1,10,0:0:0:0:
156,199,14310,2,0,B|144:131|192:158|175:85,1,121.000003692627,2|0,0:0|1:0,0:0:0:0:
243,47,14756,1,8,0:0:0:0:
264,125,14904,6,0,L|397:121,1,121.000003692627,6|2,1:2|1:2,0:0:0:0:
456,167,15350,1,10,0:0:0:0:
456,167,15498,2,0,B|445:199|445:199|451:227,1,60.5000018463135,2|0,0:0|1:0,0:0:0:0:
386,271,15796,2,0,B|397:303|397:303|391:331,1,60.5000018463135,2|10,1:2|0:0,0:0:0:0:
326,376,16093,6,0,P|280:338|209:349,1,121.000003692627,2|2,1:2|1:2,0:0:0:0:
159,291,16538,1,10,0:0:0:0:
159,291,16687,2,0,P|113:329|42:318,1,121.000003692627,2|0,0:0|1:0,0:0:0:0:
0,272,17132,1,8,0:0:0:0:
33,202,17281,6,0,B|44:160|44:160|29:125|29:125|35:83,1,121.000003692627,6|2,1:2|1:2,0:0:0:0:
110,54,17726,1,10,0:0:0:0:
110,54,17875,2,0,L|113:120,1,60.5000018463135,2|0,0:0|1:0,0:0:0:0:
159,184,18172,1,2,1:2:0:0:
159,184,18320,1,10,0:0:0:0:
233,151,18469,6,0,B|285:148|285:148|305:161|305:161|362:159,1,121.000003692627,2|2,1:2|1:2,0:0:0:0:
409,106,18914,1,10,0:0:0:0:
428,30,19063,2,0,P|381:31|332:85,1,121.000003692627,2|2,0:0|1:2,0:0:0:0:
350,159,19508,1,10,0:0:0:0:
424,188,19657,6,0,B|405:223|405:223|423:298,1,115.49999647522,6|0,0:0|0:0,0:0:0:0:
446,369,20102,1,8,0:0:0:0:
296,276,20399,2,0,L|231:273,2,57.7499982376099,2|2|10,0:0|0:0|0:0,0:0:0:0:
328,352,20845,6,0,L|201:357,1,115.49999647522,2|0,0:0|0:0,0:0:0:0:
162,295,21291,1,8,0:0:0:0:
4,369,21588,2,0,L|-1:304,2,57.7499982376099,2|2|10,0:0|0:0|0:0,0:0:0:0:
82,317,22033,6,0,L|87:252,1,57.7499982376099,2|0,0:0|0:0,0:0:0:0:
11,231,22330,2,0,L|6:166,1,57.7499982376099,2|8,0:0|0:0,0:0:0:0:
97,122,22627,2,0,L|92:179,1,57.7499982376099,2|0,0:0|0:0,0:0:0:0:
164,227,22924,2,0,L|168:284,1,57.7499982376099,2|8,0:0|0:0,0:0:0:0:
246,249,23221,6,0,B|279:234|279:234|376:248,1,115.49999647522,2|0,0:0|0:0,0:0:0:0:
416,300,23667,1,10,0:0:0:0:
455,168,23964,2,0,L|518:163,2,57.7499982376099,2|0|10,1:2|1:2|0:0,0:0:0:0:
395,108,24409,6,0,P|434:71|436:11,1,115.49999647522,6|0,1:2|0:0,0:0:0:0:
360,36,24855,1,8,0:0:0:0:
218,99,25152,2,0,L|153:95,2,57.7499982376099,2|2|10,0:0|0:0|0:0,0:0:0:0:
248,14,25597,6,0,L|126:21,1,115.49999647522,2|0,0:0|0:0,0:0:0:0:
79,84,26043,1,8,0:0:0:0:
179,235,26340,2,0,L|183:170,2,57.7499982376099,2|2|10,0:0|0:0|0:0,0:0:0:0:
158,318,26786,6,0,P|186:312|218:312,1,57.7499982376099,2|0,0:0|0:0,0:0:0:0:
260,243,27083,2,0,P|288:249|320:249,1,57.7499982376099,2|8,0:0|0:0,0:0:0:0:
394,286,27380,2,0,L|395:224,1,57.7499982376099,2|0,0:0|0:0,0:0:0:0:
450,170,27677,2,0,L|449:108,1,57.7499982376099,2|8,0:0|0:0,0:0:0:0:
389,56,27974,6,0,B|319:51|357:13|287:9,1,115.49999647522,2|2,0:0|0:0,0:0:0:0:
226,61,28419,1,8,0:0:0:0:
337,228,28716,2,0,L|394:226,2,57.7499982376099,2|2|10,1:2|1:2|0:0,0:0:0:0:
276,287,29162,6,0,B|244:267|244:267|143:278,1,115.49999647522,6|0,1:2|0:0,0:0:0:0:
116,336,29607,1,8,0:0:0:0:
57,146,29904,2,0,L|-8:138,2,57.7499982376099,2|0|10,0:0|0:0|0:0,0:0:0:0:
116,201,30350,6,0,P|170:180|230:179,1,115.49999647522,2|0,0:0|0:0,0:0:0:0:
300,210,30796,1,8,0:0:0:0:
449,291,31093,2,0,L|511:289,2,57.7499982376099,2|2|10,0:0|0:0|0:0,0:0:0:0:
396,230,31538,6,0,P|416:211|429:176,1,57.7499982376099,2|0,0:0|0:0,0:0:0:0:
496,136,31835,2,0,P|477:116|442:103,1,57.7499982376099,2|8,0:0|0:0,0:0:0:0:
404,38,32132,2,0,P|384:57|371:92,1,57.7499982376099,2|0,0:0|0:0,0:0:0:0:
304,132,32429,2,0,P|323:152|358:165,1,57.7499982376099,2|8,0:0|0:0,0:0:0:0:
372,84,32726,6,0,P|320:52|259:61,1,115.49999647522,2|0,0:0|0:0,0:0:0:0:
224,126,33172,1,8,0:0:0:0:
85,32,33469,2,0,L|18:29,2,57.7499982376099,0|0|10,1:0|1:0|0:0,0:0:0:0:
145,108,33914,6,0,B|125:178|172:147|155:221,1,115.49999647522,6|0,1:2|0:0,0:0:0:0:
97,270,34360,2,0,P|76:229|84:196,1,57.7499982376099,10|0,0:0|0:0,0:0:0:0:
170,295,34657,2,0,P|145:332|112:342,1,57.7499982376099,2|0,0:0|0:0,0:0:0:0:
155,218,34954,2,0,P|200:220|224:243,1,57.7499982376099,10|0,0:0|0:0,0:0:0:0:
251,297,35251,6,0,B|275:272|275:272|377:287,1,115.49999647522,2|10,0:0|0:0,0:0:0:0:
397,196,35696,1,0,0:0:0:0:
397,196,35845,2,0,L|340:197,1,57.7499982376099,2|0,1:2|1:0,0:0:0:0:
369,277,36142,1,10,0:0:0:0:
469,229,36291,6,0,B|478:196|478:196|464:156|464:156|472:116,1,115.49999647522,6|0,1:2|1:0,0:0:0:0:
426,52,36736,1,10,0:0:0:0:
226,159,37033,2,0,L|232:96,2,57.7499982376099,2|2|10,1:2|1:2|0:0,0:0:0:0:
172,216,37479,6,0,B|179:260|179:260|169:294|169:294|175:333,1,115.49999647522,2|2,1:2|0:0,0:0:0:0:
239,374,37924,1,10,0:0:0:0:
96,255,38221,2,0,L|36:260,1,57.7499982376099,8|0,0:0|1:0,0:0:0:0:
0,178,38518,2,0,L|57:182,1,57.7499982376099,2|2,1:2|0:0,0:0:0:0:
115,126,38815,5,6,1:2:0:0:
115,126,38964,2,0,P|91:77|120:17,1,115.49999647522,8|0,0:0|1:0,0:0:0:0:
228,49,39409,2,0,P|212:23|178:5,1,57.7499982376099,10|0,0:0|0:0,0:0:0:0:
211,129,39706,2,0,L|281:123,1,57.7499982376099,2|8,1:2|0:0,0:0:0:0:
365,57,40003,6,0,L|295:51,1,57.7499982376099,2|0,1:2|1:0,0:0:0:0:
224,43,40300,1,10,0:0:0:0:
314,193,40597,2,0,L|384:187,1,57.7499982376099,2|0,1:2|1:0,0:0:0:0:
417,274,40895,2,0,L|347:268,1,57.7499982376099,10|0,0:0|0:0,0:0:0:0:
298,324,41192,5,2,1:2:0:0:
298,324,41340,2,0,B|269:305|269:305|182:318,1,115.49999647522,8|0,0:0|1:0,0:0:0:0:
136,375,41786,2,0,P|109:327|125:269,1,115.49999647522,8|2,0:0|1:2,0:0:0:0:
200,179,42231,1,8,0:0:0:0:
200,179,42380,6,0,L|195:236,1,57.7499982376099,2|0,1:2|1:0,0:0:0:0:
117,193,42677,2,0,L|112:135,1,57.7499982376099,10|0,0:0|0:0,0:0:0:0:
103,59,42974,1,2,1:2:0:0:
103,59,43122,1,0,1:0:0:0:
178,88,43271,2,0,B|207:75|207:75|249:80,1,57.7499982376099,10|0,0:0|0:0,0:0:0:0:
293,26,43568,5,6,1:2:0:0:
293,26,43716,2,0,P|343:50|422:30,1,115.49999647522,8|0,0:0|1:0,0:0:0:0:
470,6,44162,2,0,P|479:54|468:85,1,57.7499982376099,8|0,0:0|0:0,0:0:0:0:
421,118,44459,2,0,P|412:166|423:197,1,57.7499982376099,2|8,1:2|0:0,0:0:0:0:
504,250,44756,6,0,L|436:245,1,57.7499982376099,2|0,1:2|1:0,0:0:0:0:
368,238,45053,1,10,0:0:0:0:
257,136,45350,1,2,1:2:0:0:
337,140,45499,1,0,1:0:0:0:
247,142,45647,2,0,P|240:115|244:84,1,57.7499982376099,10|0,0:0|0:0,0:0:0:0:
295,207,45944,6,0,B|286:247|286:247|300:282|300:282|292:320,1,115.49999647522,6|0,1:2|1:0,0:0:0:0:
369,357,46390,2,0,B|380:322|380:322|410:298|410:298|422:259,1,115.49999647522,8|0,0:0|1:0,0:0:0:0:
503,287,46835,1,8,0:0:0:0:
452,105,47281,2,0,L|520:106,2,57.7499982376099,2|2|2,0:0|0:0|0:0,0:0:0:0:
412,29,47726,5,2,0:0:0:0:
343,187,48023,1,2,0:0:0:0:
220,54,48320,6,0,B|171:49|171:49|139:62|139:62|81:57,1,126.500002412796,6|8,1:2|0:0,0:0:0:0:
39,116,48766,1,0,0:0:0:0:
39,116,48914,2,0,P|51:165|45:188,1,63.250001206398,2|0,1:2|1:2,0:0:0:0:
108,229,49211,2,0,P|96:278|102:301,1,63.250001206398,10|0,0:0|0:0,0:0:0:0:
51,358,49508,6,0,P|101:328|167:344,1,126.500002412796,2|8,1:2|0:0,0:0:0:0:
237,304,49954,1,0,0:0:0:0:
237,304,50102,2,0,L|304:301,1,63.250001206398,2|0,1:2|1:2,0:0:0:0:
357,358,50399,2,0,L|424:361,1,63.250001206398,10|0,0:0|0:0,0:0:0:0:
482,250,50696,6,0,B|474:278|474:278|483:311,1,63.250001206398,2|0,1:2|0:0,0:0:0:0:
402,180,50994,2,0,B|410:207|410:207|401:240,1,63.250001206398,10|0,0:0|0:0,0:0:0:0:
324,203,51291,1,2,1:2:0:0:
324,203,51439,1,0,1:0:0:0:
411,167,51588,2,0,L|477:169,1,63.250001206398,10|0,0:0|0:0,0:0:0:0:
507,71,51885,6,0,B|483:90|483:90|384:85,1,126.500002412796,2|8,1:2|0:0,0:0:0:0:
326,33,52330,1,0,0:0:0:0:
326,33,52479,2,0,L|257:38,1,63.250001206398,2|0,1:2|1:0,0:0:0:0:
201,88,52776,2,0,L|132:83,1,63.250001206398,10|0,0:0|0:0,0:0:0:0:
59,67,53073,6,0,B|44:144|96:117|79:189,1,126.500002412796,6|8,1:2|0:0,0:0:0:0:
28,307,53518,1,2,0:0:0:0:
28,307,53667,2,0,P|17:273|20:244,1,63.250001206398,2|0,1:2|1:0,0:0:0:0:
90,198,53964,2,0,P|124:206|148:223,1,63.250001206398,10|0,0:0|0:0,0:0:0:0:
230,305,54261,6,0,B|219:261|219:261|231:227|231:227|219:184,1,126.500002412796,2|8,1:2|0:0,0:0:0:0:
170,75,54706,1,0,0:0:0:0:
170,75,54855,2,0,B|153:104|153:104|158:136,1,63.250001206398,2|0,1:2|1:0,0:0:0:0:
229,181,55152,2,0,B|246:152|246:152|241:120,1,63.250001206398,10|0,0:0|0:0,0:0:0:0:
305,72,55449,6,0,P|381:64|449:46,2,126.500002412796,2|10|2,1:2|0:0|1:2,0:0:0:0:
241,122,56192,1,0,1:2:0:0:
241,122,56340,1,10,0:0:0:0:
170,73,56489,6,0,B|97:49|118:104|43:78,1,126.500002412796,2|0,0:0|1:2,0:0:0:0:
0,147,56934,2,0,P|-1:188|13:214,1,63.250001206398,14|0,0:0|0:0,0:0:0:0:
80,251,57231,1,2,1:2:0:0:
80,251,57380,1,0,1:2:0:0:
141,170,57528,2,0,L|64:166,1,63.250001206398,10|0,0:0|0:0,0:0:0:0:
156,250,57825,6,0,B|203:246|203:246|229:266|229:266|290:263,1,126.500002412796,6|8,1:2|0:0,0:0:0:0:
318,336,58271,1,0,0:0:0:0:
318,336,58419,2,0,L|386:332,1,63.250001206398,2|0,1:2|1:0,0:0:0:0:
453,260,58716,2,0,L|385:256,1,63.250001206398,10|0,0:0|0:0,0:0:0:0:
430,180,59013,6,0,P|459:129|424:65,1,126.500002412796,2|8,1:2|0:0,0:0:0:0:
352,93,59459,1,0,0:0:0:0:
352,93,59607,2,0,P|342:125|350:159,1,63.250001206398,2|0,1:2|1:2,0:0:0:0:
276,186,59904,2,0,P|253:161|219:151,1,63.250001206398,10|0,0:0|0:0,0:0:0:0:
218,290,60201,6,0,L|209:227,1,63.250001206398,2|0,1:2|0:0,0:0:0:0:
290,384,60498,2,0,L|298:321,1,63.250001206398,10|0,0:0|0:0,0:0:0:0:
356,260,60796,1,2,1:2:0:0:
356,260,60944,1,0,1:0:0:0:
420,320,61093,2,0,B|450:330|450:330|485:323,1,63.250001206398,10|0,0:0|0:0,0:0:0:0:
356,260,61390,6,0,B|290:250|313:301|238:288,1,126.500002412796,2|8,1:2|0:0,0:0:0:0:
166,255,61835,1,2,0:0:0:0:
166,255,61984,2,0,P|127:269|95:267,1,63.250001206398,2|0,1:2|1:0,0:0:0:0:
41,216,62281,1,10,0:0:0:0:
0,62,62578,6,0,L|129:70,1,126.500002412796,6|8,1:2|0:0,0:0:0:0:
188,126,63023,1,2,0:0:0:0:
188,126,63172,1,2,1:2:0:0:
302,29,63469,2,0,P|340:43|362:44,1,63.250001206398,10|0,0:0|0:0,0:0:0:0:
459,30,63766,6,0,B|481:15|481:15|514:18,2,42.166667470932,10|8|8,0:0|0:0|0:0,0:0:0:0:
481,103,64063,2,0,B|495:136|495:136|489:175,1,63.250001206398,8|8,0:0|0:0,0:0:0:0:
419,190,64360,1,10,1:2:0:0:
419,190,64502,1,0,1:2:0:0:
491,238,64645,2,0,B|477:271|477:271|483:310,1,63.250001206398,2|0,1:2|1:2,0:0:0:0:
423,349,64954,6,0,B|343:347|391:307|305:306,1,126.500002412796,6|8,1:2|0:0,0:0:0:0:
233,324,65399,1,0,0:0:0:0:
233,324,65548,2,0,P|204:296|179:288,1,63.250001206398,2|0,1:2|1:0,0:0:0:0:
110,322,65845,2,0,P|100:361|105:386,1,63.250001206398,10|0,0:0|0:0,0:0:0:0:
182,288,66142,6,0,P|145:250|60:256,1,126.500002412796,2|8,1:2|0:0,0:0:0:0:
17,192,66587,1,2,0:0:0:0:
17,192,66736,2,0,L|22:120,1,63.250001206398,2|0,1:2|1:2,0:0:0:0:
85,78,67033,2,0,L|80:6,1,63.250001206398,10|2,0:0|0:0,0:0:0:0:
223,40,67330,6,0,B|196:49|196:49|162:43,1,63.250001206398,2|0,1:2|0:0,0:0:0:0:
319,111,67627,2,0,B|291:102|291:102|257:108,1,63.250001206398,10|0,0:0|0:0,0:0:0:0:
210,177,67924,1,2,1:2:0:0:
210,177,68072,1,0,1:2:0:0:
287,246,68221,2,0,L|289:171,1,63.250001206398,10|0,0:0|0:0,0:0:0:0:
381,295,68518,6,0,B|362:264|362:264|374:158,1,126.500002412796,2|8,1:2|0:0,0:0:0:0:
464,220,68963,1,2,0:0:0:0:
464,220,69112,2,0,P|452:186|454:154,1,63.250001206398,2|0,1:2|1:0,0:0:0:0:
421,81,69409,2,0,P|433:47|431:15,1,63.250001206398,10|0,0:0|0:0,0:0:0:0:
345,111,69706,6,0,P|304:81|296:10,1,126.500002412796,6|8,1:2|0:0,0:0:0:0:
213,35,70152,1,0,0:0:0:0:
213,35,70300,2,0,L|141:31,1,63.250001206398,2|0,1:2|1:0,0:0:0:0:
85,75,70597,2,0,L|21:79,1,63.250001206398,10|0,0:0|0:0,0:0:0:0:
60,154,70894,6,0,B|89:232|27:203|53:279,1,126.500002412796,2|8,1:2|0:0,0:0:0:0:
121,324,71340,1,0,0:0:0:0:
121,324,71488,2,0,P|157:300|168:271,1,63.250001206398,2|0,1:2|1:2,0:0:0:0:
241,216,71785,2,0,P|243:259|263:283,1,63.250001206398,10|0,0:0|0:0,0:0:0:0:
333,293,72082,6,0,P|364:259|339:179,1,126.500002412796,6|10,1:2|0:0,0:0:0:0:
317,110,72528,1,0,0:0:0:0:
317,110,72676,2,0,L|388:113,1,63.250001206398,2|0,1:2|1:0,0:0:0:0:
418,32,72973,2,0,L|347:35,1,63.250001206398,10|0,0:0|0:0,0:0:0:0:
275,34,73270,5,0,1:2:0:0:
347,185,73567,1,0,1:2:0:0:
179,169,73864,2,0,L|105:174,1,63.250001206398,10|0,0:0|1:0,0:0:0:0:
38,193,74161,1,2,1:2:0:0:
57,120,74310,1,0,1:0:0:0:
94,247,74458,6,0,B|111:277|111:277|93:370,1,121.000003692627,6|0,1:2|1:2,0:0:0:0:
94,361,75053,2,0,L|154:360,1,60.5000018463135,10|0,0:0|0:0,0:0:0:0:
212,309,75350,2,0,L|272:310,1,60.5000018463135,2|8,0:0|0:0,0:0:0:0:
344,351,75647,5,2,1:2:0:0:
344,351,75795,2,0,P|398:323|458:322,1,121.000003692627,8|0,0:0|0:0,0:0:0:0:
512,379,76241,1,14,0:0:0:0:
373,247,76538,1,2,0:0:0:0:
512,125,76835,6,0,P|515:69|476:7,1,121.000003692627,6|2,1:2|1:2,0:0:0:0:
280,75,77429,2,0,P|249:126|251:186,1,121.000003692627,10|2,0:0|0:0,0:0:0:0:
196,243,77874,1,8,0:0:0:0:
196,243,78023,6,0,L|135:246,2,60.5000018463135,2|8|0,1:2|0:0|1:2,0:0:0:0:
347,150,78617,1,10,0:0:0:0:
166,157,78914,1,2,0:0:0:0:
327,242,79211,6,0,B|372:246|372:246|408:233|408:233|451:235,2,121.000003692627,6|0|8,1:2|1:0|0:0,0:0:0:0:
204,363,80102,1,2,0:0:0:0:
152,157,80399,2,0,B|137:89|188:108|170:37,1,121.000003692627,6|8,1:2|0:0,0:0:0:0:
390,112,80993,1,2,0:0:0:0:
390,112,81439,6,0,B|356:98|356:98|249:112,1,121.000003692627,6|2,1:2|1:2,0:0:0:0:
208,60,81884,1,10,0:0:0:0:
208,60,82033,2,0,P|134:63|98:36,1,121.000003692627,2|2,0:0|1:2,0:0:0:0:
39,92,82478,1,10,0:0:0:0:
39,92,82627,6,0,P|78:154|73:199,1,121.000003692627,6|2,1:2|1:2,0:0:0:0:
31,286,83072,2,0,B|9:297|9:297|-8:321,2,40.333334564209,10|8|8,0:0|0:0|0:0,0:0:0:0:
87,336,83369,2,0,L|157:333,1,60.5000018463135,10|10,0:0|0:0,0:0:0:0:
221,367,83666,2,0,L|282:370,1,60.5000018463135,2|0,1:2|1:0,0:0:0:0:
341,296,83963,5,6,1:2:0:0:
256,192,84038,12,0,88122,0:0:0:0:
