osu file format v14

[General]
AudioFilename: audio.mp3
AudioLeadIn: 0
PreviewTime: 47673
Countdown: 0
SampleSet: Soft
StackLeniency: 0.4
Mode: 0
LetterboxInBreaks: 0
WidescreenStoryboard: 0

[Editor]
DistanceSpacing: 1.2
BeatDivisor: 4
GridSize: 16
TimelineZoom: 3.599999

[Metadata]
Title:Haruka Kanata (TV Size)
TitleUnicode:ハルカカナタ (TV Size)
Artist:UNLIMITS
ArtistUnicode:UNLIMITS
Creator:dorsalplum
Version:Extra
Source:BLEACH
Tags:anime ending 28 japanese [[pika]] pikapoo2014 kowari reform kujinn kittyadventure gokugohan12468 xiced door weapon agatsu rialkuu
BeatmapID:2007799
BeatmapSetID:958999

[Difficulty]
HPDrainRate:5.5
CircleSize:4
OverallDifficulty:9
ApproachRate:9.3
SliderMultiplier:1.7
SliderTickRate:1

[Events]
//Background and Video events
0,0,"BG.jpg",0,0
//Break Periods
//Storyboard Layer 0 (Background)
//Storyboard Layer 1 (Fail)
//Storyboard Layer 2 (Pass)
//Storyboard Layer 3 (Foreground)
//Storyboard Layer 4 (Overlay)
//Storyboard Sound Samples

[TimingPoints]
498,297.029702970297,4,2,2,40,1,0
796,297.029702970297,4,2,2,40,1,0
1093,-117.647058823529,4,2,2,40,0,0
7924,-117.647058823529,4,2,2,50,0,0
9112,-117.647058823529,4,2,2,50,0,0
9706,-117.647058823529,4,2,2,70,0,0
10152,-95.238095238095,4,2,2,75,0,0
19657,-117.647058823529,4,2,2,55,0,0
29162,-117.647058823529,4,2,2,60,0,0
38815,-117.647058823529,4,2,2,65,0,0
43494,-117.647058823529,4,2,2,5,0,0
43568,-117.647058823529,4,2,2,65,0,0
45944,-117.647058823529,4,2,2,70,0,0
46166,-117.647058823529,4,2,2,5,0,0
46241,-117.647058823529,4,2,2,70,0,0
46390,-105.263157894737,4,2,2,70,0,0
46612,-105.263157894737,4,2,2,5,0,0
46687,-105.263157894737,4,2,2,70,0,0
46835,-105.263157894737,4,2,2,70,0,0
47281,-117.647058823529,4,2,2,50,0,0
47726,-105.263157894737,4,2,2,50,0,0
47949,-105.263157894737,4,2,2,5,0,0
48023,-95.238095238095,4,2,2,50,0,0
48246,-95.238095238095,4,2,2,5,0,0
48320,-80,4,2,2,85,0,1
48543,-80,4,2,2,5,0,1
48617,-86.9565217391302,4,2,2,85,0,1
50918,-86.9565217391302,4,2,2,5,0,1
50994,-86.9565217391302,4,2,2,85,0,1
56266,-86.9565217391302,4,2,2,5,0,1
56340,-86.9565217391302,4,2,2,85,0,1
60424,-86.9565217391302,4,2,2,5,0,1
60498,-86.9565217391302,4,2,2,85,0,1
60721,-86.9565217391302,4,2,2,5,0,1
60796,-86.9565217391302,4,2,2,85,0,1
64360,285.714285714286,4,2,2,80,1,0
64360,-86.9565217391302,4,2,2,80,0,1
64645,309.278350515464,4,2,2,80,1,0
64645,-86.9565217391302,4,2,2,80,0,1
64954,297.029702970297,4,2,2,85,1,0
64954,-86.9565217391302,4,2,2,85,0,1
74458,-105.263157894737,4,2,2,80,0,0
80994,-105.263157894737,4,2,2,60,0,0
81365,-105.263157894737,4,2,2,5,0,0
81439,-86.9565217391302,4,2,2,75,0,1
83963,-86.9565217391302,4,2,2,75,0,0
84261,-86.9565217391302,4,2,2,65,0,0
84558,-86.9565217391302,4,2,2,55,0,0
84855,-86.9565217391302,4,2,2,50,0,0
85152,-86.9565217391302,4,2,2,45,0,0
85449,-86.9565217391302,4,2,2,40,0,0
85746,-86.9565217391302,4,2,2,35,0,0
86043,-86.9565217391302,4,2,2,30,0,0
86340,-86.9565217391302,4,2,2,25,0,0
86637,-86.9565217391302,4,2,2,20,0,0
86934,-86.9565217391302,4,2,2,15,0,0
87231,-86.9565217391302,4,2,2,10,0,0
87528,-86.9565217391302,4,2,2,5,0,0
87825,-86.9565217391302,4,2,2,5,0,0
88122,-86.9565217391302,4,2,2,5,0,0

[Colours]
Combo1 : 159,80,0
Combo2 : 72,72,72
Combo3 : 202,202,202
Combo4 : 255,133,74

[HitObjects]
284,101,795,5,6,1:2:0:0:
201,130,944,1,2,1:2:0:0:
274,257,1093,2,0,L|267:185,1,72.2500013780594,2|2,3:2|0:0,0:0:0:0:
245,333,1390,2,0,P|280:338|314:329,1,72.2500013780594,0|2,3:0|0:0,0:0:0:0:
172,294,1687,2,0,P|163:328|170:363,1,72.2500013780594,2|2,3:2|0:0,0:0:0:0:
387,360,1984,6,0,P|393:325|388:290,1,72.2500013780594,0|0,3:0|0:0,0:0:0:0:
267,185,2281,2,0,P|302:212|343:220,1,72.2500013780594,0|0,3:0|0:0,0:0:0:0:
478,167,2578,2,0,P|436:184|408:215,1,72.2500013780594,0|0,3:0|0:0,0:0:0:0:
493,323,2875,2,0,L|486:251,1,72.2500013780594,0|0,3:0|0:0,0:0:0:0:
344,114,3172,6,0,P|327:75|346:18,2,72.2500013780594,2|2|2,3:2|0:0|3:2,0:0:0:0:
488,79,3617,2,0,L|393:63,1,72.2500013780594,2|0,0:0|3:2,0:0:0:0:
285,210,3914,1,2,0:0:0:0:
285,210,4063,2,0,L|356:198,1,72.2500013780594,2|2,3:2|0:0,0:0:0:0:
234,278,4360,6,0,P|276:296|324:290,1,72.2500013780594,0|0,3:2|0:0,0:0:0:0:
202,200,4657,2,0,P|167:231|154:278,1,72.2500013780594,0|0,3:0|0:0,0:0:0:0:
285,210,4954,2,0,P|275:164|240:129,1,72.2500013780594,0|0,3:0|0:0,0:0:0:0:
123,128,5251,1,2,3:0:0:0:
123,128,5548,5,2,1:2:0:0:
260,144,5696,1,2,1:2:0:0:
186,16,5845,2,0,L|197:105,1,72.2500013780594,2|2,3:2|0:0,0:0:0:0:
37,142,6142,2,0,L|45:70,1,72.2500013780594,0|2,3:2|0:0,0:0:0:0:
260,144,6439,2,0,L|268:215,1,72.2500013780594,2|2,3:2|0:0,0:0:0:0:
73,282,6736,6,0,L|82:211,1,72.2500013780594,0|0,3:2|0:0,0:0:0:0:
323,276,7033,2,0,P|286:294|234:287,1,72.2500013780594,0|0,3:0|0:0,0:0:0:0:
37,142,7330,2,0,P|113:135|168:189,1,144.500002756119,2|2,3:2|3:0,0:0:0:0:
165,327,7776,1,2,0:0:0:0:
165,327,7924,6,0,B|203:361|203:361|321:345,1,144.500002756119,2|2,1:2|3:2,0:0:0:0:
369,216,8518,2,0,B|350:261|350:261|395:293|387:372,1,144.500002756119,0|2,3:2|0:0,0:0:0:0:
483,153,9112,5,4,0:0:0:0:
196,221,9409,1,6,0:0:0:0:
176,237,9706,5,12,0:0:0:0:
504,250,9855,1,12,0:0:0:0:
504,250,10152,6,0,B|417:304|414:205|295:275,1,178.499994552612,6|2,1:2|1:2,0:0:0:0:
180,342,10597,1,8,0:0:0:0:
358,338,10746,1,2,0:0:0:0:
176,237,10895,1,0,1:0:0:0:
270,383,11043,1,2,1:2:0:0:
254,178,11192,1,10,0:0:0:0:
180,342,11340,6,0,B|117:345|117:345|73:311|73:311|0:313,1,178.499994552612,2|2,1:2|1:2,0:0:0:0:
84,140,11786,2,0,L|71:228,1,89.2499972763062,10|2,0:0|0:0,0:0:0:0:
19,60,12083,1,0,1:0:0:0:
175,91,12231,1,0,1:0:0:0:
70,228,12380,1,8,0:0:0:0:
132,10,12528,6,0,P|184:4|260:93,1,178.499994552612,6|2,1:2|1:2,0:0:0:0:
159,257,12974,2,0,L|171:169,1,89.2499972763062,10|2,0:0|0:0,0:0:0:0:
42,45,13271,1,0,1:0:0:0:
71,228,13419,1,2,1:2:0:0:
136,3,13568,1,10,0:0:0:0:
159,257,13716,6,0,B|217:283|217:283|329:261,1,178.499994552612,2|2,1:2|1:2,0:0:0:0:
493,210,14162,2,0,P|473:170|436:147,1,89.2499972763062,10|2,0:0|0:0,0:0:0:0:
269,178,14459,1,0,1:0:0:0:
404,227,14607,1,0,1:0:0:0:
333,89,14756,1,8,0:0:0:0:
329,260,14904,6,0,P|373:303|484:256,1,178.499994552612,6|2,1:2|1:2,0:0:0:0:
269,178,15350,2,0,P|238:211|233:276,1,89.2499972763062,10|2,0:0|0:0,0:0:0:0:
265,350,15647,1,0,1:0:0:0:
155,299,15796,1,2,1:2:0:0:
329,260,15944,1,10,0:0:0:0:
89,383,16093,6,0,B|57:277|57:277|91:201,1,178.499994552612,2|2,1:2|1:2,0:0:0:0:
272,88,16538,2,0,L|268:185,1,89.2499972763062,10|2,0:0|0:0,0:0:0:0:
265,350,16835,1,0,1:0:0:0:
356,177,16984,1,0,1:0:0:0:
158,184,17132,1,8,0:0:0:0:
338,346,17281,6,0,B|389:259|287:266|373:150,1,178.499994552612,6|2,1:2|1:2,0:0:0:0:
511,224,17726,2,0,L|422:231,1,89.2499972763062,10|2,0:0|0:0,0:0:0:0:
158,254,18023,1,0,1:0:0:0:
338,346,18172,1,2,1:2:0:0:
139,352,18320,1,10,0:0:0:0:
355,176,18469,6,0,B|300:189|300:189|238:162|238:162|184:173,1,178.499994552612,2|2,1:2|1:2,0:0:0:0:
326,7,18914,2,0,L|309:94,1,89.2499972763062,10|2,0:0|0:0,0:0:0:0:
245,284,19211,1,2,1:2:0:0:
200,94,19360,1,2,1:2:0:0:
355,176,19508,1,10,0:0:0:0:
158,254,19657,6,0,L|13:261,1,144.500002756119,6|0,0:0|0:0,0:0:0:0:
144,167,20102,1,8,0:0:0:0:
144,167,20399,2,0,P|188:170|231:197,2,72.2500013780594,2|2|10,0:0|0:0|0:0,0:0:0:0:
257,285,20845,6,0,B|298:322|298:322|383:296,1,144.500002756119,2|0,0:0|0:0,0:0:0:0:
442,194,21291,1,8,0:0:0:0:
442,194,21588,2,0,P|444:158|433:123,2,72.2500013780594,2|2|10,0:0|0:0|0:0,0:0:0:0:
357,232,22033,2,0,P|361:267|382:296,1,72.2500013780594,2|0,0:0|0:0,0:0:0:0:
502,133,22330,6,0,P|468:119|433:123,1,72.2500013780594,2|8,0:0|0:0,0:0:0:0:
284,234,22627,2,0,L|370:231,1,72.2500013780594,2|0,0:0|0:0,0:0:0:0:
205,135,22924,2,0,P|169:130|136:144,1,72.2500013780594,2|8,0:0|0:0,0:0:0:0:
59,250,23221,6,0,P|37:336|64:390,1,144.500002756119,2|0,0:0|0:0,0:0:0:0:
252,358,23667,1,10,0:0:0:0:
252,358,23964,1,2,1:2:0:0:
117,316,24112,1,0,1:2:0:0:
336,334,24261,1,10,0:0:0:0:
188,223,24409,6,0,B|240:185|240:185|319:197,1,144.500002756119,6|0,1:2|0:0,0:0:0:0:
378,265,24855,1,8,0:0:0:0:
378,265,25152,2,0,P|399:237|409:202,2,72.2500013780594,2|2|10,0:0|0:0|0:0,0:0:0:0:
306,110,25597,6,0,B|231:78|234:140|167:111,1,144.500002756119,2|0,0:0|0:0,0:0:0:0:
35,39,26043,1,8,0:0:0:0:
35,39,26340,2,0,L|28:130,2,72.2500013780594,2|2|10,0:0|0:0|0:0,0:0:0:0:
138,25,26786,2,0,P|138:68|122:101,1,72.2500013780594,2|0,0:0|0:0,0:0:0:0:
0,212,27083,6,0,P|30:192|65:186,1,72.2500013780594,2|8,0:0|0:0,0:0:0:0:
116,317,27380,2,0,P|85:300|62:273,1,72.2500013780594,2|0,0:0|0:0,0:0:0:0:
147,163,27677,2,0,P|149:199|137:233,1,72.2500013780594,2|8,0:0|0:0,0:0:0:0:
256,347,27974,6,0,P|225:276|251:202,1,144.500002756119,2|2,0:0|0:0,0:0:0:0:
367,112,28419,1,8,0:0:0:0:
367,112,28716,1,2,1:2:0:0:
393,280,28865,1,2,1:2:0:0:
242,214,29013,1,10,0:0:0:0:
483,213,29162,6,0,B|446:218|419:195|419:195|369:187|336:221,1,144.500002756119,6|0,1:2|0:0,0:0:0:0:
478,53,29607,2,0,L|477:136,1,72.2500013780594,8|0,0:0|0:0,0:0:0:0:
393,280,29904,1,2,0:0:0:0:
242,214,30053,1,0,0:0:0:0:
365,126,30201,1,10,0:0:0:0:
296,292,30350,6,0,B|244:313|244:313|163:275,1,144.500002756119,2|0,0:0|0:0,0:0:0:0:
241,141,30796,2,0,L|241:213,1,72.2500013780594,8|0,0:0|0:0,0:0:0:0:
179,383,31093,1,2,0:0:0:0:
348,356,31241,1,2,0:0:0:0:
163,275,31390,1,10,0:0:0:0:
324,228,31538,6,0,P|316:266|273:304,1,72.2500013780594,2|0,0:0|0:0,0:0:0:0:
122,204,31835,2,0,P|158:191|213:210,1,72.2500013780594,2|8,0:0|0:0,0:0:0:0:
43,327,32132,2,0,P|14:301|2:244,1,72.2500013780594,2|0,0:0|0:0,0:0:0:0:
138,86,32429,1,2,0:0:0:0:
163,275,32578,1,8,0:0:0:0:
321,163,32726,6,0,B|218:164|218:164|191:195,1,144.500002756119,2|0,0:0|0:0,0:0:0:0:
243,356,33172,2,0,L|258:265,1,72.2500013780594,8|0,0:0|0:0,0:0:0:0:
138,86,33469,1,0,1:0:0:0:
163,275,33617,1,0,1:0:0:0:
50,132,33766,1,10,0:0:0:0:
108,352,33914,6,0,P|157:375|265:332,1,144.500002756119,6|0,1:2|0:0,0:0:0:0:
94,203,34360,2,0,P|75:241|80:289,1,72.2500013780594,10|0,0:0|0:0,0:0:0:0:
284,272,34657,2,0,P|281:236|264:204,1,72.2500013780594,2|0,0:0|0:0,0:0:0:0:
422,125,34954,2,0,P|398:152|388:187,1,72.2500013780594,10|0,0:0|0:0,0:0:0:0:
139,132,35251,6,0,L|211:134,1,72.2500013780594,2|0,0:0|0:0,0:0:0:0:
358,56,35548,2,0,L|285:53,1,72.2500013780594,10|0,0:0|0:0,0:0:0:0:
443,252,35845,1,2,1:2:0:0:
430,31,35994,1,0,1:0:0:0:
323,213,36142,1,10,0:0:0:0:
487,96,36291,6,0,B|515:131|515:131|511:252,1,144.500002756119,6|0,1:2|1:0,0:0:0:0:
314,284,36736,2,0,L|322:212,1,72.2500013780594,10|0,0:0|0:0,0:0:0:0:
153,106,37033,1,2,1:2:0:0:
211,262,37182,1,2,1:2:0:0:
298,115,37330,1,10,0:0:0:0:
93,174,37479,6,0,P|161:191|224:159,1,144.500002756119,2|2,1:2|0:0,0:0:0:0:
131,9,37924,1,10,0:0:0:0:
93,174,38073,1,0,1:0:0:0:
212,42,38221,1,8,0:0:0:0:
68,82,38370,1,0,1:0:0:0:
153,106,38518,1,2,1:2:0:0:
131,9,38667,1,2,0:0:0:0:
93,174,38815,6,0,L|80:245,1,72.2500013780594,6|8,1:2|0:0,0:0:0:0:
199,330,39112,1,2,1:2:0:0:
69,341,39261,1,0,1:0:0:0:
167,240,39409,2,0,B|215:220|215:220|317:256,1,144.500002756119,10|2,0:0|1:2,0:0:0:0:
313,91,39855,1,8,0:0:0:0:
313,91,40003,6,0,P|289:118|276:154,1,72.2500013780594,2|0,1:2|1:0,0:0:0:0:
429,141,40300,2,0,P|394:141|358:160,1,72.2500013780594,10|0,0:0|0:0,0:0:0:0:
474,215,40597,1,2,1:2:0:0:
512,136,40746,1,0,1:0:0:0:
434,68,40895,2,0,L|429:140,1,72.2500013780594,10|0,0:0|0:0,0:0:0:0:
302,76,41192,6,0,P|365:46|433:67,1,144.500002756119,2|2,1:2|1:2,0:0:0:0:
276,151,41637,1,0,1:0:0:0:
276,151,41786,2,0,P|241:158|203:148,1,72.2500013780594,8|0,0:0|0:0,0:0:0:0:
147,50,42083,2,0,P|112:43|75:51,1,72.2500013780594,2|8,1:2|0:0,0:0:0:0:
44,180,42380,5,2,1:2:0:0:
116,115,42528,1,0,1:0:0:0:
124,266,42677,2,0,L|120:191,1,72.2500013780594,10|0,0:0|0:0,0:0:0:0:
22,101,42974,1,2,1:2:0:0:
147,50,43122,1,0,1:0:0:0:
218,216,43271,2,0,P|164:221|119:193,1,108.375002067089,10|0,0:0|2:0,0:0:0:0:
116,115,43568,6,0,P|151:113|188:133,1,72.2500013780594,6|8,1:2|0:0,0:0:0:0:
298,264,43865,1,0,1:2:0:0:
302,99,44013,1,0,1:0:0:0:
453,209,44162,2,0,L|377:235,1,72.2500013780594,8|0,0:0|0:0,0:0:0:0:
215,292,44459,1,2,1:2:0:0:
374,384,44607,1,8,0:0:0:0:
219,361,44756,6,0,P|208:319|215:288,1,72.2500013780594,2|0,1:2|1:0,0:0:0:0:
384,232,45053,2,0,P|394:273|387:304,1,72.2500013780594,10|0,0:0|0:0,0:0:0:0:
186,162,45350,1,2,1:2:0:0:
102,305,45498,1,0,1:0:0:0:
293,191,45647,2,0,L|365:188,1,72.2500013780594,10|0,0:0|0:0,0:0:0:0:
469,269,45944,6,0,P|473:213|434:139,1,108.375002067089,6|0,1:2|2:0,0:0:0:0:
383,120,46241,1,0,1:0:0:0:
294,281,46390,6,0,P|340:312|423:316,1,121.124996765614,8|0,0:0|2:0,0:0:0:0:
469,269,46687,1,0,1:0:0:0:
383,120,46835,6,0,P|327:127|261:214,1,161.499995687485,8|2,0:0|0:0,0:0:0:0:
294,281,47281,2,0,L|345:225,2,72.2500013780594,2|2|2,0:0|0:0|0:0,0:0:0:0:
287,346,47726,6,0,P|225:320|167:325,1,121.124996765614,2|0,0:0|2:0,0:0:0:0:
51,361,48023,6,0,P|126:356|178:315,1,133.874995914459,2|0,0:0|2:0,0:0:0:0:
177,173,48320,6,0,P|156:216|194:350,1,159.375,6|0,1:2|2:0,0:0:0:0:
297,269,48617,2,0,B|238:274|238:274|225:249|239:216,1,97.7500018644333,8|0,0:0|0:0,0:0:0:0:
172,46,48914,1,2,1:2:0:0:
85,214,49063,1,0,1:2:0:0:
0,90,49211,2,0,L|123:94,1,97.7500018644333,10|0,0:0|0:0,0:0:0:0:
265,123,49508,6,0,P|323:135|355:173,1,97.7500018644333,2|0,1:2|0:0,0:0:0:0:
398,363,49805,2,0,P|377:302|402:240,1,97.7500018644333,8|0,0:0|0:0,0:0:0:0:
494,181,50102,1,2,1:2:0:0:
297,266,50251,1,0,1:2:0:0:
512,184,50399,2,0,L|408:172,1,97.7500018644333,10|0,0:0|0:0,0:0:0:0:
207,75,50696,6,0,L|61:96,1,146.62500279665,2|0,1:2|2:0,0:0:0:0:
0,188,50994,2,0,L|107:172,1,97.7500018644333,10|0,0:0|0:0,0:0:0:0:
297,266,51291,1,2,1:2:0:0:
125,277,51439,1,0,1:0:0:0:
315,184,51588,2,0,P|353:206|383:272,1,97.7500018644333,10|0,0:0|0:0,0:0:0:0:
129,374,51885,6,0,L|124:276,1,97.7500018644333,2|0,1:2|0:0,0:0:0:0:
297,266,52182,2,0,L|292:364,1,97.7500018644333,8|0,0:0|0:0,0:0:0:0:
116,190,52479,1,2,1:2:0:0:
272,93,52627,1,0,1:0:0:0:
110,199,52776,2,0,P|156:188|200:208,1,97.7500018644333,10|0,0:0|0:0,0:0:0:0:
418,349,53073,6,0,B|344:331|293:370|293:370|281:340|249:322,1,195.500003728867,6|8,1:2|0:0,0:0:0:0:
110,199,53518,1,2,0:0:0:0:
297,266,53667,1,2,1:2:0:0:
122,338,53815,1,0,1:0:0:0:
272,93,53964,2,0,L|266:236,1,97.7500018644333,10|0,0:0|0:0,0:0:0:0:
53,147,54261,6,0,P|92:119|140:121,1,97.7500018644333,2|0,1:2|0:0,0:0:0:0:
297,266,54558,2,0,P|341:283|410:261,1,97.7500018644333,8|0,0:0|0:0,0:0:0:0:
512,93,54855,1,2,1:2:0:0:
358,128,55003,1,0,1:0:0:0:
478,290,55152,2,0,L|478:192,1,97.7500018644333,10|0,0:0|0:0,0:0:0:0:
271,101,55449,6,0,P|314:129|365:126,1,97.7500018644333,2|0,1:2|0:0,0:0:0:0:
205,23,55746,2,0,P|183:64|185:116,1,97.7500018644333,10|0,0:0|0:0,0:0:0:0:
224,364,56043,2,0,B|227:266|227:266|208:216,1,146.62500279665,2|0,1:2|0:0,0:0:0:0:
96,184,56340,1,10,0:0:0:0:
317,383,56489,6,0,B|324:268|324:268|283:185,1,195.500003728867,2|0,0:0|1:2,0:0:0:0:
367,30,56934,2,0,L|356:153,1,97.7500018644333,14|0,0:0|0:0,0:0:0:0:
96,184,57231,1,2,1:2:0:0:
288,196,57380,1,0,1:2:0:0:
183,21,57528,2,0,L|168:147,1,97.7500018644333,10|0,0:0|0:0,0:0:0:0:
33,238,57825,6,0,P|68:264|159:239,1,97.7500018644333,6|0,1:2|0:0,0:0:0:0:
375,223,58122,2,0,P|340:197|249:222,1,97.7500018644333,8|0,0:0|0:0,0:0:0:0:
512,131,58419,1,2,1:2:0:0:
329,100,58568,1,0,1:0:0:0:
429,0,58716,2,0,L|441:124,1,97.7500018644333,10|0,0:0|0:0,0:0:0:0:
483,318,59013,6,0,L|345:324,1,97.7500018644333,2|0,1:2|0:0,0:0:0:0:
107,254,59310,2,0,L|204:254,1,97.7500018644333,8|0,0:0|0:0,0:0:0:0:
72,97,59607,1,2,1:2:0:0:
0,239,59756,1,0,1:2:0:0:
82,86,59904,2,0,L|213:85,1,97.7500018644333,10|0,0:0|0:0,0:0:0:0:
345,98,60201,6,0,B|370:150|370:150|344:264,1,146.62500279665,2|0,1:2|2:0,0:0:0:0:
293,291,60498,2,0,P|348:283|411:329,1,97.7500018644333,10|0,0:0|0:0,0:0:0:0:
447,183,60796,1,2,1:2:0:0:
245,153,60944,1,0,1:0:0:0:
401,32,61093,2,0,P|353:11|299:26,1,97.7500018644333,10|0,0:0|0:0,0:0:0:0:
35,8,61390,6,0,B|65:47|52:94|52:94|2:136|37:215,1,195.500003728867,2|8,1:2|0:0,0:0:0:0:
157,345,61835,1,2,0:0:0:0:
113,162,61984,1,2,1:2:0:0:
31,313,62132,1,0,1:0:0:0:
239,229,62281,2,0,P|291:233|357:264,1,97.7500018644333,10|0,0:0|0:0,0:0:0:0:
456,384,62578,6,0,P|425:285|496:188,1,195.500003728867,6|8,1:2|0:0,0:0:0:0:
404,14,63023,1,2,0:0:0:0:
334,127,63172,1,2,1:2:0:0:
427,0,63320,1,0,1:0:0:0:
165,0,63469,2,0,P|155:45|176:112,1,97.7500018644333,10|0,0:0|0:0,0:0:0:0:
274,194,63766,5,10,0:0:0:0:
274,266,63865,5,8,0:0:0:0:
225,315,63964,5,8,0:0:0:0:
157,315,64063,5,8,0:0:0:0:
83,181,64211,1,8,0:0:0:0:
245,100,64360,2,0,P|295:102|354:160,1,97.7500018644333,10|0,1:2|1:2,0:0:0:0:
385,282,64645,6,0,P|379:186|421:152,1,146.62500279665,2|0,1:2|0:0,0:0:0:0:
411,157,64954,6,0,P|454:135|502:140,1,97.7500018644333,6|0,1:2|0:0,0:0:0:0:
445,345,65251,2,0,P|400:367|352:362,1,97.7500018644333,8|0,0:0|0:0,0:0:0:0:
152,258,65548,1,2,1:2:0:0:
385,282,65696,1,0,1:0:0:0:
245,100,65845,2,0,L|248:231,1,97.7500018644333,10|0,0:0|0:0,0:0:0:0:
222,378,66142,6,0,B|216:306|216:306|250:274|250:274|245:162,1,195.500003728867,2|8,1:2|0:0,0:0:0:0:
21,88,66587,1,2,0:0:0:0:
152,258,66736,1,2,1:2:0:0:
139,21,66884,1,0,1:2:0:0:
0,186,67033,2,0,L|112:176,1,97.7500018644333,10|2,0:0|0:0,0:0:0:0:
406,35,67330,6,0,P|381:81|400:162,1,97.7500018644333,2|0,1:2|0:0,0:0:0:0:
481,289,67627,2,0,P|466:238|395:194,1,97.7500018644333,10|0,0:0|0:0,0:0:0:0:
246,120,67924,1,2,1:2:0:0:
471,113,68072,1,0,1:2:0:0:
243,23,68221,2,0,L|247:141,1,97.7500018644333,10|0,0:0|0:0,0:0:0:0:
111,173,68518,6,0,B|163:157|198:195|198:195|253:221|291:188,1,195.500003728867,2|8,1:2|0:0,0:0:0:0:
512,46,68963,1,2,0:0:0:0:
317,105,69112,1,2,1:2:0:0:
494,186,69260,1,0,1:0:0:0:
394,5,69409,2,0,L|393:135,1,97.7500018644333,10|0,0:0|0:0,0:0:0:0:
493,281,69706,6,0,P|504:232|478:159,1,97.7500018644333,6|0,1:2|0:0,0:0:0:0:
237,270,70003,2,0,P|227:317|238:364,1,97.7500018644333,8|0,0:0|0:0,0:0:0:0:
422,233,70300,1,2,1:2:0:0:
214,169,70449,1,0,1:0:0:0:
415,128,70597,2,0,L|538:135,1,97.7500018644333,10|0,0:0|0:0,0:0:0:0:
271,28,70894,6,0,L|287:153,1,97.7500018644333,2|0,1:2|0:0,0:0:0:0:
123,294,71191,2,0,L|130:164,1,97.7500018644333,8|0,0:0|0:0,0:0:0:0:
157,30,71488,1,2,1:2:0:0:
214,169,71637,1,0,1:2:0:0:
152,17,71785,2,0,P|99:3|33:54,1,97.7500018644333,10|0,0:0|0:0,0:0:0:0:
28,205,72082,6,0,L|24:304,1,97.7500018644333,6|0,1:2|0:0,0:0:0:0:
210,384,72379,2,0,L|206:285,1,97.7500018644333,10|0,0:0|0:0,0:0:0:0:
368,153,72676,1,2,1:2:0:0:
310,280,72825,1,0,1:0:0:0:
255,102,72973,2,0,L|263:219,1,97.7500018644333,10|0,0:0|0:0,0:0:0:0:
148,384,73270,5,0,1:2:0:0:
407,276,73567,5,0,1:2:0:0:
132,196,73864,5,10,0:0:0:0:
403,93,74013,1,0,1:0:0:0:
116,93,74161,1,2,1:2:0:0:
377,190,74310,1,0,1:0:0:0:
167,272,74458,6,0,P|128:284|71:267,1,80.7499978437424,6|0,1:2|0:0,0:0:0:0:
219,200,74755,2,0,P|248:227|260:280,1,80.7499978437424,0|0,1:2|0:0,0:0:0:0:
132,196,75053,2,0,P|141:156|171:125,2,80.7499978437424,10|0|2,0:0|0:0|0:0,0:0:0:0:
185,357,75498,1,8,0:0:0:0:
260,265,75647,6,0,P|337:228|430:261,1,161.499995687485,2|0,1:2|1:2,0:0:0:0:
407,244,76241,2,0,L|420:330,1,80.7499978437424,14|0,0:0|0:0,0:0:0:0:
490,114,76538,2,0,L|478:203,1,80.7499978437424,2|0,0:0|0:0,0:0:0:0:
287,238,76835,6,0,L|283:141,1,80.7499978437424,6|0,1:2|0:0,0:0:0:0:
388,58,77132,2,0,L|384:155,1,80.7499978437424,2|0,1:2|0:0,0:0:0:0:
189,206,77429,2,0,L|187:94,1,80.7499978437424,10|0,0:0|0:0,0:0:0:0:
21,67,77726,1,2,0:0:0:0:
65,220,77874,1,8,0:0:0:0:
252,73,78023,6,0,P|191:35|117:82,1,161.499995687485,2|0,1:2|1:2,0:0:0:0:
65,220,78617,2,0,L|62:329,1,80.7499978437424,10|0,0:0|0:0,0:0:0:0:
189,206,78914,2,0,L|188:97,1,80.7499978437424,2|0,0:0|0:0,0:0:0:0:
36,374,79211,6,0,P|112:348|182:388,1,161.499995687485,6|0,1:2|1:0,0:0:0:0:
271,303,79805,2,0,P|272:263|288:227,1,80.7499978437424,8|0,0:0|0:0,0:0:0:0:
410,262,80102,2,0,P|409:302|393:338,1,80.7499978437424,2|0,0:0|0:0,0:0:0:0:
157,255,80399,1,6,1:2:0:0:
366,188,80696,1,8,0:0:0:0:
366,188,80993,6,0,B|284:83|284:83|200:68,1,201.874994609356,2|0,0:0|2:0,0:0:0:0:
137,87,81439,6,0,P|92:117|77:178,1,97.7500018644333,6|0,1:2|0:0,0:0:0:0:
136,346,81736,1,2,1:2:0:0:
167,177,81884,1,10,0:0:0:0:
11,261,82033,2,0,L|108:264,1,97.7500018644333,2|0,0:0|1:0,0:0:0:0:
308,274,82330,1,2,1:2:0:0:
167,177,82478,1,10,0:0:0:0:
304,87,82627,2,0,B|332:142|332:142|305:287,1,195.500003728867,6|2,1:2|1:2,0:0:0:0:
214,82,83072,5,10,0:0:0:0:
252,12,83171,5,8,0:0:0:0:
331,6,83270,5,8,0:0:0:0:
381,65,83369,5,10,0:0:0:0:
307,273,83518,1,10,0:0:0:0:
304,87,83666,1,2,1:2:0:0:
423,298,83815,1,0,1:0:0:0:
195,305,83963,5,6,1:2:0:0:
256,192,84038,12,0,88122,0:0:0:0:
